osu file format v14

[General]
AudioFilename: audio.mp3
AudioLeadIn: 0
PreviewTime: 19419
Countdown: 0
SampleSet: Normal
StackLeniency: 0.7
Mode: 1
LetterboxInBreaks: 0
WidescreenStoryboard: 1

[Editor]
DistanceSpacing: 0.85
BeatDivisor: 4
GridSize: 32
TimelineZoom: 2.3

[Metadata]
Title:SMOKE IT OFF! * (feat. jnhygs)
TitleUnicode:SMOKE IT OFF! ✮ (feat. jnhygs)
Artist:Lumi Athena
ArtistUnicode:Lumi Athena
Creator:Invisible O
Version:*MUZUKASHII*
Source:
Tags:Rap Hip-hop Hip hop Hip_Hop English electronic Alt alternative Krushclub krush crush club crushclub koul
BeatmapID:4168316
BeatmapSetID:1957177

[Difficulty]
HPDrainRate:6
CircleSize:5
OverallDifficulty:5
ApproachRate:5
SliderMultiplier:1.4
SliderTickRate:1

[Events]
//Background and Video events
0,0,"Smoke(1).jpg",0,-130
//Break Periods
//Storyboard Layer 0 (Background)
//Storyboard Layer 1 (Fail)
//Storyboard Layer 2 (Pass)
//Storyboard Layer 3 (Foreground)
//Storyboard Layer 4 (Overlay)
//Storyboard Sound Samples

[TimingPoints]
1630,404.511653306546,4,1,0,100,1,0
1630,-133.333333333333,4,1,0,100,0,0
6470,-133.333333333333,4,1,0,100,0,0
12942,-133.333333333333,4,1,0,100,0,0
13043,-133.333333333333,4,1,0,100,0,0
16177,-133.333333333333,4,1,0,100,0,0
16278,-133.333333333333,4,1,0,100,0,0
16379,-133.333333333333,4,1,0,100,0,0
16581,-133.333333333333,4,1,0,100,0,0
16784,-133.333333333333,4,1,0,100,0,0
16885,-133.333333333333,4,1,0,100,0,0
16986,-133.333333333333,4,1,0,100,0,0
17188,-133.333333333333,4,1,0,100,0,0
17289,-133.333333333333,4,1,0,100,0,0
17390,-133.333333333333,4,1,0,100,0,0
17593,-133.333333333333,4,1,0,100,0,0
17795,-133.333333333333,4,1,0,100,0,0
17896,-133.333333333333,4,1,0,100,0,0
17997,-133.333333333333,4,1,0,100,0,0
18199,-133.333333333333,4,1,0,100,0,0
18402,-133.333333333333,4,1,0,100,0,0
18503,-133.333333333333,4,1,0,100,0,0
18604,-133.333333333333,4,1,0,100,0,0
18806,-133.333333333333,4,1,0,100,0,0
19009,-133.333333333333,4,1,0,100,0,0
19428,-133.333333333333,4,1,0,100,0,1
19615,-133.333333333333,4,1,0,100,0,1
19818,-133.333333333333,4,1,0,100,0,1
20020,-133.333333333333,4,1,0,100,0,1
20121,-133.333333333333,4,1,0,100,0,1
20222,-133.333333333333,4,1,0,100,0,1
20323,-133.333333333333,4,1,0,100,0,1
20424,-133.333333333333,4,1,0,100,0,1
20525,-133.333333333333,4,1,0,100,0,1
20627,-133.333333333333,4,1,0,100,0,1
20829,-133.333333333333,4,1,0,100,0,1
21031,-133.333333333333,4,1,0,100,0,1
21132,-133.333333333333,4,1,0,100,0,1
21233,-133.333333333333,4,1,0,100,0,1
21334,-133.333333333333,4,1,0,100,0,1
21436,-133.333333333333,4,1,0,100,0,1
21537,-133.333333333333,4,1,0,100,0,1
21638,-133.333333333333,4,1,0,100,0,1
21739,-133.333333333333,4,1,0,100,0,1
21840,-133.333333333333,4,1,0,100,0,1
22042,-133.333333333333,4,1,0,100,0,1
22143,-133.333333333333,4,1,0,100,0,1
22245,-133.333333333333,4,1,0,100,0,1
22447,-133.333333333333,4,1,0,100,0,1
22649,-133.333333333333,4,1,0,100,0,1
22851,-133.333333333333,4,1,0,100,0,1
23054,-133.333333333333,4,1,0,100,0,1
23256,-133.333333333333,4,1,0,100,0,1
23357,-133.333333333333,4,1,0,100,0,1
23458,-133.333333333333,4,1,0,100,0,1
23559,-133.333333333333,4,1,0,100,0,1
23660,-133.333333333333,4,1,0,100,0,1
23762,-133.333333333333,4,1,0,100,0,1
23863,-133.333333333333,4,1,0,100,0,1
24065,-133.333333333333,4,1,0,100,0,1
24267,-133.333333333333,4,1,0,100,0,1
24368,-133.333333333333,4,1,0,100,0,1
24469,-133.333333333333,4,1,0,100,0,1
24571,-133.333333333333,4,1,0,100,0,1
24672,-133.333333333333,4,1,0,100,0,1
24773,-133.333333333333,4,1,0,100,0,1
24874,-133.333333333333,4,1,0,100,0,1
24975,-133.333333333333,4,1,0,100,0,1
25076,-133.333333333333,4,1,0,100,0,1
25177,-133.333333333333,4,1,0,100,0,1
25278,-133.333333333333,4,1,0,100,0,1
25380,-133.333333333333,4,1,0,100,0,1
25481,-133.333333333333,4,1,0,100,0,1
25582,-133.333333333333,4,1,0,100,0,1
25683,-133.333333333333,4,1,0,100,0,1
25784,-133.333333333333,4,1,0,100,0,1
25885,-133.333333333333,4,1,0,100,0,1
26087,-133.333333333333,4,1,0,100,0,1
26290,-133.333333333333,4,1,0,100,0,1
26492,-133.333333333333,4,1,0,100,0,1
26593,-133.333333333333,4,1,0,100,0,1
26694,-133.333333333333,4,1,0,100,0,1
26795,-133.333333333333,4,1,0,100,0,1
26896,-133.333333333333,4,1,0,100,0,1
26998,-133.333333333333,4,1,0,100,0,1
27099,-133.333333333333,4,1,0,100,0,1
27301,-133.333333333333,4,1,0,100,0,1
27503,-133.333333333333,4,1,0,100,0,1
27604,-133.333333333333,4,1,0,100,0,1
27706,-133.333333333333,4,1,0,100,0,1
27807,-133.333333333333,4,1,0,100,0,1
27908,-133.333333333333,4,1,0,100,0,1
28009,-133.333333333333,4,1,0,100,0,1
28110,-133.333333333333,4,1,0,100,0,1
28211,-133.333333333333,4,1,0,100,0,1
28312,-133.333333333333,4,1,0,100,0,1
28515,-133.333333333333,4,1,0,100,0,1
28616,-133.333333333333,4,1,0,100,0,1
28717,-133.333333333333,4,1,0,100,0,1
28919,-133.333333333333,4,1,0,100,0,1
29121,-133.333333333333,4,1,0,100,0,1
29324,-133.333333333333,4,1,0,100,0,1
29526,-133.333333333333,4,1,0,100,0,1
29728,-133.333333333333,4,1,0,100,0,1
29829,-133.333333333333,4,1,0,100,0,1
29930,-133.333333333333,4,1,0,100,0,1
30031,-133.333333333333,4,1,0,100,0,1
30133,-133.333333333333,4,1,0,100,0,1
30234,-133.333333333333,4,1,0,100,0,1
30335,-133.333333333333,4,1,0,100,0,1
30537,-133.333333333333,4,1,0,100,0,1
30739,-133.333333333333,4,1,0,100,0,1
30840,-133.333333333333,4,1,0,100,0,1
30942,-133.333333333333,4,1,0,100,0,1
31043,-133.333333333333,4,1,0,100,0,1
31144,-133.333333333333,4,1,0,100,0,1
31245,-133.333333333333,4,1,0,100,0,1
31346,-133.333333333333,4,1,0,100,0,1
31447,-133.333333333333,4,1,0,100,0,1
31548,-133.333333333333,4,1,0,100,0,1
31649,-133.333333333333,4,1,0,100,0,1
31751,-133.333333333333,4,1,0,100,0,1
31852,-133.333333333333,4,1,0,100,0,1
31953,-133.333333333333,4,1,0,100,0,1
32372,-133.333333333333,4,1,0,100,0,0
32560,-133.333333333333,4,1,0,100,0,0
32762,-133.333333333333,4,1,0,100,0,0
32964,-133.333333333333,4,1,0,100,0,0
33065,-133.333333333333,4,1,0,100,0,0
33166,-133.333333333333,4,1,0,100,0,0
33268,-133.333333333333,4,1,0,100,0,0
33369,-133.333333333333,4,1,0,100,0,0
33470,-133.333333333333,4,1,0,100,0,0
33571,-133.333333333333,4,1,0,100,0,0
33672,-133.333333333333,4,1,0,100,0,0
33773,-133.333333333333,4,1,0,100,0,0
33874,-133.333333333333,4,1,0,100,0,0
33976,-133.333333333333,4,1,0,100,0,0
34178,-133.333333333333,4,1,0,100,0,0
34380,-133.333333333333,4,1,0,100,0,0
34582,-133.333333333333,4,1,0,100,0,0
34683,-133.333333333333,4,1,0,100,0,0
34784,-133.333333333333,4,1,0,100,0,0
34886,-133.333333333333,4,1,0,100,0,0
34987,-133.333333333333,4,1,0,100,0,0
35088,-133.333333333333,4,1,0,100,0,0
35189,-133.333333333333,4,1,0,100,0,0
35290,-133.333333333333,4,1,0,100,0,0
35391,-133.333333333333,4,1,0,100,0,0
35492,-133.333333333333,4,1,0,100,0,0
35594,-133.333333333333,4,1,0,100,0,0
35796,-133.333333333333,4,1,0,100,0,0
35998,-133.333333333333,4,1,0,100,0,0
36200,-133.333333333333,4,1,0,100,0,0
36301,-133.333333333333,4,1,0,100,0,0
36402,-133.333333333333,4,1,0,100,0,0
36504,-133.333333333333,4,1,0,100,0,0
36605,-133.333333333333,4,1,0,100,0,0
36706,-133.333333333333,4,1,0,100,0,0
36807,-133.333333333333,4,1,0,100,0,0
36908,-133.333333333333,4,1,0,100,0,0
37009,-133.333333333333,4,1,0,100,0,0
37110,-133.333333333333,4,1,0,100,0,0
37213,-133.333333333333,4,1,0,100,0,0
37414,-133.333333333333,4,1,0,100,0,0
37616,-133.333333333333,4,1,0,100,0,0
37818,-133.333333333333,4,1,0,100,0,0
37919,-133.333333333333,4,1,0,100,0,0
38020,-133.333333333333,4,1,0,100,0,0
38122,-133.333333333333,4,1,0,100,0,0
38223,-133.333333333333,4,1,0,100,0,0
38324,-133.333333333333,4,1,0,100,0,0
38425,-133.333333333333,4,1,0,100,0,0
38526,-133.333333333333,4,1,0,100,0,0
38627,-133.333333333333,4,1,0,100,0,0
38728,-133.333333333333,4,1,0,100,0,0
38831,-133.333333333333,4,1,0,100,0,0
39033,-133.333333333333,4,1,0,100,0,0
39235,-133.333333333333,4,1,0,100,0,0
39437,-133.333333333333,4,1,0,100,0,0
39538,-133.333333333333,4,1,0,100,0,0
39639,-133.333333333333,4,1,0,100,0,0
39741,-133.333333333333,4,1,0,100,0,0
39842,-133.333333333333,4,1,0,100,0,0
39943,-133.333333333333,4,1,0,100,0,0
40044,-133.333333333333,4,1,0,100,0,0
40145,-133.333333333333,4,1,0,100,0,0
40246,-133.333333333333,4,1,0,100,0,0
40347,-133.333333333333,4,1,0,100,0,0
40449,-133.333333333333,4,1,0,100,0,0
40651,-133.333333333333,4,1,0,100,0,0
40853,-133.333333333333,4,1,0,100,0,0
41055,-133.333333333333,4,1,0,100,0,0
41156,-133.333333333333,4,1,0,100,0,0
41257,-133.333333333333,4,1,0,100,0,0
41359,-133.333333333333,4,1,0,100,0,0
41460,-133.333333333333,4,1,0,100,0,0
41561,-133.333333333333,4,1,0,100,0,0
41662,-133.333333333333,4,1,0,100,0,0
41763,-133.333333333333,4,1,0,100,0,0
41864,-133.333333333333,4,1,0,100,0,0
41965,-133.333333333333,4,1,0,100,0,0
42067,-133.333333333333,4,1,0,100,0,0
42269,-133.333333333333,4,1,0,100,0,0
42471,-133.333333333333,4,1,0,100,0,0
42673,-133.333333333333,4,1,0,100,0,0
42774,-133.333333333333,4,1,0,100,0,0
42875,-133.333333333333,4,1,0,100,0,0
42977,-133.333333333333,4,1,0,100,0,0
43078,-133.333333333333,4,1,0,100,0,0
43179,-133.333333333333,4,1,0,100,0,0
43280,-133.333333333333,4,1,0,100,0,0
43381,-133.333333333333,4,1,0,100,0,0
43482,-133.333333333333,4,1,0,100,0,0
43583,-133.333333333333,4,1,0,100,0,0
43685,-133.333333333333,4,1,0,100,0,0
43887,-133.333333333333,4,1,0,100,0,0
44089,-133.333333333333,4,1,0,100,0,0
44291,-133.333333333333,4,1,0,100,0,0
44392,-133.333333333333,4,1,0,100,0,0
44493,-133.333333333333,4,1,0,100,0,0
44595,-133.333333333333,4,1,0,100,0,0
44696,-133.333333333333,4,1,0,100,0,0
44797,-133.333333333333,4,1,0,100,0,0
44898,-133.333333333333,4,1,0,100,0,0
44999,-133.333333333333,4,1,0,100,0,0
45100,-133.333333333333,4,1,0,100,0,0
45201,-133.333333333333,4,1,0,100,0,0
45303,-133.333333333333,4,1,0,100,0,0
45504,-133.333333333333,4,1,0,100,0,0
45706,-133.333333333333,4,1,0,100,0,0
45807,-133.333333333333,4,1,0,100,0,0
45909,-133.333333333333,4,1,0,100,0,0
46111,-133.333333333333,4,1,0,100,0,0
46212,-133.333333333333,4,1,0,100,0,0
46313,-133.333333333333,4,1,0,100,0,0
46515,-133.333333333333,4,1,0,100,0,0
46616,-133.333333333333,4,1,0,100,0,0
46718,-133.333333333333,4,1,0,100,0,0
46920,-133.333333333333,4,1,0,100,0,0
47122,-133.333333333333,4,1,0,100,0,0
47527,-133.333333333333,4,1,0,100,0,0
47729,-133.333333333333,4,1,0,100,0,0
47931,-133.333333333333,4,1,0,100,0,0
48133,-133.333333333333,4,1,0,100,0,0
48538,-133.333333333333,4,1,0,100,0,0
48639,-133.333333333333,4,1,0,100,0,0
48740,-133.333333333333,4,1,0,100,0,0
48942,-133.333333333333,4,1,0,100,0,0
49043,-133.333333333333,4,1,0,100,0,0
49145,-133.333333333333,4,1,0,100,0,0
49347,-133.333333333333,4,1,0,100,0,0
49448,-133.333333333333,4,1,0,100,0,0
49549,-133.333333333333,4,1,0,100,0,0
49751,-133.333333333333,4,1,0,100,0,0
49853,-133.333333333333,4,1,0,100,0,0
49954,-133.333333333333,4,1,0,100,0,0
50156,-133.333333333333,4,1,0,100,0,0
50358,-133.333333333333,4,1,0,100,0,0
50763,-133.333333333333,4,1,0,100,0,0
50965,-133.333333333333,4,1,0,100,0,0
51167,-133.333333333333,4,1,0,100,0,0
51369,-133.333333333333,4,1,0,100,0,0
51775,-133.333333333333,4,1,0,100,0,0
51875,-133.333333333333,4,1,0,100,0,0
51976,-133.333333333333,4,1,0,100,0,0
52178,-133.333333333333,4,1,0,100,0,0
52279,-133.333333333333,4,1,0,100,0,0
52381,-133.333333333333,4,1,0,100,0,0
52583,-133.333333333333,4,1,0,100,0,0
52684,-133.333333333333,4,1,0,100,0,0
52785,-133.333333333333,4,1,0,100,0,0
52987,-133.333333333333,4,1,0,100,0,0
53088,-133.333333333333,4,1,0,100,0,0
53190,-133.333333333333,4,1,0,100,0,0
53392,-133.333333333333,4,1,0,100,0,0
53594,-133.333333333333,4,1,0,100,0,0
53999,-133.333333333333,4,1,0,100,0,0
54201,-133.333333333333,4,1,0,100,0,0
54403,-133.333333333333,4,1,0,100,0,0
54605,-133.333333333333,4,1,0,100,0,0
55010,-133.333333333333,4,1,0,100,0,0
55111,-133.333333333333,4,1,0,100,0,0
55212,-133.333333333333,4,1,0,100,0,0
55414,-133.333333333333,4,1,0,100,0,0
55515,-133.333333333333,4,1,0,100,0,0
55617,-133.333333333333,4,1,0,100,0,0
55819,-133.333333333333,4,1,0,100,0,0
55920,-133.333333333333,4,1,0,100,0,0
56021,-133.333333333333,4,1,0,100,0,0
56223,-133.333333333333,4,1,0,100,0,0
56325,-133.333333333333,4,1,0,100,0,0
56426,-133.333333333333,4,1,0,100,0,0
56628,-133.333333333333,4,1,0,100,0,0
56830,-133.333333333333,4,1,0,100,0,0
57235,-133.333333333333,4,1,0,100,0,0
57437,-133.333333333333,4,1,0,100,0,0
57639,-133.333333333333,4,1,0,100,0,0
57841,-133.333333333333,4,1,0,100,0,0
58247,-133.333333333333,4,1,0,100,0,0
64719,-133.333333333333,4,1,0,100,0,0
64820,-133.333333333333,4,1,0,100,0,0
71192,-133.333333333333,4,1,0,100,0,0
71293,-133.333333333333,4,1,0,100,0,0
77664,-133.333333333333,4,1,0,100,0,0
77765,-133.333333333333,4,1,0,100,0,0
77966,-133.333333333333,4,1,0,100,0,0
78067,-133.333333333333,4,1,0,100,0,0
78269,-133.333333333333,4,1,0,100,0,0
78472,-133.333333333333,4,1,0,100,0,0
78674,-133.333333333333,4,1,0,100,0,0
78775,-133.333333333333,4,1,0,100,0,0
78876,-133.333333333333,4,1,0,100,0,0
79078,-133.333333333333,4,1,0,100,0,0
79281,-133.333333333333,4,1,0,100,0,0
79382,-133.333333333333,4,1,0,100,0,0
79483,-133.333333333333,4,1,0,100,0,0
79584,-133.333333333333,4,1,0,100,0,0
79685,-133.333333333333,4,1,0,100,0,0
79888,-133.333333333333,4,1,0,100,0,0
79989,-133.333333333333,4,1,0,100,0,0
80090,-133.333333333333,4,1,0,100,0,0
80292,-133.333333333333,4,1,0,100,0,0
80393,-133.333333333333,4,1,0,100,0,0
80494,-133.333333333333,4,1,0,100,0,0
80697,-133.333333333333,4,1,0,100,0,0
80899,-133.333333333333,4,1,0,100,0,0
81000,-133.333333333333,4,1,0,100,0,0
81101,-133.333333333333,4,1,0,100,0,0
81202,-133.333333333333,4,1,0,100,0,0
81303,-133.333333333333,4,1,0,100,0,0
81404,-133.333333333333,4,1,0,100,0,0
81506,-133.333333333333,4,1,0,100,0,0
81708,-133.333333333333,4,1,0,100,0,0
81910,-133.333333333333,4,1,0,100,0,0
82011,-133.333333333333,4,1,0,100,0,0
82112,-133.333333333333,4,1,0,100,0,0
82315,-133.333333333333,4,1,0,100,0,0
82517,-133.333333333333,4,1,0,100,0,0
82719,-133.333333333333,4,1,0,100,0,0
82820,-133.333333333333,4,1,0,100,0,0
82921,-133.333333333333,4,1,0,100,0,0
83124,-133.333333333333,4,1,0,100,0,0
83326,-133.333333333333,4,1,0,100,0,0
84150,-133.333333333333,4,1,0,100,0,1
84337,-133.333333333333,4,1,0,100,0,1
84540,-133.333333333333,4,1,0,100,0,1
84742,-133.333333333333,4,1,0,100,0,1
84843,-133.333333333333,4,1,0,100,0,1
84944,-133.333333333333,4,1,0,100,0,1
85045,-133.333333333333,4,1,0,100,0,1
85146,-133.333333333333,4,1,0,100,0,1
85247,-133.333333333333,4,1,0,100,0,1
85349,-133.333333333333,4,1,0,100,0,1
85551,-133.333333333333,4,1,0,100,0,1
85753,-133.333333333333,4,1,0,100,0,1
85854,-133.333333333333,4,1,0,100,0,1
85955,-133.333333333333,4,1,0,100,0,1
86056,-133.333333333333,4,1,0,100,0,1
86158,-133.333333333333,4,1,0,100,0,1
86259,-133.333333333333,4,1,0,100,0,1
86360,-133.333333333333,4,1,0,100,0,1
86461,-133.333333333333,4,1,0,100,0,1
86562,-133.333333333333,4,1,0,100,0,1
86764,-133.333333333333,4,1,0,100,0,1
86865,-133.333333333333,4,1,0,100,0,1
86967,-133.333333333333,4,1,0,100,0,1
87169,-133.333333333333,4,1,0,100,0,1
87371,-133.333333333333,4,1,0,100,0,1
87573,-133.333333333333,4,1,0,100,0,1
87776,-133.333333333333,4,1,0,100,0,1
87978,-133.333333333333,4,1,0,100,0,1
88079,-133.333333333333,4,1,0,100,0,1
88180,-133.333333333333,4,1,0,100,0,1
88281,-133.333333333333,4,1,0,100,0,1
88382,-133.333333333333,4,1,0,100,0,1
88484,-133.333333333333,4,1,0,100,0,1
88585,-133.333333333333,4,1,0,100,0,1
88787,-133.333333333333,4,1,0,100,0,1
88989,-133.333333333333,4,1,0,100,0,1
89090,-133.333333333333,4,1,0,100,0,1
89191,-133.333333333333,4,1,0,100,0,1
89293,-133.333333333333,4,1,0,100,0,1
89394,-133.333333333333,4,1,0,100,0,1
89495,-133.333333333333,4,1,0,100,0,1
89596,-133.333333333333,4,1,0,100,0,1
89697,-133.333333333333,4,1,0,100,0,1
89798,-133.333333333333,4,1,0,100,0,1
89899,-133.333333333333,4,1,0,100,0,1
90000,-133.333333333333,4,1,0,100,0,1
90102,-133.333333333333,4,1,0,100,0,1
90203,-133.333333333333,4,1,0,100,0,1
90304,-133.333333333333,4,1,0,100,0,1
90405,-133.333333333333,4,1,0,100,0,1
90506,-133.333333333333,4,1,0,100,0,1
90607,-133.333333333333,4,1,0,100,0,1
90809,-133.333333333333,4,1,0,100,0,1
91012,-133.333333333333,4,1,0,100,0,1
91214,-133.333333333333,4,1,0,100,0,1
91315,-133.333333333333,4,1,0,100,0,1
91416,-133.333333333333,4,1,0,100,0,1
91517,-133.333333333333,4,1,0,100,0,1
91618,-133.333333333333,4,1,0,100,0,1
91720,-133.333333333333,4,1,0,100,0,1
91821,-133.333333333333,4,1,0,100,0,1
92023,-133.333333333333,4,1,0,100,0,1
92225,-133.333333333333,4,1,0,100,0,1
92326,-133.333333333333,4,1,0,100,0,1
92428,-133.333333333333,4,1,0,100,0,1
92529,-133.333333333333,4,1,0,100,0,1
92630,-133.333333333333,4,1,0,100,0,1
92731,-133.333333333333,4,1,0,100,0,1
92832,-133.333333333333,4,1,0,100,0,1
92933,-133.333333333333,4,1,0,100,0,1
93034,-133.333333333333,4,1,0,100,0,1
93237,-133.333333333333,4,1,0,100,0,1
93338,-133.333333333333,4,1,0,100,0,1
93439,-133.333333333333,4,1,0,100,0,1
93641,-133.333333333333,4,1,0,100,0,1
93843,-133.333333333333,4,1,0,100,0,1
94046,-133.333333333333,4,1,0,100,0,1
94248,-133.333333333333,4,1,0,100,0,1
94450,-133.333333333333,4,1,0,100,0,1
94551,-133.333333333333,4,1,0,100,0,1
94652,-133.333333333333,4,1,0,100,0,1
94753,-133.333333333333,4,1,0,100,0,1
94855,-133.333333333333,4,1,0,100,0,1
94956,-133.333333333333,4,1,0,100,0,1
95057,-133.333333333333,4,1,0,100,0,1
95259,-133.333333333333,4,1,0,100,0,1
95461,-133.333333333333,4,1,0,100,0,1
95562,-133.333333333333,4,1,0,100,0,1
95664,-133.333333333333,4,1,0,100,0,1
95765,-133.333333333333,4,1,0,100,0,1
95866,-133.333333333333,4,1,0,100,0,1
95967,-133.333333333333,4,1,0,100,0,1
96068,-133.333333333333,4,1,0,100,0,1
96169,-133.333333333333,4,1,0,100,0,1
96270,-133.333333333333,4,1,0,100,0,1
96371,-133.333333333333,4,1,0,100,0,1
96473,-133.333333333333,4,1,0,100,0,1
96574,-133.333333333333,4,1,0,100,0,1
96675,-133.333333333333,4,1,0,100,0,1
96781,-133.333333333333,4,1,0,100,0,1
96882,-133.333333333333,4,1,0,100,0,1
96983,-133.333333333333,4,1,0,100,0,1
97094,-133.333333333333,4,1,0,100,0,0
97686,-133.333333333333,4,1,0,100,0,0
97888,-133.333333333333,4,1,0,100,0,0
98091,-133.333333333333,4,1,0,100,0,0
98293,-133.333333333333,4,1,0,100,0,0
98697,-133.333333333333,4,1,0,100,0,0
98900,-133.333333333333,4,1,0,100,0,0
99001,-133.333333333333,4,1,0,100,0,0
99102,-133.333333333333,4,1,0,100,0,0
99304,-133.333333333333,4,1,0,100,0,0
99506,-133.333333333333,4,1,0,100,0,0
99709,-133.333333333333,4,1,0,100,0,0
99911,-133.333333333333,4,1,0,100,0,0
100315,-133.333333333333,4,1,0,100,0,0
100518,-133.333333333333,4,1,0,100,0,0
100922,-133.333333333333,4,1,0,100,0,0
101124,-133.333333333333,4,1,0,100,0,0
101327,-133.333333333333,4,1,0,100,0,0
101529,-133.333333333333,4,1,0,100,0,0
101933,-133.333333333333,4,1,0,100,0,0
102136,-133.333333333333,4,1,0,100,0,0
102237,-133.333333333333,4,1,0,100,0,0
102338,-133.333333333333,4,1,0,100,0,0
102540,-133.333333333333,4,1,0,100,0,0
102742,-133.333333333333,4,1,0,100,0,0
102945,-133.333333333333,4,1,0,100,0,0
103046,-133.333333333333,4,1,0,100,0,0
103147,-133.333333333333,4,1,0,100,0,0
103349,-133.333333333333,4,1,0,100,0,0
103551,-133.333333333333,4,1,0,100,0,0
103754,-133.333333333333,4,1,0,100,0,0
104158,-133.333333333333,4,1,0,100,0,0
104360,-133.333333333333,4,1,0,100,0,0
104563,-133.333333333333,4,1,0,100,0,0
104765,-133.333333333333,4,1,0,100,0,0
105169,-133.333333333333,4,1,0,100,0,0
105372,-133.333333333333,4,1,0,100,0,0
105473,-133.333333333333,4,1,0,100,0,0
105574,-133.333333333333,4,1,0,100,0,0
105776,-133.333333333333,4,1,0,100,0,0
105979,-133.333333333333,4,1,0,100,0,0
106181,-133.333333333333,4,1,0,100,0,0
106383,-133.333333333333,4,1,0,100,0,0
106788,-133.333333333333,4,1,0,100,0,0
107394,-133.333333333333,4,1,0,100,0,0
107597,-133.333333333333,4,1,0,100,0,0
107799,-133.333333333333,4,1,0,100,0,0
108001,-133.333333333333,4,1,0,100,0,0
108406,-133.333333333333,4,1,0,100,0,0
108507,-133.333333333333,4,1,0,100,0,0
108608,-133.333333333333,4,1,0,100,0,0
108709,-133.333333333333,4,1,0,100,0,0
108810,-133.333333333333,4,1,0,100,0,0
109012,-133.333333333333,4,1,0,100,0,0
109215,-133.333333333333,4,1,0,100,0,0
109316,-133.333333333333,4,1,0,100,0,0
109417,-133.333333333333,4,1,0,100,0,0
109518,-133.333333333333,4,1,0,100,0,0
109619,-133.333333333333,4,1,0,100,0,0
110025,-133.333333333333,4,1,0,100,0,0
110126,-133.333333333333,4,1,0,100,0,0

[HitObjects]
256,192,6484,5,0,0:0:0:0:
256,192,6888,1,0,0:0:0:0:
256,192,7090,1,8,0:0:0:0:
256,192,7293,1,0,0:0:0:0:
256,192,7495,1,0,0:0:0:0:
256,192,7697,1,8,0:0:0:0:
256,192,8102,1,0,0:0:0:0:
256,192,8506,1,0,0:0:0:0:
256,192,8708,1,8,0:0:0:0:
256,192,8911,1,0,0:0:0:0:
256,192,9113,1,0,0:0:0:0:
256,192,9315,1,8,0:0:0:0:
256,192,9720,1,0,0:0:0:0:
256,192,9821,1,0,0:0:0:0:
256,192,9922,1,0,0:0:0:0:
256,192,10327,1,8,0:0:0:0:
256,192,10529,1,0,0:0:0:0:
256,192,10731,1,8,0:0:0:0:
256,192,10933,1,0,0:0:0:0:
256,192,11338,1,8,0:0:0:0:
256,192,11540,1,8,0:0:0:0:
256,192,11742,1,0,0:0:0:0:
256,192,11843,1,0,0:0:0:0:
256,192,11945,1,0,0:0:0:0:
256,192,12147,1,8,0:0:0:0:
256,192,12349,1,0,0:0:0:0:
256,192,12551,1,8,0:0:0:0:
256,192,12956,1,4,0:0:0:0:
256,192,13563,1,0,0:0:0:0:
256,192,13765,1,8,0:0:0:0:
256,192,13967,1,8,0:0:0:0:
256,192,14169,1,0,0:0:0:0:
256,192,14574,1,8,0:0:0:0:
256,192,14776,1,0,0:0:0:0:
256,192,14978,1,8,0:0:0:0:
256,192,15181,1,8,0:0:0:0:
256,192,15383,1,0,0:0:0:0:
256,192,15585,1,0,0:0:0:0:
256,192,15787,1,8,0:0:0:0:
256,192,16192,1,0,0:0:0:0:
256,192,16394,1,0,0:0:0:0:
256,192,16596,1,8,0:0:0:0:
256,192,16799,1,0,0:0:0:0:
256,192,17001,1,8,0:0:0:0:
256,192,17203,1,8,0:0:0:0:
256,192,17405,1,0,0:0:0:0:
256,192,17810,1,0,0:0:0:0:
256,192,18012,1,0,0:0:0:0:
256,192,18214,1,8,0:0:0:0:
256,192,18417,1,0,0:0:0:0:
256,192,18619,1,8,0:0:0:0:
256,192,18821,1,8,0:0:0:0:
256,192,19024,1,0,0:0:0:0:
256,192,19428,1,4,0:0:0:0:
256,192,20035,1,0,0:0:0:0:
256,192,20136,1,0,0:0:0:0:
256,192,20237,1,0,0:0:0:0:
256,192,20439,1,8,0:0:0:0:
256,192,20642,1,0,0:0:0:0:
256,192,21046,1,8,0:0:0:0:
256,192,21248,1,8,0:0:0:0:
256,192,21349,1,8,0:0:0:0:
256,192,21451,1,8,0:0:0:0:
256,192,21653,1,0,0:0:0:0:
256,192,21855,1,8,0:0:0:0:
256,192,22057,1,8,0:0:0:0:
256,192,22260,1,0,0:0:0:0:
256,192,22664,1,12,0:0:0:0:
256,192,23271,1,0,0:0:0:0:
256,192,23372,1,0,0:0:0:0:
256,192,23473,1,0,0:0:0:0:
256,192,23675,1,8,0:0:0:0:
256,192,23878,1,0,0:0:0:0:
256,192,24282,1,8,0:0:0:0:
256,192,24484,1,0,0:0:0:0:
256,192,24586,1,0,0:0:0:0:
256,192,24687,1,0,0:0:0:0:
256,192,24889,1,8,0:0:0:0:
256,192,25091,1,0,0:0:0:0:
256,192,25293,1,8,0:0:0:0:
256,192,25395,1,8,0:0:0:0:
256,192,25496,1,8,0:0:0:0:
256,192,25698,1,0,0:0:0:0:
256,192,25900,1,12,0:0:0:0:
256,192,26507,1,0,0:0:0:0:
256,192,26608,1,0,0:0:0:0:
256,192,26709,1,0,0:0:0:0:
256,192,26911,1,8,0:0:0:0:
256,192,27114,1,0,0:0:0:0:
256,192,27518,1,8,0:0:0:0:
256,192,27721,1,0,0:0:0:0:
256,192,27822,1,0,0:0:0:0:
256,192,27923,1,0,0:0:0:0:
256,192,28125,1,8,0:0:0:0:
256,192,28327,1,0,0:0:0:0:
256,192,28530,1,0,0:0:0:0:
256,192,28732,1,8,0:0:0:0:
256,192,29136,1,4,0:0:0:0:
256,192,29743,1,8,0:0:0:0:
256,192,29844,1,8,0:0:0:0:
256,192,29945,1,8,0:0:0:0:
256,192,30148,1,0,0:0:0:0:
256,192,30350,1,8,0:0:0:0:
256,192,30754,1,0,0:0:0:0:
256,192,30957,1,0,0:0:0:0:
256,192,31058,1,0,0:0:0:0:
256,192,31159,1,0,0:0:0:0:
256,192,31361,1,8,0:0:0:0:
256,192,31563,1,0,0:0:0:0:
256,192,31766,1,8,0:0:0:0:
256,192,31867,1,8,0:0:0:0:
256,192,31968,1,8,0:0:0:0:
256,192,32372,1,4,0:0:0:0:
256,192,32979,1,0,0:0:0:0:
256,192,33080,1,0,0:0:0:0:
256,192,33181,1,0,0:0:0:0:
256,192,33384,1,0,0:0:0:0:
256,192,33586,1,8,0:0:0:0:
256,192,33990,1,0,0:0:0:0:
256,192,34597,1,8,0:0:0:0:
256,192,34698,1,8,0:0:0:0:
256,192,34799,1,8,0:0:0:0:
256,192,35002,1,0,0:0:0:0:
256,192,35204,1,8,0:0:0:0:
256,192,35608,1,0,0:0:0:0:
256,192,36215,1,0,0:0:0:0:
256,192,36316,1,0,0:0:0:0:
256,192,36418,1,0,0:0:0:0:
256,192,36620,1,8,0:0:0:0:
256,192,36822,1,0,0:0:0:0:
256,192,37227,1,0,0:0:0:0:
256,192,37833,1,8,0:0:0:0:
256,192,37934,1,8,0:0:0:0:
256,192,38036,1,8,0:0:0:0:
256,192,38238,1,0,0:0:0:0:
256,192,38440,1,8,0:0:0:0:
256,192,38845,1,4,0:0:0:0:
256,192,39451,1,0,0:0:0:0:
256,192,39552,1,0,0:0:0:0:
256,192,39654,1,0,0:0:0:0:
256,192,39856,1,0,0:0:0:0:
256,192,40058,1,8,0:0:0:0:
256,192,40463,1,0,0:0:0:0:
256,192,41069,1,8,0:0:0:0:
256,192,41171,1,8,0:0:0:0:
256,192,41272,1,8,0:0:0:0:
256,192,41474,1,0,0:0:0:0:
256,192,41676,1,8,0:0:0:0:
256,192,42081,1,0,0:0:0:0:
256,192,42687,1,0,0:0:0:0:
256,192,42789,1,0,0:0:0:0:
256,192,42890,1,0,0:0:0:0:
256,192,43092,1,8,0:0:0:0:
256,192,43294,1,0,0:0:0:0:
256,192,43699,1,0,0:0:0:0:
256,192,44305,1,8,0:0:0:0:
256,192,44407,1,8,0:0:0:0:
256,192,44508,1,8,0:0:0:0:
256,192,44710,1,0,0:0:0:0:
256,192,44912,1,8,0:0:0:0:
256,192,45317,1,4,0:0:0:0:
256,192,45721,1,8,0:0:0:0:
256,192,45924,1,8,0:0:0:0:
256,192,46126,1,0,0:0:0:0:
256,192,46530,1,8,0:0:0:0:
256,192,46733,1,8,0:0:0:0:
256,192,46935,1,0,0:0:0:0:
256,192,47542,1,0,0:0:0:0:
256,192,47643,1,0,0:0:0:0:
256,192,47744,1,0,0:0:0:0:
256,192,47946,1,8,0:0:0:0:
256,192,48148,1,0,0:0:0:0:
256,192,48553,1,0,0:0:0:0:
256,192,48957,1,8,0:0:0:0:
256,192,49160,1,8,0:0:0:0:
256,192,49362,1,0,0:0:0:0:
256,192,49766,1,8,0:0:0:0:
256,192,49969,1,8,0:0:0:0:
256,192,50171,1,0,0:0:0:0:
256,192,50778,1,0,0:0:0:0:
256,192,50879,1,0,0:0:0:0:
256,192,50980,1,0,0:0:0:0:
256,192,51182,1,8,0:0:0:0:
256,192,51384,1,0,0:0:0:0:
256,192,51789,1,0,0:0:0:0:
256,192,52193,1,8,0:0:0:0:
256,192,52396,1,8,0:0:0:0:
256,192,52598,1,0,0:0:0:0:
256,192,53002,1,8,0:0:0:0:
256,192,53205,1,8,0:0:0:0:
256,192,53407,1,0,0:0:0:0:
256,192,54014,1,8,0:0:0:0:
256,192,54115,1,8,0:0:0:0:
256,192,54216,1,8,0:0:0:0:
256,192,54418,1,8,0:0:0:0:
256,192,54621,1,0,0:0:0:0:
256,192,55025,1,0,0:0:0:0:
256,192,55430,1,8,0:0:0:0:
256,192,55632,1,8,0:0:0:0:
256,192,55834,1,0,0:0:0:0:
256,192,56239,1,8,0:0:0:0:
256,192,56441,1,8,0:0:0:0:
256,192,56643,1,0,0:0:0:0:
256,192,57250,1,8,0:0:0:0:
256,192,57351,1,8,0:0:0:0:
256,192,57452,1,8,0:0:0:0:
256,192,57654,1,8,0:0:0:0:
256,192,57857,1,0,0:0:0:0:
256,192,58261,1,12,0:0:0:0:
256,192,58666,1,0,0:0:0:0:
256,192,59070,1,8,0:0:0:0:
256,192,59475,1,0,0:0:0:0:
256,192,59677,1,0,0:0:0:0:
256,192,59879,1,8,0:0:0:0:
256,192,60284,1,0,0:0:0:0:
256,192,60486,1,8,0:0:0:0:
256,192,60688,1,0,0:0:0:0:
256,192,61093,1,8,0:0:0:0:
256,192,61497,1,0,0:0:0:0:
256,192,61902,1,0,0:0:0:0:
256,192,62306,1,8,0:0:0:0:
256,192,62509,1,8,0:0:0:0:
256,192,62711,1,0,0:0:0:0:
256,192,62980,1,0,0:0:0:0:
256,192,63115,1,0,0:0:0:0:
256,192,63318,1,8,0:0:0:0:
256,192,63520,1,0,0:0:0:0:
256,192,63722,1,8,0:0:0:0:
256,192,63924,1,0,0:0:0:0:
256,192,64329,1,8,0:0:0:0:
256,192,64733,1,4,0:0:0:0:
256,192,64936,1,8,0:0:0:0:
256,192,65138,1,0,0:0:0:0:
256,192,65340,1,0,0:0:0:0:
256,192,65542,1,8,0:0:0:0:
256,192,65745,1,8,0:0:0:0:
256,192,65947,1,0,0:0:0:0:
256,192,66351,1,8,0:0:0:0:
256,192,66554,1,0,0:0:0:0:
256,192,66756,1,8,0:0:0:0:
256,192,66958,1,8,0:0:0:0:
256,192,67160,1,0,0:0:0:0:
256,192,67363,1,8,0:0:0:0:
256,192,67565,1,0,0:0:0:0:
256,192,67969,1,8,0:0:0:0:
256,192,68576,1,0,0:0:0:0:
256,192,68778,1,8,0:0:0:0:
256,192,68981,1,0,0:0:0:0:
256,192,69183,1,8,0:0:0:0:
256,192,69587,1,0,0:0:0:0:
256,192,70194,1,8,0:0:0:0:
256,192,70396,1,8,0:0:0:0:
256,192,70599,1,0,0:0:0:0:
256,192,70801,1,0,0:0:0:0:
256,192,71206,1,4,0:0:0:0:
256,192,71610,1,0,0:0:0:0:
256,192,71812,1,8,0:0:0:0:
256,192,72217,1,8,0:0:0:0:
256,192,72419,1,0,0:0:0:0:
256,192,72621,1,8,0:0:0:0:
256,192,73026,1,0,0:0:0:0:
256,192,73228,1,0,0:0:0:0:
256,192,73430,1,8,0:0:0:0:
256,192,73633,1,0,0:0:0:0:
256,192,73835,1,8,0:0:0:0:
256,192,73936,1,8,0:0:0:0:
256,192,74037,1,8,0:0:0:0:
256,192,74239,1,0,0:0:0:0:
256,192,74644,1,0,0:0:0:0:
256,192,74846,1,8,0:0:0:0:
256,192,74947,1,8,0:0:0:0:
256,192,75048,1,8,0:0:0:0:
256,192,75251,1,0,0:0:0:0:
256,192,75453,1,8,0:0:0:0:
256,192,75655,1,0,0:0:0:0:
256,192,75756,1,0,0:0:0:0:
256,192,75857,1,0,0:0:0:0:
256,192,76262,1,0,0:0:0:0:
256,192,76464,1,8,0:0:0:0:
256,192,76666,1,8,0:0:0:0:
256,192,76869,1,0,0:0:0:0:
256,192,77071,1,8,0:0:0:0:
256,192,77273,1,0,0:0:0:0:
256,192,77678,1,4,0:0:0:0:
256,192,78082,1,0,0:0:0:0:
256,192,78487,1,8,0:0:0:0:
256,192,78689,1,8,0:0:0:0:
256,192,78891,1,0,0:0:0:0:
256,192,79296,1,8,0:0:0:0:
256,192,79498,1,0,0:0:0:0:
256,192,79700,1,8,0:0:0:0:
256,192,79903,1,8,0:0:0:0:
256,192,80105,1,0,0:0:0:0:
256,192,80307,1,8,0:0:0:0:
256,192,80509,1,0,0:0:0:0:
256,192,80914,1,0,0:0:0:0:
256,192,81116,1,8,0:0:0:0:
256,192,81217,1,8,0:0:0:0:
256,192,81318,1,8,0:0:0:0:
256,192,81521,1,0,0:0:0:0:
256,192,81723,1,8,0:0:0:0:
256,192,81925,1,8,0:0:0:0:
256,192,82127,1,0,0:0:0:0:
256,192,82532,1,8,0:0:0:0:
256,192,82734,1,0,0:0:0:0:
256,192,82835,1,0,0:0:0:0:
256,192,82936,1,0,0:0:0:0:
256,192,83139,1,8,0:0:0:0:
256,192,83341,1,0,0:0:0:0:
256,192,84150,1,4,0:0:0:0:
256,192,84757,1,0,0:0:0:0:
256,192,84858,1,0,0:0:0:0:
256,192,84959,1,0,0:0:0:0:
256,192,85161,1,8,0:0:0:0:
256,192,85363,1,0,0:0:0:0:
256,192,85768,1,8,0:0:0:0:
256,192,85970,1,8,0:0:0:0:
256,192,86071,1,8,0:0:0:0:
256,192,86172,1,8,0:0:0:0:
256,192,86375,1,0,0:0:0:0:
256,192,86577,1,8,0:0:0:0:
256,192,86779,1,8,0:0:0:0:
256,192,86981,1,0,0:0:0:0:
256,192,87386,1,12,0:0:0:0:
256,192,87993,1,0,0:0:0:0:
256,192,88094,1,0,0:0:0:0:
256,192,88195,1,0,0:0:0:0:
256,192,88397,1,8,0:0:0:0:
256,192,88600,1,0,0:0:0:0:
256,192,89004,1,8,0:0:0:0:
256,192,89206,1,0,0:0:0:0:
256,192,89307,1,0,0:0:0:0:
256,192,89409,1,0,0:0:0:0:
256,192,89611,1,8,0:0:0:0:
256,192,89813,1,0,0:0:0:0:
256,192,90015,1,8,0:0:0:0:
256,192,90116,1,8,0:0:0:0:
256,192,90218,1,8,0:0:0:0:
256,192,90420,1,0,0:0:0:0:
256,192,90622,1,12,0:0:0:0:
256,192,91229,1,0,0:0:0:0:
256,192,91330,1,0,0:0:0:0:
256,192,91431,1,0,0:0:0:0:
256,192,91633,1,8,0:0:0:0:
256,192,91836,1,0,0:0:0:0:
256,192,92240,1,8,0:0:0:0:
256,192,92442,1,0,0:0:0:0:
256,192,92543,1,0,0:0:0:0:
256,192,92645,1,0,0:0:0:0:
256,192,92847,1,8,0:0:0:0:
256,192,93049,1,0,0:0:0:0:
256,192,93251,1,0,0:0:0:0:
256,192,93454,1,8,0:0:0:0:
256,192,93858,1,4,0:0:0:0:
256,192,94465,1,8,0:0:0:0:
256,192,94566,1,8,0:0:0:0:
256,192,94667,1,8,0:0:0:0:
256,192,94869,1,0,0:0:0:0:
256,192,95072,1,8,0:0:0:0:
256,192,95476,1,0,0:0:0:0:
256,192,95678,1,0,0:0:0:0:
256,192,95780,1,0,0:0:0:0:
256,192,95881,1,0,0:0:0:0:
256,192,96083,1,8,0:0:0:0:
256,192,96285,1,0,0:0:0:0:
256,192,96487,1,8,0:0:0:0:
256,192,96589,1,8,0:0:0:0:
256,192,96690,1,8,0:0:0:0:
256,192,97094,1,4,0:0:0:0:
256,192,97701,1,0,0:0:0:0:
256,192,97903,1,0,0:0:0:0:
256,192,98106,1,8,0:0:0:0:
256,192,98308,1,0,0:0:0:0:
256,192,98712,1,8,0:0:0:0:
256,192,98915,1,0,0:0:0:0:
256,192,99016,1,0,0:0:0:0:
256,192,99117,1,0,0:0:0:0:
256,192,99319,1,8,0:0:0:0:
256,192,99521,1,0,0:0:0:0:
256,192,99724,1,8,0:0:0:0:
256,192,99926,1,0,0:0:0:0:
256,192,100330,1,8,0:0:0:0:
256,192,100937,1,0,0:0:0:0:
256,192,101139,1,8,0:0:0:0:
256,192,101342,1,8,0:0:0:0:
256,192,101544,1,0,0:0:0:0:
256,192,101948,1,8,0:0:0:0:
256,192,102151,1,0,0:0:0:0:
256,192,102252,1,0,0:0:0:0:
256,192,102353,1,0,0:0:0:0:
256,192,102555,1,8,0:0:0:0:
256,192,102757,1,0,0:0:0:0:
256,192,102960,1,8,0:0:0:0:
256,192,103061,1,8,0:0:0:0:
256,192,103162,1,8,0:0:0:0:
256,192,103364,1,0,0:0:0:0:
256,192,103566,1,8,0:0:0:0:
256,192,104173,1,0,0:0:0:0:
256,192,104375,1,8,0:0:0:0:
256,192,104578,1,8,0:0:0:0:
256,192,104780,1,0,0:0:0:0:
256,192,105184,1,0,0:0:0:0:
256,192,105387,1,8,0:0:0:0:
256,192,105488,1,8,0:0:0:0:
256,192,105589,1,8,0:0:0:0:
256,192,105791,1,0,0:0:0:0:
256,192,105994,1,8,0:0:0:0:
256,192,106196,1,0,0:0:0:0:
256,192,106398,1,8,0:0:0:0:
256,192,106803,1,0,0:0:0:0:
256,192,107409,1,8,0:0:0:0:
256,192,107612,1,8,0:0:0:0:
256,192,107814,1,8,0:0:0:0:
256,192,108016,1,0,0:0:0:0:
256,192,108421,1,0,0:0:0:0:
256,192,108623,1,8,0:0:0:0:
256,192,108724,1,8,0:0:0:0:
256,192,108825,1,8,0:0:0:0:
256,192,109027,1,0,0:0:0:0:
256,192,109230,1,8,0:0:0:0:
256,192,109432,1,0,0:0:0:0:
256,192,109533,1,0,0:0:0:0:
256,192,109634,1,0,0:0:0:0:
64,320,110039,1,4,0:0:0:0:
