osu file format v14

[General]
AudioFilename: audio.mp3
AudioLeadIn: 0
PreviewTime: 19419
Countdown: 0
SampleSet: Normal
StackLeniency: 0.7
Mode: 1
LetterboxInBreaks: 0
WidescreenStoryboard: 1

[Editor]
DistanceSpacing: 0.85
BeatDivisor: 12
GridSize: 32
TimelineZoom: 1.4

[Metadata]
Title:SMOKE IT OFF! * (feat. jnhygs)
TitleUnicode:SMOKE IT OFF! ✮ (feat. jnhygs)
Artist:Lumi Athena
ArtistUnicode:Lumi Athena
Creator:Invisible O
Version:*KANTAN*
Source:
Tags:Rap Hip-hop Hip hop Hip_Hop English electronic Alt alternative Krushclub krush crush club crushclub koul
BeatmapID:4168491
BeatmapSetID:1957177

[Difficulty]
HPDrainRate:8
CircleSize:5
OverallDifficulty:3
ApproachRate:5
SliderMultiplier:1.4
SliderTickRate:1

[Events]
//Background and Video events
0,0,"Smoke(1).jpg",0,-130
//Break Periods
//Storyboard Layer 0 (Background)
//Storyboard Layer 1 (Fail)
//Storyboard Layer 2 (Pass)
//Storyboard Layer 3 (Foreground)
//Storyboard Layer 4 (Overlay)
//Storyboard Sound Samples

[TimingPoints]
1630,404.511653306546,4,1,0,100,1,0
1630,-133.333333333333,4,1,0,100,0,0
19428,-133.333333333333,4,1,0,100,0,1
32372,-133.333333333333,4,1,0,100,0,0
84150,-133.333333333333,4,1,0,100,0,1
97094,-133.333333333333,4,1,0,100,0,0

[HitObjects]
256,192,6484,5,0,0:0:0:0:
256,192,6888,1,0,0:0:0:0:
256,192,7293,1,8,0:0:0:0:
256,192,8102,1,0,0:0:0:0:
256,192,8506,1,8,0:0:0:0:
256,192,8911,1,0,0:0:0:0:
256,192,9720,1,0,0:0:0:0:
256,192,10529,1,8,0:0:0:0:
256,192,10933,1,0,0:0:0:0:
256,192,11338,1,8,0:0:0:0:
256,192,12956,1,4,0:0:0:0:
256,192,13765,1,8,0:0:0:0:
256,192,14169,1,0,0:0:0:0:
256,192,14574,1,8,0:0:0:0:
256,192,15383,1,0,0:0:0:0:
256,192,15787,1,8,0:0:0:0:
256,192,16192,1,0,0:0:0:0:
256,192,17001,1,0,0:0:0:0:
256,192,17405,1,0,0:0:0:0:
256,192,17810,1,8,0:0:0:0:
256,192,19024,1,8,0:0:0:0:
256,192,19428,1,4,0:0:0:0:
256,192,20237,1,0,0:0:0:0:
256,192,21046,1,8,0:0:0:0:
256,192,21451,1,8,0:0:0:0:
256,192,21855,1,0,0:0:0:0:
256,192,22260,1,8,0:0:0:0:
256,192,22664,1,0,0:0:0:0:
256,192,23473,1,8,0:0:0:0:
256,192,23878,1,8,0:0:0:0:
256,192,24282,1,0,0:0:0:0:
256,192,25900,1,4,0:0:0:0:
256,192,26709,1,8,0:0:0:0:
256,192,27518,1,0,0:0:0:0:
256,192,27923,1,0,0:0:0:0:
256,192,28327,1,8,0:0:0:0:
256,192,28732,1,8,0:0:0:0:
256,192,29136,1,0,0:0:0:0:
256,192,29945,1,8,0:0:0:0:
256,192,30350,1,8,0:0:0:0:
256,192,30754,1,0,0:0:0:0:
256,192,31968,1,8,0:0:0:0:
256,192,32372,1,4,0:0:0:0:
256,192,33181,1,0,0:0:0:0:
256,192,33586,1,8,0:0:0:0:
256,192,33990,1,0,0:0:0:0:
256,192,34799,1,0,0:0:0:0:
256,192,35204,1,0,0:0:0:0:
256,192,35608,1,8,0:0:0:0:
256,192,36418,1,0,0:0:0:0:
256,192,36822,1,8,0:0:0:0:
256,192,37227,1,0,0:0:0:0:
256,192,38036,1,8,0:0:0:0:
256,192,38440,1,8,0:0:0:0:
256,192,38845,1,4,0:0:0:0:
256,192,40463,1,0,0:0:0:0:
256,192,41272,1,8,0:0:0:0:
256,192,41676,1,0,0:0:0:0:
256,192,42081,1,0,0:0:0:0:
256,192,42890,1,0,0:0:0:0:
256,192,43294,1,8,0:0:0:0:
256,192,43699,1,0,0:0:0:0:
256,192,44508,1,8,0:0:0:0:
256,192,45317,1,4,0:0:0:0:
256,192,45721,1,8,0:0:0:0:
256,192,46126,1,0,0:0:0:0:
256,192,46530,1,0,0:0:0:0:
256,192,46935,1,8,0:0:0:0:
256,192,48553,1,0,0:0:0:0:
256,192,48957,1,0,0:0:0:0:
256,192,49362,1,8,0:0:0:0:
256,192,49766,1,8,0:0:0:0:
256,192,50171,1,0,0:0:0:0:
256,192,51789,1,0,0:0:0:0:
256,192,52193,1,8,0:0:0:0:
256,192,52598,1,8,0:0:0:0:
256,192,53002,1,0,0:0:0:0:
256,192,53407,1,8,0:0:0:0:
256,192,55025,1,0,0:0:0:0:
256,192,55430,1,8,0:0:0:0:
256,192,55834,1,0,0:0:0:0:
256,192,56239,1,8,0:0:0:0:
256,192,56643,1,0,0:0:0:0:
256,192,58261,1,4,0:0:0:0:
256,192,59475,1,8,0:0:0:0:
256,192,59879,1,0,0:0:0:0:
256,192,60688,1,0,0:0:0:0:
256,192,61497,1,8,0:0:0:0:
256,192,62306,1,8,0:0:0:0:
256,192,62711,1,8,0:0:0:0:
256,192,63115,1,0,0:0:0:0:
256,192,63924,1,8,0:0:0:0:
256,192,64733,1,4,0:0:0:0:
256,192,66351,1,8,0:0:0:0:
256,192,67160,1,8,0:0:0:0:
256,192,67565,1,8,0:0:0:0:
256,192,67969,1,0,0:0:0:0:
256,192,69587,1,8,0:0:0:0:
256,192,71206,1,4,0:0:0:0:
256,192,71610,1,8,0:0:0:0:
256,192,72419,1,8,0:0:0:0:
256,192,73228,1,0,0:0:0:0:
256,192,74037,1,8,0:0:0:0:
256,192,74846,1,8,0:0:0:0:
256,192,75655,1,0,0:0:0:0:
256,192,76464,1,8,0:0:0:0:
256,192,76869,1,8,0:0:0:0:
256,192,77273,1,8,0:0:0:0:
256,192,77678,5,4,0:0:0:0:
256,192,79296,1,0,0:0:0:0:
256,192,79700,1,8,0:0:0:0:
256,192,80105,1,8,0:0:0:0:
256,192,80509,1,8,0:0:0:0:
256,192,80914,1,0,0:0:0:0:
256,192,81723,1,0,0:0:0:0:
256,192,82532,1,8,0:0:0:0:
256,192,84150,1,4,0:0:0:0:
256,192,84959,1,0,0:0:0:0:
256,192,85768,1,8,0:0:0:0:
256,192,86172,1,8,0:0:0:0:
256,192,86577,1,0,0:0:0:0:
256,192,86981,1,8,0:0:0:0:
256,192,87386,1,0,0:0:0:0:
256,192,88195,1,8,0:0:0:0:
256,192,88600,1,8,0:0:0:0:
256,192,89004,1,0,0:0:0:0:
256,192,90622,1,4,0:0:0:0:
256,192,91431,1,8,0:0:0:0:
256,192,92240,1,0,0:0:0:0:
256,192,92645,1,0,0:0:0:0:
256,192,93049,1,8,0:0:0:0:
256,192,93454,1,8,0:0:0:0:
256,192,93858,1,0,0:0:0:0:
256,192,94667,1,8,0:0:0:0:
256,192,95072,1,8,0:0:0:0:
256,192,95476,1,0,0:0:0:0:
256,192,97094,1,4,0:0:0:0:
256,192,98712,1,0,0:0:0:0:
256,192,100330,1,8,0:0:0:0:
256,192,101948,1,0,0:0:0:0:
256,192,102757,1,0,0:0:0:0:
256,192,103566,1,8,0:0:0:0:
256,192,105184,1,0,0:0:0:0:
256,192,106803,1,8,0:0:0:0:
256,192,108421,1,0,0:0:0:0:
256,192,109230,1,0,0:0:0:0:
256,192,109634,1,8,0:0:0:0:
256,192,110039,1,4,0:0:0:0:
