osu file format v14

[General]
AudioFilename: audio.mp3
AudioLeadIn: 0
PreviewTime: 19419
Countdown: 0
SampleSet: Normal
StackLeniency: 0.7
Mode: 1
LetterboxInBreaks: 0
WidescreenStoryboard: 1

[Editor]
DistanceSpacing: 0.85
BeatDivisor: 4
GridSize: 32
TimelineZoom: 1.8

[Metadata]
Title:SMOKE IT OFF! * (feat. jnhygs)
TitleUnicode:SMOKE IT OFF! ✮ (feat. jnhygs)
Artist:Lumi Athena
ArtistUnicode:Lumi Athena
Creator:Invisible O
Version:KOUL'S *FUTSUU*
Source:
Tags:Rap Hip-hop Hip hop Hip_Hop English electronic Alt alternative Krushclub krush crush club crushclub koul
BeatmapID:4168325
BeatmapSetID:1957177

[Difficulty]
HPDrainRate:7
CircleSize:5
OverallDifficulty:4
ApproachRate:5
SliderMultiplier:1.4
SliderTickRate:1

[Events]
//Background and Video events
0,0,"Smoke(1).jpg",0,-130
//Break Periods
//Storyboard Layer 0 (Background)
//Storyboard Layer 1 (Fail)
//Storyboard Layer 2 (Pass)
//Storyboard Layer 3 (Foreground)
//Storyboard Layer 4 (Overlay)
//Storyboard Sound Samples

[TimingPoints]
1630,404.511653306546,4,1,0,100,1,0
1630,-133.333333333333,4,1,0,100,0,0
19428,-133.333333333333,4,1,0,100,0,1
32372,-133.333333333333,4,1,0,100,0,0
84150,-133.333333333333,4,1,0,100,0,1
97094,-133.333333333333,4,1,0,100,0,0

[HitObjects]
202,177,6484,5,0,0:0:0:0:
243,169,7090,1,8,0:0:0:0:
243,169,7293,1,0,0:0:0:0:
363,148,7495,1,0,0:0:0:0:
363,148,7697,1,8,0:0:0:0:
243,169,8102,1,0,0:0:0:0:
243,169,8911,1,0,0:0:0:0:
243,169,9113,1,8,0:0:0:0:
243,169,9315,1,0,0:0:0:0:
368,169,9720,1,0,0:0:0:0:
418,135,10327,1,0,0:0:0:0:
368,169,10529,1,8,0:0:0:0:
403,136,10731,1,8,0:0:0:0:
403,136,10933,1,0,0:0:0:0:
396,182,11338,1,0,0:0:0:0:
396,182,12147,1,8,0:0:0:0:
406,180,12349,1,8,0:0:0:0:
406,180,12551,1,0,0:0:0:0:
418,165,12956,1,4,0:0:0:0:
418,165,13765,1,8,0:0:0:0:
417,133,13967,1,0,0:0:0:0:
418,165,14169,1,8,0:0:0:0:
418,165,14574,1,0,0:0:0:0:
418,165,14776,1,0,0:0:0:0:
418,165,14978,1,8,0:0:0:0:
418,165,15383,1,0,0:0:0:0:
394,218,15585,1,8,0:0:0:0:
394,218,15787,1,0,0:0:0:0:
217,127,16192,1,0,0:0:0:0:
418,165,17001,1,0,0:0:0:0:
418,165,17203,1,8,0:0:0:0:
418,165,17405,1,0,0:0:0:0:
386,198,17810,1,0,0:0:0:0:
386,198,18214,1,8,0:0:0:0:
403,186,18619,1,0,0:0:0:0:
423,168,18821,1,8,0:0:0:0:
423,168,19024,1,0,0:0:0:0:
344,190,19428,1,4,0:0:0:0:
342,86,20237,1,8,0:0:0:0:
342,86,20439,1,0,0:0:0:0:
342,86,20642,1,8,0:0:0:0:
443,132,21046,1,0,0:0:0:0:
439,112,21451,1,8,0:0:0:0:
439,112,21855,1,0,0:0:0:0:
439,112,22057,1,8,0:0:0:0:
439,112,22260,1,0,0:0:0:0:
344,190,22664,1,12,0:0:0:0:
439,112,23473,1,0,0:0:0:0:
439,112,23675,1,8,0:0:0:0:
439,112,23878,1,0,0:0:0:0:
446,101,24282,1,0,0:0:0:0:
446,101,24687,1,8,0:0:0:0:
446,101,24889,1,8,0:0:0:0:
446,101,25091,1,0,0:0:0:0:
446,101,25496,1,8,0:0:0:0:
344,190,25900,1,12,0:0:0:0:
446,101,26709,1,0,0:0:0:0:
446,101,26911,1,8,0:0:0:0:
446,101,27114,1,0,0:0:0:0:
446,101,27518,1,0,0:0:0:0:
446,101,27923,1,8,0:0:0:0:
446,101,28327,1,0,0:0:0:0:
481,101,28530,1,8,0:0:0:0:
481,101,28732,1,0,0:0:0:0:
344,190,29136,1,4,0:0:0:0:
459,109,29945,1,0,0:0:0:0:
459,109,30148,1,8,0:0:0:0:
459,109,30350,1,0,0:0:0:0:
459,109,30754,1,0,0:0:0:0:
459,109,31159,1,8,0:0:0:0:
459,109,31361,1,8,0:0:0:0:
459,109,31563,1,0,0:0:0:0:
429,127,31968,1,0,0:0:0:0:
344,190,32372,1,4,0:0:0:0:
429,127,33181,1,0,0:0:0:0:
429,127,33384,1,0,0:0:0:0:
429,127,33586,1,8,0:0:0:0:
255,190,33990,1,8,0:0:0:0:
343,146,34597,1,0,0:0:0:0:
313,128,34799,1,0,0:0:0:0:
313,128,35002,1,8,0:0:0:0:
313,128,35204,1,0,0:0:0:0:
255,190,35608,1,0,0:0:0:0:
423,109,36418,1,0,0:0:0:0:
423,109,36620,1,0,0:0:0:0:
423,109,36822,1,8,0:0:0:0:
255,190,37227,1,0,0:0:0:0:
272,126,37833,1,8,0:0:0:0:
459,89,38036,1,0,0:0:0:0:
459,89,38238,1,8,0:0:0:0:
459,89,38440,1,0,0:0:0:0:
255,190,38845,1,4,0:0:0:0:
459,89,39654,1,0,0:0:0:0:
459,89,39856,1,0,0:0:0:0:
459,89,40058,1,8,0:0:0:0:
255,190,40463,1,0,0:0:0:0:
277,175,41069,1,0,0:0:0:0:
459,89,41272,1,8,0:0:0:0:
459,89,41474,1,8,0:0:0:0:
459,89,41676,1,0,0:0:0:0:
255,190,42081,1,0,0:0:0:0:
447,100,42890,1,0,0:0:0:0:
363,139,43092,1,8,0:0:0:0:
479,174,43294,1,8,0:0:0:0:
255,190,43699,1,0,0:0:0:0:
351,120,44305,1,8,0:0:0:0:
363,139,44508,1,0,0:0:0:0:
363,139,44710,1,0,0:0:0:0:
363,139,44912,1,8,0:0:0:0:
344,190,45317,1,4,0:0:0:0:
350,130,45721,1,8,0:0:0:0:
350,130,45924,1,8,0:0:0:0:
363,139,46126,1,0,0:0:0:0:
393,187,46530,1,0,0:0:0:0:
364,86,46733,1,8,0:0:0:0:
364,86,46935,1,0,0:0:0:0:
455,117,47744,1,0,0:0:0:0:
455,117,47946,1,0,0:0:0:0:
419,114,48148,1,8,0:0:0:0:
419,114,48553,1,0,0:0:0:0:
310,111,48957,1,8,0:0:0:0:
310,111,49160,1,8,0:0:0:0:
452,98,49362,1,0,0:0:0:0:
452,98,49766,1,0,0:0:0:0:
452,98,49969,1,0,0:0:0:0:
452,98,50171,1,8,0:0:0:0:
381,139,50980,1,0,0:0:0:0:
381,139,51182,1,8,0:0:0:0:
381,139,51384,1,0,0:0:0:0:
461,151,51789,1,0,0:0:0:0:
316,109,52193,1,0,0:0:0:0:
316,109,52396,1,8,0:0:0:0:
461,151,52598,1,0,0:0:0:0:
461,151,53002,1,0,0:0:0:0:
461,151,53205,1,0,0:0:0:0:
390,54,53407,1,8,0:0:0:0:
409,112,54216,1,8,0:0:0:0:
409,112,54418,1,0,0:0:0:0:
409,112,54621,1,8,0:0:0:0:
409,112,55025,1,0,0:0:0:0:
402,102,55430,1,0,0:0:0:0:
402,102,55632,1,0,0:0:0:0:
414,96,55834,1,0,0:0:0:0:
414,96,56239,1,0,0:0:0:0:
414,96,56441,1,0,0:0:0:0:
414,96,56643,1,8,0:0:0:0:
476,135,57452,1,8,0:0:0:0:
476,135,57654,1,8,0:0:0:0:
476,135,57857,1,0,0:0:0:0:
255,190,58261,1,8,0:0:0:0:
476,135,59070,1,8,0:0:0:0:
476,135,59475,1,8,0:0:0:0:
476,135,59879,1,0,0:0:0:0:
476,135,60688,1,0,0:0:0:0:
476,135,61093,1,8,0:0:0:0:
476,135,61497,1,0,0:0:0:0:
426,127,62306,1,8,0:0:0:0:
246,117,62509,1,8,0:0:0:0:
426,127,62711,1,0,0:0:0:0:
426,127,63115,1,0,0:0:0:0:
346,74,63520,1,8,0:0:0:0:
346,74,63722,1,8,0:0:0:0:
346,74,63924,1,0,0:0:0:0:
346,74,64329,1,8,0:0:0:0:
344,190,64733,1,4,0:0:0:0:
423,95,65542,1,0,0:0:0:0:
423,95,65745,1,0,0:0:0:0:
423,95,65947,1,8,0:0:0:0:
423,95,66351,1,0,0:0:0:0:
423,95,66756,1,8,0:0:0:0:
423,95,67160,1,0,0:0:0:0:
423,95,67363,1,8,0:0:0:0:
423,95,67565,1,0,0:0:0:0:
423,95,67969,1,0,0:0:0:0:
430,84,68778,1,8,0:0:0:0:
430,84,68981,1,8,0:0:0:0:
430,84,69183,1,0,0:0:0:0:
430,84,69587,1,0,0:0:0:0:
430,84,69992,1,8,0:0:0:0:
332,49,70396,1,0,0:0:0:0:
322,213,70599,1,0,0:0:0:0:
331,60,70801,1,8,0:0:0:0:
344,190,71206,1,4,0:0:0:0:
379,69,72217,1,0,0:0:0:0:
383,168,72419,1,8,0:0:0:0:
383,168,72621,1,0,0:0:0:0:
296,72,73026,1,8,0:0:0:0:
296,72,73228,1,0,0:0:0:0:
338,70,73430,1,8,0:0:0:0:
359,91,73835,1,0,0:0:0:0:
359,91,74037,1,8,0:0:0:0:
338,70,74239,1,8,0:0:0:0:
363,91,74442,1,0,0:0:0:0:
330,88,75453,1,0,0:0:0:0:
363,91,75655,1,8,0:0:0:0:
363,91,75857,1,0,0:0:0:0:
349,89,76262,1,0,0:0:0:0:
408,89,76464,1,8,0:0:0:0:
408,89,76666,1,8,0:0:0:0:
408,89,76869,1,0,0:0:0:0:
405,98,77273,1,0,0:0:0:0:
344,190,77678,1,4,0:0:0:0:
400,86,78487,1,8,0:0:0:0:
400,86,78689,1,8,0:0:0:0:
400,86,78891,1,0,0:0:0:0:
400,86,79296,1,0,0:0:0:0:
325,178,79903,1,8,0:0:0:0:
400,86,80105,1,8,0:0:0:0:
345,124,80307,1,0,0:0:0:0:
345,124,80509,1,0,0:0:0:0:
303,191,80914,1,0,0:0:0:0:
316,153,81723,1,8,0:0:0:0:
316,153,81925,1,0,0:0:0:0:
316,153,82127,1,8,0:0:0:0:
316,153,82532,1,0,0:0:0:0:
325,178,82734,1,8,0:0:0:0:
316,153,82936,1,8,0:0:0:0:
316,153,83341,1,0,0:0:0:0:
325,178,83543,1,8,0:0:0:0:
316,153,83745,1,0,0:0:0:0:
344,190,84150,1,4,0:0:0:0:
342,86,84959,1,8,0:0:0:0:
342,86,85161,1,0,0:0:0:0:
342,86,85363,1,8,0:0:0:0:
443,132,85768,1,0,0:0:0:0:
439,112,86172,1,8,0:0:0:0:
439,112,86577,1,0,0:0:0:0:
439,112,86779,1,8,0:0:0:0:
439,112,86981,1,0,0:0:0:0:
344,190,87386,1,12,0:0:0:0:
439,112,88195,1,0,0:0:0:0:
439,112,88397,1,8,0:0:0:0:
439,112,88600,1,0,0:0:0:0:
446,101,89004,1,0,0:0:0:0:
446,101,89409,1,8,0:0:0:0:
446,101,89611,1,8,0:0:0:0:
446,101,89813,1,0,0:0:0:0:
446,101,90218,1,8,0:0:0:0:
344,190,90622,1,12,0:0:0:0:
446,101,91431,1,0,0:0:0:0:
446,101,91633,1,8,0:0:0:0:
446,101,91836,1,0,0:0:0:0:
446,101,92240,1,0,0:0:0:0:
446,101,92645,1,8,0:0:0:0:
446,101,93049,1,0,0:0:0:0:
481,101,93251,1,8,0:0:0:0:
481,101,93454,1,0,0:0:0:0:
344,190,93858,1,4,0:0:0:0:
459,109,94667,1,0,0:0:0:0:
459,109,94869,1,8,0:0:0:0:
459,109,95072,1,0,0:0:0:0:
459,109,95476,1,0,0:0:0:0:
459,109,95881,1,8,0:0:0:0:
459,109,96083,1,8,0:0:0:0:
459,109,96285,1,0,0:0:0:0:
429,127,96690,1,0,0:0:0:0:
344,190,97094,1,4,0:0:0:0:
483,158,97903,1,8,0:0:0:0:
483,158,98712,1,0,0:0:0:0:
483,158,99521,1,0,0:0:0:0:
445,118,99926,1,0,0:0:0:0:
455,73,100330,1,8,0:0:0:0:
396,115,101139,1,0,0:0:0:0:
396,115,101948,1,0,0:0:0:0:
380,53,102757,1,0,0:0:0:0:
445,118,103162,1,8,0:0:0:0:
445,118,103566,1,0,0:0:0:0:
380,53,104375,1,8,0:0:0:0:
380,53,105184,1,0,0:0:0:0:
380,53,105994,1,0,0:0:0:0:
445,118,106398,1,0,0:0:0:0:
445,118,106803,1,8,0:0:0:0:
380,53,107612,1,8,0:0:0:0:
370,129,108421,1,0,0:0:0:0:
445,118,108825,1,0,0:0:0:0:
380,53,109230,1,8,0:0:0:0:
237,113,109634,1,8,0:0:0:0:
344,190,110039,1,4,0:0:0:0:
