osu file format v14

[General]
AudioFilename: audio.mp3
AudioLeadIn: 0
PreviewTime: 19419
Countdown: 0
SampleSet: Normal
StackLeniency: 0.7
Mode: 1
LetterboxInBreaks: 0
WidescreenStoryboard: 0

[Editor]
DistanceSpacing: 0.85
BeatDivisor: 12
GridSize: 32
TimelineZoom: 1.8

[Metadata]
Title:SMOKE IT OFF! * (feat. jnhygs)
TitleUnicode:SMOKE IT OFF! ✮ (feat. jnhygs)
Artist:Lumi Athena
ArtistUnicode:Lumi Athena
Creator:Invisible O
Version:*GLITTER!*
Source:
Tags:Rap Hip-hop Hip hop Hip_Hop English electronic Alt alternative Krushclub krush crush club crushclub koul
BeatmapID:4054478
BeatmapSetID:1957177

[Difficulty]
HPDrainRate:6
CircleSize:5
OverallDifficulty:6
ApproachRate:5
SliderMultiplier:1.4
SliderTickRate:1

[Events]
//Background and Video events
0,0,"Smoke(1).jpg",0,-130
//Break Periods
//Storyboard Layer 0 (Background)
//Storyboard Layer 1 (Fail)
//Storyboard Layer 2 (Pass)
//Storyboard Layer 3 (Foreground)
//Storyboard Layer 4 (Overlay)
//Storyboard Sound Samples

[TimingPoints]
1630,404.511653306546,4,1,0,100,1,0
1630,-200,4,1,0,100,0,0
6470,-200,4,1,0,100,0,0
12942,-100,4,1,0,100,0,0
13043,-200,4,1,0,100,0,0
16177,-200,4,1,0,100,0,0
16278,-202.894397478149,4,1,0,100,0,0
16379,-205.873800523408,4,1,0,100,0,0
16581,-212.103055721989,4,1,0,100,0,0
16784,-218.754827746022,4,1,0,100,0,0
16885,-222.222222222222,4,1,0,100,0,0
16986,-225.801307606442,4,1,0,100,0,0
17188,-233.316856154226,4,1,0,100,0,0
17289,-237.265415549598,4,1,0,100,0,0
17390,-241.349923299813,4,1,0,100,0,0
17593,-250,4,1,0,100,0,0
17795,-259.245697546686,4,1,0,100,0,0
17896,-264.129826524902,4,1,0,100,0,0
17997,-269.201520912548,4,1,0,100,0,0
18199,-279.952550415184,4,1,0,100,0,0
18402,-291.658084449022,4,1,0,100,0,0
18503,-297.85443836769,4,1,0,100,0,0
18604,-304.319793681496,4,1,0,100,0,0
18806,-318.130757133228,4,1,0,100,0,0
19009,-333.333333333333,4,1,0,100,0,0
19428,-200,4,1,0,100,0,1
19615,-206.887146266621,4,1,0,100,0,1
19818,-214.303372770616,4,1,0,100,0,1
20020,-222.230360739791,4,1,0,100,0,1
20121,-226.417910447761,4,1,0,100,0,1
20222,-230.766305381251,4,1,0,100,0,1
20323,-235.284994183792,4,1,0,100,0,1
20424,-239.984180344077,4,1,0,100,0,1
20525,-244.874899112187,4,1,0,100,0,1
20627,-250.020601565719,4,1,0,100,0,1
20829,-260.877042132416,4,1,0,100,0,1
21031,-272.719101123596,4,1,0,100,0,1
21132,-279.052655782939,4,1,0,100,0,1
21233,-285.687382297552,4,1,0,100,0,1
21334,-292.645285748734,4,1,0,100,0,1
21436,-300.024721878863,4,1,0,100,0,1
21537,-307.707910750507,4,1,0,100,0,1
21638,-315.794951860526,4,1,0,100,0,1
21739,-324.318546231961,4,1,0,100,0,1
21840,-333.315023345235,4,1,0,100,0,1
22042,-352.893282931085,4,1,0,100,0,1
22143,-363.571000599161,4,1,0,100,0,1
22245,-375.030902348578,4,1,0,100,0,1
22447,-400,4,1,0,100,0,1
22649,-200,4,1,0,100,0,1
22851,-206.657877389585,4,1,0,100,0,1
23054,-213.810741687979,4,1,0,100,0,1
23256,-221.437400671022,4,1,0,100,0,1
23357,-225.458468176915,4,1,0,100,0,1
23458,-229.628273210035,4,1,0,100,0,1
23559,-233.955223880597,4,1,0,100,0,1
23660,-238.44837421563,4,1,0,100,0,1
23762,-243.164630599186,4,1,0,100,0,1
23863,-248.022151898734,4,1,0,100,0,1
24065,-258.343634116193,4,1,0,100,0,1
24267,-269.561478933792,4,1,0,100,0,1
24368,-275.543836519446,4,1,0,100,0,1
24469,-281.797752808989,4,1,0,100,0,1
24571,-288.408463661453,4,1,0,100,0,1
24672,-295.267247468801,4,1,0,100,0,1
24773,-302.46020260492,4,1,0,100,0,1
24874,-310.012360939431,4,1,0,100,0,1
24975,-317.951318458418,4,1,0,100,0,1
25076,-326.307572209212,4,1,0,100,0,1
25177,-335.114911811865,4,1,0,100,0,1
25278,-344.410876132931,4,1,0,100,0,1
25380,-354.33738344165,4,1,0,100,0,1
25481,-364.746945898778,4,1,0,100,0,1
25582,-375.786634701828,4,1,0,100,0,1
25683,-387.515451174289,4,1,0,100,0,1
25784,-400,4,1,0,100,0,1
25885,-200,4,1,0,100,0,1
26087,-206.887146266621,4,1,0,100,0,1
26290,-214.303372770616,4,1,0,100,0,1
26492,-222.230360739791,4,1,0,100,0,1
26593,-226.417910447761,4,1,0,100,0,1
26694,-230.766305381251,4,1,0,100,0,1
26795,-235.284994183792,4,1,0,100,0,1
26896,-239.984180344077,4,1,0,100,0,1
26998,-244.924318869829,4,1,0,100,0,1
27099,-250.020601565719,4,1,0,100,0,1
27301,-260.877042132416,4,1,0,100,0,1
27503,-272.719101123596,4,1,0,100,0,1
27604,-279.052655782939,4,1,0,100,0,1
27706,-285.754650341418,4,1,0,100,0,1
27807,-292.715870718765,4,1,0,100,0,1
27908,-300.024721878863,4,1,0,100,0,1
28009,-307.707910750507,4,1,0,100,0,1
28110,-315.794951860526,4,1,0,100,0,1
28211,-324.318546231961,4,1,0,100,0,1
28312,-333.315023345235,4,1,0,100,0,1
28515,-352.995927865038,4,1,0,100,0,1
28616,-363.679952052742,4,1,0,100,0,1
28717,-375.030902348578,4,1,0,100,0,1
28919,-400,4,1,0,100,0,1
29121,-200,4,1,0,100,0,1
29324,-207.434535799304,4,1,0,100,0,1
29526,-215.402167712493,4,1,0,100,0,1
29728,-224.006327862369,4,1,0,100,0,1
29829,-228.571428571429,4,1,0,100,0,1
29930,-233.326467559217,4,1,0,100,0,1
30031,-238.283550694152,4,1,0,100,0,1
30133,-243.508168529665,4,1,0,100,0,1
30234,-248.912326961108,4,1,0,100,0,1
30335,-254.561797752809,4,1,0,100,0,1
30537,-266.666666666667,4,1,0,100,0,1
30739,-279.980227385072,4,1,0,100,0,1
30840,-287.148288973384,4,1,0,100,0,1
30942,-294.769711163154,4,1,0,100,0,1
31043,-302.725815072154,4,1,0,100,0,1
31144,-311.123317769843,4,1,0,100,0,1
31245,-320,4,1,0,100,0,1
31346,-329.398080837453,4,1,0,100,0,1
31447,-339.364889155183,4,1,0,100,0,1
31548,-349.953660797034,4,1,0,100,0,1
31649,-361.224489795918,4,1,0,100,0,1
31751,-373.368490441661,4,1,0,100,0,1
31852,-386.225707466758,4,1,0,100,0,1
31953,-400,4,1,0,100,0,1
32372,-133.333333333333,4,1,0,100,0,0
32560,-400,4,1,0,100,0,0
32762,-346.701846965699,4,1,0,100,0,0
32964,-305.937136204889,4,1,0,100,0,0
33065,-288.949972512369,4,1,0,100,0,0
33166,-273.75,4,1,0,100,0,0
33268,-259.940652818991,4,1,0,100,0,0
33369,-247.574187470561,4,1,0,100,0,0
33470,-236.330935251799,4,1,0,100,0,0
33571,-226.064516129032,4,1,0,100,0,0
33672,-216.652926628195,4,1,0,100,0,0
33773,-207.99366838148,4,1,0,100,0,0
33874,-200,4,1,0,100,0,0
33976,-133.333333333333,4,1,0,100,0,0
34178,-200,4,1,0,100,0,0
34380,-216.652926628195,4,1,0,100,0,0
34582,-236.330935251799,4,1,0,100,0,0
34683,-247.574187470561,4,1,0,100,0,0
34784,-259.940652818991,4,1,0,100,0,0
34886,-273.75,4,1,0,100,0,0
34987,-288.949972512369,4,1,0,100,0,0
35088,-305.937136204889,4,1,0,100,0,0
35189,-325.046382189239,4,1,0,100,0,0
35290,-346.701846965699,4,1,0,100,0,0
35391,-371.448763250883,4,1,0,100,0,0
35492,-400,4,1,0,100,0,0
35594,-133.333333333333,4,1,0,100,0,0
35796,-400,4,1,0,100,0,0
35998,-346.701846965699,4,1,0,100,0,0
36200,-305.937136204889,4,1,0,100,0,0
36301,-288.949972512369,4,1,0,100,0,0
36402,-273.75,4,1,0,100,0,0
36504,-259.940652818991,4,1,0,100,0,0
36605,-247.574187470561,4,1,0,100,0,0
36706,-236.330935251799,4,1,0,100,0,0
36807,-226.064516129032,4,1,0,100,0,0
36908,-216.652926628195,4,1,0,100,0,0
37009,-207.99366838148,4,1,0,100,0,0
37110,-200,4,1,0,100,0,0
37213,-133.333333333333,4,1,0,100,0,0
37414,-200,4,1,0,100,0,0
37616,-216.652926628195,4,1,0,100,0,0
37818,-236.330935251799,4,1,0,100,0,0
37919,-247.574187470561,4,1,0,100,0,0
38020,-259.940652818991,4,1,0,100,0,0
38122,-273.75,4,1,0,100,0,0
38223,-288.949972512369,4,1,0,100,0,0
38324,-305.937136204889,4,1,0,100,0,0
38425,-325.046382189239,4,1,0,100,0,0
38526,-346.701846965699,4,1,0,100,0,0
38627,-371.448763250883,4,1,0,100,0,0
38728,-400,4,1,0,100,0,0
38831,-133.333333333333,4,1,0,100,0,0
39033,-399.695817490494,4,1,0,100,0,0
39235,-346.473302570864,4,1,0,100,0,0
39437,-305.759162303665,4,1,0,100,0,0
39538,-288.791208791209,4,1,0,100,0,0
39639,-273.607496095784,4,1,0,100,0,0
39741,-259.812160158181,4,1,0,100,0,0
39842,-247.457627118644,4,1,0,100,0,0
39943,-236.224719101124,4,1,0,100,0,0
40044,-225.967325881341,4,1,0,100,0,0
40145,-216.563658838072,4,1,0,100,0,0
40246,-207.911392405063,4,1,0,100,0,0
40347,-200,4,1,0,100,0,0
40449,-133.333333333333,4,1,0,100,0,0
40651,-200.076074553062,4,1,0,100,0,0
40853,-216.728471363824,4,1,0,100,0,0
41055,-236.404494382023,4,1,0,100,0,0
41156,-247.645951035782,4,1,0,100,0,0
41257,-260.009886307464,4,1,0,100,0,0
41359,-273.815720978657,4,1,0,100,0,0
41460,-289.010989010989,4,1,0,100,0,0
41561,-305.991855730076,4,1,0,100,0,0
41662,-325.092707045735,4,1,0,100,0,0
41763,-346.736980883322,4,1,0,100,0,0
41864,-371.468926553672,4,1,0,100,0,0
41965,-400,4,1,0,100,0,0
42067,-133.333333333333,4,1,0,100,0,0
42269,-399.696048632219,4,1,0,100,0,0
42471,-346.508563899868,4,1,0,100,0,0
42673,-305.813953488372,4,1,0,100,0,0
42774,-288.8522789676,4,1,0,100,0,0
42875,-273.673257023933,4,1,0,100,0,0
42977,-259.881422924901,4,1,0,100,0,0
43078,-247.529411764706,4,1,0,100,0,0
43179,-236.298292902066,4,1,0,100,0,0
43280,-226.042114310271,4,1,0,100,0,0
43381,-216.6392092257,4,1,0,100,0,0
43482,-207.987346777382,4,1,0,100,0,0
43583,-200,4,1,0,100,0,0
43685,-133.333333333333,4,1,0,100,0,0
43887,-200.076074553062,4,1,0,100,0,0
44089,-216.728471363824,4,1,0,100,0,0
44291,-236.404494382023,4,1,0,100,0,0
44392,-247.645951035782,4,1,0,100,0,0
44493,-260.009886307464,4,1,0,100,0,0
44595,-273.815720978657,4,1,0,100,0,0
44696,-289.010989010989,4,1,0,100,0,0
44797,-305.991855730076,4,1,0,100,0,0
44898,-325.092707045735,4,1,0,100,0,0
44999,-346.736980883322,4,1,0,100,0,0
45100,-371.468926553672,4,1,0,100,0,0
45201,-400,4,1,0,100,0,0
45303,-133.333333333333,4,1,0,100,0,0
45504,-139.122957867584,4,1,0,100,0,0
45706,-145.438202247191,4,1,0,100,0,0
45807,-148.815819728673,4,1,0,100,0,0
45909,-152.389922298093,4,1,0,100,0,0
46111,-160,4,1,0,100,0,0
46212,-164.097363083164,4,1,0,100,0,0
46313,-168.410096278949,4,1,0,100,0,0
46515,-177.753364460313,4,1,0,100,0,0
46616,-182.824858757062,4,1,0,100,0,0
46718,-188.248981966259,4,1,0,100,0,0
46920,-200,4,1,0,100,0,0
47122,-210.517181534189,4,1,0,100,0,0
47527,-235.328353865554,4,1,0,100,0,0
47729,-250.025765227249,4,1,0,100,0,0
47931,-266.681323513246,4,1,0,100,0,0
48133,-285.714285714286,4,1,0,100,0,0
48538,-133.333333333333,4,1,0,100,0,0
48639,-136.166631601094,4,1,0,100,0,0
48740,-139.122957867584,4,1,0,100,0,0
48942,-145.438202247191,4,1,0,100,0,0
49043,-148.815819728673,4,1,0,100,0,0
49145,-152.389922298093,4,1,0,100,0,0
49347,-160,4,1,0,100,0,0
49448,-164.097363083164,4,1,0,100,0,0
49549,-168.410096278949,4,1,0,100,0,0
49751,-177.753364460313,4,1,0,100,0,0
49853,-182.876518790619,4,1,0,100,0,0
49954,-188.248981966259,4,1,0,100,0,0
50156,-200,4,1,0,100,0,0
50358,-210.517181534189,4,1,0,100,0,0
50763,-235.328353865554,4,1,0,100,0,0
50965,-250.025765227249,4,1,0,100,0,0
51167,-266.681323513246,4,1,0,100,0,0
51369,-285.714285714286,4,1,0,100,0,0
51775,-133.333333333333,4,1,0,100,0,0
51875,-136.165577342048,4,1,0,100,0,0
51976,-139.120756816917,4,1,0,100,0,0
52178,-145.438202247191,4,1,0,100,0,0
52279,-148.815819728673,4,1,0,100,0,0
52381,-152.389922298093,4,1,0,100,0,0
52583,-160,4,1,0,100,0,0
52684,-164.097363083164,4,1,0,100,0,0
52785,-168.410096278949,4,1,0,100,0,0
52987,-177.753364460313,4,1,0,100,0,0
53088,-182.824858757062,4,1,0,100,0,0
53190,-188.248981966259,4,1,0,100,0,0
53392,-200,4,1,0,100,0,0
53594,-210.517181534189,4,1,0,100,0,0
53999,-235.328353865554,4,1,0,100,0,0
54201,-250.025765227249,4,1,0,100,0,0
54403,-266.681323513246,4,1,0,100,0,0
54605,-285.714285714286,4,1,0,100,0,0
55010,-133.333333333333,4,1,0,100,0,0
55111,-136.166631601094,4,1,0,100,0,0
55212,-139.122957867584,4,1,0,100,0,0
55414,-145.438202247191,4,1,0,100,0,0
55515,-148.815819728673,4,1,0,100,0,0
55617,-152.389922298093,4,1,0,100,0,0
55819,-160,4,1,0,100,0,0
55920,-164.097363083164,4,1,0,100,0,0
56021,-168.410096278949,4,1,0,100,0,0
56223,-177.753364460313,4,1,0,100,0,0
56325,-182.876518790619,4,1,0,100,0,0
56426,-188.248981966259,4,1,0,100,0,0
56628,-200,4,1,0,100,0,0
56830,-210.517181534189,4,1,0,100,0,0
57235,-235.328353865554,4,1,0,100,0,0
57437,-250.025765227249,4,1,0,100,0,0
57639,-266.681323513246,4,1,0,100,0,0
57841,-285.714285714286,4,1,0,100,0,0
58247,-200,4,1,0,100,0,0
64719,-100,4,1,0,100,0,0
64820,-200,4,1,0,100,0,0
71192,-100,4,1,0,100,0,0
71293,-200,4,1,0,100,0,0
77664,-100,4,1,0,100,0,0
77765,-200.729005016421,4,1,0,100,0,0
77966,-201.463343958273,4,1,0,100,0,0
78067,-202.203075580761,4,1,0,100,0,0
78269,-203.698956235122,4,1,0,100,0,0
78472,-205.224706663715,4,1,0,100,0,0
78674,-206.765799256506,4,1,0,100,0,0
78775,-207.545057651405,4,1,0,100,0,0
78876,-208.330212000899,4,1,0,100,0,0
79078,-209.91847826087,4,1,0,100,0,0
79281,-211.539192941087,4,1,0,100,0,0
79382,-212.354917532071,4,1,0,100,0,0
79483,-213.176957571576,4,1,0,100,0,0
79584,-214.005386687187,4,1,0,100,0,0
79685,-214.840279655452,4,1,0,100,0,0
79888,-216.538192011212,4,1,0,100,0,0
79989,-217.393003713113,4,1,0,100,0,0
80090,-218.254591115994,4,1,0,100,0,0
80292,-219.998417846689,4,1,0,100,0,0
80393,-220.880822842619,4,1,0,100,0,0
80494,-221.77033492823,4,1,0,100,0,0
80697,-223.580013667243,4,1,0,100,0,0
80899,-225.410334346505,4,1,0,100,0,0
81000,-226.336778709205,4,1,0,100,0,0
81101,-227.270869938299,4,1,0,100,0,0
81202,-228.21270310192,4,1,0,100,0,0
81303,-229.162374850645,4,1,0,100,0,0
81404,-230.119983450558,4,1,0,100,0,0
81506,-231.095230181153,4,1,0,100,0,0
81708,-233.051202547557,4,1,0,100,0,0
81910,-235.040567951319,4,1,0,100,0,0
82011,-236.048041420872,4,1,0,100,0,0
82112,-237.064188901202,4,1,0,100,0,0
82315,-239.133238746292,4,1,0,100,0,0
82517,-241.228260398144,4,1,0,100,0,0
82719,-243.360315029534,4,1,0,100,0,0
82820,-244.440537927397,4,1,0,100,0,0
82921,-245.530393325387,4,1,0,100,0,0
83124,-247.750556792873,4,1,0,100,0,0
83326,-250,4,1,0,100,0,0
84150,-200,4,1,0,100,0,1
84337,-206.887146266621,4,1,0,100,0,1
84540,-214.303372770616,4,1,0,100,0,1
84742,-222.230360739791,4,1,0,100,0,1
84843,-226.417910447761,4,1,0,100,0,1
84944,-230.766305381251,4,1,0,100,0,1
85045,-235.284994183792,4,1,0,100,0,1
85146,-239.984180344077,4,1,0,100,0,1
85247,-244.874899112187,4,1,0,100,0,1
85349,-250.020601565719,4,1,0,100,0,1
85551,-260.877042132416,4,1,0,100,0,1
85753,-272.719101123596,4,1,0,100,0,1
85854,-279.052655782939,4,1,0,100,0,1
85955,-285.687382297552,4,1,0,100,0,1
86056,-292.645285748734,4,1,0,100,0,1
86158,-300.024721878863,4,1,0,100,0,1
86259,-307.707910750507,4,1,0,100,0,1
86360,-315.794951860526,4,1,0,100,0,1
86461,-324.318546231961,4,1,0,100,0,1
86562,-333.315023345235,4,1,0,100,0,1
86764,-352.893282931085,4,1,0,100,0,1
86865,-363.571000599161,4,1,0,100,0,1
86967,-375.030902348578,4,1,0,100,0,1
87169,-400,4,1,0,100,0,1
87371,-200,4,1,0,100,0,1
87573,-206.657877389585,4,1,0,100,0,1
87776,-213.810741687979,4,1,0,100,0,1
87978,-221.437400671022,4,1,0,100,0,1
88079,-225.458468176915,4,1,0,100,0,1
88180,-229.628273210035,4,1,0,100,0,1
88281,-233.955223880597,4,1,0,100,0,1
88382,-238.44837421563,4,1,0,100,0,1
88484,-243.164630599186,4,1,0,100,0,1
88585,-248.022151898734,4,1,0,100,0,1
88787,-258.343634116193,4,1,0,100,0,1
88989,-269.561478933792,4,1,0,100,0,1
89090,-275.543836519446,4,1,0,100,0,1
89191,-281.797752808989,4,1,0,100,0,1
89293,-288.408463661453,4,1,0,100,0,1
89394,-295.267247468801,4,1,0,100,0,1
89495,-302.46020260492,4,1,0,100,0,1
89596,-310.012360939431,4,1,0,100,0,1
89697,-317.951318458418,4,1,0,100,0,1
89798,-326.307572209212,4,1,0,100,0,1
89899,-335.114911811865,4,1,0,100,0,1
90000,-344.410876132931,4,1,0,100,0,1
90102,-354.33738344165,4,1,0,100,0,1
90203,-364.746945898778,4,1,0,100,0,1
90304,-375.786634701828,4,1,0,100,0,1
90405,-387.515451174289,4,1,0,100,0,1
90506,-400,4,1,0,100,0,1
90607,-200,4,1,0,100,0,1
90809,-206.887146266621,4,1,0,100,0,1
91012,-214.303372770616,4,1,0,100,0,1
91214,-222.230360739791,4,1,0,100,0,1
91315,-226.417910447761,4,1,0,100,0,1
91416,-230.766305381251,4,1,0,100,0,1
91517,-235.284994183792,4,1,0,100,0,1
91618,-239.984180344077,4,1,0,100,0,1
91720,-244.924318869829,4,1,0,100,0,1
91821,-250.020601565719,4,1,0,100,0,1
92023,-260.877042132416,4,1,0,100,0,1
92225,-272.719101123596,4,1,0,100,0,1
92326,-279.052655782939,4,1,0,100,0,1
92428,-285.754650341418,4,1,0,100,0,1
92529,-292.715870718765,4,1,0,100,0,1
92630,-300.024721878863,4,1,0,100,0,1
92731,-307.707910750507,4,1,0,100,0,1
92832,-315.794951860526,4,1,0,100,0,1
92933,-324.318546231961,4,1,0,100,0,1
93034,-333.315023345235,4,1,0,100,0,1
93237,-352.995927865038,4,1,0,100,0,1
93338,-363.679952052742,4,1,0,100,0,1
93439,-375.030902348578,4,1,0,100,0,1
93641,-400,4,1,0,100,0,1
93843,-200,4,1,0,100,0,1
94046,-206.691940003297,4,1,0,100,0,1
94248,-213.810741687979,4,1,0,100,0,1
94450,-221.437400671022,4,1,0,100,0,1
94551,-225.458468176915,4,1,0,100,0,1
94652,-229.628273210035,4,1,0,100,0,1
94753,-233.955223880597,4,1,0,100,0,1
94855,-238.493723849372,4,1,0,100,0,1
94956,-243.164630599186,4,1,0,100,0,1
95057,-248.022151898734,4,1,0,100,0,1
95259,-258.343634116193,4,1,0,100,0,1
95461,-269.561478933792,4,1,0,100,0,1
95562,-275.543836519446,4,1,0,100,0,1
95664,-281.86109238031,4,1,0,100,0,1
95765,-288.408463661453,4,1,0,100,0,1
95866,-295.267247468801,4,1,0,100,0,1
95967,-302.46020260492,4,1,0,100,0,1
96068,-310.012360939431,4,1,0,100,0,1
96169,-317.951318458418,4,1,0,100,0,1
96270,-326.307572209212,4,1,0,100,0,1
96371,-335.114911811865,4,1,0,100,0,1
96473,-344.505494505494,4,1,0,100,0,1
96574,-354.33738344165,4,1,0,100,0,1
96675,-364.746945898778,4,1,0,100,0,1
96781,-375.786634701828,4,1,0,100,0,1
96882,-387.515451174289,4,1,0,100,0,1
96983,-400,4,1,0,100,0,1
97094,-133.333333333333,4,1,0,100,0,0
97686,-137.779486897764,4,1,0,100,0,0
97888,-139.32559302261,4,1,0,100,0,0
98091,-140.914709517923,4,1,0,100,0,0
98293,-142.532393725847,4,1,0,100,0,0
98697,-145.881805490926,4,1,0,100,0,0
98900,-147.624933780682,4,1,0,100,0,0
99001,-148.507816200853,4,1,0,100,0,0
99102,-149.401322451897,4,1,0,100,0,0
99304,-151.220982815797,4,1,0,100,0,0
99506,-153.085515473357,4,1,0,100,0,0
99709,-155.006180469716,4,1,0,100,0,0
99911,-156.965828013519,4,1,0,100,0,0
100315,-161.037626813921,4,1,0,100,0,0
100518,-163.164400494438,4,1,0,100,0,0
100922,-167.568651032271,4,1,0,100,0,0
101124,-169.86115814426,4,1,0,100,0,0
101327,-172.229089410795,4,1,0,100,0,0
101529,-174.651810584958,4,1,0,100,0,0
101933,-179.707652622528,4,1,0,100,0,0
102136,-182.360212317313,4,1,0,100,0,0
102237,-183.70934661588,4,1,0,100,0,0
102338,-185.078591985831,4,1,0,100,0,0
102540,-187.879241890778,4,1,0,100,0,0
102742,-190.765954210086,4,1,0,100,0,0
102945,-193.757725587145,4,1,0,100,0,0
103046,-195.281476290586,4,1,0,100,0,0
103147,-196.829383142364,4,1,0,100,0,0
103349,-200,4,1,0,100,0,0
103551,-203.274436699627,4,1,0,100,0,0
103754,-206.674907292954,4,1,0,100,0,0
104158,-213.792515557071,4,1,0,100,0,0
104360,-217.538381472808,4,1,0,100,0,0
104563,-221.437400671022,4,1,0,100,0,0
104765,-225.458468176915,4,1,0,100,0,0
105169,-233.955223880597,4,1,0,100,0,0
105372,-238.471046876486,4,1,0,100,0,0
105473,-240.783410138249,4,1,0,100,0,0
105574,-243.141056713524,4,1,0,100,0,0
105776,-247.997626816968,4,1,0,100,0,0
105979,-253.077699293643,4,1,0,100,0,0
106181,-258.343634116193,4,1,0,100,0,0
106383,-263.833368398906,4,1,0,100,0,0
106788,-275.574112734864,4,1,0,100,0,0
107394,-295.232489699823,4,1,0,100,0,0
107597,-302.46020260492,4,1,0,100,0,0
107799,-310.012360939431,4,1,0,100,0,0
108001,-317.951318458418,4,1,0,100,0,0
108406,-335.159695309368,4,1,0,100,0,0
108507,-339.745326469791,4,1,0,100,0,0
108608,-344.45817882159,4,1,0,100,0,0
108709,-349.303621169916,4,1,0,100,0,0
108810,-354.287328718746,4,1,0,100,0,0
109012,-364.693907226988,4,1,0,100,0,0
109215,-375.786634701828,4,1,0,100,0,0
109316,-381.560931081698,4,1,0,100,0,0
109417,-387.515451174289,4,1,0,100,0,0
109518,-393.658766284728,4,1,0,100,0,0
109619,-400,4,1,0,100,0,0
110025,-66.6666666666667,4,1,0,100,0,0
110126,-200,4,1,0,100,0,0

[HitObjects]
256,192,6484,5,0,0:0:0:0:
256,192,6686,1,8,0:0:0:0:
256,192,6888,1,0,0:0:0:0:
256,192,7090,1,8,0:0:0:0:
256,192,7192,1,8,0:0:0:0:
256,192,7293,1,0,0:0:0:0:
256,192,7495,1,8,0:0:0:0:
256,192,7596,1,0,0:0:0:0:
256,192,7697,1,0,0:0:0:0:
256,192,7899,1,0,0:0:0:0:
256,192,8102,1,8,0:0:0:0:
256,192,8203,1,0,0:0:0:0:
256,192,8304,1,8,0:0:0:0:
256,192,8405,1,8,0:0:0:0:
256,192,8506,1,0,0:0:0:0:
256,192,8708,1,8,0:0:0:0:
256,192,8911,1,0,0:0:0:0:
256,192,9113,1,0,0:0:0:0:
256,192,9214,1,0,0:0:0:0:
256,192,9315,1,8,0:0:0:0:
256,192,9517,1,0,0:0:0:0:
256,192,9720,1,8,0:0:0:0:
256,192,9821,1,0,0:0:0:0:
256,192,9922,1,8,0:0:0:0:
256,192,10124,1,0,0:0:0:0:
256,192,10327,1,8,0:0:0:0:
256,192,10428,1,8,0:0:0:0:
256,192,10529,1,0,0:0:0:0:
256,192,10731,1,8,0:0:0:0:
256,192,10832,1,0,0:0:0:0:
256,192,10933,1,0,0:0:0:0:
256,192,11136,1,8,0:0:0:0:
256,192,11338,1,0,0:0:0:0:
256,192,11439,1,0,0:0:0:0:
256,192,11540,1,8,0:0:0:0:
256,192,11742,1,0,0:0:0:0:
256,192,11843,1,8,0:0:0:0:
256,192,11945,1,0,0:0:0:0:
256,192,12046,1,0,0:0:0:0:
256,192,12147,1,8,0:0:0:0:
256,192,12349,1,0,0:0:0:0:
256,192,12450,1,0,0:0:0:0:
256,192,12551,1,8,0:0:0:0:
256,192,12652,1,0,0:0:0:0:
256,192,12754,1,8,0:0:0:0:
256,192,12855,1,8,0:0:0:0:
256,192,12956,1,4,0:0:0:0:
256,192,13158,1,8,0:0:0:0:
256,192,13360,1,0,0:0:0:0:
256,192,13461,1,0,0:0:0:0:
256,192,13563,1,8,0:0:0:0:
256,192,13765,1,0,0:0:0:0:
256,192,13967,1,8,0:0:0:0:
256,192,14068,1,0,0:0:0:0:
256,192,14169,1,0,0:0:0:0:
256,192,14372,1,8,0:0:0:0:
256,192,14574,1,0,0:0:0:0:
256,192,14675,1,0,0:0:0:0:
256,192,14776,1,8,0:0:0:0:
256,192,14978,1,0,0:0:0:0:
256,192,15181,1,8,0:0:0:0:
256,192,15282,1,8,0:0:0:0:
256,192,15383,1,0,0:0:0:0:
256,192,15585,1,8,0:0:0:0:
256,192,15686,1,0,0:0:0:0:
256,192,15787,1,8,0:0:0:0:
256,192,15990,1,0,0:0:0:0:
256,192,16192,1,0,0:0:0:0:
256,192,16293,1,0,0:0:0:0:
256,192,16394,1,8,0:0:0:0:
256,192,16596,1,0,0:0:0:0:
256,192,16799,1,8,0:0:0:0:
256,192,16900,1,8,0:0:0:0:
256,192,17001,1,0,0:0:0:0:
256,192,17203,1,8,0:0:0:0:
256,192,17304,1,0,0:0:0:0:
256,192,17405,1,0,0:0:0:0:
256,192,17608,1,8,0:0:0:0:
256,192,17810,1,0,0:0:0:0:
256,192,17911,1,0,0:0:0:0:
256,192,18012,1,8,0:0:0:0:
256,192,18214,1,0,0:0:0:0:
256,192,18417,1,8,0:0:0:0:
256,192,18518,1,8,0:0:0:0:
256,192,18619,1,0,0:0:0:0:
256,192,18821,1,8,0:0:0:0:
256,192,19024,1,0,0:0:0:0:
256,192,19428,1,12,0:0:0:0:
256,192,19630,1,0,0:0:0:0:
256,192,19833,1,8,0:0:0:0:
256,192,20035,1,0,0:0:0:0:
256,192,20136,1,0,0:0:0:0:
256,192,20237,1,8,0:0:0:0:
256,192,20338,1,0,0:0:0:0:
256,192,20439,1,8,0:0:0:0:
256,192,20540,1,8,0:0:0:0:
256,192,20642,1,0,0:0:0:0:
256,192,20844,1,8,0:0:0:0:
256,192,21046,1,0,0:0:0:0:
256,192,21147,1,0,0:0:0:0:
256,192,21248,1,8,0:0:0:0:
256,192,21349,1,0,0:0:0:0:
256,192,21451,1,8,0:0:0:0:
256,192,21552,1,8,0:0:0:0:
256,192,21653,1,0,0:0:0:0:
256,192,21754,1,8,0:0:0:0:
256,192,21855,1,0,0:0:0:0:
256,192,22057,1,8,0:0:0:0:
256,192,22158,1,0,0:0:0:0:
256,192,22260,1,0,0:0:0:0:
256,192,22462,1,0,0:0:0:0:
256,192,22664,1,12,0:0:0:0:
256,192,22866,1,0,0:0:0:0:
256,192,23069,1,8,0:0:0:0:
256,192,23271,1,0,0:0:0:0:
256,192,23372,1,0,0:0:0:0:
256,192,23473,1,8,0:0:0:0:
256,192,23574,1,8,0:0:0:0:
256,192,23675,1,0,0:0:0:0:
256,192,23777,1,8,0:0:0:0:
256,192,23878,1,0,0:0:0:0:
256,192,24080,1,8,0:0:0:0:
256,192,24282,1,0,0:0:0:0:
256,192,24383,1,8,0:0:0:0:
256,192,24484,1,0,0:0:0:0:
256,192,24586,1,0,0:0:0:0:
256,192,24687,1,8,0:0:0:0:
256,192,24788,1,0,0:0:0:0:
256,192,24889,1,8,0:0:0:0:
256,192,24990,1,8,0:0:0:0:
256,192,25091,1,0,0:0:0:0:
256,192,25192,1,8,0:0:0:0:
256,192,25293,1,0,0:0:0:0:
256,192,25395,1,0,0:0:0:0:
256,192,25496,1,8,0:0:0:0:
256,192,25597,1,0,0:0:0:0:
256,192,25698,1,8,0:0:0:0:
256,192,25799,1,8,0:0:0:0:
256,192,25900,1,4,0:0:0:0:
256,192,26102,1,8,0:0:0:0:
256,192,26305,1,0,0:0:0:0:
256,192,26507,1,8,0:0:0:0:
256,192,26608,1,0,0:0:0:0:
256,192,26709,1,8,0:0:0:0:
256,192,26810,1,0,0:0:0:0:
256,192,26911,1,8,0:0:0:0:
256,192,27013,1,8,0:0:0:0:
256,192,27114,1,0,0:0:0:0:
256,192,27316,1,8,0:0:0:0:
256,192,27518,1,0,0:0:0:0:
256,192,27619,1,0,0:0:0:0:
256,192,27721,1,8,0:0:0:0:
256,192,27822,1,0,0:0:0:0:
256,192,27923,1,8,0:0:0:0:
256,192,28024,1,0,0:0:0:0:
256,192,28125,1,8,0:0:0:0:
256,192,28226,1,8,0:0:0:0:
256,192,28327,1,0,0:0:0:0:
256,192,28530,1,8,0:0:0:0:
256,192,28631,1,0,0:0:0:0:
256,192,28732,1,0,0:0:0:0:
256,192,28934,1,0,0:0:0:0:
256,192,29136,1,12,0:0:0:0:
256,192,29339,1,0,0:0:0:0:
256,192,29541,1,8,0:0:0:0:
256,192,29743,1,0,0:0:0:0:
256,192,29844,1,0,0:0:0:0:
256,192,29945,1,8,0:0:0:0:
256,192,30046,1,0,0:0:0:0:
256,192,30148,1,0,0:0:0:0:
256,192,30249,1,0,0:0:0:0:
256,192,30350,1,8,0:0:0:0:
256,192,30552,1,0,0:0:0:0:
256,192,30754,1,8,0:0:0:0:
256,192,30855,1,8,0:0:0:0:
256,192,30957,1,0,0:0:0:0:
256,192,31058,1,8,0:0:0:0:
256,192,31159,1,0,0:0:0:0:
256,192,31260,1,0,0:0:0:0:
256,192,31361,1,8,0:0:0:0:
256,192,31462,1,0,0:0:0:0:
256,192,31563,1,8,0:0:0:0:
256,192,31664,1,8,0:0:0:0:
256,192,31766,1,0,0:0:0:0:
256,192,31867,1,8,0:0:0:0:
256,192,31968,1,0,0:0:0:0:
256,192,32372,1,12,0:0:0:0:
256,192,32575,1,0,0:0:0:0:
256,192,32777,1,8,0:0:0:0:
256,192,32979,1,0,0:0:0:0:
256,192,33080,1,0,0:0:0:0:
256,192,33181,1,8,0:0:0:0:
256,192,33283,1,0,0:0:0:0:
256,192,33384,1,8,0:0:0:0:
256,192,33485,1,8,0:0:0:0:
256,192,33586,1,0,0:0:0:0:
256,192,33687,1,0,0:0:0:0:
256,192,33788,1,8,0:0:0:0:
256,192,33889,1,0,0:0:0:0:
256,192,33990,1,12,0:0:0:0:
256,192,34193,1,0,0:0:0:0:
256,192,34395,1,8,0:0:0:0:
256,192,34597,1,0,0:0:0:0:
256,192,34698,1,0,0:0:0:0:
256,192,34799,1,8,0:0:0:0:
256,192,34901,1,8,0:0:0:0:
256,192,35002,1,0,0:0:0:0:
256,192,35103,1,0,0:0:0:0:
256,192,35204,1,8,0:0:0:0:
256,192,35305,1,0,0:0:0:0:
256,192,35406,1,0,0:0:0:0:
256,192,35507,1,0,0:0:0:0:
256,192,35608,1,12,0:0:0:0:
256,192,35811,1,0,0:0:0:0:
256,192,36013,1,8,0:0:0:0:
256,192,36215,1,0,0:0:0:0:
256,192,36316,1,0,0:0:0:0:
256,192,36418,1,8,0:0:0:0:
256,192,36519,1,0,0:0:0:0:
256,192,36620,1,8,0:0:0:0:
256,192,36721,1,8,0:0:0:0:
256,192,36822,1,0,0:0:0:0:
256,192,36923,1,0,0:0:0:0:
256,192,37024,1,8,0:0:0:0:
256,192,37125,1,0,0:0:0:0:
256,192,37227,1,12,0:0:0:0:
256,192,37429,1,0,0:0:0:0:
256,192,37631,1,8,0:0:0:0:
256,192,37833,1,0,0:0:0:0:
256,192,37934,1,0,0:0:0:0:
256,192,38036,1,8,0:0:0:0:
256,192,38137,1,8,0:0:0:0:
256,192,38238,1,0,0:0:0:0:
256,192,38339,1,0,0:0:0:0:
256,192,38440,1,8,0:0:0:0:
256,192,38541,1,0,0:0:0:0:
256,192,38642,1,0,0:0:0:0:
256,192,38743,1,0,0:0:0:0:
256,192,38845,1,12,0:0:0:0:
256,192,39047,1,0,0:0:0:0:
256,192,39249,1,8,0:0:0:0:
256,192,39451,1,0,0:0:0:0:
256,192,39552,1,0,0:0:0:0:
256,192,39654,1,8,0:0:0:0:
256,192,39755,1,0,0:0:0:0:
256,192,39856,1,8,0:0:0:0:
256,192,39957,1,8,0:0:0:0:
256,192,40058,1,0,0:0:0:0:
256,192,40159,1,0,0:0:0:0:
256,192,40260,1,8,0:0:0:0:
256,192,40361,1,0,0:0:0:0:
256,192,40463,1,12,0:0:0:0:
256,192,40665,1,0,0:0:0:0:
256,192,40867,1,8,0:0:0:0:
256,192,41069,1,0,0:0:0:0:
256,192,41171,1,0,0:0:0:0:
256,192,41272,1,8,0:0:0:0:
256,192,41373,1,8,0:0:0:0:
256,192,41474,1,0,0:0:0:0:
256,192,41575,1,0,0:0:0:0:
256,192,41676,1,8,0:0:0:0:
256,192,41777,1,0,0:0:0:0:
256,192,41878,1,0,0:0:0:0:
256,192,41980,1,0,0:0:0:0:
256,192,42081,1,12,0:0:0:0:
256,192,42283,1,0,0:0:0:0:
256,192,42485,1,8,0:0:0:0:
256,192,42687,1,0,0:0:0:0:
256,192,42789,1,0,0:0:0:0:
256,192,42890,1,8,0:0:0:0:
256,192,42991,1,0,0:0:0:0:
256,192,43092,1,8,0:0:0:0:
256,192,43193,1,8,0:0:0:0:
256,192,43294,1,0,0:0:0:0:
256,192,43395,1,0,0:0:0:0:
256,192,43496,1,8,0:0:0:0:
256,192,43598,1,0,0:0:0:0:
256,192,43699,1,12,0:0:0:0:
256,192,43901,1,0,0:0:0:0:
256,192,44103,1,8,0:0:0:0:
256,192,44305,1,0,0:0:0:0:
256,192,44407,1,0,0:0:0:0:
256,192,44508,1,8,0:0:0:0:
256,192,44609,1,8,0:0:0:0:
256,192,44710,1,0,0:0:0:0:
256,192,44811,1,0,0:0:0:0:
256,192,44912,1,8,0:0:0:0:
256,192,45013,1,0,0:0:0:0:
256,192,45115,1,0,0:0:0:0:
256,192,45216,1,0,0:0:0:0:
256,192,45317,1,12,0:0:0:0:
256,192,45519,1,0,0:0:0:0:
256,192,45721,1,8,0:0:0:0:
256,192,45822,1,0,0:0:0:0:
256,192,45924,1,8,0:0:0:0:
256,192,46126,1,8,0:0:0:0:
256,192,46227,1,8,0:0:0:0:
256,192,46328,1,0,0:0:0:0:
256,192,46530,1,8,0:0:0:0:
256,192,46631,1,0,0:0:0:0:
256,192,46733,1,8,0:0:0:0:
256,192,46935,1,0,0:0:0:0:
256,192,47137,1,8,0:0:0:0:
256,192,47542,1,0,0:0:0:0:
256,192,47744,1,8,0:0:0:0:
256,192,47946,1,0,0:0:0:0:
256,192,48148,1,8,0:0:0:0:
256,192,48553,1,0,0:0:0:0:
256,192,48654,1,0,0:0:0:0:
256,192,48755,1,8,0:0:0:0:
256,192,48957,1,0,0:0:0:0:
256,192,49058,1,8,0:0:0:0:
256,192,49160,1,0,0:0:0:0:
256,192,49362,1,0,0:0:0:0:
256,192,49463,1,0,0:0:0:0:
256,192,49564,1,8,0:0:0:0:
256,192,49766,1,0,0:0:0:0:
256,192,49868,1,8,0:0:0:0:
256,192,49969,1,0,0:0:0:0:
256,192,50171,1,8,0:0:0:0:
256,192,50373,1,0,0:0:0:0:
256,192,50778,1,0,0:0:0:0:
256,192,50980,1,8,0:0:0:0:
256,192,51182,1,0,0:0:0:0:
256,192,51384,1,8,0:0:0:0:
256,192,51789,1,8,0:0:0:0:
256,192,51890,1,8,0:0:0:0:
256,192,51991,1,0,0:0:0:0:
256,192,52193,1,8,0:0:0:0:
256,192,52295,1,0,0:0:0:0:
256,192,52396,1,8,0:0:0:0:
256,192,52598,1,8,0:0:0:0:
256,192,52699,1,8,0:0:0:0:
256,192,52800,1,0,0:0:0:0:
256,192,53002,1,8,0:0:0:0:
256,192,53104,1,0,0:0:0:0:
256,192,53205,1,8,0:0:0:0:
256,192,53407,1,0,0:0:0:0:
256,192,53609,1,8,0:0:0:0:
256,192,54014,1,0,0:0:0:0:
256,192,54216,1,8,0:0:0:0:
256,192,54418,1,0,0:0:0:0:
256,192,54621,1,8,0:0:0:0:
256,192,55025,1,0,0:0:0:0:
256,192,55126,1,0,0:0:0:0:
256,192,55227,1,8,0:0:0:0:
256,192,55430,1,0,0:0:0:0:
256,192,55531,1,8,0:0:0:0:
256,192,55632,1,0,0:0:0:0:
256,192,55834,1,0,0:0:0:0:
256,192,55935,1,0,0:0:0:0:
256,192,56036,1,8,0:0:0:0:
256,192,56239,1,0,0:0:0:0:
256,192,56340,1,8,0:0:0:0:
256,192,56441,1,0,0:0:0:0:
256,192,56643,1,8,0:0:0:0:
256,192,56845,1,0,0:0:0:0:
256,192,57250,1,8,0:0:0:0:
256,192,57452,1,0,0:0:0:0:
256,192,57654,5,8,0:0:0:0:
256,192,57857,1,0,0:0:0:0:
256,192,58261,1,4,0:0:0:0:
256,192,58666,5,0,0:0:0:0:
256,192,58767,1,0,0:0:0:0:
256,192,58868,1,8,0:0:0:0:
256,192,59070,1,0,0:0:0:0:
256,192,59272,1,8,0:0:0:0:
256,192,59374,1,0,0:0:0:0:
256,192,59475,1,8,0:0:0:0:
256,192,59677,1,0,0:0:0:0:
256,192,59879,1,8,0:0:0:0:
256,192,59980,1,8,0:0:0:0:
256,192,60081,1,0,0:0:0:0:
256,192,60183,1,0,0:0:0:0:
256,192,60284,1,8,0:0:0:0:
256,192,60486,1,0,0:0:0:0:
256,192,60688,1,8,0:0:0:0:
256,192,60890,1,0,0:0:0:0:
256,192,60992,1,0,0:0:0:0:
256,192,61093,1,8,0:0:0:0:
256,192,61295,1,0,0:0:0:0:
256,192,61497,1,8,0:0:0:0:
256,192,61902,1,0,0:0:0:0:
256,192,62003,1,0,0:0:0:0:
256,192,62104,1,8,0:0:0:0:
256,192,62306,1,0,0:0:0:0:
256,192,62509,1,0,0:0:0:0:
256,192,62711,1,8,0:0:0:0:
256,192,62980,1,0,0:0:0:0:
256,192,63115,1,8,0:0:0:0:
256,192,63318,1,8,0:0:0:0:
256,192,63419,1,8,0:0:0:0:
256,192,63520,1,0,0:0:0:0:
256,192,63722,1,8,0:0:0:0:
256,192,63924,1,0,0:0:0:0:
256,192,64127,1,8,0:0:0:0:
256,192,64329,1,0,0:0:0:0:
256,192,64430,1,0,0:0:0:0:
256,192,64531,1,8,0:0:0:0:
256,192,64632,1,8,0:0:0:0:
256,192,64733,1,4,0:0:0:0:
256,192,64936,1,8,0:0:0:0:
256,192,65138,1,0,0:0:0:0:
256,192,65340,1,8,0:0:0:0:
256,192,65542,1,0,0:0:0:0:
256,192,65745,1,8,0:0:0:0:
256,192,65846,1,0,0:0:0:0:
256,192,65947,1,0,0:0:0:0:
256,192,66149,1,0,0:0:0:0:
256,192,66351,1,8,0:0:0:0:
256,192,66452,1,0,0:0:0:0:
256,192,66554,1,8,0:0:0:0:
256,192,66655,1,8,0:0:0:0:
256,192,66756,1,0,0:0:0:0:
256,192,66958,1,8,0:0:0:0:
256,192,67160,1,0,0:0:0:0:
256,192,67262,1,0,0:0:0:0:
256,192,67363,1,8,0:0:0:0:
256,192,67464,1,0,0:0:0:0:
256,192,67565,1,8,0:0:0:0:
256,192,67767,1,8,0:0:0:0:
256,192,67969,1,0,0:0:0:0:
256,192,68071,1,8,0:0:0:0:
256,192,68172,1,0,0:0:0:0:
256,192,68374,1,8,0:0:0:0:
256,192,68576,1,8,0:0:0:0:
256,192,68677,1,8,0:0:0:0:
256,192,68778,1,0,0:0:0:0:
256,192,68981,1,0,0:0:0:0:
256,192,69183,1,8,0:0:0:0:
256,192,69385,1,0,0:0:0:0:
256,192,69587,1,8,0:0:0:0:
256,192,69689,1,0,0:0:0:0:
256,192,69790,1,8,0:0:0:0:
256,192,69992,1,0,0:0:0:0:
256,192,70194,1,8,0:0:0:0:
256,192,70295,1,8,0:0:0:0:
256,192,70396,1,0,0:0:0:0:
256,192,70599,1,8,0:0:0:0:
256,192,70801,1,0,0:0:0:0:
256,192,70902,1,0,0:0:0:0:
256,192,71003,1,8,0:0:0:0:
256,192,71104,1,0,0:0:0:0:
256,192,71206,1,12,0:0:0:0:
256,192,71408,1,0,0:0:0:0:
256,192,71509,1,0,0:0:0:0:
256,192,71610,1,8,0:0:0:0:
256,192,71812,1,0,0:0:0:0:
256,192,72015,1,8,0:0:0:0:
256,192,72217,1,0,0:0:0:0:
256,192,72318,1,8,0:0:0:0:
256,192,72419,1,8,0:0:0:0:
256,192,72621,1,0,0:0:0:0:
256,192,72824,1,8,0:0:0:0:
256,192,73026,1,0,0:0:0:0:
256,192,73127,1,0,0:0:0:0:
256,192,73228,1,8,0:0:0:0:
256,192,73430,1,0,0:0:0:0:
256,192,73633,1,8,0:0:0:0:
256,192,73835,1,0,0:0:0:0:
256,192,73936,1,8,0:0:0:0:
256,192,74037,1,8,0:0:0:0:
256,192,74239,1,0,0:0:0:0:
256,192,74442,1,8,0:0:0:0:
256,192,74644,1,0,0:0:0:0:
256,192,74846,1,8,0:0:0:0:
256,192,74947,1,8,0:0:0:0:
256,192,75048,1,0,0:0:0:0:
256,192,75251,1,8,0:0:0:0:
256,192,75453,1,0,0:0:0:0:
256,192,75655,1,8,0:0:0:0:
256,192,75756,1,0,0:0:0:0:
256,192,75857,1,0,0:0:0:0:
256,192,76060,1,8,0:0:0:0:
256,192,76262,1,0,0:0:0:0:
256,192,76363,1,0,0:0:0:0:
256,192,76464,1,8,0:0:0:0:
256,192,76666,1,0,0:0:0:0:
256,192,76869,1,8,0:0:0:0:
256,192,77071,1,0,0:0:0:0:
256,192,77273,1,8,0:0:0:0:
256,192,77678,1,4,0:0:0:0:
256,192,77880,1,0,0:0:0:0:
256,192,77981,1,0,0:0:0:0:
256,192,78082,1,8,0:0:0:0:
256,192,78284,1,0,0:0:0:0:
256,192,78487,1,8,0:0:0:0:
256,192,78689,1,8,0:0:0:0:
256,192,78790,1,0,0:0:0:0:
256,192,78891,1,0,0:0:0:0:
256,192,79093,1,0,0:0:0:0:
256,192,79296,1,8,0:0:0:0:
256,192,79397,1,0,0:0:0:0:
256,192,79498,1,8,0:0:0:0:
256,192,79599,1,8,0:0:0:0:
256,192,79700,1,0,0:0:0:0:
256,192,79903,1,8,0:0:0:0:
256,192,80004,1,8,0:0:0:0:
256,192,80105,1,0,0:0:0:0:
256,192,80307,1,8,0:0:0:0:
256,192,80408,1,0,0:0:0:0:
256,192,80509,1,0,0:0:0:0:
256,192,80712,1,0,0:0:0:0:
256,192,80914,1,8,0:0:0:0:
256,192,81015,1,8,0:0:0:0:
256,192,81116,1,0,0:0:0:0:
256,192,81217,1,0,0:0:0:0:
256,192,81318,1,8,0:0:0:0:
256,192,81419,1,0,0:0:0:0:
256,192,81521,1,8,0:0:0:0:
256,192,81723,1,0,0:0:0:0:
256,192,81925,1,8,0:0:0:0:
256,192,82026,1,0,0:0:0:0:
256,192,82127,1,0,0:0:0:0:
256,192,82330,5,0,0:0:0:0:
256,192,82532,1,8,0:0:0:0:
256,192,82734,1,0,0:0:0:0:
256,192,82835,1,0,0:0:0:0:
256,192,82936,1,8,0:0:0:0:
256,192,83139,1,0,0:0:0:0:
256,192,83341,12,0,83948,0:0:0:0:
256,192,84150,5,12,0:0:0:0:
256,192,84352,1,0,0:0:0:0:
256,192,84554,1,8,0:0:0:0:
256,192,84757,1,0,0:0:0:0:
256,192,84858,1,0,0:0:0:0:
256,192,84959,1,8,0:0:0:0:
256,192,85060,1,0,0:0:0:0:
256,192,85161,1,8,0:0:0:0:
256,192,85262,1,8,0:0:0:0:
256,192,85363,1,0,0:0:0:0:
256,192,85566,1,8,0:0:0:0:
256,192,85768,1,0,0:0:0:0:
256,192,85869,1,0,0:0:0:0:
256,192,85970,1,8,0:0:0:0:
256,192,86071,1,0,0:0:0:0:
256,192,86172,1,8,0:0:0:0:
256,192,86274,1,8,0:0:0:0:
256,192,86375,1,0,0:0:0:0:
256,192,86476,1,8,0:0:0:0:
256,192,86577,1,0,0:0:0:0:
256,192,86779,1,8,0:0:0:0:
256,192,86880,1,0,0:0:0:0:
256,192,86981,1,0,0:0:0:0:
256,192,87184,1,0,0:0:0:0:
256,192,87386,1,12,0:0:0:0:
256,192,87588,1,0,0:0:0:0:
256,192,87790,1,8,0:0:0:0:
256,192,87993,1,0,0:0:0:0:
256,192,88094,1,0,0:0:0:0:
256,192,88195,1,8,0:0:0:0:
256,192,88296,1,8,0:0:0:0:
256,192,88397,1,0,0:0:0:0:
256,192,88498,1,8,0:0:0:0:
256,192,88600,1,0,0:0:0:0:
256,192,88802,1,8,0:0:0:0:
256,192,89004,1,0,0:0:0:0:
256,192,89105,1,8,0:0:0:0:
256,192,89206,1,0,0:0:0:0:
256,192,89307,1,0,0:0:0:0:
256,192,89409,1,8,0:0:0:0:
256,192,89510,1,0,0:0:0:0:
256,192,89611,1,8,0:0:0:0:
256,192,89712,1,8,0:0:0:0:
256,192,89813,1,0,0:0:0:0:
256,192,89914,1,8,0:0:0:0:
256,192,90015,1,0,0:0:0:0:
256,192,90116,1,0,0:0:0:0:
256,192,90218,1,8,0:0:0:0:
256,192,90319,1,0,0:0:0:0:
256,192,90420,1,8,0:0:0:0:
256,192,90521,1,8,0:0:0:0:
256,192,90622,1,4,0:0:0:0:
256,192,90824,1,8,0:0:0:0:
256,192,91027,1,0,0:0:0:0:
256,192,91229,1,8,0:0:0:0:
256,192,91330,1,0,0:0:0:0:
256,192,91431,1,8,0:0:0:0:
256,192,91532,1,0,0:0:0:0:
256,192,91633,1,8,0:0:0:0:
256,192,91734,1,8,0:0:0:0:
256,192,91836,1,0,0:0:0:0:
256,192,92038,1,8,0:0:0:0:
256,192,92240,1,0,0:0:0:0:
256,192,92341,1,0,0:0:0:0:
256,192,92442,1,8,0:0:0:0:
256,192,92543,1,0,0:0:0:0:
256,192,92645,1,8,0:0:0:0:
256,192,92746,1,0,0:0:0:0:
256,192,92847,1,8,0:0:0:0:
256,192,92948,1,8,0:0:0:0:
256,192,93049,1,0,0:0:0:0:
256,192,93251,1,8,0:0:0:0:
256,192,93353,1,0,0:0:0:0:
256,192,93454,1,0,0:0:0:0:
256,192,93656,1,0,0:0:0:0:
256,192,93858,1,12,0:0:0:0:
256,192,94060,1,0,0:0:0:0:
256,192,94263,1,8,0:0:0:0:
256,192,94465,1,0,0:0:0:0:
256,192,94566,1,0,0:0:0:0:
256,192,94667,1,8,0:0:0:0:
256,192,94768,1,0,0:0:0:0:
256,192,94869,1,0,0:0:0:0:
256,192,94971,1,0,0:0:0:0:
256,192,95072,1,8,0:0:0:0:
256,192,95274,1,0,0:0:0:0:
256,192,95476,1,8,0:0:0:0:
256,192,95577,1,8,0:0:0:0:
256,192,95678,1,0,0:0:0:0:
256,192,95780,1,8,0:0:0:0:
256,192,95881,1,0,0:0:0:0:
256,192,95982,1,0,0:0:0:0:
256,192,96083,1,8,0:0:0:0:
256,192,96184,1,0,0:0:0:0:
256,192,96285,1,8,0:0:0:0:
256,192,96386,1,8,0:0:0:0:
256,192,96487,1,0,0:0:0:0:
256,192,96589,1,8,0:0:0:0:
256,192,96690,1,0,0:0:0:0:
256,192,96791,1,0,0:0:0:0:
256,192,96892,1,0,0:0:0:0:
256,192,96993,1,0,0:0:0:0:
256,192,97094,1,12,0:0:0:0:
256,192,97701,1,0,0:0:0:0:
256,192,97903,1,0,0:0:0:0:
256,192,98106,1,8,0:0:0:0:
256,192,98308,1,0,0:0:0:0:
256,192,98712,1,8,0:0:0:0:
256,192,98915,1,0,0:0:0:0:
256,192,99016,1,0,0:0:0:0:
256,192,99117,1,8,0:0:0:0:
256,192,99319,1,8,0:0:0:0:
256,192,99521,1,0,0:0:0:0:
256,192,99724,1,8,0:0:0:0:
256,192,99926,1,0,0:0:0:0:
256,192,100330,1,8,0:0:0:0:
256,192,100533,1,8,0:0:0:0:
256,192,100937,1,0,0:0:0:0:
256,192,101139,1,8,0:0:0:0:
256,192,101342,1,8,0:0:0:0:
256,192,101544,1,0,0:0:0:0:
256,192,101948,1,0,0:0:0:0:
256,192,102151,1,0,0:0:0:0:
256,192,102252,1,0,0:0:0:0:
256,192,102353,1,8,0:0:0:0:
256,192,102555,1,0,0:0:0:0:
256,192,102757,1,8,0:0:0:0:
256,192,102960,1,0,0:0:0:0:
256,192,103061,1,0,0:0:0:0:
256,192,103162,1,8,0:0:0:0:
256,192,103364,1,8,0:0:0:0:
256,192,103566,1,0,0:0:0:0:
256,192,103769,1,0,0:0:0:0:
256,192,104173,1,0,0:0:0:0:
256,192,104375,1,8,0:0:0:0:
256,192,104578,1,8,0:0:0:0:
256,192,104780,1,0,0:0:0:0:
256,192,105184,1,0,0:0:0:0:
256,192,105387,1,8,0:0:0:0:
256,192,105488,1,8,0:0:0:0:
256,192,105589,1,0,0:0:0:0:
256,192,105791,1,0,0:0:0:0:
256,192,105994,1,8,0:0:0:0:
256,192,106196,1,0,0:0:0:0:
256,192,106398,1,8,0:0:0:0:
256,192,106803,1,0,0:0:0:0:
256,192,107409,1,8,0:0:0:0:
256,192,107612,1,8,0:0:0:0:
256,192,107814,1,8,0:0:0:0:
256,192,108016,1,0,0:0:0:0:
256,192,108421,1,0,0:0:0:0:
256,192,108522,1,0,0:0:0:0:
256,192,108623,1,8,0:0:0:0:
256,192,108724,1,8,0:0:0:0:
256,192,108825,1,0,0:0:0:0:
256,192,109027,1,8,0:0:0:0:
256,192,109230,1,0,0:0:0:0:
256,192,109331,1,0,0:0:0:0:
256,192,109432,1,8,0:0:0:0:
256,192,109533,1,8,0:0:0:0:
256,192,109634,1,0,0:0:0:0:
64,320,110039,1,4,0:0:0:0:
