osu file format v14

[General]
AudioFilename: audio.mp3
AudioLeadIn: 0
PreviewTime: 0
Countdown: 0
SampleSet: Normal
StackLeniency: 1
Mode: 1
LetterboxInBreaks: 0
WidescreenStoryboard: 1

[Editor]
Bookmarks: 0,5142,7829,36273,131523,137923
DistanceSpacing: 0.8
BeatDivisor: 4
GridSize: 32
TimelineZoom: 1.7

[Metadata]
Title:Thank You for Calling!
TitleUnicode:Thank You for Calling!
Artist:Lulickma
ArtistUnicode:Lulickma
Creator:Vulkin
Version:xfrac's Muzukashii
Source:
Tags:the psycho filth vol 7 -bit beast- speedcore j-core xfraczynho cdhsausageboy dainesl dain -kazu- -anhedonia- firce777 agu
BeatmapID:1485517
BeatmapSetID:681633

[Difficulty]
HPDrainRate:5
CircleSize:2
OverallDifficulty:5
ApproachRate:10
SliderMultiplier:1.4
SliderTickRate:1

[Events]
//Background and Video events
0,0,"678339_22323247.jpg",0,0
//Break Periods
//Storyboard Layer 0 (Background)
//Storyboard Layer 1 (Fail)
//Storyboard Layer 2 (Pass)
//Storyboard Layer 3 (Foreground)
//Storyboard Sound Samples

[TimingPoints]
0,428.571428571429,4,1,0,60,1,0
5142,428.571428571429,7,1,0,60,1,0
7829,444.444444444444,4,1,0,60,1,0
7829,-100,4,1,0,60,0,0
50495,222.222222222222,4,1,0,60,1,1
50495,-133.333333333333,4,1,0,60,0,1
56717,-133.333333333333,4,1,0,60,0,0
57606,-133.333333333333,4,1,0,60,0,1
63828,-133.333333333333,4,1,0,60,0,0
64717,-133.333333333333,4,1,0,60,0,1
70939,-133.333333333333,4,1,0,60,0,0
71828,-133.333333333333,4,1,0,60,0,1
78050,-133.333333333333,4,1,0,60,0,0
78939,-133.333333333333,4,1,0,60,0,1
84272,-133.333333333333,4,1,0,60,0,0
86050,-133.333333333333,4,1,0,60,0,1
93161,-133.333333333333,4,1,0,60,0,0
94939,-200,4,1,0,60,0,0
95828,-400,4,1,0,60,0,0
96717,599.999405940594,4,1,0,60,1,0
115616,-99.009900990099,4,1,0,60,0,0
115766,-98.0392156862745,4,1,0,60,0,0
115916,582.52427184466,4,1,0,60,1,0
115916,-100,4,1,0,60,0,0
118246,550.45871559633,4,1,0,60,1,0
118246,-100,4,1,0,60,0,0
120447,517.242575422805,4,1,0,60,1,0
120447,-100,4,1,0,60,0,0
122515,500.001117700557,4,1,0,60,1,0
122515,-100,4,1,0,60,0,0
124515,465.116279069767,4,1,0,60,1,0
124515,-100,4,1,0,60,0,0
126375,447.761194029851,4,1,0,60,1,0
126375,-100,4,1,0,60,0,0
128166,428.571428571429,4,1,0,60,1,0
128166,-100,4,1,0,60,0,0
129880,410.958904109589,4,1,0,60,1,0
129880,-100,4,1,0,60,0,0
131523,400.001085427649,4,1,0,60,1,0
131523,-100,4,1,0,60,0,0
150723,200,4,1,0,60,1,1
150723,-142.857142857143,4,1,0,60,0,1
162723,-142.857142857143,4,1,0,60,0,0
163523,171.428571428571,4,1,0,60,1,1
163523,-142.857142857143,4,1,0,60,0,1
173123,-142.857142857143,4,1,0,60,0,0
174494,150,4,1,0,60,1,1
174494,-142.857142857143,4,1,0,60,0,1
182894,-142.857142857143,4,1,0,60,0,0
184094,-142.857142857143,4,1,0,60,0,1
193694,-142.857142857143,4,1,0,60,0,0

[HitObjects]
256,192,0,5,0,0:0:0:0:
256,192,214,1,0,0:0:0:0:
256,192,857,1,8,0:0:0:0:
256,192,1071,1,8,0:0:0:0:
256,192,1714,1,8,0:0:0:0:
256,192,1928,1,0,0:0:0:0:
256,192,2571,1,0,0:0:0:0:
256,192,2785,1,8,0:0:0:0:
256,192,3428,1,0,0:0:0:0:
256,192,3642,1,8,0:0:0:0:
256,192,3857,1,8,0:0:0:0:
256,192,4285,1,8,0:0:0:0:
256,192,4500,1,0,0:0:0:0:
256,192,4714,1,0,0:0:0:0:
256,192,5142,1,0,0:0:0:0:
256,192,5356,1,8,0:0:0:0:
256,192,5463,1,8,0:0:0:0:
256,192,5570,1,8,0:0:0:0:
256,192,5999,1,0,0:0:0:0:
256,192,6106,1,0,0:0:0:0:
256,192,6213,1,0,0:0:0:0:
256,192,6320,1,0,0:0:0:0:
256,192,7829,1,8,0:0:0:0:
256,192,7940,1,8,0:0:0:0:
256,192,8162,1,8,0:0:0:0:
256,192,8717,1,0,0:0:0:0:
256,192,8828,1,0,0:0:0:0:
256,192,9051,1,0,0:0:0:0:
256,192,9606,1,0,0:0:0:0:
256,192,9717,1,0,0:0:0:0:
256,192,9939,1,8,0:0:0:0:
256,192,10494,1,8,0:0:0:0:
256,192,10605,1,8,0:0:0:0:
256,192,10828,1,0,0:0:0:0:
256,192,11384,1,0,0:0:0:0:
256,192,11495,1,0,0:0:0:0:
256,192,11717,1,0,0:0:0:0:
256,192,12272,1,8,0:0:0:0:
256,192,12383,1,8,0:0:0:0:
256,192,12606,1,8,0:0:0:0:
256,192,13162,1,8,0:0:0:0:
256,192,13272,1,8,0:0:0:0:
256,192,13494,1,0,0:0:0:0:
256,192,14051,1,0,0:0:0:0:
256,192,14162,1,0,0:0:0:0:
256,192,14495,1,8,0:0:0:0:
256,192,14717,1,8,0:0:0:0:
256,192,14940,1,0,0:0:0:0:
256,192,15051,1,0,0:0:0:0:
256,192,15273,1,0,0:0:0:0:
256,192,15495,1,0,0:0:0:0:
256,192,15828,1,8,0:0:0:0:
256,192,15939,1,8,0:0:0:0:
256,192,16162,1,8,0:0:0:0:
256,192,16273,1,8,0:0:0:0:
256,192,16383,1,8,0:0:0:0:
256,192,16717,1,8,0:0:0:0:
256,192,16828,1,8,0:0:0:0:
256,192,17051,1,0,0:0:0:0:
256,192,17273,1,0,0:0:0:0:
256,192,17606,1,0,0:0:0:0:
256,192,17828,1,8,0:0:0:0:
256,192,17940,1,8,0:0:0:0:
256,192,18051,1,8,0:0:0:0:
256,192,18273,1,8,0:0:0:0:
256,192,18495,1,0,0:0:0:0:
256,192,18606,1,0,0:0:0:0:
256,192,18828,1,0,0:0:0:0:
256,192,19050,1,0,0:0:0:0:
256,192,19383,1,8,0:0:0:0:
256,192,19494,1,8,0:0:0:0:
256,192,19717,1,8,0:0:0:0:
256,192,19828,1,8,0:0:0:0:
256,192,19940,1,8,0:0:0:0:
256,192,20272,1,8,0:0:0:0:
256,192,20383,1,8,0:0:0:0:
256,192,20606,1,0,0:0:0:0:
256,192,20828,1,0,0:0:0:0:
256,192,21162,1,0,0:0:0:0:
256,192,21383,1,8,0:0:0:0:
256,192,21606,1,8,0:0:0:0:
256,192,21828,1,8,0:0:0:0:
256,192,22051,1,4,0:0:0:0:
256,192,22273,1,8,0:0:0:0:
256,192,22384,1,8,0:0:0:0:
256,192,22495,1,8,0:0:0:0:
256,192,22940,1,0,0:0:0:0:
256,192,23162,1,0,0:0:0:0:
256,192,23273,1,0,0:0:0:0:
256,192,23384,1,0,0:0:0:0:
256,192,23606,1,8,0:0:0:0:
256,192,23828,1,8,0:0:0:0:
256,192,24051,1,0,0:0:0:0:
256,192,24273,1,0,0:0:0:0:
256,192,24717,1,0,0:0:0:0:
256,192,24940,1,8,0:0:0:0:
256,192,25162,1,8,0:0:0:0:
256,192,25384,1,0,0:0:0:0:
256,192,25495,1,0,0:0:0:0:
256,192,25606,1,0,0:0:0:0:
256,192,25828,1,8,0:0:0:0:
256,192,26051,1,8,0:0:0:0:
256,192,26495,1,0,0:0:0:0:
256,192,26717,1,0,0:0:0:0:
256,192,26828,1,0,0:0:0:0:
256,192,26939,1,0,0:0:0:0:
256,192,27161,1,8,0:0:0:0:
256,192,27383,1,8,0:0:0:0:
256,192,27606,1,0,0:0:0:0:
256,192,27828,1,0,0:0:0:0:
256,192,28272,1,0,0:0:0:0:
256,192,28495,1,8,0:0:0:0:
256,192,28717,1,8,0:0:0:0:
256,192,28939,1,0,0:0:0:0:
256,192,29161,1,0,0:0:0:0:
256,192,29383,1,8,0:0:0:0:
256,192,29495,1,8,0:0:0:0:
256,192,29606,1,8,0:0:0:0:
256,192,30051,1,0,0:0:0:0:
256,192,30273,1,0,0:0:0:0:
256,192,30384,1,0,0:0:0:0:
256,192,30495,1,0,0:0:0:0:
256,192,30717,1,8,0:0:0:0:
256,192,30939,1,8,0:0:0:0:
256,192,31162,1,0,0:0:0:0:
256,192,31384,1,0,0:0:0:0:
256,192,31828,1,0,0:0:0:0:
256,192,32051,1,8,0:0:0:0:
256,192,32273,1,8,0:0:0:0:
256,192,32495,1,0,0:0:0:0:
256,192,32606,1,0,0:0:0:0:
256,192,32717,1,0,0:0:0:0:
256,192,32939,1,8,0:0:0:0:
256,192,33162,1,8,0:0:0:0:
256,192,33606,1,0,0:0:0:0:
256,192,33828,1,0,0:0:0:0:
256,192,33939,1,0,0:0:0:0:
256,192,34050,1,0,0:0:0:0:
256,192,34272,1,8,0:0:0:0:
256,192,34494,1,8,0:0:0:0:
256,192,34717,1,0,0:0:0:0:
256,192,34939,1,0,0:0:0:0:
256,192,35383,1,0,0:0:0:0:
256,192,35606,1,0,0:0:0:0:
256,192,35828,1,8,0:0:0:0:
256,192,36050,1,8,0:0:0:0:
256,192,36272,1,0,0:0:0:0:
256,192,36606,1,8,0:0:0:0:
256,192,36940,1,8,0:0:0:0:
256,192,37273,1,8,0:0:0:0:
256,192,37606,1,8,0:0:0:0:
256,192,37828,1,8,0:0:0:0:
256,192,38051,1,8,0:0:0:0:
256,192,38384,1,8,0:0:0:0:
256,192,38718,1,8,0:0:0:0:
256,192,39051,1,8,0:0:0:0:
256,192,39384,1,0,0:0:0:0:
256,192,39828,1,8,0:0:0:0:
256,192,40162,1,8,0:0:0:0:
256,192,40495,1,8,0:0:0:0:
256,192,40828,1,8,0:0:0:0:
256,192,41162,1,8,0:0:0:0:
256,192,41384,1,8,0:0:0:0:
256,192,41606,1,8,0:0:0:0:
256,192,41940,1,8,0:0:0:0:
256,192,42273,1,8,0:0:0:0:
256,192,42495,1,0,0:0:0:0:
256,192,43384,1,8,0:0:0:0:
256,192,43718,1,8,0:0:0:0:
256,192,44052,1,8,0:0:0:0:
256,192,44385,1,8,0:0:0:0:
256,192,44718,1,8,0:0:0:0:
256,192,44940,1,8,0:0:0:0:
256,192,45163,1,8,0:0:0:0:
256,192,45496,1,8,0:0:0:0:
256,192,45828,1,8,0:0:0:0:
256,192,46163,1,8,0:0:0:0:
256,192,46496,1,0,0:0:0:0:
256,192,46940,1,8,0:0:0:0:
256,192,47274,1,8,0:0:0:0:
256,192,47607,1,8,0:0:0:0:
256,192,47940,1,8,0:0:0:0:
256,192,48274,1,8,0:0:0:0:
256,192,48496,1,8,0:0:0:0:
256,192,48718,1,8,0:0:0:0:
256,192,49052,1,8,0:0:0:0:
256,192,49385,1,8,0:0:0:0:
256,192,49607,1,8,0:0:0:0:
256,192,50495,1,12,0:0:0:0:
256,192,50939,1,8,0:0:0:0:
256,192,51161,1,0,0:0:0:0:
256,192,51272,1,0,0:0:0:0:
256,192,51383,1,0,0:0:0:0:
256,192,51606,1,0,0:0:0:0:
256,192,51828,1,8,0:0:0:0:
256,192,52050,1,0,0:0:0:0:
256,192,52161,1,0,0:0:0:0:
256,192,52272,1,0,0:0:0:0:
256,192,52495,1,0,0:0:0:0:
256,192,52717,1,8,0:0:0:0:
256,192,52939,1,0,0:0:0:0:
256,192,53050,1,0,0:0:0:0:
256,192,53161,1,0,0:0:0:0:
256,192,53383,1,8,0:0:0:0:
256,192,53606,1,0,0:0:0:0:
256,192,53717,1,0,0:0:0:0:
256,192,53828,1,0,0:0:0:0:
256,192,54050,1,8,0:0:0:0:
256,192,54494,1,8,0:0:0:0:
256,192,54716,1,0,0:0:0:0:
256,192,54827,1,0,0:0:0:0:
256,192,54938,1,0,0:0:0:0:
256,192,55161,1,0,0:0:0:0:
256,192,55383,1,8,0:0:0:0:
256,192,55605,1,0,0:0:0:0:
256,192,55716,1,0,0:0:0:0:
256,192,55827,1,0,0:0:0:0:
256,192,56050,1,0,0:0:0:0:
256,192,56272,1,8,0:0:0:0:
256,192,56494,1,0,0:0:0:0:
256,192,56605,1,0,0:0:0:0:
256,192,56716,1,0,0:0:0:0:
256,192,57606,1,12,0:0:0:0:
256,192,58050,1,8,0:0:0:0:
256,192,58272,1,0,0:0:0:0:
256,192,58383,1,0,0:0:0:0:
256,192,58494,1,0,0:0:0:0:
256,192,58717,1,0,0:0:0:0:
256,192,58939,1,8,0:0:0:0:
256,192,59161,1,0,0:0:0:0:
256,192,59272,1,0,0:0:0:0:
256,192,59383,1,0,0:0:0:0:
256,192,59606,1,0,0:0:0:0:
256,192,59828,1,8,0:0:0:0:
256,192,60050,1,0,0:0:0:0:
256,192,60161,1,0,0:0:0:0:
256,192,60272,1,0,0:0:0:0:
256,192,60494,1,8,0:0:0:0:
256,192,60717,1,8,0:0:0:0:
256,192,60828,1,8,0:0:0:0:
256,192,60939,1,8,0:0:0:0:
256,192,61161,1,8,0:0:0:0:
256,192,61605,1,8,0:0:0:0:
256,192,61827,1,0,0:0:0:0:
256,192,61938,1,0,0:0:0:0:
256,192,62049,1,0,0:0:0:0:
256,192,62272,1,0,0:0:0:0:
256,192,62494,1,8,0:0:0:0:
256,192,62716,1,0,0:0:0:0:
256,192,62827,1,0,0:0:0:0:
256,192,62938,1,0,0:0:0:0:
256,192,63161,1,0,0:0:0:0:
256,192,63383,1,8,0:0:0:0:
256,192,63605,1,8,0:0:0:0:
256,192,63716,1,8,0:0:0:0:
256,192,63827,1,8,0:0:0:0:
256,192,64717,1,8,0:0:0:0:
256,192,65050,1,0,0:0:0:0:
256,192,65383,1,8,0:0:0:0:
256,192,65717,1,0,0:0:0:0:
256,192,66050,1,8,0:0:0:0:
256,192,66272,1,8,0:0:0:0:
256,192,66383,1,8,0:0:0:0:
256,192,66494,1,8,0:0:0:0:
256,192,66828,1,0,0:0:0:0:
256,192,67161,1,8,0:0:0:0:
256,192,67495,1,0,0:0:0:0:
256,192,67828,1,8,0:0:0:0:
256,192,67939,1,8,0:0:0:0:
256,192,68050,1,8,0:0:0:0:
256,192,68161,1,8,0:0:0:0:
256,192,68272,1,8,0:0:0:0:
256,192,68606,1,0,0:0:0:0:
256,192,68939,1,8,0:0:0:0:
256,192,69273,1,0,0:0:0:0:
256,192,69606,1,8,0:0:0:0:
256,192,69828,1,8,0:0:0:0:
256,192,69939,1,8,0:0:0:0:
256,192,70050,1,8,0:0:0:0:
256,192,70384,1,0,0:0:0:0:
256,192,70717,1,8,0:0:0:0:
256,192,70939,1,0,0:0:0:0:
256,192,71828,1,8,0:0:0:0:
256,192,72161,1,8,0:0:0:0:
256,192,72494,1,0,0:0:0:0:
256,192,72828,1,0,0:0:0:0:
256,192,73161,1,8,0:0:0:0:
256,192,73383,1,8,0:0:0:0:
256,192,73494,1,8,0:0:0:0:
256,192,73605,1,8,0:0:0:0:
256,192,73939,1,8,0:0:0:0:
256,192,74272,1,0,0:0:0:0:
256,192,74606,1,0,0:0:0:0:
256,192,74939,1,8,0:0:0:0:
256,192,75050,1,8,0:0:0:0:
256,192,75161,1,8,0:0:0:0:
256,192,75272,1,8,0:0:0:0:
256,192,75383,1,8,0:0:0:0:
256,192,75717,1,8,0:0:0:0:
256,192,76050,1,0,0:0:0:0:
256,192,76384,1,0,0:0:0:0:
256,192,76717,1,8,0:0:0:0:
256,192,76939,1,8,0:0:0:0:
256,192,77050,1,8,0:0:0:0:
256,192,77161,1,8,0:0:0:0:
256,192,77495,1,0,0:0:0:0:
256,192,77828,1,0,0:0:0:0:
256,192,78161,1,8,0:0:0:0:
256,192,78494,1,0,0:0:0:0:
256,192,78606,1,0,0:0:0:0:
256,192,78717,1,0,0:0:0:0:
256,192,78939,1,12,0:0:0:0:
256,192,79272,1,8,0:0:0:0:
256,192,79606,1,8,0:0:0:0:
256,192,79939,1,8,0:0:0:0:
256,192,80161,1,0,0:0:0:0:
256,192,80272,1,0,0:0:0:0:
256,192,80494,1,8,0:0:0:0:
256,192,80717,1,8,0:0:0:0:
256,192,81050,1,8,0:0:0:0:
256,192,81384,1,8,0:0:0:0:
256,192,81717,1,8,0:0:0:0:
256,192,81939,1,0,0:0:0:0:
256,192,82050,1,0,0:0:0:0:
256,192,82272,1,8,0:0:0:0:
256,192,82383,1,8,0:0:0:0:
256,192,82494,1,8,0:0:0:0:
256,192,82828,1,8,0:0:0:0:
256,192,83162,1,0,0:0:0:0:
256,192,83495,1,0,0:0:0:0:
256,192,83717,1,0,0:0:0:0:
256,192,83828,1,0,0:0:0:0:
256,192,84050,1,8,0:0:0:0:
256,192,84272,1,0,0:0:0:0:
256,192,85606,1,0,0:0:0:0:
256,192,85828,1,0,0:0:0:0:
256,192,86050,1,12,0:0:0:0:
256,192,86383,1,8,0:0:0:0:
256,192,86717,1,0,0:0:0:0:
256,192,87050,1,0,0:0:0:0:
256,192,87272,1,0,0:0:0:0:
256,192,87383,1,0,0:0:0:0:
256,192,87605,1,8,0:0:0:0:
256,192,87828,1,8,0:0:0:0:
256,192,88161,1,8,0:0:0:0:
256,192,88495,1,0,0:0:0:0:
256,192,88828,1,0,0:0:0:0:
256,192,89050,1,0,0:0:0:0:
256,192,89161,1,0,0:0:0:0:
256,192,89383,1,8,0:0:0:0:
256,192,89494,1,8,0:0:0:0:
256,192,89605,1,8,0:0:0:0:
256,192,89939,1,8,0:0:0:0:
256,192,90273,1,0,0:0:0:0:
256,192,90606,1,0,0:0:0:0:
256,192,90828,1,0,0:0:0:0:
256,192,90939,1,0,0:0:0:0:
256,192,91161,1,8,0:0:0:0:
256,192,91383,1,8,0:0:0:0:
256,192,91717,1,8,0:0:0:0:
256,192,92050,1,8,0:0:0:0:
256,192,92383,1,8,0:0:0:0:
256,192,92717,1,8,0:0:0:0:
256,192,92939,1,8,0:0:0:0:
256,192,93161,1,0,0:0:0:0:
256,192,96717,1,4,0:0:0:0:
256,192,97316,1,8,0:0:0:0:
256,192,97916,1,0,0:0:0:0:
256,192,98216,1,8,0:0:0:0:
256,192,98366,1,8,0:0:0:0:
256,192,98516,1,8,0:0:0:0:
256,192,98816,1,0,0:0:0:0:
256,192,99116,1,8,0:0:0:0:
256,192,99716,1,0,0:0:0:0:
256,192,100316,1,0,0:0:0:0:
256,192,100616,1,8,0:0:0:0:
256,192,100916,1,8,0:0:0:0:
256,192,101216,1,0,0:0:0:0:
256,192,101366,1,0,0:0:0:0:
256,192,101516,1,0,0:0:0:0:
256,192,102116,1,8,0:0:0:0:
256,192,102716,1,0,0:0:0:0:
256,192,103016,1,8,0:0:0:0:
256,192,103166,1,8,0:0:0:0:
256,192,103316,1,8,0:0:0:0:
256,192,103616,1,8,0:0:0:0:
256,192,103916,1,0,0:0:0:0:
256,192,104516,1,8,0:0:0:0:
256,192,105116,1,0,0:0:0:0:
256,192,105416,1,8,0:0:0:0:
256,192,105716,1,0,0:0:0:0:
256,192,105866,1,0,0:0:0:0:
256,192,106016,1,0,0:0:0:0:
256,192,106166,1,0,0:0:0:0:
256,192,106316,1,0,0:0:0:0:
256,192,106916,1,8,0:0:0:0:
256,192,107516,1,0,0:0:0:0:
256,192,107816,1,8,0:0:0:0:
256,192,107966,1,8,0:0:0:0:
256,192,108116,1,8,0:0:0:0:
256,192,108416,1,0,0:0:0:0:
256,192,108716,1,8,0:0:0:0:
256,192,109316,1,0,0:0:0:0:
256,192,109916,1,0,0:0:0:0:
256,192,110216,1,8,0:0:0:0:
256,192,110516,1,8,0:0:0:0:
256,192,110816,1,0,0:0:0:0:
256,192,110966,1,0,0:0:0:0:
256,192,111116,1,0,0:0:0:0:
256,192,111716,1,8,0:0:0:0:
256,192,112316,1,0,0:0:0:0:
256,192,112616,1,8,0:0:0:0:
256,192,112766,1,8,0:0:0:0:
256,192,112916,1,8,0:0:0:0:
256,192,113216,1,8,0:0:0:0:
256,192,113516,1,0,0:0:0:0:
256,192,114116,1,8,0:0:0:0:
256,192,114716,1,0,0:0:0:0:
256,192,115016,1,8,0:0:0:0:
256,192,115316,1,0,0:0:0:0:
256,192,115466,1,0,0:0:0:0:
256,192,115616,1,0,0:0:0:0:
256,192,115766,1,0,0:0:0:0:
256,192,115916,1,0,0:0:0:0:
256,192,116498,1,8,0:0:0:0:
256,192,117081,1,8,0:0:0:0:
256,192,117663,1,0,0:0:0:0:
256,192,117954,1,0,0:0:0:0:
256,192,118246,1,8,0:0:0:0:
256,192,118796,1,8,0:0:0:0:
256,192,119346,1,0,0:0:0:0:
256,192,119897,1,0,0:0:0:0:
256,192,120172,1,8,0:0:0:0:
256,192,120447,1,0,0:0:0:0:
256,192,120964,1,0,0:0:0:0:
256,192,121481,1,8,0:0:0:0:
256,192,121998,1,8,0:0:0:0:
256,192,122257,1,0,0:0:0:0:
256,192,122515,1,8,0:0:0:0:
256,192,123015,1,0,0:0:0:0:
256,192,123140,1,0,0:0:0:0:
256,192,123265,1,0,0:0:0:0:
256,192,123515,1,8,0:0:0:0:
256,192,124015,1,8,0:0:0:0:
256,192,124265,1,8,0:0:0:0:
256,192,124515,1,0,0:0:0:0:
256,192,124747,1,8,0:0:0:0:
256,192,124863,1,8,0:0:0:0:
256,192,124980,1,8,0:0:0:0:
256,192,125212,1,0,0:0:0:0:
256,192,125445,1,8,0:0:0:0:
256,192,125910,1,0,0:0:0:0:
256,192,126142,1,0,0:0:0:0:
256,192,126375,1,8,0:0:0:0:
256,192,126822,1,0,0:0:0:0:
256,192,127270,1,8,0:0:0:0:
256,192,127382,1,8,0:0:0:0:
256,192,127494,1,8,0:0:0:0:
256,192,127718,1,8,0:0:0:0:
256,192,127942,1,0,0:0:0:0:
256,192,128166,1,8,0:0:0:0:
256,192,128380,1,0,0:0:0:0:
256,192,128487,1,0,0:0:0:0:
256,192,128594,1,0,0:0:0:0:
256,192,129023,1,0,0:0:0:0:
256,192,129237,1,8,0:0:0:0:
256,192,129344,1,8,0:0:0:0:
256,192,129451,1,8,0:0:0:0:
256,192,129666,1,0,0:0:0:0:
256,192,129880,1,8,0:0:0:0:
256,192,130085,1,8,0:0:0:0:
256,192,130188,1,8,0:0:0:0:
256,192,130291,1,8,0:0:0:0:
256,192,130701,1,0,0:0:0:0:
256,192,130907,1,0,0:0:0:0:
256,192,131010,1,0,0:0:0:0:
256,192,131112,1,0,0:0:0:0:
256,192,131318,1,8,0:0:0:0:
256,192,131523,1,4,0:0:0:0:
256,192,131723,1,0,0:0:0:0:
256,192,131923,1,8,0:0:0:0:
256,192,132323,1,0,0:0:0:0:
256,192,132523,1,0,0:0:0:0:
256,192,132723,1,8,0:0:0:0:
256,192,133123,1,0,0:0:0:0:
256,192,133323,1,0,0:0:0:0:
256,192,133523,1,8,0:0:0:0:
256,192,133923,1,0,0:0:0:0:
256,192,134123,1,0,0:0:0:0:
256,192,134323,1,8,0:0:0:0:
256,192,134523,1,0,0:0:0:0:
256,192,134623,1,0,0:0:0:0:
256,192,134723,1,0,0:0:0:0:
256,192,134923,1,0,0:0:0:0:
256,192,135123,1,8,0:0:0:0:
256,192,135523,1,0,0:0:0:0:
256,192,135723,1,0,0:0:0:0:
256,192,135923,1,8,0:0:0:0:
256,192,136323,2,0,L|256:96,7,70
256,192,137923,1,0,0:0:0:0:
256,192,138423,1,0,0:0:0:0:
256,192,138623,1,8,0:0:0:0:
256,192,138823,1,0,0:0:0:0:
256,192,139023,1,0,0:0:0:0:
256,192,139123,1,0,0:0:0:0:
256,192,139323,1,8,0:0:0:0:
256,192,139523,1,0,0:0:0:0:
256,192,140023,1,0,0:0:0:0:
256,192,140223,1,8,0:0:0:0:
256,192,140323,1,8,0:0:0:0:
256,192,140523,1,8,0:0:0:0:
256,192,140623,1,8,0:0:0:0:
256,192,140823,1,0,0:0:0:0:
256,192,140923,1,0,0:0:0:0:
256,192,141123,1,0,0:0:0:0:
256,192,141623,1,0,0:0:0:0:
256,192,141823,1,8,0:0:0:0:
256,192,142023,1,0,0:0:0:0:
256,192,142223,1,0,0:0:0:0:
256,192,142323,1,0,0:0:0:0:
256,192,142523,1,8,0:0:0:0:
256,192,142723,1,0,0:0:0:0:
256,192,143223,1,0,0:0:0:0:
256,192,143423,1,8,0:0:0:0:
256,192,143623,1,0,0:0:0:0:
256,192,143723,1,0,0:0:0:0:
256,192,143823,1,0,0:0:0:0:
256,192,144023,1,8,0:0:0:0:
256,192,144123,1,8,0:0:0:0:
256,192,144323,1,0,0:0:0:0:
256,192,144823,1,0,0:0:0:0:
256,192,145023,1,8,0:0:0:0:
256,192,145223,1,0,0:0:0:0:
256,192,145423,1,0,0:0:0:0:
256,192,145523,1,0,0:0:0:0:
256,192,145723,1,8,0:0:0:0:
256,192,145923,1,0,0:0:0:0:
256,192,146423,1,0,0:0:0:0:
256,192,146623,1,8,0:0:0:0:
256,192,146823,1,8,0:0:0:0:
256,192,146923,1,8,0:0:0:0:
256,192,147023,1,8,0:0:0:0:
256,192,147223,1,0,0:0:0:0:
256,192,147323,1,0,0:0:0:0:
256,192,147523,1,0,0:0:0:0:
256,192,148023,1,0,0:0:0:0:
256,192,148223,1,8,0:0:0:0:
256,192,148423,1,0,0:0:0:0:
256,192,148623,1,0,0:0:0:0:
256,192,148723,1,0,0:0:0:0:
256,192,148923,1,8,0:0:0:0:
256,192,149123,1,8,0:0:0:0:
256,192,149323,1,8,0:0:0:0:
256,192,149523,1,8,0:0:0:0:
256,192,149923,1,8,0:0:0:0:
256,192,150123,1,8,0:0:0:0:
256,192,150323,1,8,0:0:0:0:
256,192,150723,1,4,0:0:0:0:
256,192,151123,1,8,0:0:0:0:
256,192,151523,1,0,0:0:0:0:
256,192,151723,1,0,0:0:0:0:
256,192,151823,1,0,0:0:0:0:
256,192,151923,1,0,0:0:0:0:
256,192,152123,1,8,0:0:0:0:
256,192,152323,1,0,0:0:0:0:
256,192,152723,1,8,0:0:0:0:
256,192,153123,1,8,0:0:0:0:
256,192,153323,1,8,0:0:0:0:
256,192,153423,1,8,0:0:0:0:
256,192,153523,1,8,0:0:0:0:
256,192,153723,1,0,0:0:0:0:
256,192,153923,1,0,0:0:0:0:
256,192,154323,1,8,0:0:0:0:
256,192,154723,1,0,0:0:0:0:
256,192,154923,1,0,0:0:0:0:
256,192,155023,1,0,0:0:0:0:
256,192,155123,1,0,0:0:0:0:
256,192,155323,1,8,0:0:0:0:
256,192,155523,1,0,0:0:0:0:
256,192,155923,1,8,0:0:0:0:
256,192,156323,1,8,0:0:0:0:
256,192,156523,1,8,0:0:0:0:
256,192,156623,1,8,0:0:0:0:
256,192,156723,1,8,0:0:0:0:
256,192,156923,1,8,0:0:0:0:
256,192,157123,1,0,0:0:0:0:
256,192,157523,1,8,0:0:0:0:
256,192,157923,1,0,0:0:0:0:
256,192,158123,1,0,0:0:0:0:
256,192,158223,1,0,0:0:0:0:
256,192,158323,1,0,0:0:0:0:
256,192,158523,1,8,0:0:0:0:
256,192,158723,1,0,0:0:0:0:
256,192,159123,1,8,0:0:0:0:
256,192,159523,1,8,0:0:0:0:
256,192,159723,1,8,0:0:0:0:
256,192,159823,1,8,0:0:0:0:
256,192,159923,1,8,0:0:0:0:
256,192,160123,1,0,0:0:0:0:
256,192,160323,1,0,0:0:0:0:
256,192,160723,1,8,0:0:0:0:
256,192,161123,1,0,0:0:0:0:
256,192,161323,1,0,0:0:0:0:
256,192,161423,1,0,0:0:0:0:
256,192,161523,1,0,0:0:0:0:
256,192,161723,1,8,0:0:0:0:
256,192,161923,1,0,0:0:0:0:
256,192,162323,1,0,0:0:0:0:
256,192,162723,1,8,0:0:0:0:
256,192,163523,1,8,0:0:0:0:
256,192,163865,1,0,0:0:0:0:
256,192,164037,1,0,0:0:0:0:
256,192,164208,1,8,0:0:0:0:
256,192,164551,1,0,0:0:0:0:
256,192,164723,1,8,0:0:0:0:
256,192,164808,1,8,0:0:0:0:
256,192,164894,1,8,0:0:0:0:
256,192,165237,1,0,0:0:0:0:
256,192,165408,1,0,0:0:0:0:
256,192,165580,1,8,0:0:0:0:
256,192,165665,1,8,0:0:0:0:
256,192,165751,1,8,0:0:0:0:
256,192,165923,1,0,0:0:0:0:
256,192,166094,1,0,0:0:0:0:
256,192,166265,1,8,0:0:0:0:
256,192,166607,1,0,0:0:0:0:
256,192,166779,1,0,0:0:0:0:
256,192,166950,1,8,0:0:0:0:
256,192,167293,1,0,0:0:0:0:
256,192,167465,1,8,0:0:0:0:
256,192,167550,1,8,0:0:0:0:
256,192,167636,1,8,0:0:0:0:
256,192,167979,1,0,0:0:0:0:
256,192,168150,1,0,0:0:0:0:
256,192,168323,1,8,0:0:0:0:
256,192,168493,1,0,0:0:0:0:
256,192,168665,1,8,0:0:0:0:
256,192,168751,1,8,0:0:0:0:
256,192,168836,1,8,0:0:0:0:
256,192,169008,1,8,0:0:0:0:
256,192,169350,1,0,0:0:0:0:
256,192,169522,1,0,0:0:0:0:
256,192,169693,1,8,0:0:0:0:
256,192,170036,1,0,0:0:0:0:
256,192,170208,1,8,0:0:0:0:
256,192,170293,1,8,0:0:0:0:
256,192,170379,1,8,0:0:0:0:
256,192,170722,1,0,0:0:0:0:
256,192,170893,1,0,0:0:0:0:
256,192,171065,1,8,0:0:0:0:
256,192,171150,1,8,0:0:0:0:
256,192,171236,1,8,0:0:0:0:
256,192,171408,1,0,0:0:0:0:
256,192,171579,1,0,0:0:0:0:
256,192,171750,1,8,0:0:0:0:
256,192,172094,1,0,0:0:0:0:
256,192,172264,1,0,0:0:0:0:
256,192,172437,1,8,0:0:0:0:
256,192,172780,1,8,0:0:0:0:
256,192,172950,1,0,0:0:0:0:
256,192,173037,1,0,0:0:0:0:
256,192,173121,1,0,0:0:0:0:
256,192,174494,1,8,0:0:0:0:
256,192,174644,1,8,0:0:0:0:
256,192,174794,1,0,0:0:0:0:
256,192,174944,1,0,0:0:0:0:
256,192,175094,1,8,0:0:0:0:
256,192,175394,1,0,0:0:0:0:
256,192,175469,1,0,0:0:0:0:
256,192,175544,1,0,0:0:0:0:
256,192,175694,1,8,0:0:0:0:
256,192,175844,1,0,0:0:0:0:
256,192,175994,1,0,0:0:0:0:
256,192,176144,1,0,0:0:0:0:
256,192,176294,1,8,0:0:0:0:
256,192,176594,1,8,0:0:0:0:
256,192,176669,1,8,0:0:0:0:
256,192,176744,1,8,0:0:0:0:
256,192,176894,1,0,0:0:0:0:
256,192,177044,1,8,0:0:0:0:
256,192,177194,1,0,0:0:0:0:
256,192,177344,1,0,0:0:0:0:
256,192,177494,1,8,0:0:0:0:
256,192,177794,1,0,0:0:0:0:
256,192,177944,1,0,0:0:0:0:
256,192,178094,1,8,0:0:0:0:
256,192,178244,1,0,0:0:0:0:
256,192,178394,1,0,0:0:0:0:
256,192,178544,1,0,0:0:0:0:
256,192,178694,1,8,0:0:0:0:
256,192,178994,1,8,0:0:0:0:
256,192,179144,1,0,0:0:0:0:
256,192,179294,1,8,0:0:0:0:
256,192,179444,1,8,0:0:0:0:
256,192,179594,1,0,0:0:0:0:
256,192,179744,1,0,0:0:0:0:
256,192,179894,1,8,0:0:0:0:
256,192,180194,1,0,0:0:0:0:
256,192,180269,1,0,0:0:0:0:
256,192,180344,1,0,0:0:0:0:
256,192,180494,1,8,0:0:0:0:
256,192,180644,1,0,0:0:0:0:
256,192,180794,1,0,0:0:0:0:
256,192,180944,1,0,0:0:0:0:
256,192,181094,1,8,0:0:0:0:
256,192,181394,1,8,0:0:0:0:
256,192,181469,1,8,0:0:0:0:
256,192,181544,1,8,0:0:0:0:
256,192,181694,1,0,0:0:0:0:
256,192,181844,1,8,0:0:0:0:
256,192,181994,1,0,0:0:0:0:
256,192,182144,1,0,0:0:0:0:
256,192,182294,1,8,0:0:0:0:
256,192,182594,1,8,0:0:0:0:
256,192,182744,1,8,0:0:0:0:
256,192,182894,1,0,0:0:0:0:
256,192,183119,1,8,0:0:0:0:
256,192,183344,1,0,0:0:0:0:
256,192,183569,1,0,0:0:0:0:
256,192,183794,1,8,0:0:0:0:
256,192,183944,1,0,0:0:0:0:
256,192,184094,1,8,0:0:0:0:
256,192,184319,1,8,0:0:0:0:
256,192,184544,1,0,0:0:0:0:
256,192,184769,1,8,0:0:0:0:
256,192,184994,1,8,0:0:0:0:
256,192,185144,1,0,0:0:0:0:
256,192,185294,1,8,0:0:0:0:
256,192,185519,1,8,0:0:0:0:
256,192,185744,1,0,0:0:0:0:
256,192,185969,1,8,0:0:0:0:
256,192,186194,1,0,0:0:0:0:
256,192,186269,1,0,0:0:0:0:
256,192,186344,1,0,0:0:0:0:
256,192,186494,1,8,0:0:0:0:
256,192,186719,1,8,0:0:0:0:
256,192,186944,1,0,0:0:0:0:
256,192,187169,1,8,0:0:0:0:
256,192,187394,1,8,0:0:0:0:
256,192,187544,1,0,0:0:0:0:
256,192,187694,1,8,0:0:0:0:
256,192,187919,1,8,0:0:0:0:
256,192,188144,1,0,0:0:0:0:
256,192,188369,1,0,0:0:0:0:
256,192,188519,1,0,0:0:0:0:
256,192,188594,1,0,0:0:0:0:
256,192,188744,1,8,0:0:0:0:
256,192,188894,1,8,0:0:0:0:
256,192,189119,1,8,0:0:0:0:
256,192,189344,1,0,0:0:0:0:
256,192,189569,1,8,0:0:0:0:
256,192,189794,1,8,0:0:0:0:
256,192,189944,1,0,0:0:0:0:
256,192,190094,1,8,0:0:0:0:
256,192,190319,1,8,0:0:0:0:
256,192,190544,1,0,0:0:0:0:
256,192,190769,1,8,0:0:0:0:
256,192,190994,1,0,0:0:0:0:
256,192,191069,1,0,0:0:0:0:
256,192,191144,1,0,0:0:0:0:
256,192,191294,1,8,0:0:0:0:
256,192,191519,1,8,0:0:0:0:
256,192,191744,1,0,0:0:0:0:
256,192,191969,1,8,0:0:0:0:
256,192,192194,1,8,0:0:0:0:
256,192,192344,1,0,0:0:0:0:
256,192,192494,1,8,0:0:0:0:
256,192,192719,1,8,0:0:0:0:
256,192,192944,1,0,0:0:0:0:
256,192,193169,1,0,0:0:0:0:
256,192,193319,1,0,0:0:0:0:
256,192,193394,1,0,0:0:0:0:
256,192,193544,1,0,0:0:0:0:
256,192,193619,1,0,0:0:0:0:
