osu file format v14

[General]
AudioFilename: audio.mp3
AudioLeadIn: 0
PreviewTime: 0
Countdown: 0
SampleSet: Normal
StackLeniency: 1
Mode: 1
LetterboxInBreaks: 0
WidescreenStoryboard: 0

[Editor]
DistanceSpacing: 0.8
BeatDivisor: 4
GridSize: 32
TimelineZoom: 2.5

[Metadata]
Title:Thank You for Calling!
TitleUnicode:Thank You for Calling!
Artist:Lulickma
ArtistUnicode:Lulickma
Creator:Vulkin
Version:agu's Dial-Up Oni
Source:
Tags:the psycho filth vol 7 -bit beast- speedcore j-core xfraczynho cdhsausageboy dainesl dain -kazu- -anhedonia- firce777 agu
BeatmapID:1442868
BeatmapSetID:681633

[Difficulty]
HPDrainRate:3.5
CircleSize:7
OverallDifficulty:9
ApproachRate:10
SliderMultiplier:1.4
SliderTickRate:1

[Events]
//Background and Video events
0,0,"678339_22323247.jpg",0,0
//Break Periods
//Storyboard Layer 0 (Background)
//Storyboard Layer 1 (Fail)
//Storyboard Layer 2 (Pass)
//Storyboard Layer 3 (Foreground)
//Storyboard Sound Samples

[TimingPoints]
0,428.571428571429,4,1,0,60,1,0
5142,428.571428571429,7,1,0,60,1,0
7829,444.444444444444,4,1,0,60,1,0
7829,-125,4,1,0,60,0,0
14940,-111.111111111111,4,1,0,60,0,0
22051,-100,4,1,0,60,0,0
43384,-80,4,1,0,60,0,0
45162,-66.6666666666667,4,1,0,60,0,0
46940,-57.1428571428571,4,1,0,60,0,0
48717,-50,4,1,0,60,0,0
50495,222.222222222222,4,1,0,60,1,1
56717,-100,4,1,0,60,0,0
57606,-100,4,1,0,60,0,1
63828,-100,4,1,0,60,0,0
64717,-100,4,1,0,60,0,1
70939,-100,4,1,0,60,0,0
71828,-100,4,1,0,60,0,1
78050,-100,4,1,0,60,0,0
78939,-100,4,1,0,60,0,1
84272,-100,4,1,0,60,0,0
86050,-100,4,1,0,60,0,1
93161,-100,4,1,0,60,0,0
94050,-133.333333333333,4,1,0,60,0,0
94939,-200,4,1,0,60,0,0
95828,-400,4,1,0,60,0,0
96717,599.999405940594,4,1,0,60,1,0
113516,-83.3333333333333,4,1,0,60,0,0
114116,-71.4285714285714,4,1,0,60,0,0
114716,-62.5,4,1,0,60,0,0
115316,-55.5555555555556,4,1,0,60,0,0
115916,582.52427184466,4,1,0,60,1,0
115916,-50,4,1,0,60,0,0
118246,550.45871559633,4,1,0,60,1,0
118246,-50,4,1,0,60,0,0
120447,517.242575422805,4,1,0,60,1,0
120447,-50,4,1,0,60,0,0
122515,500.001117700557,4,1,0,60,1,0
122515,-50,4,1,0,60,0,0
124515,465.116279069767,4,1,0,60,1,0
124515,-50,4,1,0,60,0,0
126375,447.761194029851,4,1,0,60,1,0
126375,-50,4,1,0,60,0,0
128166,428.571428571429,4,1,0,60,1,0
128166,-50,4,1,0,60,0,0
129880,410.958904109589,4,1,0,60,1,0
129880,-50,4,1,0,60,0,0
131523,400.001085427649,4,1,0,60,1,0
131523,-50,4,1,0,60,0,0
150723,200,4,1,0,60,1,1
162723,-100,4,1,0,60,0,0
163523,171.428571428571,4,1,0,60,1,1
173123,-100,4,1,0,60,0,0
174494,150,4,1,0,60,1,1
182894,-100,4,1,0,60,0,0
184094,-100,4,1,0,60,0,1
193694,-100,4,1,0,60,0,0

[HitObjects]
352,320,0,5,0,0:0:0:0:
352,320,107,1,0,0:0:0:0:
352,320,214,1,8,0:0:0:0:
352,320,321,1,0,0:0:0:0:
352,320,428,1,8,0:0:0:0:
352,320,857,1,0,0:0:0:0:
384,320,964,1,8,0:0:0:0:
352,320,1071,1,8,0:0:0:0:
384,320,1178,1,0,0:0:0:0:
384,320,1285,1,8,0:0:0:0:
352,320,1714,1,0,0:0:0:0:
384,320,1821,1,8,0:0:0:0:
384,320,1928,1,0,0:0:0:0:
384,320,2035,1,0,0:0:0:0:
384,320,2142,1,8,0:0:0:0:
288,288,2571,1,8,0:0:0:0:
384,320,2678,1,0,0:0:0:0:
384,320,2785,1,0,0:0:0:0:
352,320,2892,1,0,0:0:0:0:
384,320,3000,1,8,0:0:0:0:
320,256,3428,1,0,0:0:0:0:
352,320,3535,1,0,0:0:0:0:
352,320,3642,1,8,0:0:0:0:
352,320,3750,1,0,0:0:0:0:
352,320,3857,1,8,0:0:0:0:
352,320,4285,1,0,0:0:0:0:
352,320,4392,1,8,0:0:0:0:
352,320,4500,1,8,0:0:0:0:
352,320,4607,1,0,0:0:0:0:
352,320,4714,1,8,0:0:0:0:
352,320,5142,1,0,0:0:0:0:
352,288,5249,1,8,0:0:0:0:
352,288,5356,1,0,0:0:0:0:
352,288,5463,1,0,0:0:0:0:
352,288,5570,1,8,0:0:0:0:
352,288,5999,1,8,0:0:0:0:
352,288,6106,1,0,0:0:0:0:
352,288,6213,1,0,0:0:0:0:
352,288,6320,1,8,0:0:0:0:
224,160,7829,1,0,0:0:0:0:
224,160,7940,1,8,0:0:0:0:
224,192,8162,1,0,0:0:0:0:
224,256,8717,1,0,0:0:0:0:
224,256,8828,1,0,0:0:0:0:
256,256,9051,1,8,0:0:0:0:
224,256,9606,1,0,0:0:0:0:
224,256,9717,1,8,0:0:0:0:
256,256,9940,1,0,0:0:0:0:
224,256,10495,1,0,0:0:0:0:
256,256,10606,1,0,0:0:0:0:
256,224,10828,1,8,0:0:0:0:
320,256,11384,1,0,0:0:0:0:
320,256,11495,1,0,0:0:0:0:
288,256,11717,1,8,0:0:0:0:
320,256,12273,1,0,0:0:0:0:
320,256,12384,1,8,0:0:0:0:
320,224,12606,1,0,0:0:0:0:
320,256,13162,1,0,0:0:0:0:
320,224,13273,1,0,0:0:0:0:
320,224,13495,1,8,0:0:0:0:
320,256,14051,1,0,0:0:0:0:
320,256,14162,1,8,0:0:0:0:
320,256,14384,1,0,0:0:0:0:
320,256,14495,1,8,0:0:0:0:
320,224,14717,1,8,0:0:0:0:
320,224,14940,1,0,0:0:0:0:
320,224,15051,1,8,0:0:0:0:
320,224,15273,1,8,0:0:0:0:
320,224,15495,1,8,0:0:0:0:
288,256,15828,1,0,0:0:0:0:
320,224,15940,1,8,0:0:0:0:
320,224,16051,1,0,0:0:0:0:
320,224,16162,1,0,0:0:0:0:
320,224,16273,1,8,0:0:0:0:
320,224,16384,1,8,0:0:0:0:
320,224,16495,1,0,0:0:0:0:
288,224,16717,1,0,0:0:0:0:
288,224,16828,1,8,0:0:0:0:
288,224,17051,1,8,0:0:0:0:
288,224,17273,1,8,0:0:0:0:
288,224,17606,1,0,0:0:0:0:
288,224,17717,1,0,0:0:0:0:
288,224,17828,1,8,0:0:0:0:
288,224,17940,1,0,0:0:0:0:
288,224,18051,1,8,0:0:0:0:
288,224,18162,1,8,0:0:0:0:
288,224,18273,1,0,0:0:0:0:
288,224,18384,1,8,0:0:0:0:
288,224,18495,1,0,0:0:0:0:
288,224,18606,1,0,0:0:0:0:
320,256,18828,1,8,0:0:0:0:
352,256,19051,1,8,0:0:0:0:
384,288,19384,1,0,0:0:0:0:
384,288,19495,1,8,0:0:0:0:
384,288,19606,1,0,0:0:0:0:
384,288,19717,1,0,0:0:0:0:
352,288,19828,1,8,0:0:0:0:
352,288,19940,1,0,0:0:0:0:
352,288,20051,1,8,0:0:0:0:
352,288,20273,1,0,0:0:0:0:
352,288,20384,1,8,0:0:0:0:
352,288,20606,1,8,0:0:0:0:
352,288,20828,1,8,0:0:0:0:
352,288,21162,1,0,0:0:0:0:
352,288,21273,1,0,0:0:0:0:
352,288,21384,1,8,0:0:0:0:
352,288,21495,1,0,0:0:0:0:
352,288,21606,1,8,0:0:0:0:
352,288,21717,1,0,0:0:0:0:
352,288,21828,1,8,0:0:0:0:
352,288,21940,1,8,0:0:0:0:
352,288,22051,1,0,0:0:0:0:
384,320,22273,1,0,0:0:0:0:
384,288,22384,1,8,0:0:0:0:
384,320,22495,1,0,0:0:0:0:
384,320,22717,1,0,0:0:0:0:
384,320,22940,1,0,0:0:0:0:
384,320,23162,1,0,0:0:0:0:
384,288,23273,1,0,0:0:0:0:
352,288,23384,1,8,0:0:0:0:
384,320,23606,1,0,0:0:0:0:
384,288,23828,1,0,0:0:0:0:
384,288,23940,1,8,0:0:0:0:
384,288,24051,1,0,0:0:0:0:
416,256,24162,1,8,0:0:0:0:
384,288,24273,1,0,0:0:0:0:
352,288,24495,1,0,0:0:0:0:
384,288,24606,1,0,0:0:0:0:
384,288,24717,1,8,0:0:0:0:
320,256,24828,1,0,0:0:0:0:
320,256,24940,1,8,0:0:0:0:
320,256,25051,1,0,0:0:0:0:
384,288,25162,1,8,0:0:0:0:
352,288,25273,1,0,0:0:0:0:
384,288,25384,1,8,0:0:0:0:
384,288,25495,1,8,0:0:0:0:
384,288,25606,1,0,0:0:0:0:
352,288,25717,1,8,0:0:0:0:
352,288,25940,1,8,0:0:0:0:
384,320,26051,1,0,0:0:0:0:
352,288,26162,1,8,0:0:0:0:
384,320,26273,1,8,0:0:0:0:
384,320,26495,1,0,0:0:0:0:
384,320,26606,1,0,0:0:0:0:
384,320,26717,1,8,0:0:0:0:
384,320,26828,1,0,0:0:0:0:
384,320,26940,1,8,0:0:0:0:
384,320,27162,1,8,0:0:0:0:
384,320,27273,1,0,0:0:0:0:
384,320,27384,1,0,0:0:0:0:
384,320,27495,1,8,0:0:0:0:
384,320,27717,1,8,0:0:0:0:
384,320,27940,1,8,0:0:0:0:
384,320,28051,1,0,0:0:0:0:
384,320,28273,1,0,0:0:0:0:
384,320,28384,1,0,0:0:0:0:
384,320,28495,1,8,0:0:0:0:
384,320,28606,1,0,0:0:0:0:
384,320,28717,1,8,0:0:0:0:
384,320,28828,1,0,0:0:0:0:
384,320,28940,1,8,0:0:0:0:
384,320,29051,1,8,0:0:0:0:
384,320,29162,1,0,0:0:0:0:
384,320,29273,1,8,0:0:0:0:
384,320,29495,1,8,0:0:0:0:
384,320,29606,1,0,0:0:0:0:
384,320,29717,1,8,0:0:0:0:
384,320,29828,1,0,0:0:0:0:
384,320,29940,1,8,0:0:0:0:
384,320,30051,1,0,0:0:0:0:
384,320,30162,1,0,0:0:0:0:
384,320,30384,1,0,0:0:0:0:
384,320,30495,1,8,0:0:0:0:
384,320,30606,1,8,0:0:0:0:
384,320,30717,1,0,0:0:0:0:
384,320,30940,1,8,0:0:0:0:
384,320,31051,1,0,0:0:0:0:
384,320,31162,1,8,0:0:0:0:
384,320,31273,1,8,0:0:0:0:
384,320,31384,1,0,0:0:0:0:
384,320,31606,1,0,0:0:0:0:
384,320,31828,1,0,0:0:0:0:
384,320,31940,1,0,0:0:0:0:
384,320,32051,1,8,0:0:0:0:
384,320,32162,1,0,0:0:0:0:
384,320,32273,1,8,0:0:0:0:
384,320,32384,1,0,0:0:0:0:
384,320,32495,1,8,0:0:0:0:
384,320,32606,1,8,0:0:0:0:
384,320,32717,1,0,0:0:0:0:
384,320,32828,1,0,0:0:0:0:
384,320,32940,1,8,0:0:0:0:
384,320,33051,1,0,0:0:0:0:
384,320,33162,1,8,0:0:0:0:
384,320,33273,1,8,0:0:0:0:
384,320,33384,1,0,0:0:0:0:
384,320,33606,1,8,0:0:0:0:
384,320,33717,1,8,0:0:0:0:
384,320,33828,1,0,0:0:0:0:
384,320,33940,1,0,0:0:0:0:
384,320,34051,1,8,0:0:0:0:
384,320,34162,1,0,0:0:0:0:
384,320,34273,1,8,0:0:0:0:
384,320,34495,1,0,0:0:0:0:
416,320,34606,1,8,0:0:0:0:
384,320,34717,1,0,0:0:0:0:
416,320,34828,1,0,0:0:0:0:
352,224,34940,1,8,0:0:0:0:
416,320,35051,1,8,0:0:0:0:
416,320,35273,1,8,0:0:0:0:
352,224,35384,1,0,0:0:0:0:
416,320,35606,1,8,0:0:0:0:
416,320,35717,1,0,0:0:0:0:
416,320,35828,1,8,0:0:0:0:
416,320,35940,1,0,0:0:0:0:
416,320,36051,1,8,0:0:0:0:
416,320,36162,1,8,0:0:0:0:
416,320,36273,1,0,0:0:0:0:
416,288,36606,1,0,0:0:0:0:
416,288,36940,1,0,0:0:0:0:
416,288,37273,1,0,0:0:0:0:
416,288,37606,1,8,0:0:0:0:
416,288,37828,1,8,0:0:0:0:
448,288,38051,1,0,0:0:0:0:
416,288,38384,1,0,0:0:0:0:
416,288,38717,1,0,0:0:0:0:
416,288,39051,1,0,0:0:0:0:
384,256,39384,1,0,0:0:0:0:
384,256,39495,1,0,0:0:0:0:
352,288,39606,1,8,0:0:0:0:
416,256,39828,1,0,0:0:0:0:
416,256,40162,1,0,0:0:0:0:
416,256,40495,1,0,0:0:0:0:
416,256,40828,1,0,0:0:0:0:
416,256,41162,1,8,0:0:0:0:
416,256,41384,1,8,0:0:0:0:
416,256,41606,1,0,0:0:0:0:
320,288,41940,1,0,0:0:0:0:
320,288,42273,1,0,0:0:0:0:
320,256,42495,1,8,0:0:0:0:
288,256,42773,1,0,0:0:0:0:
320,256,43051,1,8,0:0:0:0:
320,256,43384,1,0,0:0:0:0:
320,256,43717,1,0,0:0:0:0:
320,256,44051,1,0,0:0:0:0:
320,256,44384,1,0,0:0:0:0:
320,256,44717,1,8,0:0:0:0:
320,256,44940,1,8,0:0:0:0:
320,256,45162,1,0,0:0:0:0:
320,256,45495,1,0,0:0:0:0:
320,256,45828,1,0,0:0:0:0:
320,256,46162,1,0,0:0:0:0:
320,256,46495,1,0,0:0:0:0:
320,256,46606,1,0,0:0:0:0:
320,256,46717,1,8,0:0:0:0:
320,256,46940,1,0,0:0:0:0:
320,288,47273,1,0,0:0:0:0:
320,288,47606,1,0,0:0:0:0:
288,288,47940,1,0,0:0:0:0:
288,288,48273,1,8,0:0:0:0:
288,288,48495,1,8,0:0:0:0:
288,288,48717,1,0,0:0:0:0:
288,288,49051,1,0,0:0:0:0:
288,288,49384,1,0,0:0:0:0:
288,288,49606,1,8,0:0:0:0:
288,288,50495,1,0,0:0:0:0:
256,160,50606,1,8,0:0:0:0:
256,160,50661,1,8,0:0:0:0:
256,160,50717,1,0,0:0:0:0:
256,160,50772,1,8,0:0:0:0:
256,160,50828,1,0,0:0:0:0:
256,160,50883,1,0,0:0:0:0:
352,64,50939,1,8,0:0:0:0:
256,64,51050,1,0,0:0:0:0:
256,64,51161,1,8,0:0:0:0:
288,256,51272,1,0,0:0:0:0:
256,64,51328,1,0,0:0:0:0:
288,256,51383,1,8,0:0:0:0:
288,288,51495,1,0,0:0:0:0:
288,288,51606,1,8,0:0:0:0:
288,288,51661,1,0,0:0:0:0:
288,288,51717,1,8,0:0:0:0:
288,288,51772,1,8,0:0:0:0:
320,320,51828,1,0,0:0:0:0:
288,224,51883,1,0,0:0:0:0:
288,288,51939,1,8,0:0:0:0:
256,256,51995,1,8,0:0:0:0:
288,288,52050,1,0,0:0:0:0:
288,288,52106,1,8,0:0:0:0:
288,288,52161,1,0,0:0:0:0:
288,288,52217,1,0,0:0:0:0:
288,288,52272,1,8,0:0:0:0:
288,288,52383,1,0,0:0:0:0:
288,288,52495,1,8,0:0:0:0:
288,288,52550,1,0,0:0:0:0:
288,288,52606,1,0,0:0:0:0:
288,288,52661,1,0,0:0:0:0:
288,288,52717,1,8,0:0:0:0:
288,288,52772,1,8,0:0:0:0:
288,288,52828,1,0,0:0:0:0:
288,288,52883,1,0,0:0:0:0:
288,288,52939,1,8,0:0:0:0:
256,224,53050,1,0,0:0:0:0:
416,288,53106,1,0,0:0:0:0:
288,288,53161,1,8,0:0:0:0:
320,320,53272,1,0,0:0:0:0:
320,320,53383,1,8,0:0:0:0:
352,288,53439,1,0,0:0:0:0:
352,288,53495,1,8,0:0:0:0:
352,288,53550,1,8,0:0:0:0:
352,288,53606,1,0,0:0:0:0:
352,288,53717,1,0,0:0:0:0:
352,288,53828,1,0,0:0:0:0:
352,288,53939,1,0,0:0:0:0:
320,256,53995,1,0,0:0:0:0:
320,256,54050,1,8,0:0:0:0:
320,256,54161,1,8,0:0:0:0:
320,256,54217,1,8,0:0:0:0:
320,256,54272,1,0,0:0:0:0:
320,256,54328,1,0,0:0:0:0:
320,256,54383,1,8,0:0:0:0:
320,256,54439,1,0,0:0:0:0:
320,256,54494,1,8,0:0:0:0:
320,256,54606,1,8,0:0:0:0:
320,256,54661,1,0,0:0:0:0:
320,256,54717,1,8,0:0:0:0:
320,256,54772,1,8,0:0:0:0:
320,256,54828,1,0,0:0:0:0:
320,256,54883,1,0,0:0:0:0:
320,256,54939,1,8,0:0:0:0:
320,256,55050,1,0,0:0:0:0:
320,256,55161,1,8,0:0:0:0:
320,256,55272,1,8,0:0:0:0:
320,256,55328,1,8,0:0:0:0:
320,256,55383,1,0,0:0:0:0:
320,256,55494,1,0,0:0:0:0:
320,256,55606,1,8,0:0:0:0:
320,256,55717,1,0,0:0:0:0:
320,256,55772,1,0,0:0:0:0:
320,256,55828,1,8,0:0:0:0:
320,256,55939,1,0,0:0:0:0:
320,256,55994,1,8,0:0:0:0:
320,256,56050,1,0,0:0:0:0:
320,256,56161,1,0,0:0:0:0:
320,256,56272,1,8,0:0:0:0:
320,256,56328,1,0,0:0:0:0:
320,256,56383,1,8,0:0:0:0:
320,256,56439,1,8,0:0:0:0:
320,256,56494,1,0,0:0:0:0:
320,256,56606,1,0,0:0:0:0:
320,256,56717,1,8,0:0:0:0:
320,256,56939,1,0,0:0:0:0:
320,256,57161,1,8,0:0:0:0:
320,256,57383,1,8,0:0:0:0:
320,256,57606,1,0,0:0:0:0:
320,256,57717,1,0,0:0:0:0:
320,256,57772,1,0,0:0:0:0:
320,256,57828,1,8,0:0:0:0:
320,256,57883,1,8,0:0:0:0:
320,256,57939,1,0,0:0:0:0:
320,256,57994,1,0,0:0:0:0:
320,256,58050,1,8,0:0:0:0:
320,256,58161,1,8,0:0:0:0:
320,256,58217,1,8,0:0:0:0:
320,256,58272,1,0,0:0:0:0:
320,256,58328,1,8,0:0:0:0:
320,256,58383,1,0,0:0:0:0:
320,256,58439,1,0,0:0:0:0:
320,256,58494,1,8,0:0:0:0:
320,256,58606,1,8,0:0:0:0:
320,256,58717,1,0,0:0:0:0:
320,256,58772,1,8,0:0:0:0:
320,256,58828,1,0,0:0:0:0:
320,256,58883,1,0,0:0:0:0:
320,256,58939,1,8,0:0:0:0:
320,256,59050,1,8,0:0:0:0:
320,256,59106,1,8,0:0:0:0:
320,256,59161,1,0,0:0:0:0:
320,256,59272,1,0,0:0:0:0:
320,256,59383,1,8,0:0:0:0:
320,256,59439,1,8,0:0:0:0:
320,256,59494,1,0,0:0:0:0:
320,256,59550,1,0,0:0:0:0:
320,256,59606,1,8,0:0:0:0:
320,256,59717,1,8,0:0:0:0:
320,256,59828,1,0,0:0:0:0:
320,256,59939,1,0,0:0:0:0:
320,256,59994,1,0,0:0:0:0:
320,256,60050,1,8,0:0:0:0:
320,256,60106,1,0,0:0:0:0:
320,256,60161,1,8,0:0:0:0:
320,256,60217,1,8,0:0:0:0:
320,256,60272,1,0,0:0:0:0:
320,256,60383,1,0,0:0:0:0:
320,256,60494,1,8,0:0:0:0:
320,256,60550,1,8,0:0:0:0:
320,256,60606,1,0,0:0:0:0:
320,256,60661,1,0,0:0:0:0:
320,256,60717,1,8,0:0:0:0:
320,256,60828,1,0,0:0:0:0:
320,256,60939,1,0,0:0:0:0:
320,256,61050,1,0,0:0:0:0:
320,256,61106,1,0,0:0:0:0:
320,256,61161,1,8,0:0:0:0:
320,256,61272,1,8,0:0:0:0:
320,256,61328,1,8,0:0:0:0:
320,256,61383,1,0,0:0:0:0:
320,256,61439,1,0,0:0:0:0:
320,256,61494,1,8,0:0:0:0:
320,256,61550,1,0,0:0:0:0:
320,256,61606,1,8,0:0:0:0:
320,256,61717,1,8,0:0:0:0:
320,256,61828,1,8,0:0:0:0:
320,256,61883,1,0,0:0:0:0:
320,256,61939,1,8,0:0:0:0:
320,256,61994,1,8,0:0:0:0:
320,256,62050,1,0,0:0:0:0:
320,256,62161,1,0,0:0:0:0:
320,256,62272,1,8,0:0:0:0:
320,256,62328,1,0,0:0:0:0:
320,256,62383,1,0,0:0:0:0:
320,256,62439,1,0,0:0:0:0:
320,256,62494,1,8,0:0:0:0:
320,256,62550,1,8,0:0:0:0:
320,256,62606,1,0,0:0:0:0:
320,256,62661,1,0,0:0:0:0:
320,256,62717,1,8,0:0:0:0:
320,256,62772,1,0,0:0:0:0:
320,256,62828,1,8,0:0:0:0:
320,256,62883,1,8,0:0:0:0:
320,256,62939,1,0,0:0:0:0:
320,256,63050,1,0,0:0:0:0:
320,256,63106,1,0,0:0:0:0:
320,256,63161,1,8,0:0:0:0:
320,256,63217,1,0,0:0:0:0:
320,256,63272,1,8,0:0:0:0:
320,256,63328,1,8,0:0:0:0:
320,256,63383,1,0,0:0:0:0:
320,256,63494,1,0,0:0:0:0:
320,256,63550,1,0,0:0:0:0:
320,256,63606,1,8,0:0:0:0:
320,256,63661,1,8,0:0:0:0:
320,256,63717,1,0,0:0:0:0:
320,256,63772,1,0,0:0:0:0:
320,256,63828,1,8,0:0:0:0:
288,288,64717,1,0,0:0:0:0:
288,288,64828,1,8,0:0:0:0:
288,288,64883,1,0,0:0:0:0:
288,288,64939,1,8,0:0:0:0:
288,288,64994,1,0,0:0:0:0:
288,288,65050,1,8,0:0:0:0:
288,288,65106,1,8,0:0:0:0:
288,288,65161,1,0,0:0:0:0:
288,288,65272,1,0,0:0:0:0:
288,288,65328,1,8,0:0:0:0:
288,288,65383,1,0,0:0:0:0:
288,288,65439,1,8,0:0:0:0:
288,288,65494,1,0,0:0:0:0:
288,288,65550,1,0,0:0:0:0:
288,288,65606,1,8,0:0:0:0:
288,256,65717,1,0,0:0:0:0:
288,256,65772,1,0,0:0:0:0:
288,256,65828,1,8,0:0:0:0:
288,256,65939,1,0,0:0:0:0:
288,256,65994,1,8,0:0:0:0:
288,256,66050,1,0,0:0:0:0:
288,256,66106,1,0,0:0:0:0:
288,256,66161,1,8,0:0:0:0:
288,256,66217,1,8,0:0:0:0:
288,256,66272,1,0,0:0:0:0:
288,256,66383,1,0,0:0:0:0:
288,256,66494,1,8,0:0:0:0:
288,256,66550,1,0,0:0:0:0:
288,256,66606,1,0,0:0:0:0:
288,256,66661,1,8,0:0:0:0:
288,256,66717,1,0,0:0:0:0:
288,256,66772,1,0,0:0:0:0:
288,256,66828,1,8,0:0:0:0:
288,256,66883,1,0,0:0:0:0:
288,256,66939,1,8,0:0:0:0:
288,256,67050,1,8,0:0:0:0:
288,256,67106,1,0,0:0:0:0:
288,256,67161,1,8,0:0:0:0:
288,256,67217,1,8,0:0:0:0:
288,256,67272,1,0,0:0:0:0:
288,256,67328,1,0,0:0:0:0:
288,256,67383,1,8,0:0:0:0:
288,256,67494,1,0,0:0:0:0:
288,256,67606,1,8,0:0:0:0:
288,256,67661,1,8,0:0:0:0:
288,256,67717,1,0,0:0:0:0:
288,256,67772,1,0,0:0:0:0:
288,256,67828,1,8,0:0:0:0:
288,256,67939,1,0,0:0:0:0:
256,256,68050,1,8,0:0:0:0:
256,256,68106,1,0,0:0:0:0:
256,256,68161,1,8,0:0:0:0:
256,256,68217,1,8,0:0:0:0:
256,256,68272,1,0,0:0:0:0:
256,256,68328,1,0,0:0:0:0:
256,256,68383,1,8,0:0:0:0:
256,256,68439,1,8,0:0:0:0:
256,256,68494,1,0,0:0:0:0:
256,256,68606,1,0,0:0:0:0:
256,256,68661,1,0,0:0:0:0:
256,256,68717,1,8,0:0:0:0:
256,256,68772,1,0,0:0:0:0:
256,256,68828,1,8,0:0:0:0:
256,256,68883,1,8,0:0:0:0:
256,256,68939,1,0,0:0:0:0:
256,256,69050,1,0,0:0:0:0:
256,256,69106,1,0,0:0:0:0:
256,256,69161,1,8,0:0:0:0:
256,256,69217,1,0,0:0:0:0:
256,256,69272,1,8,0:0:0:0:
256,256,69328,1,8,0:0:0:0:
256,256,69383,1,0,0:0:0:0:
256,256,69439,1,0,0:0:0:0:
256,256,69494,1,8,0:0:0:0:
256,256,69550,1,0,0:0:0:0:
256,256,69606,1,8,0:0:0:0:
256,256,69717,1,8,0:0:0:0:
256,256,69828,1,8,0:0:0:0:
256,256,69883,1,0,0:0:0:0:
256,256,69939,1,0,0:0:0:0:
256,256,69994,1,8,0:0:0:0:
256,256,70050,1,0,0:0:0:0:
256,256,70161,1,0,0:0:0:0:
256,256,70217,1,8,0:0:0:0:
256,256,70272,1,0,0:0:0:0:
256,256,70328,1,0,0:0:0:0:
256,256,70383,1,8,0:0:0:0:
256,256,70439,1,8,0:0:0:0:
256,256,70494,1,0,0:0:0:0:
256,256,70606,1,8,0:0:0:0:
256,256,70661,1,0,0:0:0:0:
256,256,70717,1,8,0:0:0:0:
256,256,70772,1,8,0:0:0:0:
256,256,70828,1,0,0:0:0:0:
256,256,70883,1,8,0:0:0:0:
256,256,70939,1,0,0:0:0:0:
256,256,71050,1,0,0:0:0:0:
256,256,71161,1,8,0:0:0:0:
256,256,71272,1,0,0:0:0:0:
256,256,71383,1,8,0:0:0:0:
256,256,71494,1,8,0:0:0:0:
256,256,71606,1,0,0:0:0:0:
256,256,71717,1,8,0:0:0:0:
256,256,71828,1,0,0:0:0:0:
256,256,71939,1,0,0:0:0:0:
256,256,71994,1,0,0:0:0:0:
256,256,72050,1,8,0:0:0:0:
224,288,72106,1,0,0:0:0:0:
224,288,72161,1,8,0:0:0:0:
224,288,72217,1,0,0:0:0:0:
224,288,72272,1,8,0:0:0:0:
224,288,72328,1,8,0:0:0:0:
224,288,72383,1,8,0:0:0:0:
224,288,72439,1,8,0:0:0:0:
224,288,72494,1,0,0:0:0:0:
224,288,72606,1,0,0:0:0:0:
224,288,72661,1,0,0:0:0:0:
224,288,72717,1,8,0:0:0:0:
256,320,72828,1,0,0:0:0:0:
256,320,72883,1,0,0:0:0:0:
256,320,72939,1,8,0:0:0:0:
256,320,72994,1,0,0:0:0:0:
256,320,73050,1,8,0:0:0:0:
256,320,73106,1,8,0:0:0:0:
256,320,73161,1,0,0:0:0:0:
256,320,73272,1,0,0:0:0:0:
256,320,73328,1,0,0:0:0:0:
256,320,73383,1,8,0:0:0:0:
256,320,73494,1,0,0:0:0:0:
256,320,73606,1,8,0:0:0:0:
256,320,73661,1,0,0:0:0:0:
256,320,73717,1,0,0:0:0:0:
256,320,73772,1,0,0:0:0:0:
256,320,73828,1,8,0:0:0:0:
256,320,73883,1,0,0:0:0:0:
256,320,73939,1,0,0:0:0:0:
256,320,73994,1,8,0:0:0:0:
256,320,74050,1,0,0:0:0:0:
256,320,74106,1,0,0:0:0:0:
256,320,74161,1,8,0:0:0:0:
256,320,74217,1,0,0:0:0:0:
256,320,74272,1,8,0:0:0:0:
256,320,74383,1,8,0:0:0:0:
256,320,74439,1,0,0:0:0:0:
256,320,74494,1,8,0:0:0:0:
256,320,74550,1,8,0:0:0:0:
256,320,74606,1,8,0:0:0:0:
256,320,74661,1,8,0:0:0:0:
256,320,74717,1,0,0:0:0:0:
256,320,74828,1,0,0:0:0:0:
256,320,74883,1,0,0:0:0:0:
256,320,74939,1,8,0:0:0:0:
256,288,74994,1,0,0:0:0:0:
256,288,75050,1,8,0:0:0:0:
256,320,75106,1,8,0:0:0:0:
256,320,75161,1,0,0:0:0:0:
256,320,75272,1,0,0:0:0:0:
256,320,75383,1,8,0:0:0:0:
288,320,75439,1,0,0:0:0:0:
256,320,75494,1,8,0:0:0:0:
288,320,75550,1,8,0:0:0:0:
288,320,75606,1,0,0:0:0:0:
288,320,75661,1,0,0:0:0:0:
288,320,75717,1,0,0:0:0:0:
288,320,75772,1,0,0:0:0:0:
288,320,75828,1,8,0:0:0:0:
288,320,75883,1,0,0:0:0:0:
288,320,75939,1,0,0:0:0:0:
288,320,75994,1,0,0:0:0:0:
288,320,76050,1,8,0:0:0:0:
288,320,76161,1,0,0:0:0:0:
288,320,76217,1,0,0:0:0:0:
288,320,76272,1,8,0:0:0:0:
288,320,76383,1,0,0:0:0:0:
288,320,76439,1,8,0:0:0:0:
288,320,76494,1,0,0:0:0:0:
288,320,76550,1,0,0:0:0:0:
288,320,76606,1,8,0:0:0:0:
288,320,76661,1,8,0:0:0:0:
288,320,76717,1,0,0:0:0:0:
288,320,76828,1,0,0:0:0:0:
288,320,76939,1,8,0:0:0:0:
288,320,77050,1,0,0:0:0:0:
288,320,77106,1,8,0:0:0:0:
288,320,77161,1,0,0:0:0:0:
288,320,77217,1,8,0:0:0:0:
288,320,77272,1,0,0:0:0:0:
288,320,77328,1,0,0:0:0:0:
288,320,77383,1,0,0:0:0:0:
288,320,77494,1,0,0:0:0:0:
288,320,77550,1,0,0:0:0:0:
288,320,77606,1,0,0:0:0:0:
288,320,77717,1,0,0:0:0:0:
288,288,77828,1,8,0:0:0:0:
288,288,77939,1,0,0:0:0:0:
288,288,78050,1,8,0:0:0:0:
288,288,78161,1,0,0:0:0:0:
288,288,78494,1,0,0:0:0:0:
288,288,78606,1,0,0:0:0:0:
288,288,78717,1,0,0:0:0:0:
288,288,78828,1,0,0:0:0:0:
288,288,78939,1,8,0:0:0:0:
288,288,79050,1,0,0:0:0:0:
288,288,79161,1,8,0:0:0:0:
288,288,79272,1,0,0:0:0:0:
256,288,79328,1,0,0:0:0:0:
288,256,79383,1,8,0:0:0:0:
288,256,79439,1,0,0:0:0:0:
288,256,79494,1,8,0:0:0:0:
288,256,79550,1,8,0:0:0:0:
288,256,79606,1,0,0:0:0:0:
288,288,79661,1,8,0:0:0:0:
288,256,79717,1,0,0:0:0:0:
288,288,79828,1,0,0:0:0:0:
256,288,79939,1,0,0:0:0:0:
288,288,80050,1,8,0:0:0:0:
288,288,80161,1,8,0:0:0:0:
288,288,80217,1,8,0:0:0:0:
288,288,80272,1,0,0:0:0:0:
288,288,80383,1,8,0:0:0:0:
288,288,80494,1,0,0:0:0:0:
288,256,80606,1,8,0:0:0:0:
288,256,80661,1,8,0:0:0:0:
288,256,80717,1,0,0:0:0:0:
288,256,80828,1,0,0:0:0:0:
288,256,80939,1,8,0:0:0:0:
288,256,81050,1,0,0:0:0:0:
288,256,81161,1,0,0:0:0:0:
288,256,81272,1,0,0:0:0:0:
288,256,81328,1,0,0:0:0:0:
288,256,81383,1,8,0:0:0:0:
288,256,81439,1,0,0:0:0:0:
288,256,81494,1,8,0:0:0:0:
288,256,81550,1,8,0:0:0:0:
288,256,81606,1,0,0:0:0:0:
256,256,81717,1,0,0:0:0:0:
288,256,81828,1,0,0:0:0:0:
288,256,81939,1,8,0:0:0:0:
288,256,81994,1,8,0:0:0:0:
288,256,82050,1,0,0:0:0:0:
288,256,82161,1,8,0:0:0:0:
256,256,82217,1,0,0:0:0:0:
256,256,82272,1,8,0:0:0:0:
256,256,82328,1,8,0:0:0:0:
256,256,82383,1,8,0:0:0:0:
256,256,82439,1,8,0:0:0:0:
256,256,82494,1,0,0:0:0:0:
288,224,82606,1,0,0:0:0:0:
288,256,82717,1,8,0:0:0:0:
288,256,82772,1,8,0:0:0:0:
288,256,82828,1,0,0:0:0:0:
288,256,82939,1,0,0:0:0:0:
288,256,83050,1,8,0:0:0:0:
288,256,83106,1,8,0:0:0:0:
288,256,83161,1,0,0:0:0:0:
288,288,83272,1,0,0:0:0:0:
288,288,83383,1,8,0:0:0:0:
288,288,83439,1,8,0:0:0:0:
288,256,83494,1,0,0:0:0:0:
288,256,83606,1,0,0:0:0:0:
288,256,83717,1,8,0:0:0:0:
288,256,83772,1,8,0:0:0:0:
288,256,83828,1,0,0:0:0:0:
288,256,83939,1,0,0:0:0:0:
288,256,84050,1,8,0:0:0:0:
288,256,84161,1,8,0:0:0:0:
288,256,84217,1,8,0:0:0:0:
288,256,84272,1,0,0:0:0:0:
288,256,84383,1,0,0:0:0:0:
288,256,84494,1,8,0:0:0:0:
288,256,84606,1,0,0:0:0:0:
288,256,84717,1,8,0:0:0:0:
288,256,84828,1,8,0:0:0:0:
288,256,84939,1,0,0:0:0:0:
288,256,85050,1,8,0:0:0:0:
288,256,85161,1,0,0:0:0:0:
288,256,85606,1,0,0:0:0:0:
288,256,85717,1,8,0:0:0:0:
288,256,85772,1,8,0:0:0:0:
288,256,85828,1,8,0:0:0:0:
288,256,85883,1,8,0:0:0:0:
288,256,85939,1,8,0:0:0:0:
288,256,86050,1,0,0:0:0:0:
288,256,86161,1,0,0:0:0:0:
288,256,86272,1,8,0:0:0:0:
288,224,86328,1,8,0:0:0:0:
288,224,86383,1,0,0:0:0:0:
288,224,86494,1,0,0:0:0:0:
288,224,86606,1,8,0:0:0:0:
288,224,86661,1,8,0:0:0:0:
288,224,86717,1,0,0:0:0:0:
288,224,86828,1,0,0:0:0:0:
288,224,86939,1,8,0:0:0:0:
288,224,86994,1,8,0:0:0:0:
288,256,87050,1,0,0:0:0:0:
288,288,87106,1,8,0:0:0:0:
288,256,87161,1,0,0:0:0:0:
288,288,87217,1,0,0:0:0:0:
288,256,87272,1,8,0:0:0:0:
288,256,87328,1,8,0:0:0:0:
288,256,87383,1,0,0:0:0:0:
288,256,87494,1,0,0:0:0:0:
288,224,87550,1,8,0:0:0:0:
288,224,87606,1,0,0:0:0:0:
320,224,87661,1,8,0:0:0:0:
320,224,87717,1,0,0:0:0:0:
288,256,87772,1,8,0:0:0:0:
320,224,87828,1,0,0:0:0:0:
320,256,87939,1,0,0:0:0:0:
320,256,88050,1,8,0:0:0:0:
320,256,88106,1,8,0:0:0:0:
320,256,88161,1,0,0:0:0:0:
320,256,88272,1,0,0:0:0:0:
320,256,88383,1,8,0:0:0:0:
320,256,88439,1,8,0:0:0:0:
320,256,88494,1,0,0:0:0:0:
320,256,88606,1,0,0:0:0:0:
320,256,88717,1,8,0:0:0:0:
320,256,88772,1,8,0:0:0:0:
320,256,88828,1,0,0:0:0:0:
320,256,88939,1,0,0:0:0:0:
320,256,89050,1,8,0:0:0:0:
320,256,89106,1,8,0:0:0:0:
320,256,89161,1,0,0:0:0:0:
320,256,89272,1,0,0:0:0:0:
320,256,89328,1,0,0:0:0:0:
320,256,89383,1,8,0:0:0:0:
320,256,89439,1,0,0:0:0:0:
320,256,89494,1,8,0:0:0:0:
320,256,89550,1,8,0:0:0:0:
320,256,89606,1,0,0:0:0:0:
320,256,89717,1,0,0:0:0:0:
320,256,89828,1,8,0:0:0:0:
320,256,89883,1,8,0:0:0:0:
320,256,89939,1,0,0:0:0:0:
320,256,90050,1,0,0:0:0:0:
320,256,90161,1,8,0:0:0:0:
320,256,90217,1,8,0:0:0:0:
320,256,90272,1,0,0:0:0:0:
320,256,90383,1,0,0:0:0:0:
320,256,90494,1,8,0:0:0:0:
320,256,90550,1,8,0:0:0:0:
320,256,90606,1,0,0:0:0:0:
320,256,90717,1,0,0:0:0:0:
320,256,90828,1,8,0:0:0:0:
320,256,90883,1,8,0:0:0:0:
320,256,90939,1,0,0:0:0:0:
320,256,91050,1,0,0:0:0:0:
320,256,91106,1,8,0:0:0:0:
320,256,91161,1,0,0:0:0:0:
320,256,91217,1,8,0:0:0:0:
320,256,91272,1,0,0:0:0:0:
320,256,91328,1,8,0:0:0:0:
320,256,91383,1,0,0:0:0:0:
320,256,91494,1,0,0:0:0:0:
288,256,91606,1,8,0:0:0:0:
288,256,91661,1,8,0:0:0:0:
288,256,91717,1,0,0:0:0:0:
288,256,91828,1,0,0:0:0:0:
288,256,91939,1,8,0:0:0:0:
288,256,91994,1,8,0:0:0:0:
288,256,92050,1,0,0:0:0:0:
288,256,92161,1,0,0:0:0:0:
288,256,92272,1,8,0:0:0:0:
288,256,92328,1,8,0:0:0:0:
288,256,92383,1,0,0:0:0:0:
288,256,92494,1,0,0:0:0:0:
288,256,92606,1,0,0:0:0:0:
288,256,92717,1,0,0:0:0:0:
288,256,92828,1,0,0:0:0:0:
288,256,92939,1,8,0:0:0:0:
288,256,92994,1,8,0:0:0:0:
288,256,93050,1,8,0:0:0:0:
288,256,93106,1,8,0:0:0:0:
288,256,93161,1,0,0:0:0:0:
256,192,93606,12,0,95828,0:0:0:0:
288,256,96272,5,8,0:0:0:0:
256,256,96494,1,8,0:0:0:0:
256,256,96717,1,0,0:0:0:0:
256,288,96866,1,0,0:0:0:0:
256,288,97166,1,0,0:0:0:0:
256,288,97316,1,8,0:0:0:0:
256,288,97466,1,0,0:0:0:0:
256,288,97916,1,0,0:0:0:0:
256,288,98066,1,0,0:0:0:0:
256,288,98216,1,8,0:0:0:0:
256,288,98366,1,0,0:0:0:0:
256,288,98516,1,8,0:0:0:0:
288,320,98666,1,0,0:0:0:0:
288,320,98816,1,8,0:0:0:0:
256,288,99116,1,0,0:0:0:0:
256,288,99266,1,0,0:0:0:0:
256,288,99566,1,0,0:0:0:0:
256,288,99716,1,8,0:0:0:0:
256,288,99866,1,0,0:0:0:0:
288,320,100316,1,0,0:0:0:0:
288,320,100466,1,0,0:0:0:0:
288,320,100616,1,8,0:0:0:0:
288,320,100766,1,0,0:0:0:0:
288,320,100916,1,8,0:0:0:0:
288,320,101066,1,0,0:0:0:0:
288,320,101216,1,8,0:0:0:0:
288,320,101366,1,8,0:0:0:0:
288,320,101516,1,0,0:0:0:0:
288,320,101666,1,0,0:0:0:0:
288,320,101966,1,0,0:0:0:0:
288,320,102116,1,8,0:0:0:0:
288,320,102266,1,0,0:0:0:0:
288,320,102716,1,0,0:0:0:0:
288,320,102866,1,0,0:0:0:0:
288,320,103016,1,8,0:0:0:0:
288,320,103166,1,0,0:0:0:0:
288,320,103316,1,8,0:0:0:0:
288,320,103466,1,0,0:0:0:0:
288,320,103616,1,8,0:0:0:0:
288,320,103916,1,0,0:0:0:0:
288,352,104066,1,0,0:0:0:0:
288,320,104366,1,0,0:0:0:0:
288,320,104516,1,8,0:0:0:0:
288,320,104666,1,0,0:0:0:0:
288,320,104816,1,8,0:0:0:0:
288,320,105116,1,0,0:0:0:0:
288,320,105266,1,0,0:0:0:0:
288,320,105416,1,8,0:0:0:0:
288,320,105566,1,0,0:0:0:0:
288,320,105716,1,8,0:0:0:0:
288,320,105866,1,8,0:0:0:0:
288,320,106016,1,8,0:0:0:0:
288,320,106166,1,8,0:0:0:0:
288,320,106316,1,0,0:0:0:0:
288,320,106466,1,0,0:0:0:0:
288,320,106766,1,0,0:0:0:0:
288,320,106916,1,8,0:0:0:0:
288,320,107066,1,0,0:0:0:0:
320,320,107216,1,8,0:0:0:0:
288,320,107516,1,0,0:0:0:0:
288,320,107666,1,0,0:0:0:0:
288,320,107816,1,8,0:0:0:0:
288,320,107966,1,0,0:0:0:0:
288,320,108116,1,8,0:0:0:0:
288,320,108266,1,0,0:0:0:0:
288,320,108416,1,8,0:0:0:0:
288,320,108716,1,0,0:0:0:0:
288,288,108866,1,0,0:0:0:0:
288,288,109166,1,0,0:0:0:0:
288,288,109316,1,8,0:0:0:0:
288,288,109466,1,0,0:0:0:0:
288,320,109616,1,8,0:0:0:0:
288,288,109916,1,0,0:0:0:0:
288,288,110066,1,0,0:0:0:0:
288,288,110216,1,8,0:0:0:0:
288,288,110366,1,0,0:0:0:0:
288,288,110516,1,8,0:0:0:0:
288,288,110666,1,0,0:0:0:0:
288,288,110816,1,8,0:0:0:0:
288,288,110966,1,8,0:0:0:0:
288,288,111116,1,0,0:0:0:0:
288,288,111266,1,0,0:0:0:0:
288,288,111566,1,0,0:0:0:0:
288,288,111716,1,8,0:0:0:0:
288,288,111866,1,0,0:0:0:0:
288,288,112016,1,8,0:0:0:0:
288,288,112316,1,0,0:0:0:0:
288,288,112466,1,0,0:0:0:0:
288,288,112616,1,8,0:0:0:0:
288,288,112766,1,0,0:0:0:0:
288,288,112916,1,8,0:0:0:0:
288,288,113066,1,0,0:0:0:0:
288,288,113216,1,8,0:0:0:0:
288,288,113516,1,0,0:0:0:0:
288,256,113666,1,0,0:0:0:0:
320,288,113966,1,0,0:0:0:0:
320,288,114116,1,8,0:0:0:0:
320,288,114266,1,0,0:0:0:0:
288,288,114416,1,8,0:0:0:0:
320,288,114716,1,0,0:0:0:0:
320,288,114866,1,0,0:0:0:0:
320,288,115016,1,8,0:0:0:0:
320,288,115166,1,0,0:0:0:0:
320,288,115316,1,8,0:0:0:0:
320,288,115466,1,8,0:0:0:0:
320,288,115616,1,8,0:0:0:0:
320,288,115766,1,8,0:0:0:0:
320,288,115916,1,0,0:0:0:0:
320,256,116207,1,8,0:0:0:0:
320,256,116352,1,8,0:0:0:0:
320,288,116498,1,0,0:0:0:0:
320,256,116644,1,0,0:0:0:0:
320,256,116789,1,8,0:0:0:0:
320,288,117081,1,0,0:0:0:0:
352,288,117372,1,8,0:0:0:0:
352,288,117517,1,8,0:0:0:0:
320,288,117663,1,0,0:0:0:0:
352,288,117809,1,8,0:0:0:0:
352,288,117954,1,0,0:0:0:0:
352,288,118246,1,0,0:0:0:0:
320,288,118383,1,0,0:0:0:0:
320,288,118521,1,8,0:0:0:0:
320,288,118658,1,0,0:0:0:0:
320,288,118796,1,8,0:0:0:0:
352,288,119071,1,0,0:0:0:0:
352,288,119209,1,8,0:0:0:0:
352,288,119346,1,0,0:0:0:0:
352,288,119484,1,0,0:0:0:0:
352,288,119622,1,8,0:0:0:0:
352,288,119759,1,0,0:0:0:0:
352,288,119897,1,8,0:0:0:0:
352,288,120172,1,8,0:0:0:0:
352,288,120310,1,8,0:0:0:0:
352,288,120447,1,0,0:0:0:0:
352,288,120576,1,0,0:0:0:0:
352,288,120705,1,8,0:0:0:0:
352,288,120834,1,0,0:0:0:0:
352,288,120964,1,8,0:0:0:0:
352,288,121222,1,0,0:0:0:0:
352,288,121352,1,0,0:0:0:0:
352,288,121481,1,8,0:0:0:0:
352,288,121610,1,0,0:0:0:0:
352,288,121740,1,8,0:0:0:0:
352,288,121869,1,0,0:0:0:0:
352,288,121998,1,8,0:0:0:0:
352,288,122257,1,0,0:0:0:0:
352,288,122386,1,8,0:0:0:0:
352,288,122515,1,0,0:0:0:0:
352,288,122640,1,0,0:0:0:0:
352,288,122765,1,8,0:0:0:0:
352,288,122890,1,0,0:0:0:0:
352,288,123015,1,8,0:0:0:0:
352,288,123140,1,8,0:0:0:0:
352,288,123265,1,0,0:0:0:0:
352,288,123390,1,8,0:0:0:0:
352,288,123515,1,8,0:0:0:0:
352,288,123640,1,0,0:0:0:0:
352,288,123765,1,0,0:0:0:0:
352,288,123890,1,0,0:0:0:0:
352,288,124015,1,8,0:0:0:0:
352,288,124140,1,8,0:0:0:0:
352,288,124265,1,0,0:0:0:0:
352,288,124390,1,8,0:0:0:0:
352,288,124515,1,0,0:0:0:0:
352,288,124631,1,0,0:0:0:0:
352,288,124863,1,8,0:0:0:0:
352,288,124980,1,0,0:0:0:0:
320,288,125096,1,0,0:0:0:0:
320,288,125212,1,8,0:0:0:0:
320,288,125328,1,8,0:0:0:0:
320,288,125445,1,0,0:0:0:0:
320,288,125561,1,8,0:0:0:0:
320,288,125794,1,0,0:0:0:0:
320,288,125910,1,8,0:0:0:0:
352,320,126026,1,0,0:0:0:0:
320,288,126142,1,8,0:0:0:0:
320,288,126259,1,8,0:0:0:0:
320,288,126375,1,0,0:0:0:0:
352,320,126486,1,8,0:0:0:0:
352,320,126598,1,8,0:0:0:0:
352,320,126710,1,0,0:0:0:0:
352,320,126822,1,8,0:0:0:0:
352,320,126934,1,8,0:0:0:0:
352,320,127046,1,0,0:0:0:0:
352,320,127158,1,8,0:0:0:0:
352,320,127270,1,0,0:0:0:0:
352,288,127494,1,8,0:0:0:0:
352,288,127606,1,0,0:0:0:0:
352,288,127718,1,8,0:0:0:0:
352,288,127830,1,8,0:0:0:0:
352,288,127942,1,0,0:0:0:0:
352,288,128166,1,0,0:0:0:0:
352,288,128273,1,0,0:0:0:0:
352,288,128380,1,8,0:0:0:0:
352,288,128487,1,8,0:0:0:0:
352,288,128594,1,0,0:0:0:0:
352,288,128701,1,8,0:0:0:0:
352,288,128808,1,0,0:0:0:0:
352,288,128916,1,0,0:0:0:0:
352,288,129023,1,8,0:0:0:0:
352,288,129130,1,8,0:0:0:0:
352,288,129237,1,0,0:0:0:0:
352,288,129344,1,8,0:0:0:0:
352,288,129451,1,0,0:0:0:0:
352,288,129558,1,0,0:0:0:0:
352,288,129666,1,8,0:0:0:0:
352,288,129773,1,8,0:0:0:0:
352,288,129880,1,0,0:0:0:0:
352,288,129982,1,0,0:0:0:0:
352,288,130188,1,0,0:0:0:0:
352,288,130290,1,8,0:0:0:0:
352,288,130393,1,8,0:0:0:0:
352,288,130496,1,0,0:0:0:0:
352,288,130599,1,8,0:0:0:0:
352,288,130701,1,8,0:0:0:0:
352,288,130804,1,0,0:0:0:0:
352,288,130907,1,8,0:0:0:0:
352,288,131010,1,0,0:0:0:0:
352,288,131112,1,8,0:0:0:0:
352,288,131215,1,8,0:0:0:0:
352,288,131318,1,0,0:0:0:0:
352,288,131421,1,8,0:0:0:0:
352,288,131523,1,0,0:0:0:0:
352,288,131723,1,0,0:0:0:0:
352,288,131823,1,0,0:0:0:0:
352,288,131923,1,0,0:0:0:0:
352,288,132123,1,0,0:0:0:0:
352,288,132323,1,0,0:0:0:0:
352,288,132523,1,0,0:0:0:0:
352,288,132623,1,0,0:0:0:0:
352,288,132723,1,0,0:0:0:0:
352,288,132923,1,0,0:0:0:0:
352,288,133123,1,0,0:0:0:0:
352,288,133323,1,0,0:0:0:0:
352,288,133423,1,0,0:0:0:0:
352,288,133523,1,0,0:0:0:0:
352,288,133723,1,0,0:0:0:0:
352,288,133923,1,0,0:0:0:0:
352,288,134123,1,0,0:0:0:0:
352,288,134223,1,0,0:0:0:0:
352,288,134323,1,0,0:0:0:0:
352,288,134523,1,0,0:0:0:0:
352,288,134623,1,0,0:0:0:0:
352,288,134723,1,0,0:0:0:0:
352,288,134923,1,0,0:0:0:0:
384,288,135023,1,0,0:0:0:0:
352,288,135123,1,0,0:0:0:0:
352,288,135323,1,0,0:0:0:0:
352,288,135523,1,0,0:0:0:0:
352,288,135723,1,0,0:0:0:0:
352,288,135923,1,0,0:0:0:0:
352,288,136123,1,0,0:0:0:0:
352,288,136323,1,0,0:0:0:0:
352,288,136423,1,0,0:0:0:0:
352,288,136523,1,0,0:0:0:0:
352,288,136623,1,0,0:0:0:0:
352,288,136723,1,0,0:0:0:0:
352,288,136823,1,0,0:0:0:0:
352,288,136923,1,0,0:0:0:0:
352,288,137023,1,0,0:0:0:0:
352,256,137923,1,0,0:0:0:0:
352,256,138123,1,8,0:0:0:0:
320,288,138223,1,0,0:0:0:0:
320,288,138423,1,0,0:0:0:0:
320,288,138523,1,8,0:0:0:0:
320,288,138623,1,0,0:0:0:0:
320,288,138823,1,0,0:0:0:0:
320,288,138923,1,8,0:0:0:0:
320,288,139123,1,8,0:0:0:0:
320,288,139223,1,8,0:0:0:0:
320,288,139323,1,0,0:0:0:0:
288,320,139423,1,8,0:0:0:0:
288,320,139523,1,0,0:0:0:0:
288,320,139723,1,8,0:0:0:0:
288,320,139823,1,0,0:0:0:0:
288,288,140023,1,0,0:0:0:0:
288,288,140123,1,8,0:0:0:0:
288,288,140223,1,0,0:0:0:0:
288,288,140323,1,8,0:0:0:0:
288,288,140423,1,0,0:0:0:0:
288,288,140523,1,8,0:0:0:0:
288,288,140623,1,8,0:0:0:0:
288,288,140723,1,0,0:0:0:0:
288,288,140823,1,0,0:0:0:0:
288,288,141023,1,8,0:0:0:0:
288,288,141123,1,0,0:0:0:0:
288,288,141323,1,8,0:0:0:0:
288,288,141423,1,0,0:0:0:0:
288,288,141623,1,0,0:0:0:0:
288,288,141723,1,8,0:0:0:0:
288,288,141823,1,0,0:0:0:0:
288,288,142023,1,0,0:0:0:0:
288,288,142123,1,8,0:0:0:0:
288,288,142323,1,8,0:0:0:0:
288,288,142423,1,8,0:0:0:0:
288,288,142523,1,0,0:0:0:0:
288,288,142623,1,8,0:0:0:0:
288,288,142723,1,0,0:0:0:0:
288,288,142923,1,8,0:0:0:0:
288,288,143023,1,0,0:0:0:0:
320,288,143223,1,0,0:0:0:0:
320,288,143323,1,8,0:0:0:0:
320,288,143423,1,0,0:0:0:0:
320,288,143523,1,0,0:0:0:0:
320,288,143623,1,8,0:0:0:0:
320,288,143723,1,0,0:0:0:0:
320,288,143823,1,0,0:0:0:0:
320,288,143923,1,8,0:0:0:0:
320,288,144023,1,8,0:0:0:0:
320,288,144223,1,8,0:0:0:0:
320,288,144323,1,0,0:0:0:0:
352,288,144523,1,8,0:0:0:0:
352,320,144623,1,0,0:0:0:0:
352,320,144823,1,0,0:0:0:0:
352,320,144923,1,8,0:0:0:0:
352,320,145023,1,0,0:0:0:0:
352,320,145223,1,0,0:0:0:0:
352,320,145323,1,8,0:0:0:0:
352,320,145523,1,8,0:0:0:0:
352,320,145623,1,8,0:0:0:0:
352,320,145723,1,0,0:0:0:0:
352,320,145823,1,8,0:0:0:0:
352,320,145923,1,0,0:0:0:0:
352,320,146123,1,8,0:0:0:0:
352,320,146223,1,0,0:0:0:0:
352,320,146423,1,0,0:0:0:0:
352,320,146523,1,8,0:0:0:0:
352,320,146623,1,0,0:0:0:0:
352,320,146723,1,8,0:0:0:0:
352,320,146823,1,0,0:0:0:0:
352,320,146923,1,8,0:0:0:0:
352,320,147023,1,8,0:0:0:0:
352,320,147123,1,0,0:0:0:0:
352,320,147223,1,0,0:0:0:0:
352,320,147423,1,8,0:0:0:0:
352,320,147523,1,0,0:0:0:0:
352,320,147723,1,8,0:0:0:0:
352,320,147823,1,0,0:0:0:0:
352,320,148023,1,0,0:0:0:0:
352,320,148123,1,8,0:0:0:0:
352,320,148223,1,0,0:0:0:0:
352,320,148423,1,0,0:0:0:0:
352,320,148523,1,8,0:0:0:0:
352,320,148723,1,8,0:0:0:0:
352,320,148823,1,0,0:0:0:0:
352,320,148923,1,8,0:0:0:0:
352,320,149023,1,8,0:0:0:0:
352,320,149073,1,8,0:0:0:0:
352,320,149123,1,0,0:0:0:0:
352,320,149323,1,0,0:0:0:0:
352,320,149523,1,0,0:0:0:0:
352,320,149723,1,0,0:0:0:0:
352,320,149923,1,0,0:0:0:0:
352,320,150123,1,0,0:0:0:0:
352,320,150323,1,0,0:0:0:0:
352,320,150523,1,8,0:0:0:0:
352,320,150723,1,0,0:0:0:0:
352,320,150823,1,0,0:0:0:0:
352,320,150923,1,8,0:0:0:0:
352,320,151023,1,0,0:0:0:0:
352,320,151073,1,8,0:0:0:0:
352,320,151123,1,0,0:0:0:0:
352,320,151223,1,0,0:0:0:0:
352,320,151323,1,8,0:0:0:0:
352,320,151373,1,0,0:0:0:0:
352,320,151423,1,8,0:0:0:0:
352,320,151473,1,8,0:0:0:0:
352,320,151523,1,0,0:0:0:0:
352,256,151623,1,8,0:0:0:0:
352,256,151723,1,0,0:0:0:0:
352,256,151823,1,8,0:0:0:0:
352,256,151873,1,8,0:0:0:0:
352,256,151923,1,0,0:0:0:0:
352,256,152023,1,0,0:0:0:0:
352,256,152123,1,8,0:0:0:0:
352,256,152173,1,0,0:0:0:0:
352,256,152223,1,8,0:0:0:0:
352,256,152273,1,8,0:0:0:0:
352,256,152323,1,0,0:0:0:0:
352,288,152423,1,0,0:0:0:0:
352,288,152523,1,8,0:0:0:0:
352,288,152573,1,8,0:0:0:0:
352,288,152623,1,0,0:0:0:0:
352,288,152723,1,0,0:0:0:0:
352,288,152823,1,0,0:0:0:0:
352,320,152873,1,0,0:0:0:0:
352,288,152923,1,8,0:0:0:0:
352,288,152973,1,0,0:0:0:0:
352,288,153023,1,8,0:0:0:0:
352,288,153073,1,8,0:0:0:0:
352,288,153123,1,0,0:0:0:0:
352,320,153223,1,8,0:0:0:0:
352,320,153323,1,0,0:0:0:0:
352,320,153423,1,8,0:0:0:0:
352,320,153473,1,8,0:0:0:0:
352,320,153523,1,0,0:0:0:0:
352,320,153623,1,8,0:0:0:0:
352,320,153673,1,8,0:0:0:0:
352,320,153723,1,0,0:0:0:0:
320,320,153773,1,0,0:0:0:0:
320,320,153823,1,8,0:0:0:0:
352,320,153923,1,0,0:0:0:0:
320,320,154023,1,0,0:0:0:0:
352,320,154123,1,8,0:0:0:0:
352,320,154173,1,8,0:0:0:0:
352,320,154223,1,0,0:0:0:0:
352,320,154323,1,0,0:0:0:0:
352,320,154423,1,0,0:0:0:0:
352,320,154473,1,0,0:0:0:0:
352,320,154523,1,8,0:0:0:0:
352,320,154573,1,0,0:0:0:0:
352,320,154623,1,8,0:0:0:0:
352,320,154673,1,8,0:0:0:0:
352,320,154723,1,0,0:0:0:0:
352,320,154823,1,8,0:0:0:0:
352,320,154923,1,0,0:0:0:0:
352,320,155023,1,8,0:0:0:0:
352,320,155073,1,8,0:0:0:0:
352,320,155123,1,0,0:0:0:0:
352,320,155223,1,0,0:0:0:0:
352,320,155323,1,8,0:0:0:0:
352,320,155373,1,0,0:0:0:0:
352,320,155423,1,8,0:0:0:0:
352,320,155473,1,8,0:0:0:0:
352,320,155523,1,0,0:0:0:0:
352,320,155623,1,0,0:0:0:0:
352,320,155723,1,8,0:0:0:0:
352,320,155823,1,0,0:0:0:0:
352,320,155873,1,8,0:0:0:0:
352,320,155923,1,0,0:0:0:0:
352,320,155973,1,8,0:0:0:0:
352,320,156023,1,0,0:0:0:0:
352,320,156073,1,0,0:0:0:0:
352,320,156123,1,8,0:0:0:0:
384,320,156223,1,8,0:0:0:0:
384,320,156323,1,0,0:0:0:0:
384,320,156423,1,0,0:0:0:0:
384,320,156473,1,0,0:0:0:0:
384,320,156523,1,8,0:0:0:0:
384,320,156573,1,0,0:0:0:0:
384,320,156623,1,8,0:0:0:0:
384,320,156673,1,8,0:0:0:0:
384,320,156723,1,0,0:0:0:0:
384,288,156823,1,0,0:0:0:0:
384,288,156923,1,8,0:0:0:0:
384,288,156973,1,0,0:0:0:0:
384,288,157023,1,8,0:0:0:0:
384,288,157073,1,8,0:0:0:0:
384,288,157123,1,0,0:0:0:0:
384,288,157223,1,0,0:0:0:0:
384,288,157323,1,8,0:0:0:0:
384,288,157373,1,8,0:0:0:0:
384,288,157423,1,0,0:0:0:0:
384,288,157523,1,8,0:0:0:0:
384,288,157623,1,0,0:0:0:0:
384,288,157673,1,0,0:0:0:0:
384,288,157723,1,8,0:0:0:0:
384,288,157773,1,0,0:0:0:0:
384,288,157823,1,8,0:0:0:0:
384,288,157873,1,8,0:0:0:0:
384,288,157923,1,0,0:0:0:0:
384,288,158023,1,8,0:0:0:0:
384,288,158123,1,0,0:0:0:0:
384,288,158223,1,8,0:0:0:0:
384,288,158273,1,8,0:0:0:0:
384,288,158323,1,0,0:0:0:0:
384,288,158423,1,0,0:0:0:0:
384,288,158523,1,8,0:0:0:0:
384,288,158573,1,0,0:0:0:0:
384,288,158623,1,8,0:0:0:0:
384,288,158673,1,8,0:0:0:0:
384,288,158723,1,0,0:0:0:0:
384,288,158823,1,0,0:0:0:0:
384,288,158923,1,8,0:0:0:0:
416,320,158973,1,8,0:0:0:0:
384,320,159023,1,0,0:0:0:0:
384,320,159123,1,0,0:0:0:0:
384,288,159223,1,8,0:0:0:0:
384,288,159273,1,0,0:0:0:0:
384,288,159323,1,8,0:0:0:0:
384,288,159373,1,8,0:0:0:0:
384,288,159423,1,0,0:0:0:0:
384,288,159473,1,0,0:0:0:0:
384,288,159523,1,8,0:0:0:0:
384,288,159623,1,0,0:0:0:0:
384,288,159723,1,0,0:0:0:0:
384,288,159823,1,8,0:0:0:0:
384,288,159873,1,8,0:0:0:0:
384,288,159923,1,8,0:0:0:0:
384,288,160023,1,8,0:0:0:0:
384,288,160073,1,8,0:0:0:0:
384,288,160123,1,0,0:0:0:0:
384,288,160173,1,0,0:0:0:0:
384,288,160223,1,8,0:0:0:0:
384,288,160323,1,0,0:0:0:0:
384,288,160423,1,0,0:0:0:0:
384,288,160523,1,8,0:0:0:0:
384,288,160573,1,8,0:0:0:0:
384,288,160623,1,0,0:0:0:0:
384,288,160723,1,8,0:0:0:0:
384,288,160823,1,0,0:0:0:0:
384,288,160873,1,0,0:0:0:0:
384,288,160923,1,8,0:0:0:0:
384,288,160973,1,0,0:0:0:0:
384,288,161023,1,8,0:0:0:0:
384,288,161073,1,8,0:0:0:0:
384,288,161123,1,0,0:0:0:0:
384,288,161223,1,8,0:0:0:0:
384,288,161323,1,0,0:0:0:0:
384,288,161423,1,8,0:0:0:0:
384,288,161473,1,8,0:0:0:0:
384,288,161523,1,0,0:0:0:0:
352,288,161573,1,8,0:0:0:0:
352,288,161623,1,0,0:0:0:0:
352,288,161673,1,0,0:0:0:0:
352,288,161723,1,8,0:0:0:0:
352,288,161823,1,0,0:0:0:0:
352,288,161923,1,8,0:0:0:0:
352,288,161973,1,8,0:0:0:0:
352,288,162023,1,0,0:0:0:0:
352,288,162073,1,0,0:0:0:0:
352,288,162123,1,8,0:0:0:0:
352,288,162223,1,0,0:0:0:0:
352,288,162323,1,8,0:0:0:0:
352,288,162423,1,8,0:0:0:0:
352,288,162523,1,0,0:0:0:0:
352,288,162623,1,8,0:0:0:0:
352,288,162673,1,8,0:0:0:0:
352,288,162723,1,0,0:0:0:0:
352,288,162823,1,8,0:0:0:0:
352,288,162923,1,0,0:0:0:0:
352,288,163023,1,8,0:0:0:0:
352,288,163223,1,0,0:0:0:0:
352,288,163323,1,8,0:0:0:0:
352,288,163523,1,0,0:0:0:0:
352,256,163608,1,0,0:0:0:0:
352,256,163694,1,8,0:0:0:0:
352,256,163780,1,0,0:0:0:0:
352,256,163823,1,0,0:0:0:0:
352,256,163865,1,0,0:0:0:0:
352,256,163951,1,0,0:0:0:0:
352,256,164037,1,8,0:0:0:0:
352,256,164123,1,8,0:0:0:0:
352,256,164165,1,8,0:0:0:0:
352,256,164208,1,0,0:0:0:0:
352,256,164251,1,8,0:0:0:0:
352,256,164294,1,0,0:0:0:0:
352,256,164337,1,0,0:0:0:0:
352,256,164380,1,8,0:0:0:0:
352,256,164465,1,0,0:0:0:0:
352,256,164551,1,8,0:0:0:0:
352,256,164594,1,8,0:0:0:0:
352,256,164637,1,8,0:0:0:0:
352,256,164680,1,8,0:0:0:0:
352,256,164723,1,0,0:0:0:0:
352,256,164808,1,0,0:0:0:0:
352,288,164894,1,8,0:0:0:0:
352,288,164937,1,8,0:0:0:0:
352,256,164980,1,0,0:0:0:0:
352,256,165023,1,0,0:0:0:0:
352,256,165065,1,8,0:0:0:0:
352,256,165151,1,0,0:0:0:0:
352,288,165237,1,8,0:0:0:0:
352,288,165323,1,0,0:0:0:0:
352,288,165408,1,8,0:0:0:0:
352,288,165451,1,0,0:0:0:0:
352,288,165494,1,8,0:0:0:0:
352,288,165537,1,8,0:0:0:0:
352,288,165580,1,0,0:0:0:0:
352,288,165665,1,8,0:0:0:0:
352,288,165751,1,0,0:0:0:0:
320,288,165794,1,8,0:0:0:0:
352,288,165837,1,0,0:0:0:0:
320,288,165880,1,0,0:0:0:0:
352,288,165923,1,8,0:0:0:0:
352,288,166008,1,8,0:0:0:0:
352,288,166094,1,0,0:0:0:0:
352,288,166137,1,0,0:0:0:0:
352,288,166180,1,0,0:0:0:0:
352,288,166223,1,0,0:0:0:0:
352,288,166265,1,8,0:0:0:0:
352,320,166351,1,0,0:0:0:0:
352,288,166437,1,8,0:0:0:0:
352,288,166523,1,0,0:0:0:0:
352,288,166565,1,0,0:0:0:0:
352,288,166608,1,8,0:0:0:0:
352,288,166694,1,0,0:0:0:0:
384,288,166737,1,0,0:0:0:0:
384,288,166780,1,8,0:0:0:0:
384,288,166823,1,0,0:0:0:0:
352,288,166865,1,0,0:0:0:0:
352,288,166908,1,8,0:0:0:0:
352,288,166951,1,0,0:0:0:0:
352,320,167037,1,0,0:0:0:0:
352,320,167123,1,8,0:0:0:0:
352,320,167165,1,8,0:0:0:0:
352,320,167208,1,0,0:0:0:0:
352,320,167294,1,8,0:0:0:0:
352,320,167380,1,0,0:0:0:0:
352,320,167423,1,0,0:0:0:0:
352,320,167465,1,8,0:0:0:0:
352,320,167508,1,0,0:0:0:0:
352,320,167551,1,8,0:0:0:0:
352,320,167594,1,8,0:0:0:0:
352,320,167637,1,0,0:0:0:0:
352,320,167723,1,0,0:0:0:0:
352,320,167808,1,8,0:0:0:0:
352,320,167851,1,0,0:0:0:0:
352,320,167894,1,8,0:0:0:0:
352,320,167937,1,8,0:0:0:0:
352,320,167980,1,0,0:0:0:0:
352,320,168065,1,0,0:0:0:0:
352,320,168151,1,8,0:0:0:0:
352,320,168194,1,0,0:0:0:0:
352,320,168237,1,0,0:0:0:0:
352,320,168280,1,0,0:0:0:0:
352,320,168323,1,8,0:0:0:0:
352,320,168408,1,0,0:0:0:0:
352,320,168494,1,8,0:0:0:0:
352,320,168537,1,0,0:0:0:0:
352,320,168580,1,0,0:0:0:0:
352,320,168623,1,0,0:0:0:0:
352,320,168665,1,8,0:0:0:0:
352,320,168751,1,0,0:0:0:0:
352,320,168837,1,0,0:0:0:0:
352,320,168923,1,0,0:0:0:0:
352,320,169008,1,8,0:0:0:0:
352,320,169094,1,0,0:0:0:0:
352,320,169137,1,0,0:0:0:0:
352,320,169180,1,8,0:0:0:0:
352,320,169265,1,0,0:0:0:0:
352,320,169351,1,8,0:0:0:0:
352,320,169394,1,8,0:0:0:0:
352,320,169437,1,0,0:0:0:0:
352,320,169480,1,0,0:0:0:0:
352,320,169522,1,8,0:0:0:0:
352,320,169608,1,0,0:0:0:0:
352,320,169694,1,8,0:0:0:0:
352,320,169737,1,0,0:0:0:0:
352,320,169780,1,0,0:0:0:0:
352,320,169822,1,0,0:0:0:0:
352,320,169865,1,8,0:0:0:0:
352,320,169951,1,0,0:0:0:0:
352,320,170037,1,8,0:0:0:0:
352,320,170080,1,0,0:0:0:0:
352,320,170122,1,0,0:0:0:0:
352,320,170165,1,0,0:0:0:0:
352,320,170208,1,8,0:0:0:0:
352,320,170294,1,0,0:0:0:0:
352,320,170380,1,8,0:0:0:0:
384,320,170465,1,0,0:0:0:0:
384,320,170508,1,0,0:0:0:0:
384,320,170551,1,8,0:0:0:0:
384,320,170594,1,0,0:0:0:0:
384,320,170637,1,8,0:0:0:0:
384,320,170680,1,8,0:0:0:0:
384,320,170722,1,0,0:0:0:0:
384,320,170808,1,0,0:0:0:0:
384,320,170894,1,8,0:0:0:0:
384,320,170937,1,0,0:0:0:0:
384,320,170980,1,8,0:0:0:0:
384,320,171022,1,8,0:0:0:0:
384,320,171065,1,0,0:0:0:0:
384,320,171151,1,8,0:0:0:0:
384,320,171237,1,0,0:0:0:0:
384,320,171280,1,0,0:0:0:0:
384,320,171322,1,8,0:0:0:0:
384,320,171365,1,0,0:0:0:0:
384,320,171408,1,8,0:0:0:0:
384,320,171494,1,0,0:0:0:0:
384,320,171537,1,0,0:0:0:0:
384,320,171580,1,8,0:0:0:0:
384,320,171622,1,0,0:0:0:0:
384,320,171665,1,8,0:0:0:0:
384,320,171708,1,8,0:0:0:0:
384,320,171751,1,0,0:0:0:0:
384,320,171837,1,0,0:0:0:0:
384,320,171922,1,8,0:0:0:0:
384,320,171965,1,8,0:0:0:0:
384,320,172008,1,8,0:0:0:0:
384,320,172051,1,8,0:0:0:0:
384,320,172094,1,0,0:0:0:0:
384,320,172180,1,0,0:0:0:0:
384,320,172265,1,8,0:0:0:0:
384,320,172351,1,0,0:0:0:0:
384,320,172437,1,0,0:0:0:0:
384,320,172480,1,8,0:0:0:0:
384,320,172522,1,0,0:0:0:0:
384,320,172565,1,0,0:0:0:0:
384,320,172608,1,8,0:0:0:0:
384,320,172694,1,8,0:0:0:0:
384,320,172780,1,0,0:0:0:0:
384,320,172865,1,0,0:0:0:0:
384,320,172951,1,8,0:0:0:0:
384,320,172994,1,0,0:0:0:0:
384,320,173037,1,8,0:0:0:0:
384,320,173080,1,8,0:0:0:0:
384,320,173122,1,0,0:0:0:0:
384,320,173465,1,0,0:0:0:0:
384,320,173551,1,0,0:0:0:0:
384,320,173637,1,0,0:0:0:0:
384,320,173722,1,0,0:0:0:0:
320,320,173808,1,8,0:0:0:0:
352,320,173894,1,0,0:0:0:0:
352,320,173937,1,0,0:0:0:0:
352,320,173980,1,0,0:0:0:0:
352,320,174065,1,8,0:0:0:0:
352,320,174151,1,0,0:0:0:0:
352,320,174494,1,0,0:0:0:0:
352,320,174569,1,8,0:0:0:0:
352,320,174606,1,8,0:0:0:0:
352,320,174644,1,0,0:0:0:0:
352,320,174719,1,8,0:0:0:0:
352,320,174794,1,0,0:0:0:0:
352,320,174869,1,8,0:0:0:0:
352,288,174906,1,8,0:0:0:0:
352,320,174944,1,0,0:0:0:0:
352,288,174981,1,8,0:0:0:0:
352,320,175019,1,0,0:0:0:0:
352,320,175056,1,0,0:0:0:0:
352,320,175094,1,8,0:0:0:0:
320,288,175169,1,0,0:0:0:0:
320,288,175206,1,0,0:0:0:0:
352,320,175244,1,8,0:0:0:0:
352,320,175319,1,0,0:0:0:0:
352,320,175394,1,8,0:0:0:0:
352,320,175431,1,0,0:0:0:0:
352,320,175469,1,0,0:0:0:0:
352,320,175506,1,0,0:0:0:0:
352,320,175544,1,8,0:0:0:0:
352,320,175619,1,0,0:0:0:0:
352,320,175694,1,8,0:0:0:0:
320,320,175731,1,0,0:0:0:0:
320,320,175769,1,8,0:0:0:0:
320,320,175806,1,8,0:0:0:0:
320,320,175844,1,0,0:0:0:0:
320,320,175919,1,8,0:0:0:0:
320,320,175994,1,0,0:0:0:0:
320,320,176031,1,0,0:0:0:0:
320,320,176069,1,0,0:0:0:0:
320,320,176144,1,8,0:0:0:0:
320,320,176181,1,0,0:0:0:0:
320,320,176219,1,8,0:0:0:0:
320,320,176256,1,8,0:0:0:0:
320,320,176294,1,0,0:0:0:0:
320,320,176369,1,0,0:0:0:0:
320,320,176444,1,8,0:0:0:0:
320,320,176519,1,8,0:0:0:0:
320,320,176594,1,0,0:0:0:0:
320,320,176631,1,0,0:0:0:0:
320,320,176669,1,8,0:0:0:0:
320,320,176706,1,8,0:0:0:0:
320,320,176744,1,0,0:0:0:0:
320,320,176819,1,8,0:0:0:0:
320,320,176894,1,0,0:0:0:0:
320,320,176931,1,8,0:0:0:0:
320,320,176969,1,0,0:0:0:0:
320,320,177006,1,0,0:0:0:0:
320,320,177044,1,8,0:0:0:0:
320,320,177081,1,0,0:0:0:0:
320,320,177119,1,8,0:0:0:0:
320,320,177156,1,8,0:0:0:0:
320,320,177194,1,0,0:0:0:0:
320,320,177269,1,0,0:0:0:0:
320,320,177344,1,8,0:0:0:0:
320,320,177381,1,0,0:0:0:0:
320,320,177419,1,8,0:0:0:0:
320,320,177456,1,8,0:0:0:0:
320,320,177494,1,0,0:0:0:0:
320,320,177569,1,0,0:0:0:0:
320,320,177644,1,8,0:0:0:0:
320,320,177681,1,0,0:0:0:0:
320,320,177719,1,0,0:0:0:0:
320,320,177756,1,0,0:0:0:0:
320,320,177794,1,8,0:0:0:0:
320,320,177869,1,0,0:0:0:0:
320,320,177944,1,8,0:0:0:0:
320,320,178019,1,0,0:0:0:0:
320,320,178094,1,8,0:0:0:0:
320,320,178131,1,0,0:0:0:0:
320,320,178169,1,8,0:0:0:0:
320,320,178206,1,8,0:0:0:0:
320,320,178244,1,0,0:0:0:0:
320,320,178319,1,0,0:0:0:0:
320,320,178394,1,8,0:0:0:0:
320,320,178469,1,0,0:0:0:0:
320,320,178506,1,0,0:0:0:0:
320,320,178544,1,0,0:0:0:0:
320,320,178581,1,8,0:0:0:0:
320,320,178619,1,0,0:0:0:0:
320,320,178656,1,0,0:0:0:0:
320,320,178694,1,8,0:0:0:0:
320,320,178769,1,8,0:0:0:0:
288,320,178844,1,0,0:0:0:0:
288,320,178881,1,8,0:0:0:0:
288,320,178919,1,0,0:0:0:0:
320,320,178956,1,0,0:0:0:0:
320,320,178994,1,8,0:0:0:0:
320,320,179069,1,0,0:0:0:0:
320,320,179144,1,8,0:0:0:0:
320,320,179181,1,0,0:0:0:0:
320,320,179219,1,8,0:0:0:0:
320,320,179256,1,8,0:0:0:0:
320,320,179294,1,0,0:0:0:0:
320,288,179369,1,0,0:0:0:0:
320,320,179444,1,8,0:0:0:0:
320,320,179481,1,0,0:0:0:0:
320,320,179519,1,8,0:0:0:0:
320,320,179556,1,8,0:0:0:0:
320,320,179594,1,0,0:0:0:0:
320,288,179631,1,8,0:0:0:0:
320,320,179669,1,0,0:0:0:0:
320,320,179706,1,0,0:0:0:0:
320,320,179744,1,8,0:0:0:0:
320,320,179819,1,0,0:0:0:0:
320,320,179894,1,8,0:0:0:0:
320,320,179969,1,0,0:0:0:0:
320,320,180006,1,0,0:0:0:0:
320,320,180044,1,8,0:0:0:0:
320,320,180119,1,0,0:0:0:0:
320,320,180194,1,8,0:0:0:0:
320,320,180231,1,8,0:0:0:0:
320,320,180269,1,0,0:0:0:0:
320,320,180306,1,0,0:0:0:0:
320,320,180344,1,8,0:0:0:0:
320,320,180419,1,0,0:0:0:0:
320,320,180494,1,8,0:0:0:0:
320,320,180531,1,0,0:0:0:0:
320,320,180569,1,8,0:0:0:0:
320,320,180606,1,8,0:0:0:0:
320,320,180644,1,0,0:0:0:0:
320,288,180719,1,0,0:0:0:0:
320,288,180794,1,8,0:0:0:0:
320,288,180869,1,0,0:0:0:0:
320,288,180906,1,0,0:0:0:0:
320,288,180944,1,8,0:0:0:0:
320,288,180981,1,8,0:0:0:0:
320,288,181019,1,0,0:0:0:0:
320,288,181056,1,8,0:0:0:0:
320,288,181094,1,0,0:0:0:0:
320,288,181169,1,8,0:0:0:0:
320,288,181244,1,0,0:0:0:0:
320,288,181319,1,0,0:0:0:0:
320,288,181394,1,8,0:0:0:0:
320,288,181431,1,0,0:0:0:0:
320,288,181469,1,8,0:0:0:0:
320,288,181506,1,8,0:0:0:0:
320,288,181544,1,0,0:0:0:0:
320,288,181619,1,0,0:0:0:0:
320,288,181694,1,8,0:0:0:0:
320,288,181769,1,0,0:0:0:0:
320,288,181844,1,8,0:0:0:0:
320,288,181881,1,0,0:0:0:0:
320,288,181919,1,8,0:0:0:0:
320,288,181956,1,8,0:0:0:0:
320,288,181994,1,0,0:0:0:0:
320,288,182069,1,0,0:0:0:0:
320,288,182144,1,8,0:0:0:0:
320,288,182219,1,0,0:0:0:0:
320,288,182294,1,8,0:0:0:0:
320,288,182331,1,0,0:0:0:0:
320,288,182369,1,8,0:0:0:0:
320,288,182406,1,8,0:0:0:0:
320,288,182444,1,0,0:0:0:0:
320,288,182519,1,0,0:0:0:0:
320,288,182594,1,8,0:0:0:0:
320,288,182669,1,0,0:0:0:0:
320,288,182744,1,8,0:0:0:0:
320,288,182781,1,0,0:0:0:0:
320,288,182819,1,0,0:0:0:0:
320,288,182856,1,0,0:0:0:0:
320,288,182894,1,8,0:0:0:0:
320,288,183119,1,8,0:0:0:0:
320,288,183344,1,8,0:0:0:0:
288,288,183569,1,8,0:0:0:0:
288,288,183794,1,8,0:0:0:0:
288,288,183944,1,8,0:0:0:0:
288,288,184094,1,0,0:0:0:0:
288,288,184169,1,0,0:0:0:0:
288,288,184244,1,8,0:0:0:0:
288,288,184281,1,8,0:0:0:0:
288,288,184319,1,0,0:0:0:0:
320,256,184394,1,8,0:0:0:0:
288,288,184469,1,0,0:0:0:0:
288,288,184506,1,0,0:0:0:0:
288,288,184544,1,8,0:0:0:0:
320,288,184619,1,8,0:0:0:0:
320,288,184694,1,0,0:0:0:0:
320,320,184769,1,0,0:0:0:0:
320,320,184806,1,0,0:0:0:0:
320,320,184844,1,8,0:0:0:0:
320,320,184919,1,0,0:0:0:0:
320,320,184994,1,8,0:0:0:0:
320,320,185031,1,8,0:0:0:0:
320,320,185069,1,0,0:0:0:0:
320,320,185144,1,8,0:0:0:0:
320,320,185219,1,0,0:0:0:0:
320,320,185256,1,0,0:0:0:0:
320,320,185294,1,8,0:0:0:0:
320,320,185369,1,0,0:0:0:0:
320,320,185444,1,8,0:0:0:0:
320,320,185481,1,8,0:0:0:0:
320,320,185519,1,0,0:0:0:0:
320,320,185594,1,0,0:0:0:0:
320,320,185669,1,8,0:0:0:0:
320,320,185744,1,8,0:0:0:0:
320,320,185781,1,0,0:0:0:0:
320,320,185819,1,8,0:0:0:0:
320,320,185856,1,8,0:0:0:0:
320,320,185894,1,0,0:0:0:0:
320,320,185969,1,0,0:0:0:0:
320,320,186006,1,0,0:0:0:0:
320,320,186044,1,8,0:0:0:0:
320,320,186119,1,0,0:0:0:0:
320,320,186194,1,8,0:0:0:0:
320,320,186231,1,8,0:0:0:0:
320,320,186269,1,0,0:0:0:0:
320,320,186306,1,0,0:0:0:0:
320,320,186344,1,8,0:0:0:0:
320,320,186381,1,0,0:0:0:0:
320,320,186419,1,8,0:0:0:0:
320,320,186494,1,0,0:0:0:0:
320,320,186569,1,0,0:0:0:0:
320,320,186644,1,8,0:0:0:0:
320,320,186681,1,8,0:0:0:0:
320,320,186719,1,0,0:0:0:0:
320,320,186794,1,0,0:0:0:0:
320,320,186869,1,8,0:0:0:0:
320,320,186906,1,8,0:0:0:0:
320,320,186944,1,0,0:0:0:0:
352,320,187019,1,8,0:0:0:0:
352,320,187094,1,0,0:0:0:0:
352,320,187131,1,8,0:0:0:0:
352,320,187169,1,0,0:0:0:0:
352,320,187206,1,0,0:0:0:0:
352,320,187244,1,8,0:0:0:0:
352,320,187281,1,8,0:0:0:0:
352,320,187319,1,0,0:0:0:0:
352,320,187394,1,8,0:0:0:0:
352,320,187469,1,0,0:0:0:0:
352,320,187506,1,0,0:0:0:0:
352,320,187544,1,8,0:0:0:0:
352,320,187619,1,0,0:0:0:0:
352,320,187694,1,8,0:0:0:0:
352,320,187769,1,0,0:0:0:0:
352,320,187806,1,8,0:0:0:0:
352,320,187844,1,0,0:0:0:0:
352,320,187881,1,0,0:0:0:0:
352,320,187919,1,8,0:0:0:0:
352,320,187994,1,0,0:0:0:0:
352,320,188031,1,8,0:0:0:0:
352,320,188069,1,0,0:0:0:0:
352,320,188106,1,0,0:0:0:0:
352,320,188144,1,8,0:0:0:0:
352,288,188219,1,0,0:0:0:0:
352,320,188256,1,8,0:0:0:0:
352,320,188294,1,0,0:0:0:0:
352,320,188331,1,0,0:0:0:0:
352,320,188369,1,8,0:0:0:0:
352,320,188444,1,0,0:0:0:0:
352,320,188519,1,0,0:0:0:0:
352,320,188556,1,0,0:0:0:0:
352,320,188594,1,8,0:0:0:0:
352,320,188669,1,0,0:0:0:0:
352,320,188744,1,8,0:0:0:0:
352,320,188819,1,0,0:0:0:0:
352,320,188856,1,0,0:0:0:0:
352,320,188894,1,8,0:0:0:0:
352,320,188969,1,0,0:0:0:0:
352,320,189044,1,8,0:0:0:0:
352,320,189081,1,8,0:0:0:0:
352,320,189119,1,0,0:0:0:0:
352,320,189194,1,8,0:0:0:0:
352,320,189269,1,8,0:0:0:0:
352,320,189306,1,8,0:0:0:0:
352,320,189344,1,0,0:0:0:0:
320,320,189419,1,8,0:0:0:0:
320,320,189494,1,8,0:0:0:0:
320,320,189531,1,8,0:0:0:0:
320,320,189569,1,0,0:0:0:0:
320,320,189644,1,8,0:0:0:0:
320,320,189719,1,8,0:0:0:0:
320,320,189756,1,8,0:0:0:0:
320,320,189794,1,0,0:0:0:0:
320,320,189869,1,0,0:0:0:0:
320,320,189944,1,8,0:0:0:0:
320,320,189981,1,0,0:0:0:0:
320,320,190019,1,8,0:0:0:0:
320,320,190056,1,8,0:0:0:0:
320,320,190094,1,0,0:0:0:0:
352,320,190169,1,0,0:0:0:0:
352,320,190244,1,8,0:0:0:0:
352,320,190281,1,8,0:0:0:0:
352,320,190319,1,0,0:0:0:0:
352,320,190394,1,0,0:0:0:0:
352,320,190469,1,8,0:0:0:0:
352,320,190506,1,8,0:0:0:0:
352,320,190544,1,0,0:0:0:0:
352,320,190619,1,0,0:0:0:0:
352,320,190694,1,8,0:0:0:0:
352,320,190731,1,8,0:0:0:0:
352,320,190769,1,0,0:0:0:0:
352,320,190844,1,0,0:0:0:0:
352,320,190919,1,8,0:0:0:0:
352,352,190956,1,8,0:0:0:0:
384,352,190994,1,0,0:0:0:0:
352,320,191031,1,0,0:0:0:0:
352,320,191069,1,8,0:0:0:0:
352,320,191106,1,8,0:0:0:0:
352,320,191144,1,0,0:0:0:0:
352,320,191181,1,0,0:0:0:0:
352,320,191219,1,8,0:0:0:0:
352,320,191294,1,0,0:0:0:0:
352,320,191369,1,8,0:0:0:0:
352,320,191444,1,8,0:0:0:0:
352,320,191481,1,8,0:0:0:0:
352,320,191519,1,0,0:0:0:0:
352,320,191594,1,0,0:0:0:0:
352,320,191669,1,8,0:0:0:0:
352,320,191706,1,8,0:0:0:0:
352,320,191744,1,0,0:0:0:0:
352,320,191819,1,0,0:0:0:0:
352,320,191894,1,8,0:0:0:0:
352,320,191931,1,8,0:0:0:0:
352,320,191969,1,0,0:0:0:0:
352,320,192044,1,0,0:0:0:0:
352,320,192119,1,8,0:0:0:0:
352,320,192156,1,8,0:0:0:0:
352,320,192194,1,0,0:0:0:0:
352,320,192269,1,8,0:0:0:0:
352,320,192306,1,0,0:0:0:0:
352,320,192344,1,0,0:0:0:0:
352,320,192381,1,0,0:0:0:0:
352,320,192419,1,8,0:0:0:0:
352,320,192456,1,8,0:0:0:0:
352,320,192494,1,0,0:0:0:0:
352,320,192569,1,0,0:0:0:0:
352,320,192644,1,8,0:0:0:0:
352,320,192681,1,0,0:0:0:0:
352,320,192719,1,0,0:0:0:0:
352,320,192756,1,8,0:0:0:0:
352,320,192794,1,0,0:0:0:0:
352,320,192869,1,0,0:0:0:0:
352,320,192944,1,8,0:0:0:0:
352,320,192981,1,8,0:0:0:0:
352,320,193019,1,0,0:0:0:0:
352,320,193056,1,8,0:0:0:0:
352,320,193094,1,0,0:0:0:0:
352,320,193131,1,0,0:0:0:0:
352,320,193169,1,8,0:0:0:0:
352,320,193206,1,8,0:0:0:0:
352,320,193244,1,0,0:0:0:0:
352,320,193319,1,0,0:0:0:0:
352,320,193394,1,8,0:0:0:0:
352,320,193431,1,8,0:0:0:0:
352,288,193469,1,0,0:0:0:0:
352,288,193506,1,0,0:0:0:0:
352,288,193544,1,8,0:0:0:0:
352,288,193581,1,8,0:0:0:0:
352,288,193619,1,8,0:0:0:0:
320,320,193656,1,8,0:0:0:0:
352,288,193694,1,0,0:0:0:0:
