osu file format v14

[General]
AudioFilename: audio.mp3
AudioLeadIn: 0
PreviewTime: 0
Countdown: 0
SampleSet: Normal
StackLeniency: 1
Mode: 1
LetterboxInBreaks: 0
WidescreenStoryboard: 1

[Editor]
DistanceSpacing: 0.8
BeatDivisor: 2
GridSize: 32
TimelineZoom: 1.8

[Metadata]
Title:Thank You for Calling!
TitleUnicode:Thank You for Calling!
Artist:Lulickma
ArtistUnicode:Lulickma
Creator:Vulkin
Version:Futsuu
Source:
Tags:the psycho filth vol 7 -bit beast- speedcore j-core xfraczynho cdhsausageboy dainesl dain -kazu- -anhedonia- firce777 agu
BeatmapID:1441191
BeatmapSetID:681633

[Difficulty]
HPDrainRate:6
CircleSize:7
OverallDifficulty:3
ApproachRate:10
SliderMultiplier:1.2
SliderTickRate:1

[Events]
//Background and Video events
0,0,"678339_22323247.jpg",0,0
//Break Periods
//Storyboard Layer 0 (Background)
//Storyboard Layer 1 (Fail)
//Storyboard Layer 2 (Pass)
//Storyboard Layer 3 (Foreground)
//Storyboard Sound Samples

[TimingPoints]
0,428.571428571429,4,1,0,60,1,0
5142,428.571428571429,7,1,0,60,1,0
7829,444.444444444444,4,1,0,60,1,0
7829,-200,4,1,0,60,0,0
14940,-133.333333333333,4,1,0,60,0,0
22051,-100,4,1,0,60,0,0
43384,-80,4,1,0,60,0,0
45162,-66.6666666666667,4,1,0,60,0,0
46940,-57.1428571428571,4,1,0,60,0,0
48717,-50,4,1,0,60,0,0
50495,222.222222222222,4,1,0,60,1,1
56717,-100,4,1,0,60,0,0
57606,-100,4,1,0,60,0,1
63828,-100,4,1,0,60,0,0
64717,-100,4,1,0,60,0,1
70939,-100,4,1,0,60,0,0
71828,-100,4,1,0,60,0,1
78050,-100,4,1,0,60,0,0
78939,-100,4,1,0,60,0,1
84272,-100,4,1,0,60,0,0
86050,-100,4,1,0,60,0,1
93161,-100,4,1,0,60,0,0
94050,-133.333333333333,4,1,0,60,0,0
94939,-200,4,1,0,60,0,0
95828,-400,4,1,0,60,0,0
96717,599.999405940594,4,1,0,60,1,0
113516,-83.3333333333333,4,1,0,60,0,0
114116,-71.4285714285714,4,1,0,60,0,0
114716,-62.5,4,1,0,60,0,0
115316,-55.5555555555556,4,1,0,60,0,0
115916,582.52427184466,4,1,0,60,1,0
115916,-50,4,1,0,60,0,0
118246,550.45871559633,4,1,0,60,1,0
118246,-50,4,1,0,60,0,0
120447,517.242575422805,4,1,0,60,1,0
120447,-50,4,1,0,60,0,0
122515,500.001117700557,4,1,0,60,1,0
122515,-50,4,1,0,60,0,0
124515,465.116279069767,4,1,0,60,1,0
124515,-50,4,1,0,60,0,0
126375,447.761194029851,4,1,0,60,1,0
126375,-50,4,1,0,60,0,0
128166,428.571428571429,4,1,0,60,1,0
128166,-50,4,1,0,60,0,0
129880,410.958904109589,4,1,0,60,1,0
129880,-50,4,1,0,60,0,0
131523,400.001085427649,4,1,0,60,1,0
131523,-50,4,1,0,60,0,0
150723,200,4,1,0,60,1,1
162723,-133.333333333333,4,1,0,60,0,0
163523,171.428571428571,4,1,0,60,1,1
173123,-100,4,1,0,60,0,0
174494,150,4,1,0,60,1,1
182894,-100,4,1,0,60,0,0
184094,-100,4,1,0,60,0,1
193694,-100,4,1,0,60,0,0

[HitObjects]
256,192,0,5,8,0:0:0:0:
256,192,857,1,0,0:0:0:0:
256,192,1714,1,8,0:0:0:0:
256,192,3428,1,0,0:0:0:0:
256,192,4285,1,8,0:0:0:0:
256,192,5142,1,0,0:0:0:0:
256,192,5999,1,8,0:0:0:0:
256,192,7829,1,8,0:0:0:0:
256,192,8717,1,0,0:0:0:0:
256,192,9606,1,8,0:0:0:0:
256,192,10495,1,0,0:0:0:0:
256,192,11384,1,0,0:0:0:0:
256,192,12273,1,8,0:0:0:0:
256,192,13162,1,8,0:0:0:0:
256,192,14051,1,0,0:0:0:0:
256,192,14495,1,0,0:0:0:0:
256,192,14940,1,8,0:0:0:0:
256,192,15828,1,0,0:0:0:0:
256,192,16717,1,8,0:0:0:0:
256,192,17606,1,0,0:0:0:0:
256,192,18495,1,8,0:0:0:0:
256,192,19384,1,8,0:0:0:0:
256,192,20273,1,0,0:0:0:0:
256,192,21162,1,8,0:0:0:0:
256,192,21606,1,8,0:0:0:0:
256,192,22051,1,4,0:0:0:0:
256,192,23384,1,0,0:0:0:0:
256,192,23828,1,0,0:0:0:0:
256,192,24495,1,8,0:0:0:0:
256,192,24717,1,8,0:0:0:0:
256,192,25162,1,0,0:0:0:0:
256,192,25606,1,0,0:0:0:0:
256,192,26940,1,0,0:0:0:0:
256,192,27384,1,0,0:0:0:0:
256,192,28051,1,8,0:0:0:0:
256,192,28273,1,0,0:0:0:0:
256,192,28717,1,8,0:0:0:0:
256,192,29162,1,0,0:0:0:0:
256,192,30495,1,0,0:0:0:0:
256,192,30940,1,0,0:0:0:0:
256,192,31606,1,8,0:0:0:0:
256,192,31828,1,8,0:0:0:0:
256,192,32273,1,0,0:0:0:0:
256,192,32717,1,0,0:0:0:0:
256,192,33606,1,8,0:0:0:0:
256,192,34051,1,0,0:0:0:0:
256,192,34495,1,0,0:0:0:0:
256,192,35384,1,8,0:0:0:0:
256,192,35606,1,8,0:0:0:0:
256,192,35828,1,8,0:0:0:0:
256,192,36273,1,4,0:0:0:0:
256,192,37606,1,0,0:0:0:0:
256,192,38051,1,0,0:0:0:0:
256,192,38940,1,0,0:0:0:0:
256,192,39828,1,0,0:0:0:0:
256,192,41162,1,0,0:0:0:0:
256,192,41606,1,0,0:0:0:0:
256,192,42051,1,0,0:0:0:0:
256,192,42495,1,8,0:0:0:0:
256,192,43384,1,0,0:0:0:0:
256,192,44273,1,0,0:0:0:0:
256,192,44717,1,0,0:0:0:0:
256,192,44940,1,0,0:0:0:0:
256,192,45162,1,0,0:0:0:0:
256,192,46051,1,8,0:0:0:0:
256,192,46495,1,0,0:0:0:0:
256,192,46940,1,0,0:0:0:0:
256,192,47828,1,0,0:0:0:0:
256,192,48273,1,0,0:0:0:0:
256,192,48495,1,0,0:0:0:0:
256,192,48717,1,0,0:0:0:0:
256,192,49162,1,0,0:0:0:0:
256,192,49606,1,8,0:0:0:0:
256,192,50495,1,4,0:0:0:0:
256,192,50939,1,0,0:0:0:0:
256,192,51161,1,0,0:0:0:0:
256,192,51383,1,0,0:0:0:0:
256,192,51828,1,0,0:0:0:0:
256,192,52050,1,8,0:0:0:0:
256,192,52272,1,0,0:0:0:0:
256,192,52717,1,0,0:0:0:0:
256,192,52939,1,0,0:0:0:0:
256,192,53161,1,8,0:0:0:0:
256,192,53606,1,0,0:0:0:0:
256,192,54050,1,0,0:0:0:0:
256,192,54494,1,0,0:0:0:0:
256,192,54717,1,0,0:0:0:0:
256,192,54939,1,0,0:0:0:0:
256,192,55383,1,0,0:0:0:0:
256,192,55606,1,8,0:0:0:0:
256,192,55828,1,0,0:0:0:0:
256,192,56272,1,8,0:0:0:0:
256,192,56494,1,0,0:0:0:0:
256,192,56717,1,8,0:0:0:0:
256,192,57606,1,4,0:0:0:0:
256,192,58050,1,0,0:0:0:0:
256,192,58272,1,0,0:0:0:0:
256,192,58494,1,0,0:0:0:0:
256,192,58939,1,0,0:0:0:0:
256,192,59161,1,8,0:0:0:0:
256,192,59383,1,0,0:0:0:0:
256,192,59828,1,0,0:0:0:0:
256,192,60050,1,0,0:0:0:0:
256,192,60272,1,8,0:0:0:0:
256,192,60717,1,8,0:0:0:0:
256,192,61161,1,0,0:0:0:0:
256,192,61606,1,0,0:0:0:0:
256,192,61828,1,0,0:0:0:0:
256,192,62050,1,0,0:0:0:0:
256,192,62494,1,0,0:0:0:0:
256,192,62717,1,8,0:0:0:0:
256,192,62939,1,0,0:0:0:0:
256,192,63383,1,8,0:0:0:0:
256,192,63606,1,0,0:0:0:0:
256,192,63828,1,8,0:0:0:0:
256,192,64717,1,12,0:0:0:0:
256,192,65161,1,8,0:0:0:0:
256,192,65383,1,0,0:0:0:0:
256,192,65606,1,8,0:0:0:0:
256,192,66050,1,0,0:0:0:0:
256,192,66494,1,8,0:0:0:0:
256,192,66939,1,8,0:0:0:0:
256,192,67161,1,8,0:0:0:0:
256,192,67383,1,8,0:0:0:0:
256,192,67828,1,0,0:0:0:0:
256,192,68272,1,8,0:0:0:0:
256,192,68717,1,8,0:0:0:0:
256,192,68939,1,0,0:0:0:0:
256,192,69161,1,8,0:0:0:0:
256,192,69606,1,0,0:0:0:0:
256,192,70050,1,8,0:0:0:0:
256,192,70494,1,0,0:0:0:0:
256,192,70717,1,8,0:0:0:0:
256,192,70939,1,0,0:0:0:0:
256,192,71828,1,4,0:0:0:0:
256,192,72272,1,8,0:0:0:0:
256,192,72494,1,8,0:0:0:0:
256,192,72716,1,0,0:0:0:0:
256,192,72939,1,0,0:0:0:0:
256,192,73161,1,8,0:0:0:0:
256,192,73606,1,0,0:0:0:0:
256,192,74050,1,0,0:0:0:0:
256,192,74272,1,0,0:0:0:0:
256,192,74494,1,8,0:0:0:0:
256,192,74716,1,8,0:0:0:0:
256,192,74939,1,0,0:0:0:0:
256,192,75383,1,0,0:0:0:0:
256,192,75828,1,8,0:0:0:0:
256,192,76050,1,8,0:0:0:0:
256,192,76272,1,0,0:0:0:0:
256,192,76717,1,8,0:0:0:0:
256,192,77161,1,0,0:0:0:0:
256,192,77606,1,8,0:0:0:0:
256,192,77828,1,8,0:0:0:0:
256,192,77939,1,8,0:0:0:0:
256,192,78050,1,8,0:0:0:0:
256,192,78272,1,8,0:0:0:0:
256,192,78494,1,0,0:0:0:0:
256,192,78939,1,12,0:0:0:0:
256,192,79161,1,0,0:0:0:0:
256,192,79606,1,8,0:0:0:0:
256,192,79828,1,0,0:0:0:0:
256,192,80050,1,8,0:0:0:0:
256,192,80161,1,8,0:0:0:0:
256,192,80272,1,8,0:0:0:0:
256,192,80494,1,0,0:0:0:0:
256,192,80717,1,8,0:0:0:0:
256,192,80939,1,0,0:0:0:0:
256,192,81383,1,8,0:0:0:0:
256,192,81606,1,0,0:0:0:0:
256,192,81828,1,8,0:0:0:0:
256,192,81939,1,0,0:0:0:0:
256,192,82050,1,0,0:0:0:0:
256,192,82272,1,0,0:0:0:0:
256,192,82494,1,8,0:0:0:0:
256,192,82717,1,0,0:0:0:0:
256,192,83161,1,8,0:0:0:0:
256,192,83383,1,0,0:0:0:0:
256,192,83606,1,8,0:0:0:0:
256,192,83717,1,8,0:0:0:0:
256,192,83828,1,8,0:0:0:0:
256,192,84050,1,0,0:0:0:0:
256,192,84272,1,8,0:0:0:0:
256,192,85606,1,0,0:0:0:0:
256,192,85828,1,8,0:0:0:0:
256,192,86050,1,4,0:0:0:0:
256,192,86272,1,8,0:0:0:0:
256,192,86717,1,8,0:0:0:0:
256,192,86939,1,0,0:0:0:0:
256,192,87161,1,8,0:0:0:0:
256,192,87272,1,8,0:0:0:0:
256,192,87383,1,8,0:0:0:0:
256,192,87606,1,8,0:0:0:0:
256,192,87828,1,0,0:0:0:0:
256,192,88050,1,8,0:0:0:0:
256,192,88494,1,8,0:0:0:0:
256,192,88717,1,0,0:0:0:0:
256,192,88939,1,0,0:0:0:0:
256,192,89050,1,8,0:0:0:0:
256,192,89161,1,0,0:0:0:0:
256,192,89383,1,8,0:0:0:0:
256,192,89606,1,0,0:0:0:0:
256,192,89828,1,8,0:0:0:0:
256,192,90272,1,8,0:0:0:0:
256,192,90494,1,0,0:0:0:0:
256,192,90717,1,8,0:0:0:0:
256,192,90828,1,8,0:0:0:0:
256,192,90939,1,8,0:0:0:0:
256,192,91161,1,8,0:0:0:0:
256,192,91383,1,0,0:0:0:0:
256,192,91606,1,8,0:0:0:0:
256,192,92050,1,0,0:0:0:0:
256,192,92272,1,8,0:0:0:0:
256,192,92495,1,0,0:0:0:0:
256,192,92606,1,8,0:0:0:0:
256,192,92717,1,8,0:0:0:0:
256,192,92939,1,0,0:0:0:0:
256,192,93161,1,12,0:0:0:0:
256,192,93606,12,0,95828,0:0:0:0:
256,192,96717,5,8,0:0:0:0:
256,192,97316,1,8,0:0:0:0:
256,192,98216,1,0,0:0:0:0:
256,192,98516,1,8,0:0:0:0:
256,192,99116,1,0,0:0:0:0:
256,192,99716,1,8,0:0:0:0:
256,192,100616,1,8,0:0:0:0:
256,192,100916,1,8,0:0:0:0:
256,192,101516,1,8,0:0:0:0:
256,192,102116,1,8,0:0:0:0:
256,192,103016,1,0,0:0:0:0:
256,192,103316,1,8,0:0:0:0:
256,192,103916,1,0,0:0:0:0:
256,192,104516,1,8,0:0:0:0:
256,192,105416,1,8,0:0:0:0:
256,192,105716,1,8,0:0:0:0:
256,192,106316,1,0,0:0:0:0:
256,192,106916,1,8,0:0:0:0:
256,192,107816,1,0,0:0:0:0:
256,192,108116,1,8,0:0:0:0:
256,192,108716,1,8,0:0:0:0:
256,192,109316,1,0,0:0:0:0:
256,192,110216,1,8,0:0:0:0:
256,192,110516,1,0,0:0:0:0:
256,192,111116,1,0,0:0:0:0:
256,192,111716,1,8,0:0:0:0:
256,192,112616,1,8,0:0:0:0:
256,192,112916,1,8,0:0:0:0:
256,192,113516,1,0,0:0:0:0:
256,192,114116,1,0,0:0:0:0:
256,192,115016,1,8,0:0:0:0:
256,192,115316,1,0,0:0:0:0:
256,192,115616,1,0,0:0:0:0:
256,192,115916,1,8,0:0:0:0:
256,192,117081,1,8,0:0:0:0:
256,192,117663,1,0,0:0:0:0:
256,192,118246,1,8,0:0:0:0:
256,192,119346,1,8,0:0:0:0:
256,192,119622,1,8,0:0:0:0:
256,192,119897,1,8,0:0:0:0:
256,192,120447,1,8,0:0:0:0:
256,192,121481,1,0,0:0:0:0:
256,192,121998,1,0,0:0:0:0:
256,192,122515,1,8,0:0:0:0:
256,192,123515,1,8,0:0:0:0:
256,192,123765,1,0,0:0:0:0:
256,192,124015,1,8,0:0:0:0:
256,192,124515,1,8,0:0:0:0:
256,192,125445,1,8,0:0:0:0:
256,192,125910,1,8,0:0:0:0:
256,192,126375,1,8,0:0:0:0:
256,192,127270,1,8,0:0:0:0:
256,192,127718,1,8,0:0:0:0:
256,192,127942,1,8,0:0:0:0:
256,192,128166,1,8,0:0:0:0:
256,192,128594,1,0,0:0:0:0:
256,192,129023,1,0,0:0:0:0:
256,192,129451,1,8,0:0:0:0:
256,192,129880,1,8,0:0:0:0:
256,192,130290,1,0,0:0:0:0:
256,192,130701,1,8,0:0:0:0:
256,192,130907,1,8,0:0:0:0:
256,192,131112,1,0,0:0:0:0:
256,192,131523,1,12,0:0:0:0:
256,192,132323,1,8,0:0:0:0:
256,192,133123,1,8,0:0:0:0:
256,192,133923,1,8,0:0:0:0:
256,192,134323,1,8,0:0:0:0:
256,192,134523,1,8,0:0:0:0:
256,192,134723,1,8,0:0:0:0:
256,192,135523,1,8,0:0:0:0:
256,192,136323,1,8,0:0:0:0:
256,192,136723,1,8,0:0:0:0:
256,192,136923,1,0,0:0:0:0:
256,192,137923,1,12,0:0:0:0:
256,192,139523,1,8,0:0:0:0:
256,192,140323,1,0,0:0:0:0:
256,192,140723,1,0,0:0:0:0:
256,192,141123,1,8,0:0:0:0:
256,192,142723,1,8,0:0:0:0:
256,192,143523,1,0,0:0:0:0:
256,192,143723,1,0,0:0:0:0:
256,192,143923,1,8,0:0:0:0:
256,192,144323,1,8,0:0:0:0:
256,192,145923,1,8,0:0:0:0:
256,192,146723,1,0,0:0:0:0:
256,192,147123,1,0,0:0:0:0:
256,192,147523,1,8,0:0:0:0:
256,192,148723,1,8,0:0:0:0:
256,192,148923,1,8,0:0:0:0:
256,192,149123,1,0,0:0:0:0:
256,192,149523,1,0,0:0:0:0:
256,192,149923,1,8,0:0:0:0:
256,192,150123,1,8,0:0:0:0:
256,192,150323,1,8,0:0:0:0:
256,192,150723,1,4,0:0:0:0:
256,192,150923,1,8,0:0:0:0:
256,192,151323,1,8,0:0:0:0:
256,192,151523,1,0,0:0:0:0:
256,192,151923,1,8,0:0:0:0:
256,192,152323,1,0,0:0:0:0:
256,192,152523,1,8,0:0:0:0:
256,192,152723,1,8,0:0:0:0:
256,192,152923,1,8,0:0:0:0:
256,192,153123,1,0,0:0:0:0:
256,192,153523,1,8,0:0:0:0:
256,192,153923,1,0,0:0:0:0:
256,192,154123,1,8,0:0:0:0:
256,192,154523,1,8,0:0:0:0:
256,192,154723,1,0,0:0:0:0:
256,192,155123,1,8,0:0:0:0:
256,192,155523,1,0,0:0:0:0:
256,192,155723,1,8,0:0:0:0:
256,192,155823,1,8,0:0:0:0:
256,192,155923,1,8,0:0:0:0:
256,192,156123,1,8,0:0:0:0:
256,192,156323,1,0,0:0:0:0:
256,192,156723,1,8,0:0:0:0:
256,192,157123,1,0,0:0:0:0:
256,192,157323,1,8,0:0:0:0:
256,192,157723,1,8,0:0:0:0:
256,192,157923,1,0,0:0:0:0:
256,192,158323,1,8,0:0:0:0:
256,192,158723,1,0,0:0:0:0:
256,192,158923,1,8,0:0:0:0:
256,192,159123,1,8,0:0:0:0:
256,192,159323,1,8,0:0:0:0:
256,192,159523,1,0,0:0:0:0:
256,192,159923,1,8,0:0:0:0:
256,192,160323,1,0,0:0:0:0:
256,192,160523,1,8,0:0:0:0:
256,192,160923,1,8,0:0:0:0:
256,192,161123,1,0,0:0:0:0:
256,192,161523,1,8,0:0:0:0:
256,192,161723,1,8,0:0:0:0:
256,192,161923,1,0,0:0:0:0:
256,192,162123,1,8,0:0:0:0:
256,192,162323,1,0,0:0:0:0:
256,192,162723,1,8,0:0:0:0:
256,192,163523,1,0,0:0:0:0:
256,192,163694,1,8,0:0:0:0:
256,192,164037,1,8,0:0:0:0:
256,192,164208,1,0,0:0:0:0:
256,192,164551,1,0,0:0:0:0:
256,192,164894,1,0,0:0:0:0:
256,192,165065,1,8,0:0:0:0:
256,192,165237,1,0,0:0:0:0:
256,192,165580,1,8,0:0:0:0:
256,192,165751,1,8,0:0:0:0:
256,192,165923,1,0,0:0:0:0:
256,192,166265,1,0,0:0:0:0:
256,192,166437,1,8,0:0:0:0:
256,192,166780,1,8,0:0:0:0:
256,192,166951,1,0,0:0:0:0:
256,192,167294,1,0,0:0:0:0:
256,192,167637,1,8,0:0:0:0:
256,192,167808,1,8,0:0:0:0:
256,192,167980,1,0,0:0:0:0:
256,192,168323,1,0,0:0:0:0:
256,192,168408,1,0,0:0:0:0:
256,192,168494,1,0,0:0:0:0:
256,192,168665,1,8,0:0:0:0:
256,192,169008,1,0,0:0:0:0:
256,192,169180,1,8,0:0:0:0:
256,192,169522,1,8,0:0:0:0:
256,192,169694,1,0,0:0:0:0:
256,192,170380,1,0,0:0:0:0:
256,192,170551,1,8,0:0:0:0:
256,192,170722,1,0,0:0:0:0:
256,192,171065,1,8,0:0:0:0:
256,192,171237,1,8,0:0:0:0:
256,192,171408,1,0,0:0:0:0:
256,192,171751,1,0,0:0:0:0:
256,192,171922,1,8,0:0:0:0:
256,192,172094,1,0,0:0:0:0:
256,192,172437,1,0,0:0:0:0:
256,192,172780,1,0,0:0:0:0:
256,192,173122,1,8,0:0:0:0:
256,192,174494,1,4,0:0:0:0:
256,192,174794,1,0,0:0:0:0:
256,192,175094,1,0,0:0:0:0:
256,192,175694,1,8,0:0:0:0:
256,192,175844,1,8,0:0:0:0:
256,192,175994,1,0,0:0:0:0:
256,192,176294,1,8,0:0:0:0:
256,192,176594,1,8,0:0:0:0:
256,192,176894,1,0,0:0:0:0:
256,192,177194,1,0,0:0:0:0:
256,192,177494,1,0,0:0:0:0:
256,192,178094,1,8,0:0:0:0:
256,192,178169,1,8,0:0:0:0:
256,192,178244,1,8,0:0:0:0:
256,192,178394,1,0,0:0:0:0:
256,192,178694,1,8,0:0:0:0:
256,192,178844,1,8,0:0:0:0:
256,192,178994,1,8,0:0:0:0:
256,192,179294,1,0,0:0:0:0:
256,192,179594,1,0,0:0:0:0:
256,192,179894,1,0,0:0:0:0:
256,192,180494,1,8,0:0:0:0:
256,192,180644,1,8,0:0:0:0:
256,192,180794,1,0,0:0:0:0:
256,192,181094,1,8,0:0:0:0:
256,192,181394,1,8,0:0:0:0:
256,192,181694,1,0,0:0:0:0:
256,192,181994,1,0,0:0:0:0:
256,192,182294,1,0,0:0:0:0:
256,192,182894,1,8,0:0:0:0:
256,192,183494,1,8,0:0:0:0:
256,192,184094,1,0,0:0:0:0:
256,192,184244,1,8,0:0:0:0:
256,192,184544,1,8,0:0:0:0:
256,192,184694,1,0,0:0:0:0:
256,192,185294,1,0,0:0:0:0:
256,192,185444,1,8,0:0:0:0:
256,192,185594,1,8,0:0:0:0:
256,192,185744,1,8,0:0:0:0:
256,192,185894,1,0,0:0:0:0:
256,192,186194,1,8,0:0:0:0:
256,192,186494,1,0,0:0:0:0:
256,192,186644,1,8,0:0:0:0:
256,192,186944,1,8,0:0:0:0:
256,192,187094,1,0,0:0:0:0:
256,192,187694,1,8,0:0:0:0:
256,192,187844,1,0,0:0:0:0:
256,192,187919,1,0,0:0:0:0:
256,192,187994,1,0,0:0:0:0:
256,192,188294,1,8,0:0:0:0:
256,192,188894,1,0,0:0:0:0:
256,192,189044,1,8,0:0:0:0:
256,192,189344,1,8,0:0:0:0:
256,192,189494,1,0,0:0:0:0:
256,192,190094,1,0,0:0:0:0:
256,192,190244,1,8,0:0:0:0:
256,192,190394,1,8,0:0:0:0:
256,192,190544,1,8,0:0:0:0:
256,192,190694,1,0,0:0:0:0:
256,192,190994,1,8,0:0:0:0:
256,192,191294,1,0,0:0:0:0:
256,192,191444,1,8,0:0:0:0:
256,192,191744,1,8,0:0:0:0:
256,192,191894,1,0,0:0:0:0:
256,192,192194,1,8,0:0:0:0:
256,192,192494,12,0,193394,0:0:0:0:
256,192,193694,5,4,0:0:0:0:
