osu file format v14

[General]
AudioFilename: audio.mp3
AudioLeadIn: 0
PreviewTime: 0
Countdown: 0
SampleSet: Normal
StackLeniency: 1
Mode: 1
LetterboxInBreaks: 0
WidescreenStoryboard: 1

[Editor]
Bookmarks: 36273
DistanceSpacing: 0.8
BeatDivisor: 4
GridSize: 32
TimelineZoom: 3.999998

[Metadata]
Title:Thank You for Calling!
TitleUnicode:Thank You for Calling!
Artist:Lulickma
ArtistUnicode:Lulickma
Creator:Vulkin
Version:Dain's Inner Oni
Source:
Tags:the psycho filth vol 7 -bit beast- speedcore j-core xfraczynho cdhsausageboy dainesl dain -kazu- -anhedonia- firce777 agu
BeatmapID:1456720
BeatmapSetID:681633

[Difficulty]
HPDrainRate:5
CircleSize:5
OverallDifficulty:6.5
ApproachRate:5
SliderMultiplier:1.4
SliderTickRate:1

[Events]
//Background and Video events
0,0,"678339_22323247.jpg",0,0
//Break Periods
//Storyboard Layer 0 (Background)
//Storyboard Layer 1 (Fail)
//Storyboard Layer 2 (Pass)
//Storyboard Layer 3 (Foreground)
//Storyboard Sound Samples

[TimingPoints]
0,428.571428571429,4,1,0,60,1,0
5142,428.571428571429,7,1,0,60,1,0
7829,444.444444444444,4,1,0,60,1,0
7829,-125,4,1,0,60,0,0
14940,-111.111111111111,4,1,0,60,0,0
22051,-100,4,1,0,60,0,0
50495,222.222222222222,4,1,0,60,1,1
56717,-100,4,1,0,60,0,0
57606,-100,4,1,0,60,0,1
63828,-100,4,1,0,60,0,0
64717,-100,4,1,0,60,0,1
70939,-100,4,1,0,60,0,0
71828,-100,4,1,0,60,0,1
84272,-100,4,1,0,60,0,0
86050,-100,4,1,0,60,0,1
93161,-100,4,1,0,60,0,0
94050,-126.582278481013,4,1,0,60,0,0
94939,-172.413793103448,4,1,0,60,0,0
95828,-270.27027027027,4,1,0,60,0,0
96717,599.999405940594,4,1,0,60,1,0
114716,-90.9090909090909,4,1,0,60,0,0
114866,-86.9565217391303,4,1,0,60,0,0
115016,-83.3333333333333,4,1,0,60,0,0
115166,-79.9999999999999,4,1,0,60,0,0
115316,-76.9230769230769,4,1,0,60,0,0
115466,-74.074074074074,4,1,0,60,0,0
115616,-71.4285714285714,4,1,0,60,0,0
115766,-68.9655172413792,4,1,0,60,0,0
115916,582.52427184466,4,1,0,60,1,0
115916,-66.6666666666667,4,1,0,60,0,0
118246,550.45871559633,4,1,0,60,1,0
118246,-66.6666666666667,4,1,0,60,0,0
120447,517.242575422805,4,1,0,60,1,0
120447,-66.6666666666667,4,1,0,60,0,0
122515,500.001117700557,4,1,0,60,1,0
122515,-66.6666666666667,4,1,0,60,0,0
124515,465.116279069767,4,1,0,60,1,0
124515,-66.6666666666667,4,1,0,60,0,0
126375,447.761194029851,4,1,0,60,1,0
126375,-66.6666666666667,4,1,0,60,0,0
128166,428.571428571429,4,1,0,60,1,0
128166,-66.6666666666667,4,1,0,60,0,0
129880,410.958904109589,4,1,0,60,1,0
129880,-66.6666666666667,4,1,0,60,0,0
131523,400.001085427649,4,1,0,60,1,0
131523,-66.6666666666667,4,1,0,60,0,0
137923,-100,4,1,0,60,0,0
150723,200,4,1,0,60,1,1
150723,-111.111111111111,4,1,0,60,0,1
162723,-111.111111111111,4,1,0,60,0,0
163523,171.428571428571,4,1,0,60,1,1
163523,-117.647058823529,4,1,0,60,0,1
173122,-117.647058823529,4,1,0,60,0,0
174494,150,4,1,0,60,1,1
174494,-125,4,1,0,60,0,1
182894,-125,4,1,0,60,0,0
183119,-122.699386503067,4,1,0,60,0,0
183344,-120.481927710843,4,1,0,60,0,0
183569,-118.343195266272,4,1,0,60,0,0
183794,-116.279069767442,4,1,0,60,0,0
183944,-113.636363636364,4,1,0,60,0,0
184094,-111.111111111111,4,1,0,60,0,1
193694,-111.111111111111,4,1,0,60,0,0

[HitObjects]
256,192,0,5,8,0:0:0:0:
256,192,107,1,0,0:0:0:0:
256,192,321,1,0,0:0:0:0:
256,192,428,1,8,0:0:0:0:
256,192,642,1,0,0:0:0:0:
256,192,857,1,8,0:0:0:0:
256,192,964,1,8,0:0:0:0:
256,192,1071,1,0,0:0:0:0:
256,192,1178,1,8,0:0:0:0:
256,192,1285,1,0,0:0:0:0:
256,192,1500,1,8,0:0:0:0:
256,192,1607,1,0,0:0:0:0:
256,192,1714,1,8,0:0:0:0:
256,192,1928,1,8,0:0:0:0:
256,192,2142,1,0,0:0:0:0:
256,192,2357,1,0,0:0:0:0:
256,192,2571,1,0,0:0:0:0:
256,192,2678,1,8,0:0:0:0:
256,192,2785,1,8,0:0:0:0:
256,192,2892,1,0,0:0:0:0:
256,192,3107,1,0,0:0:0:0:
256,192,3214,1,0,0:0:0:0:
256,192,3428,1,8,0:0:0:0:
256,192,3535,1,0,0:0:0:0:
256,192,3750,1,0,0:0:0:0:
256,192,3857,1,8,0:0:0:0:
256,192,4071,1,0,0:0:0:0:
256,192,4285,1,8,0:0:0:0:
256,192,4500,1,8,0:0:0:0:
256,192,4607,1,8,0:0:0:0:
256,192,4714,1,0,0:0:0:0:
256,192,4928,1,0,0:0:0:0:
256,192,5142,1,8,0:0:0:0:
256,192,5356,1,0,0:0:0:0:
256,192,5463,1,0,0:0:0:0:
256,192,5570,1,0,0:0:0:0:
256,192,5784,1,0,0:0:0:0:
256,192,5999,1,8,0:0:0:0:
256,192,6106,1,0,0:0:0:0:
256,192,6213,1,0,0:0:0:0:
256,192,6320,1,8,0:0:0:0:
256,192,7829,1,8,0:0:0:0:
256,192,7940,1,0,0:0:0:0:
256,192,8162,1,8,0:0:0:0:
256,192,8717,1,0,0:0:0:0:
256,192,8828,1,8,0:0:0:0:
256,192,9051,1,0,0:0:0:0:
256,192,9606,1,8,0:0:0:0:
256,192,9717,1,8,0:0:0:0:
256,192,9940,1,8,0:0:0:0:
256,192,10495,1,0,0:0:0:0:
256,192,10606,1,0,0:0:0:0:
256,192,10828,1,0,0:0:0:0:
256,192,11384,1,8,0:0:0:0:
256,192,11495,1,0,0:0:0:0:
256,192,11717,1,0,0:0:0:0:
256,192,12273,1,8,0:0:0:0:
256,192,12384,1,0,0:0:0:0:
256,192,12606,1,8,0:0:0:0:
256,192,13162,1,0,0:0:0:0:
256,192,13273,1,8,0:0:0:0:
256,192,13495,1,8,0:0:0:0:
256,192,14051,1,0,0:0:0:0:
256,192,14162,1,8,0:0:0:0:
256,192,14384,1,0,0:0:0:0:
256,192,14495,1,8,0:0:0:0:
256,192,14717,1,8,0:0:0:0:
256,192,14940,1,8,0:0:0:0:
256,192,15051,1,0,0:0:0:0:
256,192,15273,1,8,0:0:0:0:
256,192,15495,1,8,0:0:0:0:
256,192,15828,1,8,0:0:0:0:
256,192,16051,1,0,0:0:0:0:
256,192,16162,1,0,0:0:0:0:
256,192,16273,1,8,0:0:0:0:
256,192,16384,1,8,0:0:0:0:
256,192,16495,1,8,0:0:0:0:
256,192,16717,1,8,0:0:0:0:
256,192,16828,1,0,0:0:0:0:
256,192,17051,1,8,0:0:0:0:
256,192,17273,1,8,0:0:0:0:
256,192,17606,1,8,0:0:0:0:
256,192,17828,1,8,0:0:0:0:
256,192,17940,1,0,0:0:0:0:
256,192,18051,1,8,0:0:0:0:
256,192,18162,1,0,0:0:0:0:
256,192,18273,1,0,0:0:0:0:
256,192,18384,1,0,0:0:0:0:
256,192,18495,1,8,0:0:0:0:
256,192,18606,1,0,0:0:0:0:
256,192,18828,1,8,0:0:0:0:
256,192,19051,1,8,0:0:0:0:
256,192,19384,1,8,0:0:0:0:
256,192,19606,1,0,0:0:0:0:
256,192,19717,1,0,0:0:0:0:
256,192,19828,1,8,0:0:0:0:
256,192,19940,1,8,0:0:0:0:
256,192,20051,1,8,0:0:0:0:
256,192,20273,1,8,0:0:0:0:
256,192,20384,1,0,0:0:0:0:
256,192,20606,1,8,0:0:0:0:
256,192,20828,1,8,0:0:0:0:
256,192,21162,1,8,0:0:0:0:
256,192,21384,1,8,0:0:0:0:
256,192,21495,1,0,0:0:0:0:
256,192,21606,1,8,0:0:0:0:
256,192,21717,1,8,0:0:0:0:
256,192,21828,1,8,0:0:0:0:
256,192,21940,1,8,0:0:0:0:
256,192,22051,1,4,0:0:0:0:
256,192,22273,1,8,0:0:0:0:
256,192,22384,1,8,0:0:0:0:
256,192,22495,1,0,0:0:0:0:
256,192,22606,1,0,0:0:0:0:
256,192,22717,1,8,0:0:0:0:
256,192,22940,1,0,0:0:0:0:
256,192,23162,1,0,0:0:0:0:
256,192,23273,1,0,0:0:0:0:
256,192,23384,1,8,0:0:0:0:
256,192,23606,1,8,0:0:0:0:
256,192,23828,1,0,0:0:0:0:
256,192,24051,1,8,0:0:0:0:
256,192,24162,1,0,0:0:0:0:
256,192,24273,1,0,0:0:0:0:
256,192,24384,1,0,0:0:0:0:
256,192,24495,1,8,0:0:0:0:
256,192,24717,1,0,0:0:0:0:
256,192,24828,1,0,0:0:0:0:
256,192,24940,1,8,0:0:0:0:
256,192,25051,1,0,0:0:0:0:
256,192,25162,1,8,0:0:0:0:
256,192,25273,1,8,0:0:0:0:
256,192,25384,1,0,0:0:0:0:
256,192,25495,1,8,0:0:0:0:
256,192,25606,1,0,0:0:0:0:
256,192,25828,1,8,0:0:0:0:
256,192,25940,1,8,0:0:0:0:
256,192,26051,1,0,0:0:0:0:
256,192,26162,1,0,0:0:0:0:
256,192,26273,1,8,0:0:0:0:
256,192,26495,1,0,0:0:0:0:
256,192,26717,1,0,0:0:0:0:
256,192,26828,1,0,0:0:0:0:
256,192,26940,1,8,0:0:0:0:
256,192,27162,1,8,0:0:0:0:
256,192,27384,1,0,0:0:0:0:
256,192,27606,1,8,0:0:0:0:
256,192,27717,1,0,0:0:0:0:
256,192,27828,1,0,0:0:0:0:
256,192,27940,1,0,0:0:0:0:
256,192,28051,1,8,0:0:0:0:
256,192,28273,1,0,0:0:0:0:
256,192,28384,1,0,0:0:0:0:
256,192,28495,1,8,0:0:0:0:
256,192,28606,1,0,0:0:0:0:
256,192,28717,1,8,0:0:0:0:
256,192,28828,1,8,0:0:0:0:
256,192,28940,1,8,0:0:0:0:
256,192,29051,1,8,0:0:0:0:
256,192,29162,1,0,0:0:0:0:
256,192,29384,1,8,0:0:0:0:
256,192,29495,1,8,0:0:0:0:
256,192,29606,1,0,0:0:0:0:
256,192,29717,1,0,0:0:0:0:
256,192,29828,1,8,0:0:0:0:
256,192,30051,1,0,0:0:0:0:
256,192,30273,1,0,0:0:0:0:
256,192,30384,1,0,0:0:0:0:
256,192,30495,1,8,0:0:0:0:
256,192,30717,1,8,0:0:0:0:
256,192,30940,1,0,0:0:0:0:
256,192,31162,1,8,0:0:0:0:
256,192,31273,1,0,0:0:0:0:
256,192,31384,1,0,0:0:0:0:
256,192,31495,1,0,0:0:0:0:
256,192,31606,1,8,0:0:0:0:
256,192,31828,1,0,0:0:0:0:
256,192,31940,1,0,0:0:0:0:
256,192,32051,1,8,0:0:0:0:
256,192,32162,1,0,0:0:0:0:
256,192,32273,1,8,0:0:0:0:
256,192,32384,1,0,0:0:0:0:
256,192,32495,1,8,0:0:0:0:
256,192,32606,1,8,0:0:0:0:
256,192,32717,1,0,0:0:0:0:
256,192,32940,1,8,0:0:0:0:
256,192,33051,1,8,0:0:0:0:
256,192,33162,1,0,0:0:0:0:
256,192,33273,1,0,0:0:0:0:
256,192,33384,1,8,0:0:0:0:
256,192,33606,1,0,0:0:0:0:
256,192,33828,1,0,0:0:0:0:
256,192,33940,1,0,0:0:0:0:
256,192,34051,1,8,0:0:0:0:
256,192,34273,1,8,0:0:0:0:
256,192,34495,1,0,0:0:0:0:
256,192,34717,1,8,0:0:0:0:
256,192,34828,1,0,0:0:0:0:
256,192,34940,1,0,0:0:0:0:
256,192,35051,1,0,0:0:0:0:
256,192,35162,1,8,0:0:0:0:
256,192,35384,1,0,0:0:0:0:
256,192,35606,1,8,0:0:0:0:
256,192,35717,1,8,0:0:0:0:
256,192,35828,1,8,0:0:0:0:
256,192,36051,1,8,0:0:0:0:
256,192,36273,1,4,0:0:0:0:
256,192,36606,1,0,0:0:0:0:
256,192,36940,1,0,0:0:0:0:
256,192,37162,1,0,0:0:0:0:
256,192,37273,1,0,0:0:0:0:
256,192,37606,1,8,0:0:0:0:
256,192,37828,1,8,0:0:0:0:
256,192,38051,1,0,0:0:0:0:
256,192,38273,1,0,0:0:0:0:
256,192,38384,1,0,0:0:0:0:
256,192,38717,1,0,0:0:0:0:
256,192,38940,1,0,0:0:0:0:
256,192,39051,1,0,0:0:0:0:
256,192,39384,1,8,0:0:0:0:
256,192,39495,1,8,0:0:0:0:
256,192,39828,1,0,0:0:0:0:
256,192,40162,1,0,0:0:0:0:
256,192,40495,1,0,0:0:0:0:
256,192,40717,1,0,0:0:0:0:
256,192,40828,1,0,0:0:0:0:
256,192,41162,1,0,0:0:0:0:
256,192,41384,1,0,0:0:0:0:
256,192,41606,1,0,0:0:0:0:
256,192,41828,1,0,0:0:0:0:
256,192,41940,1,0,0:0:0:0:
256,192,42162,1,0,0:0:0:0:
256,192,42273,1,8,0:0:0:0:
256,192,42384,1,8,0:0:0:0:
256,192,42495,1,0,0:0:0:0:
256,192,42773,1,0,0:0:0:0:
256,192,43051,1,8,0:0:0:0:
256,192,43384,1,0,0:0:0:0:
256,192,43606,1,0,0:0:0:0:
256,192,43717,1,8,0:0:0:0:
256,192,43940,1,8,0:0:0:0:
256,192,44051,1,0,0:0:0:0:
256,192,44273,1,0,0:0:0:0:
256,192,44384,1,8,0:0:0:0:
256,192,44606,1,8,0:0:0:0:
256,192,44717,1,0,0:0:0:0:
256,192,44828,1,0,0:0:0:0:
256,192,44940,1,8,0:0:0:0:
256,192,45162,1,0,0:0:0:0:
256,192,45384,1,0,0:0:0:0:
256,192,45495,1,8,0:0:0:0:
256,192,45717,1,8,0:0:0:0:
256,192,45828,1,0,0:0:0:0:
256,192,46051,1,0,0:0:0:0:
256,192,46162,1,8,0:0:0:0:
256,192,46273,1,0,0:0:0:0:
256,192,46384,1,0,0:0:0:0:
256,192,46495,1,8,0:0:0:0:
256,192,46606,1,0,0:0:0:0:
256,192,46940,1,0,0:0:0:0:
256,192,47162,1,0,0:0:0:0:
256,192,47273,1,8,0:0:0:0:
256,192,47495,1,8,0:0:0:0:
256,192,47606,1,0,0:0:0:0:
256,192,47828,1,0,0:0:0:0:
256,192,47940,1,8,0:0:0:0:
256,192,48162,1,0,0:0:0:0:
256,192,48273,1,8,0:0:0:0:
256,192,48384,1,8,0:0:0:0:
256,192,48495,1,8,0:0:0:0:
256,192,48717,1,0,0:0:0:0:
256,192,48940,1,0,0:0:0:0:
256,192,49051,1,8,0:0:0:0:
256,192,49162,1,0,0:0:0:0:
256,192,49273,1,0,0:0:0:0:
256,192,49384,1,8,0:0:0:0:
256,192,49606,1,0,0:0:0:0:
256,192,50051,1,8,0:0:0:0:
256,192,50273,1,8,0:0:0:0:
256,192,50495,1,4,0:0:0:0:
256,192,50717,1,0,0:0:0:0:
256,192,50828,1,8,0:0:0:0:
256,192,50939,1,0,0:0:0:0:
256,192,50995,1,0,0:0:0:0:
256,192,51050,1,0,0:0:0:0:
256,192,51161,1,8,0:0:0:0:
256,192,51272,1,8,0:0:0:0:
256,192,51383,1,0,0:0:0:0:
256,192,51495,1,0,0:0:0:0:
256,192,51550,1,0,0:0:0:0:
256,192,51606,1,8,0:0:0:0:
256,192,51717,1,0,0:0:0:0:
256,192,51828,1,8,0:0:0:0:
256,192,52050,1,8,0:0:0:0:
256,192,52161,1,8,0:0:0:0:
256,192,52272,1,0,0:0:0:0:
256,192,52495,1,8,0:0:0:0:
256,192,52606,1,0,0:0:0:0:
256,192,52717,1,0,0:0:0:0:
256,192,52772,1,0,0:0:0:0:
256,192,52828,1,0,0:0:0:0:
256,192,52939,1,8,0:0:0:0:
256,192,53050,1,8,0:0:0:0:
256,192,53161,1,0,0:0:0:0:
256,192,53383,1,0,0:0:0:0:
256,192,53606,1,8,0:0:0:0:
256,192,53661,1,8,0:0:0:0:
256,192,53717,1,0,0:0:0:0:
256,192,53828,1,8,0:0:0:0:
256,192,53939,1,8,0:0:0:0:
256,192,54050,1,0,0:0:0:0:
256,192,54272,1,0,0:0:0:0:
256,192,54383,1,8,0:0:0:0:
256,192,54494,1,0,0:0:0:0:
256,192,54550,1,0,0:0:0:0:
256,192,54606,1,0,0:0:0:0:
256,192,54717,1,8,0:0:0:0:
256,192,54828,1,8,0:0:0:0:
256,192,54939,1,0,0:0:0:0:
256,192,55050,1,0,0:0:0:0:
256,192,55161,1,0,0:0:0:0:
256,192,55272,1,0,0:0:0:0:
256,192,55383,1,8,0:0:0:0:
256,192,55494,1,8,0:0:0:0:
256,192,55550,1,8,0:0:0:0:
256,192,55606,1,8,0:0:0:0:
256,192,55717,1,8,0:0:0:0:
256,192,55828,1,0,0:0:0:0:
256,192,56050,1,0,0:0:0:0:
256,192,56161,1,8,0:0:0:0:
256,192,56272,1,0,0:0:0:0:
256,192,56328,1,0,0:0:0:0:
256,192,56383,1,0,0:0:0:0:
256,192,56494,1,8,0:0:0:0:
256,192,56550,1,8,0:0:0:0:
256,192,56606,1,0,0:0:0:0:
256,192,56717,1,8,0:0:0:0:
256,192,56939,1,8,0:0:0:0:
256,192,57161,1,8,0:0:0:0:
256,192,57383,1,8,0:0:0:0:
256,192,57606,1,4,0:0:0:0:
256,192,57828,1,0,0:0:0:0:
256,192,57939,1,8,0:0:0:0:
256,192,58050,1,0,0:0:0:0:
256,192,58106,1,0,0:0:0:0:
256,192,58161,1,0,0:0:0:0:
256,192,58272,1,8,0:0:0:0:
256,192,58383,1,0,0:0:0:0:
256,192,58494,1,8,0:0:0:0:
256,192,58606,1,8,0:0:0:0:
256,192,58717,1,0,0:0:0:0:
256,192,58828,1,0,0:0:0:0:
256,192,58939,1,8,0:0:0:0:
256,192,59050,1,8,0:0:0:0:
256,192,59106,1,8,0:0:0:0:
256,192,59161,1,8,0:0:0:0:
256,192,59272,1,8,0:0:0:0:
256,192,59383,1,0,0:0:0:0:
256,192,59606,1,0,0:0:0:0:
256,192,59717,1,0,0:0:0:0:
256,192,59828,1,8,0:0:0:0:
256,192,59883,1,8,0:0:0:0:
256,192,59939,1,0,0:0:0:0:
256,192,60050,1,0,0:0:0:0:
256,192,60161,1,0,0:0:0:0:
256,192,60272,1,8,0:0:0:0:
256,192,60494,1,0,0:0:0:0:
256,192,60717,1,8,0:0:0:0:
256,192,60772,1,8,0:0:0:0:
256,192,60828,1,8,0:0:0:0:
256,192,60939,1,8,0:0:0:0:
256,192,61050,1,8,0:0:0:0:
256,192,61161,1,0,0:0:0:0:
256,192,61383,1,0,0:0:0:0:
256,192,61494,1,0,0:0:0:0:
256,192,61606,1,0,0:0:0:0:
256,192,61661,1,0,0:0:0:0:
256,192,61717,1,0,0:0:0:0:
256,192,61828,1,8,0:0:0:0:
256,192,61939,1,8,0:0:0:0:
256,192,62050,1,0,0:0:0:0:
256,192,62161,1,8,0:0:0:0:
256,192,62272,1,0,0:0:0:0:
256,192,62383,1,0,0:0:0:0:
256,192,62494,1,8,0:0:0:0:
256,192,62606,1,8,0:0:0:0:
256,192,62661,1,8,0:0:0:0:
256,192,62717,1,8,0:0:0:0:
256,192,62828,1,8,0:0:0:0:
256,192,62939,1,0,0:0:0:0:
256,192,63161,1,0,0:0:0:0:
256,192,63272,1,8,0:0:0:0:
256,192,63383,1,0,0:0:0:0:
256,192,63439,1,0,0:0:0:0:
256,192,63494,1,0,0:0:0:0:
256,192,63550,1,0,0:0:0:0:
256,192,63606,1,8,0:0:0:0:
256,192,63717,1,0,0:0:0:0:
256,192,63828,1,8,0:0:0:0:
256,192,63939,1,8,0:0:0:0:
256,192,64050,1,8,0:0:0:0:
256,192,64161,1,8,0:0:0:0:
256,192,64272,1,8,0:0:0:0:
256,192,64717,1,4,0:0:0:0:
256,192,64939,1,0,0:0:0:0:
256,192,65050,1,8,0:0:0:0:
256,192,65161,1,0,0:0:0:0:
256,192,65272,1,0,0:0:0:0:
256,192,65383,1,8,0:0:0:0:
256,192,65439,1,8,0:0:0:0:
256,192,65494,1,8,0:0:0:0:
256,192,65606,1,0,0:0:0:0:
256,192,65717,1,0,0:0:0:0:
256,192,65828,1,0,0:0:0:0:
256,192,65939,1,0,0:0:0:0:
256,192,66050,1,8,0:0:0:0:
256,192,66161,1,0,0:0:0:0:
256,192,66217,1,0,0:0:0:0:
256,192,66272,1,8,0:0:0:0:
256,192,66383,1,8,0:0:0:0:
256,192,66494,1,0,0:0:0:0:
256,192,66717,1,0,0:0:0:0:
256,192,66828,1,8,0:0:0:0:
256,192,66939,1,0,0:0:0:0:
256,192,67050,1,0,0:0:0:0:
256,192,67161,1,8,0:0:0:0:
256,192,67217,1,8,0:0:0:0:
256,192,67272,1,8,0:0:0:0:
256,192,67383,1,0,0:0:0:0:
256,192,67494,1,0,0:0:0:0:
256,192,67606,1,8,0:0:0:0:
256,192,67661,1,8,0:0:0:0:
256,192,67717,1,0,0:0:0:0:
256,192,67828,1,8,0:0:0:0:
256,192,67939,1,0,0:0:0:0:
256,192,68161,1,0,0:0:0:0:
256,192,68272,1,8,0:0:0:0:
256,192,68494,1,8,0:0:0:0:
256,192,68606,1,0,0:0:0:0:
256,192,68717,1,0,0:0:0:0:
256,192,68772,1,0,0:0:0:0:
256,192,68828,1,0,0:0:0:0:
256,192,68939,1,8,0:0:0:0:
256,192,68994,1,8,0:0:0:0:
256,192,69050,1,8,0:0:0:0:
256,192,69161,1,0,0:0:0:0:
256,192,69272,1,8,0:0:0:0:
256,192,69383,1,0,0:0:0:0:
256,192,69494,1,0,0:0:0:0:
256,192,69606,1,8,0:0:0:0:
256,192,69717,1,8,0:0:0:0:
256,192,69828,1,8,0:0:0:0:
256,192,69939,1,8,0:0:0:0:
256,192,70050,1,0,0:0:0:0:
256,192,70272,1,8,0:0:0:0:
256,192,70383,1,0,0:0:0:0:
256,192,70494,1,0,0:0:0:0:
256,192,70550,1,0,0:0:0:0:
256,192,70606,1,0,0:0:0:0:
256,192,70717,1,8,0:0:0:0:
256,192,70828,1,8,0:0:0:0:
256,192,70939,1,0,0:0:0:0:
256,192,71050,1,8,0:0:0:0:
256,192,71161,1,0,0:0:0:0:
256,192,71272,1,0,0:0:0:0:
256,192,71383,1,8,0:0:0:0:
256,192,71494,1,0,0:0:0:0:
256,192,71606,1,8,0:0:0:0:
256,192,71828,1,4,0:0:0:0:
256,192,72050,1,8,0:0:0:0:
256,192,72161,1,0,0:0:0:0:
256,192,72272,1,0,0:0:0:0:
256,192,72383,1,0,0:0:0:0:
256,192,72439,1,0,0:0:0:0:
256,192,72494,1,8,0:0:0:0:
256,192,72550,1,8,0:0:0:0:
256,192,72606,1,8,0:0:0:0:
256,192,72717,1,0,0:0:0:0:
256,192,72828,1,0,0:0:0:0:
256,192,72939,1,0,0:0:0:0:
256,192,73050,1,0,0:0:0:0:
256,192,73161,1,8,0:0:0:0:
256,192,73383,1,8,0:0:0:0:
256,192,73494,1,8,0:0:0:0:
256,192,73606,1,0,0:0:0:0:
256,192,73717,1,8,0:0:0:0:
256,192,73828,1,0,0:0:0:0:
256,192,73939,1,0,0:0:0:0:
256,192,74050,1,8,0:0:0:0:
256,192,74106,1,8,0:0:0:0:
256,192,74161,1,0,0:0:0:0:
256,192,74272,1,8,0:0:0:0:
256,192,74383,1,8,0:0:0:0:
256,192,74494,1,0,0:0:0:0:
256,192,74606,1,8,0:0:0:0:
256,192,74717,1,0,0:0:0:0:
256,192,74772,1,0,0:0:0:0:
256,192,74828,1,0,0:0:0:0:
256,192,74939,1,8,0:0:0:0:
256,192,75050,1,0,0:0:0:0:
256,192,75272,1,8,0:0:0:0:
256,192,75383,1,0,0:0:0:0:
256,192,75606,1,0,0:0:0:0:
256,192,75717,1,8,0:0:0:0:
256,192,75828,1,0,0:0:0:0:
256,192,75939,1,0,0:0:0:0:
256,192,76050,1,8,0:0:0:0:
256,192,76106,1,8,0:0:0:0:
256,192,76161,1,8,0:0:0:0:
256,192,76272,1,0,0:0:0:0:
256,192,76383,1,0,0:0:0:0:
256,192,76494,1,8,0:0:0:0:
256,192,76606,1,0,0:0:0:0:
256,192,76717,1,8,0:0:0:0:
256,192,76828,1,8,0:0:0:0:
256,192,76939,1,8,0:0:0:0:
256,192,77050,1,8,0:0:0:0:
256,192,77161,1,0,0:0:0:0:
256,192,77217,1,0,0:0:0:0:
256,192,77272,1,0,0:0:0:0:
256,192,77383,1,0,0:0:0:0:
256,192,77494,1,8,0:0:0:0:
256,192,77550,1,8,0:0:0:0:
256,192,77606,1,8,0:0:0:0:
256,192,77717,1,8,0:0:0:0:
256,192,77828,1,0,0:0:0:0:
256,192,77883,1,0,0:0:0:0:
256,192,77939,1,0,0:0:0:0:
256,192,78050,1,0,0:0:0:0:
256,192,78161,1,8,0:0:0:0:
256,192,78494,1,0,0:0:0:0:
256,192,78606,1,8,0:0:0:0:
256,192,78717,1,8,0:0:0:0:
256,192,78939,1,4,0:0:0:0:
256,192,79050,1,8,0:0:0:0:
256,192,79106,1,8,0:0:0:0:
256,192,79161,1,0,0:0:0:0:
256,192,79272,1,8,0:0:0:0:
256,192,79383,1,0,0:0:0:0:
256,192,79494,1,0,0:0:0:0:
256,192,79606,1,8,0:0:0:0:
256,192,79717,1,0,0:0:0:0:
256,192,79772,1,0,0:0:0:0:
256,192,79828,1,8,0:0:0:0:
256,192,79939,1,8,0:0:0:0:
256,192,80050,1,0,0:0:0:0:
256,192,80161,1,8,0:0:0:0:
256,192,80217,1,8,0:0:0:0:
256,192,80272,1,8,0:0:0:0:
256,192,80383,1,8,0:0:0:0:
256,192,80494,1,0,0:0:0:0:
256,192,80717,1,0,0:0:0:0:
256,192,80828,1,8,0:0:0:0:
256,192,80883,1,8,0:0:0:0:
256,192,80939,1,8,0:0:0:0:
256,192,81050,1,0,0:0:0:0:
256,192,81161,1,8,0:0:0:0:
256,192,81272,1,8,0:0:0:0:
256,192,81383,1,0,0:0:0:0:
256,192,81494,1,0,0:0:0:0:
256,192,81550,1,0,0:0:0:0:
256,192,81606,1,8,0:0:0:0:
256,192,81717,1,8,0:0:0:0:
256,192,81828,1,0,0:0:0:0:
256,192,81939,1,0,0:0:0:0:
256,192,82050,1,8,0:0:0:0:
256,192,82106,1,8,0:0:0:0:
256,192,82161,1,0,0:0:0:0:
256,192,82272,1,8,0:0:0:0:
256,192,82328,1,8,0:0:0:0:
256,192,82383,1,0,0:0:0:0:
256,192,82439,1,0,0:0:0:0:
256,192,82494,1,0,0:0:0:0:
256,192,82606,1,0,0:0:0:0:
256,192,82717,1,0,0:0:0:0:
256,192,82828,1,8,0:0:0:0:
256,192,83050,1,8,0:0:0:0:
256,192,83161,1,0,0:0:0:0:
256,192,83217,1,0,0:0:0:0:
256,192,83272,1,0,0:0:0:0:
256,192,83383,1,0,0:0:0:0:
256,192,83494,1,8,0:0:0:0:
256,192,83606,1,0,0:0:0:0:
256,192,83717,1,0,0:0:0:0:
256,192,83772,1,0,0:0:0:0:
256,192,83828,1,8,0:0:0:0:
256,192,83939,1,8,0:0:0:0:
256,192,84050,1,0,0:0:0:0:
256,192,84272,1,0,0:0:0:0:
256,192,84494,1,8,0:0:0:0:
256,192,84606,1,8,0:0:0:0:
256,192,84717,1,8,0:0:0:0:
256,192,84828,1,8,0:0:0:0:
256,192,84939,1,8,0:0:0:0:
256,192,85161,1,0,0:0:0:0:
256,192,85606,1,0,0:0:0:0:
256,192,85717,1,8,0:0:0:0:
256,192,85772,1,8,0:0:0:0:
256,192,85828,1,8,0:0:0:0:
256,192,85883,1,8,0:0:0:0:
256,192,85939,1,8,0:0:0:0:
256,192,86050,1,4,0:0:0:0:
256,192,86161,1,8,0:0:0:0:
256,192,86217,1,8,0:0:0:0:
256,192,86272,1,0,0:0:0:0:
256,192,86383,1,8,0:0:0:0:
256,192,86494,1,0,0:0:0:0:
256,192,86606,1,8,0:0:0:0:
256,192,86717,1,0,0:0:0:0:
256,192,86772,1,0,0:0:0:0:
256,192,86828,1,0,0:0:0:0:
256,192,86939,1,8,0:0:0:0:
256,192,87050,1,0,0:0:0:0:
256,192,87161,1,8,0:0:0:0:
256,192,87272,1,8,0:0:0:0:
256,192,87328,1,8,0:0:0:0:
256,192,87383,1,8,0:0:0:0:
256,192,87494,1,8,0:0:0:0:
256,192,87606,1,0,0:0:0:0:
256,192,87828,1,0,0:0:0:0:
256,192,87883,1,0,0:0:0:0:
256,192,87939,1,8,0:0:0:0:
256,192,88050,1,0,0:0:0:0:
256,192,88161,1,8,0:0:0:0:
256,192,88217,1,8,0:0:0:0:
256,192,88272,1,8,0:0:0:0:
256,192,88383,1,0,0:0:0:0:
256,192,88494,1,8,0:0:0:0:
256,192,88550,1,8,0:0:0:0:
256,192,88606,1,0,0:0:0:0:
256,192,88717,1,8,0:0:0:0:
256,192,88828,1,0,0:0:0:0:
256,192,88883,1,0,0:0:0:0:
256,192,88939,1,0,0:0:0:0:
256,192,89050,1,0,0:0:0:0:
256,192,89161,1,8,0:0:0:0:
256,192,89272,1,8,0:0:0:0:
256,192,89494,1,8,0:0:0:0:
256,192,89606,1,0,0:0:0:0:
256,192,89717,1,0,0:0:0:0:
256,192,89772,1,0,0:0:0:0:
256,192,89828,1,8,0:0:0:0:
256,192,89939,1,0,0:0:0:0:
256,192,90050,1,8,0:0:0:0:
256,192,90161,1,8,0:0:0:0:
256,192,90272,1,0,0:0:0:0:
256,192,90383,1,8,0:0:0:0:
256,192,90439,1,8,0:0:0:0:
256,192,90494,1,0,0:0:0:0:
256,192,90606,1,8,0:0:0:0:
256,192,90717,1,0,0:0:0:0:
256,192,90828,1,0,0:0:0:0:
256,192,90939,1,8,0:0:0:0:
256,192,91050,1,8,0:0:0:0:
256,192,91106,1,8,0:0:0:0:
256,192,91161,1,8,0:0:0:0:
256,192,91383,1,0,0:0:0:0:
256,192,91494,1,8,0:0:0:0:
256,192,91550,1,8,0:0:0:0:
256,192,91606,1,0,0:0:0:0:
256,192,91717,1,8,0:0:0:0:
256,192,91828,1,0,0:0:0:0:
256,192,91939,1,0,0:0:0:0:
256,192,92050,1,8,0:0:0:0:
256,192,92161,1,0,0:0:0:0:
256,192,92217,1,0,0:0:0:0:
256,192,92272,1,0,0:0:0:0:
256,192,92383,1,8,0:0:0:0:
256,192,92494,1,0,0:0:0:0:
256,192,92606,1,0,0:0:0:0:
256,192,92717,1,8,0:0:0:0:
256,192,92828,1,0,0:0:0:0:
256,192,92939,1,8,0:0:0:0:
256,192,92994,1,8,0:0:0:0:
256,192,93050,1,8,0:0:0:0:
256,192,93161,1,0,0:0:0:0:
256,192,96272,1,8,0:0:0:0:
256,192,96494,1,8,0:0:0:0:
256,192,96717,1,4,0:0:0:0:
256,192,96866,1,8,0:0:0:0:
256,192,97166,1,0,0:0:0:0:
256,192,97316,1,8,0:0:0:0:
256,192,97466,1,8,0:0:0:0:
256,192,97616,1,0,0:0:0:0:
256,192,97916,1,0,0:0:0:0:
256,192,98066,1,8,0:0:0:0:
256,192,98216,1,0,0:0:0:0:
256,192,98366,1,0,0:0:0:0:
256,192,98516,1,8,0:0:0:0:
256,192,98666,1,0,0:0:0:0:
256,192,98816,1,8,0:0:0:0:
256,192,99116,1,8,0:0:0:0:
256,192,99266,1,0,0:0:0:0:
256,192,99566,1,0,0:0:0:0:
256,192,99716,1,8,0:0:0:0:
256,192,99866,1,0,0:0:0:0:
256,192,100016,1,0,0:0:0:0:
256,192,100316,1,0,0:0:0:0:
256,192,100466,1,0,0:0:0:0:
256,192,100616,1,8,0:0:0:0:
256,192,100766,1,0,0:0:0:0:
256,192,100916,1,8,0:0:0:0:
256,192,101216,1,8,0:0:0:0:
256,192,101366,1,8,0:0:0:0:
256,192,101516,1,0,0:0:0:0:
256,192,101666,1,8,0:0:0:0:
256,192,101966,1,0,0:0:0:0:
256,192,102116,1,8,0:0:0:0:
256,192,102266,1,8,0:0:0:0:
256,192,102416,1,0,0:0:0:0:
256,192,102716,1,0,0:0:0:0:
256,192,102866,1,8,0:0:0:0:
256,192,103016,1,0,0:0:0:0:
256,192,103166,1,0,0:0:0:0:
256,192,103316,1,8,0:0:0:0:
256,192,103466,1,8,0:0:0:0:
256,192,103616,1,8,0:0:0:0:
256,192,103916,1,8,0:0:0:0:
256,192,104066,1,0,0:0:0:0:
256,192,104366,1,0,0:0:0:0:
256,192,104516,1,8,0:0:0:0:
256,192,104666,1,0,0:0:0:0:
256,192,104816,1,0,0:0:0:0:
256,192,105116,1,0,0:0:0:0:
256,192,105266,1,0,0:0:0:0:
256,192,105416,1,8,0:0:0:0:
256,192,105566,1,0,0:0:0:0:
256,192,105716,1,0,0:0:0:0:
256,192,105866,1,8,0:0:0:0:
256,192,106016,1,8,0:0:0:0:
256,192,106166,1,8,0:0:0:0:
256,192,106316,1,0,0:0:0:0:
256,192,106466,1,8,0:0:0:0:
256,192,106766,1,0,0:0:0:0:
256,192,106916,1,8,0:0:0:0:
256,192,107066,1,8,0:0:0:0:
256,192,107216,1,0,0:0:0:0:
256,192,107516,1,0,0:0:0:0:
256,192,107666,1,8,0:0:0:0:
256,192,107816,1,0,0:0:0:0:
256,192,107966,1,0,0:0:0:0:
256,192,108116,1,8,0:0:0:0:
256,192,108266,1,0,0:0:0:0:
256,192,108416,1,8,0:0:0:0:
256,192,108716,1,8,0:0:0:0:
256,192,108866,1,0,0:0:0:0:
256,192,109166,1,0,0:0:0:0:
256,192,109316,1,8,0:0:0:0:
256,192,109466,1,0,0:0:0:0:
256,192,109616,1,0,0:0:0:0:
256,192,109916,1,0,0:0:0:0:
256,192,110066,1,8,0:0:0:0:
256,192,110216,1,8,0:0:0:0:
256,192,110366,1,8,0:0:0:0:
256,192,110516,1,0,0:0:0:0:
256,192,110666,1,0,0:0:0:0:
256,192,110816,1,8,0:0:0:0:
256,192,110966,1,8,0:0:0:0:
256,192,111116,1,0,0:0:0:0:
256,192,111266,1,8,0:0:0:0:
256,192,111566,1,0,0:0:0:0:
256,192,111716,1,8,0:0:0:0:
256,192,111866,1,8,0:0:0:0:
256,192,112016,1,0,0:0:0:0:
256,192,112316,1,0,0:0:0:0:
256,192,112466,1,8,0:0:0:0:
256,192,112616,1,8,0:0:0:0:
256,192,112766,1,0,0:0:0:0:
256,192,112916,1,8,0:0:0:0:
256,192,113066,1,0,0:0:0:0:
256,192,113216,1,8,0:0:0:0:
256,192,113516,1,8,0:0:0:0:
256,192,113666,1,0,0:0:0:0:
256,192,113966,1,0,0:0:0:0:
256,192,114116,1,8,0:0:0:0:
256,192,114266,1,0,0:0:0:0:
256,192,114416,1,0,0:0:0:0:
256,192,114716,1,0,0:0:0:0:
256,192,114866,1,0,0:0:0:0:
256,192,115016,1,8,0:0:0:0:
256,192,115166,1,0,0:0:0:0:
256,192,115316,1,0,0:0:0:0:
256,192,115466,1,8,0:0:0:0:
256,192,115616,1,8,0:0:0:0:
256,192,115766,1,8,0:0:0:0:
256,192,115916,1,4,0:0:0:0:
256,192,116061,1,8,0:0:0:0:
256,192,116207,1,8,0:0:0:0:
256,192,116352,1,8,0:0:0:0:
256,192,116498,1,0,0:0:0:0:
256,192,116789,1,8,0:0:0:0:
256,192,117081,1,0,0:0:0:0:
256,192,117226,1,0,0:0:0:0:
256,192,117372,1,8,0:0:0:0:
256,192,117517,1,8,0:0:0:0:
256,192,117663,1,0,0:0:0:0:
256,192,117954,1,8,0:0:0:0:
256,192,118246,1,0,0:0:0:0:
256,192,118521,1,8,0:0:0:0:
256,192,118658,1,0,0:0:0:0:
256,192,118934,1,0,0:0:0:0:
256,192,119071,1,8,0:0:0:0:
256,192,119346,1,0,0:0:0:0:
256,192,119484,1,0,0:0:0:0:
256,192,119622,1,8,0:0:0:0:
256,192,119897,1,0,0:0:0:0:
256,192,120034,1,0,0:0:0:0:
256,192,120172,1,8,0:0:0:0:
256,192,120310,1,8,0:0:0:0:
256,192,120447,1,0,0:0:0:0:
256,192,120705,1,8,0:0:0:0:
256,192,120964,1,0,0:0:0:0:
256,192,121093,1,0,0:0:0:0:
256,192,121222,1,8,0:0:0:0:
256,192,121481,1,8,0:0:0:0:
256,192,121610,1,0,0:0:0:0:
256,192,121740,1,0,0:0:0:0:
256,192,121869,1,0,0:0:0:0:
256,192,121998,1,8,0:0:0:0:
256,192,122257,1,8,0:0:0:0:
256,192,122515,1,0,0:0:0:0:
256,192,122640,1,8,0:0:0:0:
256,192,122765,1,8,0:0:0:0:
256,192,122890,1,0,0:0:0:0:
256,192,123015,1,8,0:0:0:0:
256,192,123140,1,8,0:0:0:0:
256,192,123265,1,0,0:0:0:0:
256,192,123515,1,0,0:0:0:0:
256,192,123640,1,0,0:0:0:0:
256,192,123765,1,8,0:0:0:0:
256,192,123890,1,0,0:0:0:0:
256,192,124015,1,8,0:0:0:0:
256,192,124265,1,8,0:0:0:0:
256,192,124390,1,8,0:0:0:0:
256,192,124515,1,0,0:0:0:0:
256,192,124631,1,0,0:0:0:0:
256,192,124863,1,8,0:0:0:0:
256,192,124980,1,8,0:0:0:0:
256,192,125212,1,8,0:0:0:0:
256,192,125445,1,0,0:0:0:0:
256,192,125677,1,0,0:0:0:0:
256,192,125794,1,0,0:0:0:0:
256,192,125910,1,8,0:0:0:0:
256,192,126026,1,8,0:0:0:0:
256,192,126142,1,8,0:0:0:0:
256,192,126375,1,8,0:0:0:0:
256,192,126486,1,0,0:0:0:0:
256,192,126598,1,0,0:0:0:0:
256,192,126710,1,8,0:0:0:0:
256,192,126822,1,0,0:0:0:0:
256,192,126934,1,0,0:0:0:0:
256,192,127046,1,8,0:0:0:0:
256,192,127158,1,0,0:0:0:0:
256,192,127270,1,8,0:0:0:0:
256,192,127494,1,0,0:0:0:0:
256,192,127606,1,0,0:0:0:0:
256,192,127718,1,8,0:0:0:0:
256,192,127942,1,8,0:0:0:0:
256,192,128166,1,0,0:0:0:0:
256,192,128273,1,0,0:0:0:0:
256,192,128380,1,8,0:0:0:0:
256,192,128487,1,8,0:0:0:0:
256,192,128594,1,0,0:0:0:0:
256,192,128701,1,0,0:0:0:0:
256,192,128808,1,8,0:0:0:0:
256,192,129023,1,8,0:0:0:0:
256,192,129130,1,0,0:0:0:0:
256,192,129237,1,0,0:0:0:0:
256,192,129344,1,0,0:0:0:0:
256,192,129451,1,8,0:0:0:0:
256,192,129558,1,0,0:0:0:0:
256,192,129666,1,8,0:0:0:0:
256,192,129880,1,0,0:0:0:0:
256,192,129982,1,8,0:0:0:0:
256,192,130085,1,8,0:0:0:0:
256,192,130188,1,0,0:0:0:0:
256,192,130290,1,0,0:0:0:0:
256,192,130393,1,0,0:0:0:0:
256,192,130496,1,8,0:0:0:0:
256,192,130599,1,0,0:0:0:0:
256,192,130701,1,8,0:0:0:0:
256,192,130804,1,8,0:0:0:0:
256,192,130907,1,0,0:0:0:0:
256,192,131010,1,0,0:0:0:0:
256,192,131112,1,8,0:0:0:0:
256,192,131318,1,8,0:0:0:0:
256,192,131523,1,4,0:0:0:0:
256,192,131723,1,8,0:0:0:0:
256,192,131923,1,8,0:0:0:0:
256,192,132123,1,8,0:0:0:0:
256,192,132323,1,8,0:0:0:0:
256,192,132523,1,8,0:0:0:0:
256,192,132723,1,8,0:0:0:0:
256,192,132923,1,8,0:0:0:0:
256,192,133123,1,8,0:0:0:0:
256,192,133323,1,8,0:0:0:0:
256,192,133523,1,8,0:0:0:0:
256,192,133723,1,8,0:0:0:0:
256,192,133923,1,8,0:0:0:0:
256,192,134123,1,8,0:0:0:0:
256,192,134323,1,8,0:0:0:0:
256,192,134523,1,0,0:0:0:0:
256,192,134623,1,0,0:0:0:0:
256,192,134723,1,8,0:0:0:0:
256,192,134923,1,8,0:0:0:0:
256,192,135123,1,8,0:0:0:0:
256,192,135323,1,8,0:0:0:0:
256,192,135523,1,8,0:0:0:0:
256,192,135723,1,8,0:0:0:0:
256,192,135923,1,8,0:0:0:0:
256,192,136123,1,8,0:0:0:0:
256,192,136323,1,8,0:0:0:0:
256,192,136423,1,0,0:0:0:0:
256,192,136523,1,8,0:0:0:0:
256,192,136623,1,8,0:0:0:0:
256,192,136723,1,0,0:0:0:0:
256,192,136823,1,8,0:0:0:0:
256,192,136923,1,8,0:0:0:0:
256,192,137023,1,8,0:0:0:0:
256,192,137923,1,0,0:0:0:0:
256,192,138023,1,8,0:0:0:0:
256,192,138123,1,8,0:0:0:0:
256,192,138223,1,8,0:0:0:0:
256,192,138423,1,8,0:0:0:0:
256,192,138623,1,8,0:0:0:0:
256,192,138823,1,8,0:0:0:0:
256,192,139023,1,0,0:0:0:0:
256,192,139123,1,8,0:0:0:0:
256,192,139323,1,8,0:0:0:0:
256,192,139523,1,0,0:0:0:0:
256,192,139623,1,0,0:0:0:0:
256,192,139723,1,8,0:0:0:0:
256,192,139823,1,8,0:0:0:0:
256,192,140023,1,8,0:0:0:0:
256,192,140223,1,0,0:0:0:0:
256,192,140323,1,8,0:0:0:0:
256,192,140423,1,0,0:0:0:0:
256,192,140523,1,8,0:0:0:0:
256,192,140623,1,8,0:0:0:0:
256,192,140723,1,0,0:0:0:0:
256,192,140823,1,0,0:0:0:0:
256,192,141023,1,8,0:0:0:0:
256,192,141123,1,0,0:0:0:0:
256,192,141223,1,8,0:0:0:0:
256,192,141323,1,8,0:0:0:0:
256,192,141423,1,8,0:0:0:0:
256,192,141623,1,8,0:0:0:0:
256,192,141823,1,8,0:0:0:0:
256,192,142023,1,8,0:0:0:0:
256,192,142223,1,0,0:0:0:0:
256,192,142323,1,8,0:0:0:0:
256,192,142523,1,8,0:0:0:0:
256,192,142723,1,0,0:0:0:0:
256,192,142823,1,0,0:0:0:0:
256,192,142923,1,8,0:0:0:0:
256,192,143023,1,8,0:0:0:0:
256,192,143223,1,8,0:0:0:0:
256,192,143423,1,0,0:0:0:0:
256,192,143523,1,0,0:0:0:0:
256,192,143723,1,0,0:0:0:0:
256,192,143823,1,0,0:0:0:0:
256,192,143923,1,8,0:0:0:0:
256,192,144023,1,8,0:0:0:0:
256,192,144123,1,0,0:0:0:0:
256,192,144223,1,8,0:0:0:0:
256,192,144323,1,0,0:0:0:0:
256,192,144423,1,8,0:0:0:0:
256,192,144523,1,8,0:0:0:0:
256,192,144623,1,8,0:0:0:0:
256,192,144823,1,8,0:0:0:0:
256,192,145023,1,8,0:0:0:0:
256,192,145223,1,8,0:0:0:0:
256,192,145423,1,0,0:0:0:0:
256,192,145523,1,8,0:0:0:0:
256,192,145723,1,8,0:0:0:0:
256,192,145923,1,0,0:0:0:0:
256,192,146023,1,0,0:0:0:0:
256,192,146123,1,8,0:0:0:0:
256,192,146223,1,8,0:0:0:0:
256,192,146423,1,8,0:0:0:0:
256,192,146623,1,0,0:0:0:0:
256,192,146723,1,8,0:0:0:0:
256,192,146823,1,0,0:0:0:0:
256,192,146923,1,8,0:0:0:0:
256,192,147023,1,8,0:0:0:0:
256,192,147123,1,0,0:0:0:0:
256,192,147223,1,0,0:0:0:0:
256,192,147423,1,8,0:0:0:0:
256,192,147523,1,0,0:0:0:0:
256,192,147623,1,8,0:0:0:0:
256,192,147723,1,8,0:0:0:0:
256,192,147823,1,8,0:0:0:0:
256,192,148023,1,8,0:0:0:0:
256,192,148223,1,8,0:0:0:0:
256,192,148423,1,8,0:0:0:0:
256,192,148623,1,0,0:0:0:0:
256,192,148723,1,8,0:0:0:0:
256,192,148923,1,0,0:0:0:0:
256,192,148973,1,0,0:0:0:0:
256,192,149023,1,0,0:0:0:0:
256,192,149073,1,0,0:0:0:0:
256,192,149123,1,8,0:0:0:0:
256,192,149323,1,8,0:0:0:0:
256,192,149523,1,8,0:0:0:0:
256,192,149723,1,8,0:0:0:0:
256,192,149923,1,8,0:0:0:0:
256,192,150023,1,0,0:0:0:0:
256,192,150123,1,8,0:0:0:0:
256,192,150323,1,8,0:0:0:0:
256,192,150723,1,4,0:0:0:0:
256,192,150923,1,8,0:0:0:0:
256,192,151023,1,0,0:0:0:0:
256,192,151123,1,8,0:0:0:0:
256,192,151223,1,8,0:0:0:0:
256,192,151323,1,0,0:0:0:0:
256,192,151423,1,8,0:0:0:0:
256,192,151523,1,0,0:0:0:0:
256,192,151723,1,0,0:0:0:0:
256,192,151773,1,0,0:0:0:0:
256,192,151823,1,0,0:0:0:0:
256,192,151873,1,0,0:0:0:0:
256,192,151923,1,8,0:0:0:0:
256,192,152023,1,0,0:0:0:0:
256,192,152123,1,8,0:0:0:0:
256,192,152223,1,8,0:0:0:0:
256,192,152323,1,0,0:0:0:0:
256,192,152423,1,0,0:0:0:0:
256,192,152523,1,0,0:0:0:0:
256,192,152623,1,8,0:0:0:0:
256,192,152823,1,0,0:0:0:0:
256,192,152923,1,8,0:0:0:0:
256,192,153023,1,8,0:0:0:0:
256,192,153123,1,0,0:0:0:0:
256,192,153223,1,8,0:0:0:0:
256,192,153323,1,0,0:0:0:0:
256,192,153423,1,0,0:0:0:0:
256,192,153473,1,0,0:0:0:0:
256,192,153523,1,8,0:0:0:0:
256,192,153623,1,0,0:0:0:0:
256,192,153723,1,8,0:0:0:0:
256,192,153773,1,8,0:0:0:0:
256,192,153823,1,8,0:0:0:0:
256,192,153923,1,0,0:0:0:0:
256,192,154123,1,0,0:0:0:0:
256,192,154223,1,8,0:0:0:0:
256,192,154323,1,0,0:0:0:0:
256,192,154423,1,0,0:0:0:0:
256,192,154473,1,0,0:0:0:0:
256,192,154523,1,8,0:0:0:0:
256,192,154623,1,8,0:0:0:0:
256,192,154723,1,0,0:0:0:0:
256,192,154923,1,0,0:0:0:0:
256,192,154973,1,0,0:0:0:0:
256,192,155023,1,0,0:0:0:0:
256,192,155073,1,0,0:0:0:0:
256,192,155123,1,8,0:0:0:0:
256,192,155223,1,0,0:0:0:0:
256,192,155323,1,8,0:0:0:0:
256,192,155523,1,8,0:0:0:0:
256,192,155623,1,0,0:0:0:0:
256,192,155723,1,0,0:0:0:0:
256,192,155823,1,8,0:0:0:0:
256,192,155923,1,0,0:0:0:0:
256,192,156023,1,0,0:0:0:0:
256,192,156123,1,8,0:0:0:0:
256,192,156223,1,8,0:0:0:0:
256,192,156323,1,0,0:0:0:0:
256,192,156423,1,8,0:0:0:0:
256,192,156523,1,0,0:0:0:0:
256,192,156623,1,8,0:0:0:0:
256,192,156673,1,8,0:0:0:0:
256,192,156723,1,8,0:0:0:0:
256,192,156823,1,0,0:0:0:0:
256,192,156923,1,8,0:0:0:0:
256,192,157123,1,0,0:0:0:0:
256,192,157223,1,8,0:0:0:0:
256,192,157323,1,8,0:0:0:0:
256,192,157423,1,0,0:0:0:0:
256,192,157523,1,8,0:0:0:0:
256,192,157623,1,8,0:0:0:0:
256,192,157723,1,0,0:0:0:0:
256,192,157823,1,8,0:0:0:0:
256,192,157923,1,0,0:0:0:0:
256,192,158123,1,0,0:0:0:0:
256,192,158173,1,0,0:0:0:0:
256,192,158223,1,0,0:0:0:0:
256,192,158273,1,0,0:0:0:0:
256,192,158323,1,8,0:0:0:0:
256,192,158423,1,0,0:0:0:0:
256,192,158523,1,8,0:0:0:0:
256,192,158623,1,8,0:0:0:0:
256,192,158723,1,0,0:0:0:0:
256,192,158823,1,0,0:0:0:0:
256,192,158923,1,0,0:0:0:0:
256,192,159023,1,8,0:0:0:0:
256,192,159123,1,8,0:0:0:0:
256,192,159223,1,8,0:0:0:0:
256,192,159323,1,0,0:0:0:0:
256,192,159423,1,8,0:0:0:0:
256,192,159523,1,0,0:0:0:0:
256,192,159723,1,0,0:0:0:0:
256,192,159823,1,8,0:0:0:0:
256,192,159873,1,8,0:0:0:0:
256,192,159923,1,0,0:0:0:0:
256,192,160023,1,0,0:0:0:0:
256,192,160073,1,0,0:0:0:0:
256,192,160123,1,8,0:0:0:0:
256,192,160173,1,8,0:0:0:0:
256,192,160223,1,8,0:0:0:0:
256,192,160323,1,0,0:0:0:0:
256,192,160423,1,0,0:0:0:0:
256,192,160523,1,0,0:0:0:0:
256,192,160623,1,8,0:0:0:0:
256,192,160823,1,8,0:0:0:0:
256,192,160923,1,0,0:0:0:0:
256,192,161023,1,0,0:0:0:0:
256,192,161123,1,8,0:0:0:0:
256,192,161223,1,0,0:0:0:0:
256,192,161323,1,8,0:0:0:0:
256,192,161423,1,8,0:0:0:0:
256,192,161473,1,8,0:0:0:0:
256,192,161523,1,0,0:0:0:0:
256,192,161623,1,0,0:0:0:0:
256,192,161723,1,8,0:0:0:0:
256,192,161923,1,8,0:0:0:0:
256,192,162023,1,0,0:0:0:0:
256,192,162123,1,0,0:0:0:0:
256,192,162223,1,8,0:0:0:0:
256,192,162323,1,0,0:0:0:0:
256,192,162373,1,0,0:0:0:0:
256,192,162423,1,0,0:0:0:0:
256,192,162523,1,8,0:0:0:0:
256,192,162623,1,8,0:0:0:0:
256,192,162723,1,0,0:0:0:0:
256,192,162823,1,8,0:0:0:0:
256,192,162923,1,0,0:0:0:0:
256,192,163023,1,0,0:0:0:0:
256,192,163123,1,8,0:0:0:0:
256,192,163223,1,0,0:0:0:0:
256,192,163323,1,8,0:0:0:0:
256,192,163523,1,4,0:0:0:0:
256,192,163694,1,8,0:0:0:0:
256,192,163780,1,0,0:0:0:0:
256,192,163865,1,0,0:0:0:0:
256,192,163951,1,0,0:0:0:0:
256,192,164037,1,8,0:0:0:0:
256,192,164208,1,0,0:0:0:0:
256,192,164294,1,0,0:0:0:0:
256,192,164380,1,8,0:0:0:0:
256,192,164465,1,8,0:0:0:0:
256,192,164551,1,8,0:0:0:0:
256,192,164637,1,0,0:0:0:0:
256,192,164723,1,8,0:0:0:0:
256,192,164808,1,8,0:0:0:0:
256,192,164894,1,0,0:0:0:0:
256,192,165065,1,0,0:0:0:0:
256,192,165151,1,0,0:0:0:0:
256,192,165237,1,8,0:0:0:0:
256,192,165323,1,8,0:0:0:0:
256,192,165408,1,8,0:0:0:0:
256,192,165494,1,8,0:0:0:0:
256,192,165580,1,0,0:0:0:0:
256,192,165751,1,0,0:0:0:0:
256,192,165837,1,0,0:0:0:0:
256,192,165923,1,8,0:0:0:0:
256,192,166008,1,0,0:0:0:0:
256,192,166094,1,8,0:0:0:0:
256,192,166137,1,8,0:0:0:0:
256,192,166180,1,8,0:0:0:0:
256,192,166265,1,0,0:0:0:0:
256,192,166437,1,0,0:0:0:0:
256,192,166523,1,0,0:0:0:0:
256,192,166608,1,8,0:0:0:0:
256,192,166694,1,8,0:0:0:0:
256,192,166780,1,0,0:0:0:0:
256,192,166865,1,8,0:0:0:0:
256,192,166951,1,0,0:0:0:0:
256,192,167123,1,8,0:0:0:0:
256,192,167208,1,0,0:0:0:0:
256,192,167294,1,0,0:0:0:0:
256,192,167380,1,0,0:0:0:0:
256,192,167423,1,0,0:0:0:0:
256,192,167465,1,8,0:0:0:0:
256,192,167551,1,8,0:0:0:0:
256,192,167637,1,0,0:0:0:0:
256,192,167723,1,0,0:0:0:0:
256,192,167808,1,0,0:0:0:0:
256,192,167894,1,8,0:0:0:0:
256,192,168065,1,0,0:0:0:0:
256,192,168151,1,8,0:0:0:0:
256,192,168237,1,8,0:0:0:0:
256,192,168323,1,0,0:0:0:0:
256,192,168365,1,0,0:0:0:0:
256,192,168408,1,0,0:0:0:0:
256,192,168494,1,8,0:0:0:0:
256,192,168580,1,0,0:0:0:0:
256,192,168665,1,8,0:0:0:0:
256,192,168708,1,8,0:0:0:0:
256,192,168751,1,0,0:0:0:0:
256,192,168837,1,8,0:0:0:0:
256,192,169008,1,0,0:0:0:0:
256,192,169180,1,8,0:0:0:0:
256,192,169265,1,0,0:0:0:0:
256,192,169351,1,0,0:0:0:0:
256,192,169437,1,0,0:0:0:0:
256,192,169522,1,8,0:0:0:0:
256,192,169694,1,0,0:0:0:0:
256,192,169780,1,8,0:0:0:0:
256,192,169865,1,0,0:0:0:0:
256,192,169951,1,0,0:0:0:0:
256,192,170037,1,8,0:0:0:0:
256,192,170122,1,8,0:0:0:0:
256,192,170208,1,8,0:0:0:0:
256,192,170294,1,8,0:0:0:0:
256,192,170380,1,0,0:0:0:0:
256,192,170465,1,0,0:0:0:0:
256,192,170551,1,0,0:0:0:0:
256,192,170637,1,8,0:0:0:0:
256,192,170808,1,8,0:0:0:0:
256,192,170894,1,8,0:0:0:0:
256,192,170980,1,8,0:0:0:0:
256,192,171065,1,0,0:0:0:0:
256,192,171237,1,0,0:0:0:0:
256,192,171322,1,8,0:0:0:0:
256,192,171408,1,0,0:0:0:0:
256,192,171451,1,0,0:0:0:0:
256,192,171494,1,0,0:0:0:0:
256,192,171580,1,8,0:0:0:0:
256,192,171622,1,8,0:0:0:0:
256,192,171665,1,8,0:0:0:0:
256,192,171751,1,0,0:0:0:0:
256,192,171922,1,8,0:0:0:0:
256,192,172008,1,0,0:0:0:0:
256,192,172094,1,0,0:0:0:0:
256,192,172180,1,0,0:0:0:0:
256,192,172265,1,8,0:0:0:0:
256,192,172351,1,8,0:0:0:0:
256,192,172437,1,0,0:0:0:0:
256,192,172608,1,8,0:0:0:0:
256,192,172780,1,0,0:0:0:0:
256,192,172865,1,0,0:0:0:0:
256,192,172951,1,8,0:0:0:0:
256,192,173037,1,8,0:0:0:0:
256,192,173122,2,0,L|320:192,10,59.5000011348725
256,192,174151,1,0,0:0:0:0:
256,192,174494,1,4,0:0:0:0:
256,192,174644,1,0,0:0:0:0:
256,192,174719,1,0,0:0:0:0:
256,192,174794,1,8,0:0:0:0:
256,192,174869,1,8,0:0:0:0:
256,192,174944,1,8,0:0:0:0:
256,192,175094,1,0,0:0:0:0:
256,192,175169,1,0,0:0:0:0:
256,192,175244,1,0,0:0:0:0:
256,192,175319,1,0,0:0:0:0:
256,192,175394,1,8,0:0:0:0:
256,192,175544,1,8,0:0:0:0:
256,192,175694,1,0,0:0:0:0:
256,192,175844,1,8,0:0:0:0:
256,192,175919,1,0,0:0:0:0:
256,192,175994,1,0,0:0:0:0:
256,192,176069,1,0,0:0:0:0:
256,192,176144,1,8,0:0:0:0:
256,192,176294,1,0,0:0:0:0:
256,192,176369,1,0,0:0:0:0:
256,192,176444,1,0,0:0:0:0:
256,192,176519,1,0,0:0:0:0:
256,192,176594,1,8,0:0:0:0:
256,192,176631,1,8,0:0:0:0:
256,192,176669,1,8,0:0:0:0:
256,192,176744,1,0,0:0:0:0:
256,192,176894,1,0,0:0:0:0:
256,192,177044,1,0,0:0:0:0:
256,192,177119,1,0,0:0:0:0:
256,192,177194,1,8,0:0:0:0:
256,192,177231,1,8,0:0:0:0:
256,192,177269,1,8,0:0:0:0:
256,192,177344,1,0,0:0:0:0:
256,192,177419,1,0,0:0:0:0:
256,192,177494,1,8,0:0:0:0:
256,192,177569,1,0,0:0:0:0:
256,192,177644,1,0,0:0:0:0:
256,192,177719,1,0,0:0:0:0:
256,192,177794,1,8,0:0:0:0:
256,192,177944,1,8,0:0:0:0:
256,192,178094,1,8,0:0:0:0:
256,192,178169,1,0,0:0:0:0:
256,192,178244,1,0,0:0:0:0:
256,192,178319,1,8,0:0:0:0:
256,192,178394,1,8,0:0:0:0:
256,192,178469,1,8,0:0:0:0:
256,192,178544,1,0,0:0:0:0:
256,192,178694,1,0,0:0:0:0:
256,192,178769,1,0,0:0:0:0:
256,192,178844,1,8,0:0:0:0:
256,192,178919,1,8,0:0:0:0:
256,192,178994,1,0,0:0:0:0:
256,192,179031,1,0,0:0:0:0:
256,192,179069,1,0,0:0:0:0:
256,192,179144,1,8,0:0:0:0:
256,192,179294,1,8,0:0:0:0:
256,192,179369,1,0,0:0:0:0:
256,192,179444,1,0,0:0:0:0:
256,192,179519,1,8,0:0:0:0:
256,192,179594,1,0,0:0:0:0:
256,192,179669,1,0,0:0:0:0:
256,192,179744,1,8,0:0:0:0:
256,192,179819,1,8,0:0:0:0:
256,192,179894,1,0,0:0:0:0:
256,192,179969,1,0,0:0:0:0:
256,192,180044,1,0,0:0:0:0:
256,192,180119,1,0,0:0:0:0:
256,192,180194,1,8,0:0:0:0:
256,192,180344,1,8,0:0:0:0:
256,192,180494,1,0,0:0:0:0:
256,192,180644,1,8,0:0:0:0:
256,192,180719,1,0,0:0:0:0:
256,192,180794,1,0,0:0:0:0:
256,192,180869,1,0,0:0:0:0:
256,192,180944,1,8,0:0:0:0:
256,192,181094,1,0,0:0:0:0:
256,192,181169,1,0,0:0:0:0:
256,192,181244,1,0,0:0:0:0:
256,192,181319,1,0,0:0:0:0:
256,192,181394,1,8,0:0:0:0:
256,192,181431,1,8,0:0:0:0:
256,192,181469,1,8,0:0:0:0:
256,192,181544,1,0,0:0:0:0:
256,192,181694,1,8,0:0:0:0:
256,192,181844,1,0,0:0:0:0:
256,192,181919,1,0,0:0:0:0:
256,192,181994,1,8,0:0:0:0:
256,192,182069,1,8,0:0:0:0:
256,192,182144,1,8,0:0:0:0:
256,192,182294,1,8,0:0:0:0:
256,192,182369,1,8,0:0:0:0:
256,192,182444,1,0,0:0:0:0:
256,192,182519,1,0,0:0:0:0:
256,192,182594,1,8,0:0:0:0:
256,192,182631,1,8,0:0:0:0:
256,192,182669,1,8,0:0:0:0:
256,192,182744,1,8,0:0:0:0:
256,192,182819,1,8,0:0:0:0:
256,192,182894,1,0,0:0:0:0:
256,192,183119,1,0,0:0:0:0:
256,192,183344,1,0,0:0:0:0:
256,192,183569,1,0,0:0:0:0:
256,192,183794,1,8,0:0:0:0:
256,192,183944,1,8,0:0:0:0:
256,192,184094,1,4,0:0:0:0:
256,192,184244,1,0,0:0:0:0:
256,192,184319,1,8,0:0:0:0:
256,192,184394,1,0,0:0:0:0:
256,192,184469,1,0,0:0:0:0:
256,192,184544,1,8,0:0:0:0:
256,192,184694,1,8,0:0:0:0:
256,192,184769,1,8,0:0:0:0:
256,192,184844,1,0,0:0:0:0:
256,192,184919,1,0,0:0:0:0:
256,192,184994,1,8,0:0:0:0:
256,192,185031,1,8,0:0:0:0:
256,192,185069,1,8,0:0:0:0:
256,192,185144,1,0,0:0:0:0:
256,192,185294,1,8,0:0:0:0:
256,192,185444,1,0,0:0:0:0:
256,192,185519,1,0,0:0:0:0:
256,192,185594,1,8,0:0:0:0:
256,192,185669,1,8,0:0:0:0:
256,192,185744,1,8,0:0:0:0:
256,192,185819,1,8,0:0:0:0:
256,192,185894,1,0,0:0:0:0:
256,192,185969,1,8,0:0:0:0:
256,192,186044,1,0,0:0:0:0:
256,192,186119,1,0,0:0:0:0:
256,192,186194,1,8,0:0:0:0:
256,192,186231,1,8,0:0:0:0:
256,192,186269,1,8,0:0:0:0:
256,192,186344,1,0,0:0:0:0:
256,192,186494,1,0,0:0:0:0:
256,192,186644,1,0,0:0:0:0:
256,192,186719,1,0,0:0:0:0:
256,192,186794,1,8,0:0:0:0:
256,192,186869,1,8,0:0:0:0:
256,192,186944,1,8,0:0:0:0:
256,192,187094,1,8,0:0:0:0:
256,192,187169,1,0,0:0:0:0:
256,192,187244,1,0,0:0:0:0:
256,192,187319,1,0,0:0:0:0:
256,192,187394,1,8,0:0:0:0:
256,192,187544,1,8,0:0:0:0:
256,192,187694,1,0,0:0:0:0:
256,192,187769,1,0,0:0:0:0:
256,192,187844,1,0,0:0:0:0:
256,192,187919,1,8,0:0:0:0:
256,192,187994,1,8,0:0:0:0:
256,192,188069,1,8,0:0:0:0:
256,192,188144,1,0,0:0:0:0:
256,192,188294,1,8,0:0:0:0:
256,192,188369,1,0,0:0:0:0:
256,192,188444,1,8,0:0:0:0:
256,192,188519,1,8,0:0:0:0:
256,192,188594,1,0,0:0:0:0:
256,192,188631,1,0,0:0:0:0:
256,192,188669,1,0,0:0:0:0:
256,192,188744,1,8,0:0:0:0:
256,192,188894,1,0,0:0:0:0:
256,192,189044,1,0,0:0:0:0:
256,192,189119,1,0,0:0:0:0:
256,192,189194,1,8,0:0:0:0:
256,192,189269,1,8,0:0:0:0:
256,192,189344,1,8,0:0:0:0:
256,192,189494,1,0,0:0:0:0:
256,192,189569,1,8,0:0:0:0:
256,192,189644,1,8,0:0:0:0:
256,192,189719,1,0,0:0:0:0:
256,192,189756,1,0,0:0:0:0:
256,192,189794,1,0,0:0:0:0:
256,192,189869,1,8,0:0:0:0:
256,192,189944,1,8,0:0:0:0:
256,192,190019,1,8,0:0:0:0:
256,192,190094,1,0,0:0:0:0:
256,192,190244,1,0,0:0:0:0:
256,192,190319,1,8,0:0:0:0:
256,192,190469,1,8,0:0:0:0:
256,192,190544,1,0,0:0:0:0:
256,192,190694,1,0,0:0:0:0:
256,192,190769,1,0,0:0:0:0:
256,192,190844,1,8,0:0:0:0:
256,192,190919,1,0,0:0:0:0:
256,192,190994,1,8,0:0:0:0:
256,192,191031,1,8,0:0:0:0:
256,192,191069,1,8,0:0:0:0:
256,192,191144,1,0,0:0:0:0:
256,192,191294,1,8,0:0:0:0:
256,192,191444,1,8,0:0:0:0:
256,192,191519,1,0,0:0:0:0:
256,192,191594,1,0,0:0:0:0:
256,192,191669,1,0,0:0:0:0:
256,192,191744,1,8,0:0:0:0:
256,192,191894,1,0,0:0:0:0:
256,192,191969,1,0,0:0:0:0:
256,192,192044,1,0,0:0:0:0:
256,192,192119,1,0,0:0:0:0:
256,192,192194,1,8,0:0:0:0:
256,192,192344,1,8,0:0:0:0:
256,192,192494,1,0,0:0:0:0:
256,192,192644,1,0,0:0:0:0:
256,192,192719,1,8,0:0:0:0:
256,192,192794,1,8,0:0:0:0:
256,192,192869,1,8,0:0:0:0:
256,192,192944,1,0,0:0:0:0:
256,192,193094,1,8,0:0:0:0:
256,192,193131,1,8,0:0:0:0:
256,192,193169,1,0,0:0:0:0:
256,192,193244,1,0,0:0:0:0:
256,192,193319,1,8,0:0:0:0:
256,192,193469,1,0,0:0:0:0:
256,192,193544,1,8,0:0:0:0:
256,192,193581,1,8,0:0:0:0:
256,192,193619,1,8,0:0:0:0:
256,192,193694,1,0,0:0:0:0:
