osu file format v14

[General]
AudioFilename: audio.mp3
AudioLeadIn: 0
PreviewTime: 0
Countdown: 0
SampleSet: Normal
StackLeniency: 1
Mode: 1
LetterboxInBreaks: 0
WidescreenStoryboard: 1

[Editor]
Bookmarks: 36273
DistanceSpacing: 0.8
BeatDivisor: 4
GridSize: 32
TimelineZoom: 1.9

[Metadata]
Title:Thank You for Calling!
TitleUnicode:Thank You for Calling!
Artist:Lulickma
ArtistUnicode:Lulickma
Creator:Vulkin
Version:Cdh's Oni
Source:
Tags:the psycho filth vol 7 -bit beast- speedcore j-core xfraczynho cdhsausageboy dainesl dain -kazu- -anhedonia- firce777 agu
BeatmapID:1464115
BeatmapSetID:681633

[Difficulty]
HPDrainRate:5
CircleSize:5
OverallDifficulty:6
ApproachRate:5
SliderMultiplier:1.4
SliderTickRate:1

[Events]
//Background and Video events
0,0,"678339_22323247.jpg",0,0
//Break Periods
//Storyboard Layer 0 (Background)
//Storyboard Layer 1 (Fail)
//Storyboard Layer 2 (Pass)
//Storyboard Layer 3 (Foreground)
//Storyboard Sound Samples

[TimingPoints]
0,428.571428571429,4,1,0,50,1,0
5142,428.571428571429,7,1,0,50,1,0
7829,444.444444444444,4,1,0,50,1,0
14940,-100,4,1,0,60,0,0
50495,222.222222222222,4,1,0,70,1,1
50495,-133.333333333333,4,1,0,70,0,1
56717,-147.058823529412,4,2,0,5,0,0
56939,-161.290322580645,4,2,0,5,0,0
57161,-178.571428571429,4,2,0,5,0,0
57383,-200,4,2,0,5,0,0
57606,-133.333333333333,4,1,0,70,0,1
63161,-142.857142857143,4,1,0,70,0,1
63494,-166.666666666667,4,1,0,70,0,1
63828,-200,4,2,0,5,0,0
64717,-133.333333333333,4,1,0,70,0,1
70939,-133.333333333333,4,2,0,5,0,0
71050,-140.845070422535,4,2,0,5,0,0
71161,-149.253731343284,4,2,0,5,0,0
71272,-158.730158730159,4,2,0,5,0,0
71383,-169.491525423729,4,2,0,5,0,0
71494,-185.185185185185,4,2,0,5,0,0
71606,-200,4,2,0,5,0,0
71828,-133.333333333333,4,1,0,70,0,1
77161,-130.4347826,4,1,0,70,0,1
77272,-127.6595745,4,1,0,70,0,1
77383,-125,4,1,0,70,0,1
77494,-122.4489796,4,1,0,70,0,1
77606,-120,4,1,0,70,0,1
77717,-117.6470588,4,1,0,70,0,1
77828,-115.3846154,4,1,0,70,0,1
77939,-113.2075472,4,1,0,70,0,1
78050,-111.1111111,4,1,0,70,0,1
78161,-109.0909091,4,1,0,70,0,1
78272,-107.1428571,4,1,0,70,0,1
78383,-105.2631579,4,1,0,70,0,1
78494,-103.4482759,4,1,0,70,0,1
78606,-101.6949153,4,1,0,70,0,1
78717,-100,4,1,0,70,0,0
78939,-100,4,1,0,70,0,1
84272,-100,4,2,0,5,0,0
84383,-104.166666666667,4,2,0,5,0,0
84494,-108.695652173913,4,2,0,5,0,0
84606,-113.636363636364,4,2,0,5,0,0
84717,-119.047619047619,4,2,0,5,0,0
84828,-121.951219512195,4,2,0,5,0,0
84939,-125,4,2,0,5,0,0
85050,-133.333333333333,4,2,0,5,0,0
85161,-166.666666666667,4,2,0,5,0,0
85717,-66.6666666666667,4,2,0,5,0,0
86050,-100,4,1,0,70,0,1
93161,-100,4,2,0,5,0,0
96272,-100,4,1,0,60,0,0
96494,-133.333333333333,4,1,0,60,0,0
96717,599.999405940594,4,1,0,70,1,0
115916,582.52427184466,4,1,0,70,1,0
118246,550.45871559633,4,1,0,70,1,0
120447,517.242575422805,4,1,0,70,1,0
122515,500.001117700557,4,1,0,70,1,0
124515,465.116279069767,4,1,0,70,1,0
126375,447.761194029851,4,1,0,70,1,0
128166,428.571428571429,4,1,0,70,1,0
129880,410.958904109589,4,1,0,70,1,0
131523,400.001085427649,4,1,0,70,1,0
150723,200,4,1,0,70,1,1
150723,-133.333333333333,4,1,0,70,0,1
162723,-133.333333333333,4,2,0,5,0,0
162823,-129.730290725582,4,2,0,5,0,0
162923,-126.316853194553,4,2,0,5,0,0
163023,-123.078437888466,4,2,0,5,0,0
163223,-120.00048000192,4,2,0,5,0,0
163323,-117.0731707,4,2,0,5,0,0
163523,171.428571428571,4,1,0,70,1,1
163523,-133.333333333333,4,1,0,70,0,1
173122,-25,4,2,0,5,0,0
174494,150,4,1,0,70,1,1
174494,-133.333333333333,4,1,0,70,0,1
182894,-133.333333333333,4,1,0,70,0,0
184094,-133.333333333333,4,1,0,70,0,1
193094,-100,4,1,0,70,0,1
193694,-100,4,1,0,70,0,0

[HitObjects]
384,192,7829,5,8,0:0:0:0:
320,160,7940,1,0,0:0:0:0:
384,160,8162,1,8,0:0:0:0:
384,192,8717,5,8,0:0:0:0:
320,160,8828,1,0,0:0:0:0:
384,160,9050,1,8,0:0:0:0:
384,192,9606,5,8,0:0:0:0:
320,160,9717,1,0,0:0:0:0:
384,160,9939,1,8,0:0:0:0:
384,192,10495,5,8,0:0:0:0:
320,160,10606,1,0,0:0:0:0:
384,160,10828,1,8,0:0:0:0:
384,192,11384,5,8,0:0:0:0:
320,160,11495,1,0,0:0:0:0:
128,128,11606,1,0,0:0:0:0:
384,160,11717,1,8,0:0:0:0:
384,192,12273,5,8,0:0:0:0:
320,160,12384,1,0,0:0:0:0:
128,128,12495,1,0,0:0:0:0:
384,160,12606,1,8,0:0:0:0:
384,192,13162,5,8,0:0:0:0:
320,160,13273,1,0,0:0:0:0:
128,128,13384,1,0,0:0:0:0:
384,160,13495,1,8,0:0:0:0:
384,192,14051,5,8,0:0:0:0:
320,160,14162,1,0,0:0:0:0:
288,224,14384,1,0,0:0:0:0:
320,192,14495,1,8,0:0:0:0:
320,192,14717,1,8,0:0:0:0:
256,224,14940,1,8,0:0:0:0:
256,224,15051,1,8,0:0:0:0:
256,224,15273,1,8,0:0:0:0:
256,224,15495,1,8,0:0:0:0:
288,224,15828,1,8,0:0:0:0:
352,192,15940,1,0,0:0:0:0:
256,224,16051,1,8,0:0:0:0:
256,224,16162,1,8,0:0:0:0:
256,160,16384,1,8,0:0:0:0:
256,160,16495,1,8,0:0:0:0:
256,224,16717,1,8,0:0:0:0:
256,224,16828,1,8,0:0:0:0:
256,224,17050,1,8,0:0:0:0:
256,224,17272,1,8,0:0:0:0:
288,224,17605,1,8,0:0:0:0:
352,192,17717,1,0,0:0:0:0:
256,224,17828,1,8,0:0:0:0:
256,224,17939,1,8,0:0:0:0:
480,128,18162,1,8,0:0:0:0:
288,160,18273,1,0,0:0:0:0:
320,160,18384,1,0,0:0:0:0:
256,224,18495,1,8,0:0:0:0:
256,224,18606,1,8,0:0:0:0:
256,224,18828,1,8,0:0:0:0:
256,224,19050,1,8,0:0:0:0:
288,224,19383,1,8,0:0:0:0:
352,192,19495,1,0,0:0:0:0:
256,224,19606,1,8,0:0:0:0:
256,224,19717,1,8,0:0:0:0:
256,160,19939,1,8,0:0:0:0:
256,160,20050,1,8,0:0:0:0:
256,224,20273,1,8,0:0:0:0:
256,224,20384,1,8,0:0:0:0:
256,224,20606,1,8,0:0:0:0:
256,224,20828,1,8,0:0:0:0:
288,224,21161,1,8,0:0:0:0:
352,192,21273,1,0,0:0:0:0:
256,224,21384,1,8,0:0:0:0:
256,224,21495,1,8,0:0:0:0:
480,128,21717,1,8,0:0:0:0:
288,160,21828,1,0,0:0:0:0:
320,160,21939,1,0,0:0:0:0:
256,224,22051,1,8,0:0:0:0:
191,152,22162,1,0,0:0:0:0:
256,224,22384,1,8,0:0:0:0:
256,224,22606,1,8,0:0:0:0:
288,224,22939,1,8,0:0:0:0:
352,192,23051,1,0,0:0:0:0:
256,224,23162,1,8,0:0:0:0:
256,224,23273,1,8,0:0:0:0:
286,160,23384,1,0,0:0:0:0:
256,160,23495,1,8,0:0:0:0:
256,160,23606,1,8,0:0:0:0:
256,224,23828,1,8,0:0:0:0:
256,224,23939,1,0,0:0:0:0:
256,224,24161,1,8,0:0:0:0:
256,224,24383,1,8,0:0:0:0:
288,224,24716,1,8,0:0:0:0:
352,192,24828,1,0,0:0:0:0:
256,224,24939,1,8,0:0:0:0:
256,224,25050,1,8,0:0:0:0:
255,169,25162,1,0,0:0:0:0:
480,128,25273,1,8,0:0:0:0:
288,160,25384,1,0,0:0:0:0:
320,160,25495,1,0,0:0:0:0:
256,224,25606,1,8,0:0:0:0:
256,224,25717,1,8,0:0:0:0:
256,224,25939,1,8,0:0:0:0:
256,224,26161,1,8,0:0:0:0:
288,224,26494,1,8,0:0:0:0:
352,192,26606,1,0,0:0:0:0:
256,224,26717,1,8,0:0:0:0:
256,224,26828,1,8,0:0:0:0:
204,77,26940,1,0,0:0:0:0:
256,160,27050,1,8,0:0:0:0:
256,160,27161,1,8,0:0:0:0:
256,224,27384,1,8,0:0:0:0:
256,224,27495,1,0,0:0:0:0:
256,224,27717,1,8,0:0:0:0:
256,224,27939,1,8,0:0:0:0:
288,224,28272,1,8,0:0:0:0:
352,192,28384,1,0,0:0:0:0:
256,224,28495,1,8,0:0:0:0:
256,224,28606,1,8,0:0:0:0:
227,137,28717,1,0,0:0:0:0:
480,128,28828,1,8,0:0:0:0:
288,160,28939,1,8,0:0:0:0:
320,160,29050,1,8,0:0:0:0:
256,224,29162,1,8,0:0:0:0:
191,152,29273,1,0,0:0:0:0:
256,224,29495,1,8,0:0:0:0:
256,224,29717,1,8,0:0:0:0:
288,224,30050,1,8,0:0:0:0:
352,192,30162,1,0,0:0:0:0:
256,224,30273,1,8,0:0:0:0:
256,224,30384,1,8,0:0:0:0:
286,160,30495,1,0,0:0:0:0:
256,160,30606,1,8,0:0:0:0:
256,160,30717,1,8,0:0:0:0:
256,224,30939,1,8,0:0:0:0:
256,224,31050,1,0,0:0:0:0:
256,224,31272,1,8,0:0:0:0:
256,224,31494,1,8,0:0:0:0:
288,224,31827,1,8,0:0:0:0:
352,192,31939,1,0,0:0:0:0:
256,224,32050,1,8,0:0:0:0:
256,224,32161,1,8,0:0:0:0:
255,169,32273,1,0,0:0:0:0:
480,128,32384,1,8,0:0:0:0:
288,160,32495,1,0,0:0:0:0:
320,160,32606,1,0,0:0:0:0:
256,224,32717,1,8,0:0:0:0:
256,224,32828,1,8,0:0:0:0:
256,224,33050,1,8,0:0:0:0:
256,224,33272,1,8,0:0:0:0:
288,224,33605,1,8,0:0:0:0:
352,192,33717,1,0,0:0:0:0:
256,224,33828,1,8,0:0:0:0:
256,224,33939,1,8,0:0:0:0:
204,77,34051,1,0,0:0:0:0:
256,160,34161,1,8,0:0:0:0:
256,160,34272,1,8,0:0:0:0:
256,224,34495,1,8,0:0:0:0:
256,224,34606,1,0,0:0:0:0:
256,224,34828,1,8,0:0:0:0:
256,224,35050,1,8,0:0:0:0:
288,224,35383,5,8,0:0:0:0:
352,192,35495,1,0,0:0:0:0:
256,224,35606,1,8,0:0:0:0:
256,224,35717,1,8,0:0:0:0:
227,137,35828,1,0,0:0:0:0:
480,128,35939,1,8,0:0:0:0:
288,160,36050,1,8,0:0:0:0:
320,160,36161,1,8,0:0:0:0:
384,192,36273,5,8,0:0:0:0:
352,192,36606,1,8,0:0:0:0:
352,192,36940,1,8,0:0:0:0:
352,192,37273,1,8,0:0:0:0:
320,160,37606,1,8,0:0:0:0:
320,160,37828,1,8,0:0:0:0:
384,192,38051,5,8,0:0:0:0:
352,192,38384,1,8,0:0:0:0:
352,192,38718,1,8,0:0:0:0:
352,192,39051,1,8,0:0:0:0:
416,192,39384,1,8,0:0:0:0:
384,192,39495,1,0,0:0:0:0:
416,192,39717,1,0,0:0:0:0:
416,160,39828,1,8,0:0:0:0:
352,192,40161,1,8,0:0:0:0:
352,192,40495,1,8,0:0:0:0:
352,192,40828,1,8,0:0:0:0:
320,160,41161,1,8,0:0:0:0:
320,160,41383,1,8,0:0:0:0:
384,192,41606,5,8,0:0:0:0:
352,192,41939,1,8,0:0:0:0:
352,192,42273,1,8,0:0:0:0:
224,128,42495,2,0,L|448:192,1,210
384,192,43384,5,8,0:0:0:0:
352,192,43717,1,8,0:0:0:0:
352,192,44051,1,8,0:0:0:0:
352,192,44384,1,8,0:0:0:0:
320,160,44717,1,8,0:0:0:0:
320,160,44939,1,8,0:0:0:0:
384,192,45162,5,8,0:0:0:0:
352,192,45495,1,8,0:0:0:0:
352,192,45829,1,8,0:0:0:0:
352,192,46162,1,8,0:0:0:0:
320,160,46495,1,8,0:0:0:0:
128,160,46606,1,0,0:0:0:0:
128,160,46828,1,0,0:0:0:0:
384,192,46939,5,8,0:0:0:0:
352,192,47272,1,8,0:0:0:0:
352,192,47606,1,8,0:0:0:0:
352,192,47939,1,8,0:0:0:0:
320,160,48272,1,8,0:0:0:0:
320,160,48494,1,8,0:0:0:0:
384,192,48717,5,8,0:0:0:0:
352,192,49050,1,8,0:0:0:0:
352,192,49384,1,8,0:0:0:0:
96,192,49606,2,4,L|320:192,1,210
224,128,50495,1,4,0:0:0:0:
288,224,50717,1,8,0:0:0:0:
256,160,50828,1,0,0:0:0:0:
256,160,50939,1,0,0:0:0:0:
384,160,51161,1,8,0:0:0:0:
192,160,51272,1,0,0:0:0:0:
160,160,51495,1,0,0:0:0:0:
320,160,51606,1,8,0:0:0:0:
384,160,51828,1,0,0:0:0:0:
384,160,51939,1,0,0:0:0:0:
384,192,52050,1,8,0:0:0:0:
384,192,52161,1,8,0:0:0:0:
256,192,52272,1,0,0:0:0:0:
288,224,52495,1,8,0:0:0:0:
256,160,52606,1,0,0:0:0:0:
256,160,52717,1,0,0:0:0:0:
384,160,52939,1,8,0:0:0:0:
192,160,53050,1,0,0:0:0:0:
160,160,53273,1,0,0:0:0:0:
320,160,53384,1,8,0:0:0:0:
224,96,53606,1,8,0:0:0:0:
256,96,53717,1,8,0:0:0:0:
384,192,53828,1,8,0:0:0:0:
256,192,53939,1,0,0:0:0:0:
384,192,54050,1,0,0:0:0:0:
288,224,54272,1,8,0:0:0:0:
256,160,54383,1,0,0:0:0:0:
256,160,54494,1,0,0:0:0:0:
384,160,54716,1,8,0:0:0:0:
192,160,54827,1,0,0:0:0:0:
160,160,55050,1,0,0:0:0:0:
320,160,55161,1,8,0:0:0:0:
384,160,55383,1,0,0:0:0:0:
384,160,55494,1,0,0:0:0:0:
384,192,55605,1,8,0:0:0:0:
384,192,55716,1,8,0:0:0:0:
256,192,55827,1,0,0:0:0:0:
288,224,56050,1,8,0:0:0:0:
256,160,56161,1,0,0:0:0:0:
256,160,56383,1,0,0:0:0:0:
288,192,56494,1,8,0:0:0:0:
320,160,56717,1,0,0:0:0:0:
320,160,56939,1,0,0:0:0:0:
160,192,57161,1,8,0:0:0:0:
192,192,57383,1,8,0:0:0:0:
320,192,57606,1,0,0:0:0:0:
288,192,57717,1,0,0:0:0:0:
288,160,57828,1,8,0:0:0:0:
128,128,58050,1,0,0:0:0:0:
160,128,58161,1,0,0:0:0:0:
416,160,58272,1,8,0:0:0:0:
224,128,58383,1,0,0:0:0:0:
224,128,58606,1,0,0:0:0:0:
256,160,58717,1,8,0:0:0:0:
192,224,58939,1,0,0:0:0:0:
192,224,59050,1,0,0:0:0:0:
352,160,59161,1,8,0:0:0:0:
320,192,59383,1,0,0:0:0:0:
288,192,59494,1,0,0:0:0:0:
288,160,59605,1,8,0:0:0:0:
128,128,59827,1,0,0:0:0:0:
160,128,59938,1,0,0:0:0:0:
416,160,60049,1,8,0:0:0:0:
224,128,60160,1,0,0:0:0:0:
224,128,60383,1,0,0:0:0:0:
256,160,60494,1,8,0:0:0:0:
288,160,60606,1,0,0:0:0:0:
192,224,60716,1,8,0:0:0:0:
192,224,60827,1,8,0:0:0:0:
352,160,60938,1,8,0:0:0:0:
320,192,61161,1,0,0:0:0:0:
288,192,61272,1,0,0:0:0:0:
288,160,61383,1,8,0:0:0:0:
128,128,61605,1,0,0:0:0:0:
160,128,61716,1,0,0:0:0:0:
416,160,61827,1,8,0:0:0:0:
224,128,61938,1,0,0:0:0:0:
224,128,62161,1,0,0:0:0:0:
256,160,62272,1,8,0:0:0:0:
192,224,62494,1,0,0:0:0:0:
192,224,62605,1,0,0:0:0:0:
352,160,62716,1,8,0:0:0:0:
192,96,62939,1,0,0:0:0:0:
352,160,63161,1,8,0:0:0:0:
192,160,63272,1,0,0:0:0:0:
192,160,63494,1,0,0:0:0:0:
256,160,63606,1,8,0:0:0:0:
256,192,63828,12,0,64494,0:0:0:0:
192,192,64717,5,0,0:0:0:0:
192,192,64939,1,0,0:0:0:0:
192,192,65050,1,0,0:0:0:0:
192,192,65272,1,0,0:0:0:0:
384,192,65383,1,8,0:0:0:0:
448,224,65606,1,0,0:0:0:0:
448,224,65717,1,0,0:0:0:0:
448,224,65828,1,0,0:0:0:0:
448,224,65939,1,0,0:0:0:0:
192,192,66050,1,8,0:0:0:0:
224,192,66272,1,8,0:0:0:0:
192,192,66494,5,0,0:0:0:0:
192,192,66716,1,0,0:0:0:0:
192,192,66827,1,0,0:0:0:0:
192,192,67049,1,0,0:0:0:0:
384,192,67160,1,8,0:0:0:0:
352,160,67383,1,0,0:0:0:0:
352,160,67606,1,0,0:0:0:0:
384,160,67828,1,8,0:0:0:0:
352,160,67939,1,0,0:0:0:0:
352,160,68050,1,8,0:0:0:0:
352,160,68161,1,8,0:0:0:0:
288,160,68272,1,0,0:0:0:0:
192,192,68494,1,0,0:0:0:0:
192,192,68605,1,0,0:0:0:0:
192,192,68827,1,0,0:0:0:0:
384,192,68938,1,8,0:0:0:0:
448,224,69161,1,0,0:0:0:0:
448,224,69272,1,0,0:0:0:0:
448,224,69383,1,0,0:0:0:0:
448,224,69494,1,0,0:0:0:0:
192,192,69605,1,8,0:0:0:0:
224,192,69827,1,8,0:0:0:0:
192,192,70049,5,0,0:0:0:0:
192,192,70271,1,0,0:0:0:0:
192,192,70382,1,0,0:0:0:0:
192,192,70604,1,0,0:0:0:0:
384,192,70715,1,8,0:0:0:0:
160,160,70939,1,0,0:0:0:0:
256,128,71050,1,0,0:0:0:0:
384,160,71161,1,8,0:0:0:0:
192,224,71272,1,0,0:0:0:0:
416,192,71383,1,8,0:0:0:0:
416,192,71494,1,8,0:0:0:0:
416,192,71606,1,8,0:0:0:0:
256,160,71828,1,4,0:0:0:0:
192,224,72050,1,0,0:0:0:0:
192,224,72161,1,0,0:0:0:0:
192,160,72272,1,8,0:0:0:0:
256,128,72494,1,0,0:0:0:0:
288,192,72605,1,8,0:0:0:0:
192,160,72828,1,8,0:0:0:0:
288,192,73050,1,8,0:0:0:0:
224,192,73161,1,0,0:0:0:0:
288,96,73383,1,8,0:0:0:0:
256,160,73494,1,8,0:0:0:0:
256,160,73606,1,0,0:0:0:0:
192,224,73828,1,0,0:0:0:0:
192,224,73939,1,0,0:0:0:0:
192,160,74050,1,8,0:0:0:0:
256,128,74272,1,0,0:0:0:0:
288,192,74383,1,8,0:0:0:0:
192,160,74606,1,8,0:0:0:0:
288,192,74828,1,8,0:0:0:0:
224,192,74939,1,0,0:0:0:0:
320,128,75050,1,0,0:0:0:0:
288,96,75161,1,8,0:0:0:0:
288,128,75272,1,0,0:0:0:0:
256,160,75384,1,0,0:0:0:0:
192,224,75606,1,0,0:0:0:0:
192,224,75717,1,0,0:0:0:0:
192,160,75828,1,8,0:0:0:0:
256,128,76050,1,0,0:0:0:0:
288,192,76161,1,8,0:0:0:0:
192,160,76384,1,8,0:0:0:0:
288,192,76606,1,8,0:0:0:0:
224,192,76717,1,0,0:0:0:0:
288,96,76939,1,8,0:0:0:0:
256,160,77162,1,0,0:0:0:0:
288,192,77272,1,0,0:0:0:0:
288,192,77383,1,0,0:0:0:0:
416,192,77494,1,8,0:0:0:0:
416,192,77606,1,8,0:0:0:0:
416,192,77717,1,8,0:0:0:0:
256,160,77828,1,0,0:0:0:0:
288,192,77938,1,0,0:0:0:0:
288,192,78049,1,0,0:0:0:0:
416,192,78160,1,8,0:0:0:0:
416,192,78272,1,8,0:0:0:0:
416,192,78383,1,8,0:0:0:0:
288,160,78494,1,0,0:0:0:0:
384,160,78606,1,8,0:0:0:0:
384,160,78717,1,0,0:0:0:0:
320,224,78939,1,12,0:0:0:0:
320,192,79161,1,0,0:0:0:0:
320,192,79272,1,8,0:0:0:0:
288,128,79383,1,8,0:0:0:0:
224,224,79606,1,8,0:0:0:0:
224,224,79717,1,8,0:0:0:0:
224,192,79828,1,0,0:0:0:0:
416,256,79939,1,8,0:0:0:0:
416,256,80050,1,8,0:0:0:0:
320,224,80161,1,0,0:0:0:0:
416,224,80272,1,8,0:0:0:0:
320,160,80383,1,8,0:0:0:0:
352,192,80494,1,0,0:0:0:0:
320,160,80717,1,8,0:0:0:0:
320,192,80939,1,0,0:0:0:0:
320,192,81050,1,8,0:0:0:0:
288,128,81161,1,8,0:0:0:0:
224,224,81384,1,8,0:0:0:0:
224,224,81495,1,8,0:0:0:0:
224,192,81606,1,0,0:0:0:0:
416,256,81717,1,8,0:0:0:0:
416,256,81828,1,8,0:0:0:0:
320,224,81939,1,8,0:0:0:0:
416,224,82050,1,8,0:0:0:0:
448,192,82106,1,8,0:0:0:0:
352,128,82161,1,8,0:0:0:0:
448,160,82217,1,8,0:0:0:0:
384,160,82272,1,0,0:0:0:0:
320,160,82495,1,8,0:0:0:0:
480,192,82717,1,8,0:0:0:0:
128,128,82828,1,0,0:0:0:0:
416,160,82939,1,0,0:0:0:0:
480,192,83050,1,8,0:0:0:0:
128,128,83161,1,0,0:0:0:0:
416,160,83272,1,0,0:0:0:0:
480,192,83383,1,8,0:0:0:0:
128,128,83494,1,0,0:0:0:0:
416,160,83605,1,0,0:0:0:0:
256,160,83717,1,8,0:0:0:0:
256,160,83828,1,8,0:0:0:0:
256,160,83939,1,8,0:0:0:0:
416,160,84050,1,0,0:0:0:0:
416,160,84272,1,0,0:0:0:0:
416,160,84383,1,0,0:0:0:0:
320,160,84494,1,8,0:0:0:0:
288,192,84606,1,0,0:0:0:0:
448,192,84717,1,8,0:0:0:0:
448,192,84828,1,8,0:0:0:0:
448,192,84939,1,8,0:0:0:0:
214,152,85161,2,0,L|393:194,1,167.999994873047
133,74,85717,2,4,L|374:131,1,210.000008010865
299,87,86050,1,0,0:0:0:0:
299,87,86161,1,0,0:0:0:0:
461,160,86272,1,8,0:0:0:0:
299,87,86383,1,0,0:0:0:0:
299,87,86494,1,0,0:0:0:0:
461,160,86605,1,8,0:0:0:0:
153,147,86717,1,0,0:0:0:0:
273,171,86939,1,8,0:0:0:0:
317,185,87050,1,0,0:0:0:0:
326,175,87161,1,0,0:0:0:0:
311,180,87272,1,8,0:0:0:0:
436,182,87383,1,0,0:0:0:0:
304,192,87494,1,8,0:0:0:0:
304,192,87606,1,8,0:0:0:0:
317,185,87717,1,8,0:0:0:0:
299,174,87828,1,0,0:0:0:0:
299,87,87939,1,0,0:0:0:0:
461,160,88050,1,8,0:0:0:0:
299,87,88161,1,0,0:0:0:0:
299,87,88272,1,0,0:0:0:0:
461,160,88383,1,8,0:0:0:0:
153,147,88495,1,0,0:0:0:0:
292,185,88606,1,8,0:0:0:0:
292,185,88717,1,8,0:0:0:0:
153,147,88828,1,0,0:0:0:0:
292,185,88939,1,8,0:0:0:0:
292,185,89050,1,8,0:0:0:0:
288,141,89161,1,0,0:0:0:0:
402,181,89272,1,8,0:0:0:0:
341,200,89383,1,0,0:0:0:0:
343,188,89494,1,0,0:0:0:0:
439,202,89606,1,8,0:0:0:0:
433,179,89828,1,0,0:0:0:0:
358,187,89939,1,8,0:0:0:0:
355,174,90050,1,8,0:0:0:0:
433,179,90161,1,0,0:0:0:0:
358,187,90272,1,8,0:0:0:0:
355,174,90383,1,8,0:0:0:0:
433,179,90494,1,0,0:0:0:0:
358,187,90605,1,8,0:0:0:0:
355,174,90716,1,8,0:0:0:0:
261,209,90828,1,0,0:0:0:0:
413,169,90939,1,8,0:0:0:0:
413,169,91050,1,8,0:0:0:0:
413,169,91161,1,8,0:0:0:0:
351,169,91272,1,0,0:0:0:0:
428,193,91383,1,8,0:0:0:0:
357,161,91606,1,0,0:0:0:0:
360,206,91717,1,8,0:0:0:0:
393,184,91828,1,0,0:0:0:0:
378,155,91939,1,0,0:0:0:0:
360,206,92050,5,8,0:0:0:0:
393,184,92161,1,0,0:0:0:0:
378,155,92272,1,0,0:0:0:0:
360,206,92383,1,8,0:0:0:0:
445,199,92494,1,8,0:0:0:0:
486,187,92606,1,0,0:0:0:0:
479,172,92717,1,0,0:0:0:0:
322,239,92828,1,8,0:0:0:0:
428,225,92939,1,0,0:0:0:0:
395,209,93050,1,8,0:0:0:0:
256,192,93161,12,0,95828,0:0:0:0:
224,224,96272,5,8,0:0:0:0:
217,215,96494,1,8,0:0:0:0:
320,224,96717,5,8,0:0:0:0:
288,192,96866,1,0,0:0:0:0:
288,192,97166,1,0,0:0:0:0:
224,224,97316,1,8,0:0:0:0:
288,192,97916,1,8,0:0:0:0:
320,192,98216,1,0,0:0:0:0:
288,192,98516,1,8,0:0:0:0:
224,256,98816,1,8,0:0:0:0:
320,224,99116,5,8,0:0:0:0:
288,192,99265,1,0,0:0:0:0:
288,192,99565,1,0,0:0:0:0:
224,224,99715,1,8,0:0:0:0:
288,192,100315,1,8,0:0:0:0:
320,192,100615,1,0,0:0:0:0:
352,192,100766,1,8,0:0:0:0:
288,192,100915,1,8,0:0:0:0:
224,256,101215,1,8,0:0:0:0:
352,160,101516,1,8,0:0:0:0:
288,192,101666,1,0,0:0:0:0:
288,192,101966,1,0,0:0:0:0:
224,224,102116,1,8,0:0:0:0:
288,192,102716,1,8,0:0:0:0:
320,192,103016,1,0,0:0:0:0:
288,192,103316,1,8,0:0:0:0:
224,256,103616,1,8,0:0:0:0:
320,224,103916,5,8,0:0:0:0:
288,192,104065,1,0,0:0:0:0:
288,192,104365,1,0,0:0:0:0:
224,224,104515,1,8,0:0:0:0:
288,192,105115,1,8,0:0:0:0:
320,192,105415,1,0,0:0:0:0:
288,192,105715,1,0,0:0:0:0:
352,192,105866,1,8,0:0:0:0:
224,256,106015,1,8,0:0:0:0:
384,160,106166,1,8,0:0:0:0:
320,224,106316,5,8,0:0:0:0:
288,192,106465,1,0,0:0:0:0:
288,192,106765,1,0,0:0:0:0:
224,224,106915,1,8,0:0:0:0:
288,192,107515,1,8,0:0:0:0:
320,192,107815,1,0,0:0:0:0:
288,192,108115,1,8,0:0:0:0:
416,192,108265,1,0,0:0:0:0:
224,256,108415,1,8,0:0:0:0:
320,224,108715,5,8,0:0:0:0:
288,192,108864,1,0,0:0:0:0:
288,192,109164,1,0,0:0:0:0:
224,224,109314,1,8,0:0:0:0:
288,128,109616,1,0,0:0:0:0:
288,192,109914,1,8,0:0:0:0:
320,192,110214,1,0,0:0:0:0:
352,192,110365,1,0,0:0:0:0:
288,192,110514,1,8,0:0:0:0:
416,192,110664,1,0,0:0:0:0:
224,256,110814,1,8,0:0:0:0:
352,160,110965,1,8,0:0:0:0:
352,160,111115,1,8,0:0:0:0:
288,192,111265,1,0,0:0:0:0:
288,192,111565,1,0,0:0:0:0:
224,224,111715,1,8,0:0:0:0:
288,192,112315,1,8,0:0:0:0:
320,192,112615,1,0,0:0:0:0:
288,192,112915,1,8,0:0:0:0:
416,192,113065,1,0,0:0:0:0:
224,256,113215,1,8,0:0:0:0:
320,224,113515,5,8,0:0:0:0:
288,192,113664,1,0,0:0:0:0:
288,192,113964,1,0,0:0:0:0:
224,224,114114,1,8,0:0:0:0:
256,128,114416,1,0,0:0:0:0:
288,192,114714,1,8,0:0:0:0:
320,192,115014,1,0,0:0:0:0:
352,192,115165,1,0,0:0:0:0:
288,192,115314,1,8,0:0:0:0:
416,192,115464,1,0,0:0:0:0:
224,256,115614,1,8,0:0:0:0:
352,160,115765,1,8,0:0:0:0:
352,160,115915,1,8,0:0:0:0:
320,160,116207,1,0,0:0:0:0:
352,160,116498,1,8,0:0:0:0:
320,160,116790,1,0,0:0:0:0:
352,160,117081,1,8,0:0:0:0:
320,160,117373,1,0,0:0:0:0:
352,160,117663,1,8,0:0:0:0:
320,160,117955,1,0,0:0:0:0:
384,192,118246,1,8,0:0:0:0:
288,96,118521,1,0,0:0:0:0:
384,192,118796,1,8,0:0:0:0:
288,96,119071,1,0,0:0:0:0:
384,192,119346,1,8,0:0:0:0:
288,96,119621,1,0,0:0:0:0:
384,192,119897,1,8,0:0:0:0:
288,96,120172,1,0,0:0:0:0:
352,192,120447,1,8,0:0:0:0:
384,160,120705,1,0,0:0:0:0:
352,192,120964,1,8,0:0:0:0:
384,160,121222,1,0,0:0:0:0:
352,192,121481,1,8,0:0:0:0:
384,160,121739,1,0,0:0:0:0:
352,192,121998,1,8,0:0:0:0:
384,160,122256,1,0,0:0:0:0:
352,192,122515,1,8,0:0:0:0:
480,192,122765,1,0,0:0:0:0:
352,192,123015,1,8,0:0:0:0:
128,128,123140,1,0,0:0:0:0:
480,192,123265,1,0,0:0:0:0:
192,96,123515,1,0,0:0:0:0:
384,192,123640,1,8,0:0:0:0:
416,192,123765,1,0,0:0:0:0:
448,160,123890,1,0,0:0:0:0:
512,192,124015,1,8,0:0:0:0:
416,192,124265,1,0,0:0:0:0:
448,160,124515,1,8,0:0:0:0:
384,128,124631,1,0,0:0:0:0:
384,128,124747,1,0,0:0:0:0:
352,192,124863,1,8,0:0:0:0:
352,192,124980,1,8,0:0:0:0:
448,160,125212,1,0,0:0:0:0:
384,192,125445,1,8,0:0:0:0:
416,192,125561,1,0,0:0:0:0:
480,160,125910,1,8,0:0:0:0:
448,192,126026,1,0,0:0:0:0:
416,192,126142,1,0,0:0:0:0:
352,160,126375,1,8,0:0:0:0:
256,160,126598,1,0,0:0:0:0:
352,160,126822,1,8,0:0:0:0:
96,160,126934,1,0,0:0:0:0:
256,160,127045,1,0,0:0:0:0:
416,160,127158,1,0,0:0:0:0:
128,160,127270,1,8,0:0:0:0:
384,160,127494,1,0,0:0:0:0:
384,160,127606,1,0,0:0:0:0:
192,160,127718,1,8,0:0:0:0:
288,192,127942,1,0,0:0:0:0:
320,192,128166,1,8,0:0:0:0:
288,128,128273,1,8,0:0:0:0:
320,192,128380,1,0,0:0:0:0:
320,192,128487,1,8,0:0:0:0:
288,128,128594,1,8,0:0:0:0:
320,192,128701,1,0,0:0:0:0:
192,160,128916,1,0,0:0:0:0:
256,192,129023,1,8,0:0:0:0:
448,192,129130,1,8,0:0:0:0:
224,192,129237,1,0,0:0:0:0:
224,192,129344,1,0,0:0:0:0:
384,192,129451,1,8,0:0:0:0:
352,160,129558,1,0,0:0:0:0:
352,160,129666,1,0,0:0:0:0:
320,160,129880,1,8,0:0:0:0:
320,160,129982,1,0,0:0:0:0:
192,128,130085,1,0,0:0:0:0:
320,160,130188,1,8,0:0:0:0:
320,160,130290,1,0,0:0:0:0:
192,128,130393,5,0,0:0:0:0:
320,192,130496,1,0,0:0:0:0:
384,160,130599,1,8,0:0:0:0:
320,160,130701,1,0,0:0:0:0:
352,192,130804,1,8,0:0:0:0:
352,192,130907,1,0,0:0:0:0:
288,160,131112,1,8,0:0:0:0:
352,160,131318,1,0,0:0:0:0:
192,160,131523,5,8,0:0:0:0:
192,160,131723,1,0,0:0:0:0:
224,160,131823,1,0,0:0:0:0:
480,192,131923,1,8,0:0:0:0:
448,192,132123,1,8,0:0:0:0:
480,160,132323,1,8,0:0:0:0:
192,160,132523,1,0,0:0:0:0:
224,160,132623,1,0,0:0:0:0:
480,192,132723,1,8,0:0:0:0:
448,192,132923,1,8,0:0:0:0:
480,160,133123,1,8,0:0:0:0:
384,160,133323,1,8,0:0:0:0:
224,160,133423,1,0,0:0:0:0:
480,192,133523,1,8,0:0:0:0:
448,192,133723,1,8,0:0:0:0:
480,160,133923,1,8,0:0:0:0:
448,128,134123,1,8,0:0:0:0:
224,160,134223,1,0,0:0:0:0:
480,192,134323,1,8,0:0:0:0:
448,192,134523,1,8,0:0:0:0:
384,96,134623,1,8,0:0:0:0:
480,160,134723,1,8,0:0:0:0:
352,160,134923,1,0,0:0:0:0:
352,160,135023,1,0,0:0:0:0:
224,128,135123,1,8,0:0:0:0:
288,160,135323,1,8,0:0:0:0:
288,160,135423,1,8,0:0:0:0:
384,160,135523,1,0,0:0:0:0:
384,160,135723,1,0,0:0:0:0:
384,192,135823,5,8,0:0:0:0:
384,192,135923,1,8,0:0:0:0:
384,192,136123,1,8,0:0:0:0:
352,192,136323,1,8,0:0:0:0:
352,192,136423,1,8,0:0:0:0:
352,192,136523,1,8,0:0:0:0:
352,192,136623,1,8,0:0:0:0:
352,192,136723,1,8,0:0:0:0:
352,192,136823,1,8,0:0:0:0:
352,192,136923,1,8,0:0:0:0:
352,192,137023,1,8,0:0:0:0:
364,157,137923,1,8,0:0:0:0:
481,162,138123,1,0,0:0:0:0:
401,180,138223,1,8,0:0:0:0:
401,180,138423,1,8,0:0:0:0:
251,243,138623,1,8,0:0:0:0:
330,199,138823,1,8,0:0:0:0:
481,162,139023,1,0,0:0:0:0:
401,180,139123,1,8,0:0:0:0:
373,225,139323,1,8,0:0:0:0:
373,225,139523,1,8,0:0:0:0:
481,162,139723,1,0,0:0:0:0:
401,180,139823,1,8,0:0:0:0:
401,180,140023,1,8,0:0:0:0:
475,159,140223,1,0,0:0:0:0:
369,198,140323,1,8,0:0:0:0:
369,198,140423,1,8,0:0:0:0:
369,198,140523,1,8,0:0:0:0:
354,206,140623,1,8,0:0:0:0:
376,229,140723,1,0,0:0:0:0:
219,147,140823,1,0,0:0:0:0:
364,157,141123,1,8,0:0:0:0:
481,162,141323,1,0,0:0:0:0:
401,180,141423,1,8,0:0:0:0:
401,180,141623,1,8,0:0:0:0:
251,243,141823,1,8,0:0:0:0:
330,199,142023,1,8,0:0:0:0:
481,162,142223,1,0,0:0:0:0:
401,180,142323,1,8,0:0:0:0:
373,225,142523,1,8,0:0:0:0:
373,225,142723,1,8,0:0:0:0:
481,162,142923,1,0,0:0:0:0:
401,180,143023,1,8,0:0:0:0:
401,180,143223,1,8,0:0:0:0:
490,176,143423,1,8,0:0:0:0:
419,194,143523,1,0,0:0:0:0:
421,191,143623,1,0,0:0:0:0:
366,220,143723,1,8,0:0:0:0:
375,218,143823,1,0,0:0:0:0:
370,219,143923,1,0,0:0:0:0:
196,174,144023,1,8,0:0:0:0:
364,157,144323,1,8,0:0:0:0:
481,162,144523,1,0,0:0:0:0:
401,180,144623,1,8,0:0:0:0:
401,180,144823,1,8,0:0:0:0:
251,243,145023,1,8,0:0:0:0:
330,199,145223,1,8,0:0:0:0:
481,162,145423,1,0,0:0:0:0:
401,180,145523,1,8,0:0:0:0:
373,225,145723,1,8,0:0:0:0:
373,225,145923,1,8,0:0:0:0:
481,162,146123,1,0,0:0:0:0:
401,180,146223,1,8,0:0:0:0:
401,180,146423,1,8,0:0:0:0:
475,159,146623,1,0,0:0:0:0:
369,198,146723,1,8,0:0:0:0:
369,198,146823,1,8,0:0:0:0:
369,198,146923,1,8,0:0:0:0:
354,206,147023,1,8,0:0:0:0:
376,229,147123,1,0,0:0:0:0:
219,147,147223,1,0,0:0:0:0:
364,157,147523,1,8,0:0:0:0:
481,162,147723,1,0,0:0:0:0:
401,180,147823,1,8,0:0:0:0:
401,180,148023,1,8,0:0:0:0:
251,243,148223,1,8,0:0:0:0:
330,199,148423,1,8,0:0:0:0:
481,162,148623,1,0,0:0:0:0:
401,180,148723,1,8,0:0:0:0:
373,225,148923,1,8,0:0:0:0:
219,135,148989,1,8,0:0:0:0:
219,135,149056,1,8,0:0:0:0:
223,144,149123,1,8,0:0:0:0:
376,174,149323,1,8,0:0:0:0:
367,162,149523,1,8,0:0:0:0:
367,161,149723,1,8,0:0:0:0:
367,156,149923,1,8,0:0:0:0:
367,156,150123,1,8,0:0:0:0:
366,156,150323,1,8,0:0:0:0:
320,192,150723,1,4,0:0:0:0:
384,192,150923,1,8,0:0:0:0:
416,192,151023,1,0,0:0:0:0:
416,192,151223,1,0,0:0:0:0:
416,192,151323,1,8,0:0:0:0:
320,224,151423,1,8,0:0:0:0:
320,288,151523,1,0,0:0:0:0:
384,128,151723,1,0,0:0:0:0:
416,192,151823,1,8,0:0:0:0:
416,192,151923,1,8,0:0:0:0:
448,192,152123,1,0,0:0:0:0:
448,192,152323,1,0,0:0:0:0:
384,192,152523,1,8,0:0:0:0:
416,192,152623,1,0,0:0:0:0:
416,192,152823,1,0,0:0:0:0:
416,192,152923,1,8,0:0:0:0:
320,224,153023,1,8,0:0:0:0:
320,288,153123,1,0,0:0:0:0:
128,96,153323,1,0,0:0:0:0:
512,160,153423,1,8,0:0:0:0:
128,96,153523,1,0,0:0:0:0:
480,160,153623,1,8,0:0:0:0:
480,160,153723,1,8,0:0:0:0:
480,160,153823,1,0,0:0:0:0:
320,192,153923,1,0,0:0:0:0:
384,192,154123,1,8,0:0:0:0:
416,192,154223,1,0,0:0:0:0:
416,192,154423,1,0,0:0:0:0:
416,192,154523,1,8,0:0:0:0:
320,224,154623,1,8,0:0:0:0:
320,288,154723,1,0,0:0:0:0:
384,128,154923,1,0,0:0:0:0:
416,192,155023,1,8,0:0:0:0:
416,192,155123,1,8,0:0:0:0:
448,192,155323,1,0,0:0:0:0:
448,192,155523,1,0,0:0:0:0:
384,192,155723,1,8,0:0:0:0:
416,192,155823,1,0,0:0:0:0:
416,192,156023,1,0,0:0:0:0:
416,192,156123,1,8,0:0:0:0:
320,224,156223,1,8,0:0:0:0:
320,288,156323,1,0,0:0:0:0:
416,128,156523,1,0,0:0:0:0:
416,128,156623,1,0,0:0:0:0:
416,192,156723,1,8,0:0:0:0:
320,192,156823,1,0,0:0:0:0:
384,192,156923,1,8,0:0:0:0:
384,192,157023,1,8,0:0:0:0:
256,160,157123,1,0,0:0:0:0:
416,224,157323,1,8,0:0:0:0:
384,224,157423,1,0,0:0:0:0:
384,224,157523,1,0,0:0:0:0:
384,224,157623,1,0,0:0:0:0:
448,224,157723,1,8,0:0:0:0:
416,192,157823,1,8,0:0:0:0:
416,192,157923,1,0,0:0:0:0:
288,192,158123,1,0,0:0:0:0:
337,209,158223,1,8,0:0:0:0:
316,211,158323,1,8,0:0:0:0:
412,195,158423,1,0,0:0:0:0:
398,176,158523,1,8,0:0:0:0:
463,227,158623,1,0,0:0:0:0:
463,233,158723,1,0,0:0:0:0:
364,191,158923,1,8,0:0:0:0:
315,206,159023,1,0,0:0:0:0:
315,206,159123,1,0,0:0:0:0:
339,181,159223,1,0,0:0:0:0:
357,173,159323,1,8,0:0:0:0:
324,164,159423,1,0,0:0:0:0:
323,166,159523,1,0,0:0:0:0:
337,164,159723,1,0,0:0:0:0:
334,158,159823,1,8,0:0:0:0:
331,149,159923,1,8,0:0:0:0:
331,149,160023,1,0,0:0:0:0:
254,215,160123,1,0,0:0:0:0:
254,215,160223,1,8,0:0:0:0:
254,215,160323,1,0,0:0:0:0:
370,179,160523,1,8,0:0:0:0:
292,188,160623,1,0,0:0:0:0:
292,188,160723,1,0,0:0:0:0:
328,188,160823,1,0,0:0:0:0:
265,239,160923,1,8,0:0:0:0:
265,239,161023,1,8,0:0:0:0:
260,166,161123,1,0,0:0:0:0:
288,192,161323,1,0,0:0:0:0:
337,209,161423,1,8,0:0:0:0:
316,211,161523,1,8,0:0:0:0:
412,195,161623,1,0,0:0:0:0:
398,176,161723,1,8,0:0:0:0:
463,227,161823,1,0,0:0:0:0:
463,233,161923,1,0,0:0:0:0:
364,191,162123,1,8,0:0:0:0:
315,206,162223,1,0,0:0:0:0:
339,181,162423,1,0,0:0:0:0:
357,173,162523,1,8,0:0:0:0:
264,162,162723,1,0,0:0:0:0:
236,171,162823,1,8,0:0:0:0:
257,166,162923,1,0,0:0:0:0:
397,191,163023,1,8,0:0:0:0:
390,183,163223,1,0,0:0:0:0:
248,240,163323,1,8,0:0:0:0:
55,183,163523,1,0,0:0:0:0:
210,81,163694,1,0,0:0:0:0:
257,91,163780,1,0,0:0:0:0:
446,167,163865,1,8,0:0:0:0:
387,181,163951,1,0,0:0:0:0:
390,183,164123,1,0,0:0:0:0:
345,207,164208,1,0,0:0:0:0:
340,180,164380,1,0,0:0:0:0:
337,173,164465,1,0,0:0:0:0:
385,221,164551,1,8,0:0:0:0:
363,172,164637,1,0,0:0:0:0:
390,183,164808,1,0,0:0:0:0:
345,207,164893,1,0,0:0:0:0:
340,180,165065,1,0,0:0:0:0:
337,173,165150,1,0,0:0:0:0:
385,221,165236,1,8,0:0:0:0:
363,172,165322,1,0,0:0:0:0:
306,169,165494,1,0,0:0:0:0:
306,169,165580,1,0,0:0:0:0:
299,168,165665,1,0,0:0:0:0:
140,135,165751,1,8,0:0:0:0:
306,169,165923,1,0,0:0:0:0:
299,168,166008,1,0,0:0:0:0:
140,135,166094,1,8,0:0:0:0:
55,183,166265,1,0,0:0:0:0:
210,81,166436,1,0,0:0:0:0:
257,91,166522,1,0,0:0:0:0:
446,167,166607,1,8,0:0:0:0:
387,181,166693,1,0,0:0:0:0:
390,183,166865,1,0,0:0:0:0:
345,207,166950,1,0,0:0:0:0:
340,180,167122,1,0,0:0:0:0:
337,173,167207,1,0,0:0:0:0:
385,221,167293,1,8,0:0:0:0:
363,172,167379,1,0,0:0:0:0:
390,183,167550,1,0,0:0:0:0:
345,207,167635,1,0,0:0:0:0:
340,180,167807,1,0,0:0:0:0:
337,173,167892,1,0,0:0:0:0:
385,221,167978,1,8,0:0:0:0:
363,172,168064,1,0,0:0:0:0:
306,169,168236,1,0,0:0:0:0:
140,135,168322,1,8,0:0:0:0:
299,168,168407,1,0,0:0:0:0:
306,169,168493,1,0,0:0:0:0:
234,99,168580,1,0,0:0:0:0:
306,169,168665,1,0,0:0:0:0:
290,173,168751,1,8,0:0:0:0:
140,135,168836,1,8,0:0:0:0:
289,170,168923,1,8,0:0:0:0:
337,185,169008,1,0,0:0:0:0:
411,175,169180,1,8,0:0:0:0:
411,175,169265,1,8,0:0:0:0:
405,173,169351,1,8,0:0:0:0:
429,190,169437,1,8,0:0:0:0:
283,188,169522,1,0,0:0:0:0:
324,168,169694,1,8,0:0:0:0:
316,168,169780,1,8,0:0:0:0:
316,168,169865,1,8,0:0:0:0:
428,190,169951,1,8,0:0:0:0:
491,196,170037,1,0,0:0:0:0:
153,127,170208,1,0,0:0:0:0:
372,170,170380,1,8,0:0:0:0:
379,212,170551,1,0,0:0:0:0:
379,212,170637,1,0,0:0:0:0:
379,212,170722,1,0,0:0:0:0:
379,212,170808,1,0,0:0:0:0:
443,155,170894,1,8,0:0:0:0:
379,212,171065,1,0,0:0:0:0:
379,212,171151,1,0,0:0:0:0:
379,212,171236,1,0,0:0:0:0:
379,212,171322,1,0,0:0:0:0:
443,155,171408,1,8,0:0:0:0:
372,213,171580,1,8,0:0:0:0:
181,207,171751,1,0,0:0:0:0:
181,207,171837,1,0,0:0:0:0:
181,207,171922,1,0,0:0:0:0:
218,201,172008,1,0,0:0:0:0:
181,207,172094,1,0,0:0:0:0:
181,207,172180,1,0,0:0:0:0:
181,207,172265,1,0,0:0:0:0:
300,208,172351,1,0,0:0:0:0:
178,198,172437,1,8,0:0:0:0:
177,198,172522,1,8,0:0:0:0:
177,198,172608,1,8,0:0:0:0:
352,181,172694,1,8,0:0:0:0:
177,198,172780,1,8,0:0:0:0:
176,197,172865,1,8,0:0:0:0:
176,197,172951,1,8,0:0:0:0:
256,192,173122,12,0,174151,0:0:0:0:
192,128,174494,5,0,0:0:0:0:
192,128,174569,1,0,0:0:0:0:
192,128,174644,1,0,0:0:0:0:
192,128,174794,1,0,0:0:0:0:
192,128,174869,1,0,0:0:0:0:
192,128,174944,1,0,0:0:0:0:
416,160,175094,1,8,0:0:0:0:
192,192,175244,1,0,0:0:0:0:
192,96,175394,1,8,0:0:0:0:
192,128,175694,5,0,0:0:0:0:
192,128,175769,1,0,0:0:0:0:
192,128,175844,1,0,0:0:0:0:
192,128,175994,1,0,0:0:0:0:
192,128,176069,1,0,0:0:0:0:
192,128,176144,1,0,0:0:0:0:
352,160,176294,1,12,0:0:0:0:
352,160,176594,1,12,0:0:0:0:
448,160,176894,1,8,0:0:0:0:
416,160,176969,1,8,0:0:0:0:
416,160,177044,1,8,0:0:0:0:
288,160,177194,1,0,0:0:0:0:
288,160,177269,1,0,0:0:0:0:
288,160,177344,1,0,0:0:0:0:
288,160,177494,1,0,0:0:0:0:
320,192,177644,1,8,0:0:0:0:
192,160,177794,1,0,0:0:0:0:
256,160,178094,1,0,0:0:0:0:
256,160,178169,1,0,0:0:0:0:
256,160,178244,1,0,0:0:0:0:
256,160,178319,1,0,0:0:0:0:
256,160,178394,1,0,0:0:0:0:
256,160,178544,1,0,0:0:0:0:
256,160,178694,1,8,0:0:0:0:
256,160,178769,1,8,0:0:0:0:
256,160,178844,1,8,0:0:0:0:
256,160,178919,1,8,0:0:0:0:
256,160,178994,1,8,0:0:0:0:
256,160,179144,1,8,0:0:0:0:
256,160,179294,1,0,0:0:0:0:
416,160,179369,1,8,0:0:0:0:
384,160,179444,1,0,0:0:0:0:
384,160,179519,1,8,0:0:0:0:
416,192,179594,1,0,0:0:0:0:
313,140,179744,1,8,0:0:0:0:
352,160,179894,1,0,0:0:0:0:
352,160,180044,1,0,0:0:0:0:
352,160,180194,1,0,0:0:0:0:
256,160,180494,1,0,0:0:0:0:
416,160,180569,1,8,0:0:0:0:
384,160,180644,1,0,0:0:0:0:
384,160,180719,1,8,0:0:0:0:
416,192,180794,1,0,0:0:0:0:
313,139,180944,1,8,0:0:0:0:
352,160,181094,1,0,0:0:0:0:
352,160,181244,1,0,0:0:0:0:
352,160,181394,1,0,0:0:0:0:
224,160,181694,1,0,0:0:0:0:
224,160,181844,1,0,0:0:0:0:
224,160,181994,1,0,0:0:0:0:
224,160,182069,1,0,0:0:0:0:
224,160,182144,1,0,0:0:0:0:
224,192,182219,1,0,0:0:0:0:
224,192,182294,1,0,0:0:0:0:
224,192,182444,1,0,0:0:0:0:
224,192,182594,1,0,0:0:0:0:
224,192,182669,1,0,0:0:0:0:
224,192,182744,1,0,0:0:0:0:
224,192,182819,1,0,0:0:0:0:
224,192,182894,1,0,0:0:0:0:
224,160,183119,1,0,0:0:0:0:
288,192,183344,1,0,0:0:0:0:
288,192,183569,1,8,0:0:0:0:
288,128,183794,1,8,0:0:0:0:
320,160,183944,1,8,0:0:0:0:
224,192,184094,5,4,0:0:0:0:
224,160,184319,1,4,0:0:0:0:
224,160,184544,1,4,0:0:0:0:
224,128,184769,1,4,0:0:0:0:
320,160,184994,1,8,0:0:0:0:
384,224,185144,1,0,0:0:0:0:
224,192,185294,5,4,0:0:0:0:
224,160,185519,1,4,0:0:0:0:
224,160,185744,1,4,0:0:0:0:
224,128,185969,1,12,0:0:0:0:
160,160,186119,1,0,0:0:0:0:
320,160,186194,1,8,0:0:0:0:
384,224,186344,1,0,0:0:0:0:
224,192,186494,5,4,0:0:0:0:
224,160,186719,1,4,0:0:0:0:
224,160,186944,1,4,0:0:0:0:
224,128,187169,1,4,0:0:0:0:
320,160,187394,1,8,0:0:0:0:
384,224,187544,1,0,0:0:0:0:
224,192,187694,5,4,0:0:0:0:
224,160,187919,1,4,0:0:0:0:
224,160,188144,1,4,0:0:0:0:
224,128,188369,1,12,0:0:0:0:
160,160,188519,1,8,0:0:0:0:
320,160,188594,1,8,0:0:0:0:
384,224,188744,1,0,0:0:0:0:
256,160,188894,1,0,0:0:0:0:
416,192,189044,1,8,0:0:0:0:
352,192,189119,1,0,0:0:0:0:
352,192,189269,1,0,0:0:0:0:
352,192,189344,1,8,0:0:0:0:
288,160,189569,1,0,0:0:0:0:
352,192,189644,1,8,0:0:0:0:
352,192,189794,1,8,0:0:0:0:
384,224,189944,1,8,0:0:0:0:
256,160,190094,1,0,0:0:0:0:
416,192,190244,1,8,0:0:0:0:
352,192,190319,1,0,0:0:0:0:
352,192,190469,1,0,0:0:0:0:
352,192,190544,1,8,0:0:0:0:
288,160,190769,1,0,0:0:0:0:
352,192,190844,1,8,0:0:0:0:
352,192,190994,1,0,0:0:0:0:
384,224,191144,1,8,0:0:0:0:
256,160,191294,1,0,0:0:0:0:
416,192,191444,1,8,0:0:0:0:
352,192,191519,1,0,0:0:0:0:
352,192,191669,1,0,0:0:0:0:
352,192,191744,1,8,0:0:0:0:
288,160,191969,1,0,0:0:0:0:
352,192,192044,1,8,0:0:0:0:
352,192,192194,1,8,0:0:0:0:
384,224,192344,1,8,0:0:0:0:
256,224,192494,1,8,0:0:0:0:
256,224,192719,1,8,0:0:0:0:
256,224,192944,1,8,0:0:0:0:
256,224,193094,1,12,0:0:0:0:
256,224,193319,1,12,0:0:0:0:
256,224,193544,1,12,0:0:0:0:
