osu file format v14

[General]
AudioFilename: audio.mp3
AudioLeadIn: 0
PreviewTime: 154912
Countdown: 0
SampleSet: Normal
StackLeniency: 1
Mode: 1
LetterboxInBreaks: 0
WidescreenStoryboard: 0

[Editor]
DistanceSpacing: 1.1
BeatDivisor: 4
GridSize: 32
TimelineZoom: 3.350003

[Metadata]
Title:21st
TitleUnicode:21st
Artist:Lulickma & Loctek
ArtistUnicode:Lulickma & Loctek
Creator:Genjuro
Version:XXI
Source:
Tags:baarcore vol​.​1 breakcore mashcore hardtek hardtech hardcore
BeatmapID:1939863
BeatmapSetID:928753

[Difficulty]
HPDrainRate:4
CircleSize:2
OverallDifficulty:7
ApproachRate:9
SliderMultiplier:1.4
SliderTickRate:1

[Events]
//Background and Video events
0,0,"edgy edit.jpg",0,25
//Break Periods
//Storyboard Layer 0 (Background)
//Storyboard Layer 1 (Fail)
//Storyboard Layer 2 (Pass)
//Storyboard Layer 3 (Foreground)
//Storyboard Sound Samples

[TimingPoints]
112,300,4,1,0,100,1,0
58912,-95.2380952380952,4,1,0,100,0,0
68062,-93.0674087241389,4,1,0,100,0,0
68212,-90.9090909090909,4,1,0,100,0,0
68362,-92.9791447778263,4,1,0,100,0,0
68437,-94.0499311084255,4,1,0,100,0,0
68512,-95.1456680177351,4,1,0,100,0,0
77062,-96.3735593357549,4,1,0,100,0,0
77212,-97.536424977908,4,1,0,100,0,0
77362,-98.7276961793369,4,1,0,100,0,0
77512,-100,4,1,0,100,0,0
77587,-98.7780171498393,4,1,0,100,0,0
77662,-97.5855386038632,4,1,0,100,0,0
77737,-96.4215085530699,4,1,0,100,0,0
77812,-95.2848301786114,4,1,0,100,0,0
77887,-94.1747280233855,4,1,0,100,0,0
77962,-93.090194158218,4,1,0,100,0,0
78037,-92.0303552923896,4,1,0,100,0,0
78112,-90.9943774574169,4,1,0,100,0,0
82612,-83.4049921223985,4,1,0,100,0,0
82912,-90.9943774574169,4,1,0,100,0,0
97162,-88.8888888888889,4,1,0,100,0,0
97312,-86.9565217391304,4,1,0,100,0,0
97462,-90.9090909090909,4,1,0,100,0,0
106912,-86.9565217391304,4,1,0,100,0,0
116812,-93.0204003039907,4,1,0,95,0,0
117262,-96.3780177162072,4,1,0,90,0,0
117487,-98.1492968584373,4,1,0,85,0,0
117712,-99.9870016897803,4,1,0,80,0,0
118012,-102.546958816116,4,1,0,75,0,0
118462,-106.64266495754,4,1,0,70,0,0
118687,-108.815585873996,4,1,0,65,0,0
118912,-111.079021615978,4,1,0,60,0,0
119212,-114.247457708447,4,1,0,55,0,0
119662,-119.354388243115,4,1,0,50,0,0
119887,-122.082830759013,4,1,0,45,0,0
120112,-124.939092192556,4,1,0,40,0,0
120412,-128.961869843943,4,1,0,35,0,0
120862,-135.506679801781,4,1,0,30,0,0
121087,-139.034488895315,4,1,0,25,0,0
121312,-142.751099183464,4,1,0,20,0,0
121612,-141.177134951223,4,1,0,21,0,0
122062,-138.730119973808,4,1,0,22,0,0
122287,-137.537960477092,4,1,0,22,0,0
122512,-136.366301704988,4,1,0,23,0,0
122812,-134.834672466355,4,1,0,24,0,0
123262,-132.600846258601,4,1,0,25,0,0
123487,-131.511461223846,4,1,0,25,0,0
123712,-130.439659917719,4,1,0,26,0,0
124012,-129.037752575271,4,1,0,27,0,0
124462,-126.990254767849,4,1,0,28,0,0
124612,-126.322118876693,4,1,0,28,0,0
124687,-125.990759837674,4,1,0,29,0,0
124837,-125.333072640542,4,1,0,30,0,0
124912,-125.006719111152,4,1,0,31,0,0
125137,-124.038084653512,4,1,0,32,0,0
125212,-123.718584758365,4,1,0,32,0,0
125437,-122.769583590126,4,1,0,33,0,0
125512,-122.456576897832,4,1,0,34,0,0
125587,-122.145162196561,4,1,0,35,0,0
125662,-121.835178933236,4,1,0,35,0,0
125812,-121.220055615762,4,1,0,36,0,0
126037,-120.309001639812,4,1,0,37,0,0
126112,-120.008400588041,4,1,0,38,0,0
126262,-119.411539931219,4,1,0,38,0,0
126412,-118.820586854878,4,1,0,39,0,0
126637,-117.945113062185,4,1,0,40,0,0
126712,-117.656056051345,4,1,0,41,0,0
126787,-117.368550158037,4,1,0,42,0,0
126862,-117.082308863131,4,1,0,42,0,0
127012,-116.514130251146,4,1,0,43,0,0
127162,-115.951439537122,4,1,0,44,0,0
127312,-115.394290752071,4,1,0,45,0,0
127537,-114.568272379193,4,1,0,45,0,0
127612,-114.295641678592,4,1,0,46,0,0
127837,-113.485350743499,4,1,0,47,0,0
127912,-113.217715402364,4,1,0,48,0,0
127987,-112.951467013654,4,1,0,48,0,0
128062,-112.686340950554,4,1,0,49,0,0
128212,-112.159931088938,4,1,0,50,0,0
128362,-111.638541196854,4,1,0,51,0,0
128437,-111.379535792371,4,1,0,52,0,0
128512,-111.121852890224,4,1,0,52,0,0
128662,-110.609925249813,4,1,0,53,0,0
128812,-110.102692781557,4,1,0,54,0,0
129037,-109.35056698269,4,1,0,55,0,0
129112,-109.102057337495,4,1,0,55,0,0
129187,-108.854793148679,4,1,0,56,0,0
129262,-108.608529245019,4,1,0,57,0,0
129412,-108.119562937479,4,1,0,58,0,0
129562,-107.634863793462,4,1,0,58,0,0
129637,-107.39408258605,4,1,0,59,0,0
129712,-107.154491059029,4,1,0,60,0,0
129862,-106.678387065459,4,1,0,61,0,0
130012,-106.206495164418,4,1,0,62,0,0
130237,-105.506489176617,4,1,0,62,0,0
130312,-105.275126014326,4,1,0,63,0,0
130387,-105.044885679651,4,1,0,64,0,0
130462,-104.815650234368,4,1,0,65,0,0
130612,-104.360058900817,4,1,0,65,0,0
130762,-103.908410970234,4,1,0,66,0,0
130837,-103.683996064156,4,1,0,67,0,0
130912,-103.460655464637,4,1,0,68,0,0
131062,-103.016742280955,4,1,0,68,0,0
131212,-102.576622172347,4,1,0,69,0,0
131362,-102.14024672998,4,1,0,70,0,0
131437,-101.923500297617,4,1,0,71,0,0
131512,-101.707671809685,4,1,0,72,0,0
131587,-101.492652439427,4,1,0,72,0,0
131662,-101.278642866186,4,1,0,73,0,0
131812,-100.853218226194,4,1,0,74,0,0
131962,-100.431352659673,4,1,0,75,0,0
132112,-100.01300169022,4,1,0,75,0,0
132262,-99.598121579427,4,1,0,76,0,0
132412,-99.1866693116445,4,1,0,77,0,0
132562,-98.778700151329,4,1,0,78,0,0
132637,-98.5758743433614,4,1,0,78,0,0
132712,-98.3739765417416,4,1,0,79,0,0
132787,-98.1728077030312,4,1,0,80,0,0
132862,-97.9725559276336,4,1,0,81,0,0
133012,-97.5743980391449,4,1,0,82,0,0
133162,-97.1794632583885,4,1,0,82,0,0
133237,-96.9832393565744,4,1,0,83,0,0
133312,-96.7877126063092,4,1,0,84,0,0
133462,-96.3991077298588,4,1,0,85,0,0
133612,-96.013703075703,4,1,0,85,0,0
133762,-95.6312764002092,4,1,0,86,0,0
133837,-95.441157663066,4,1,0,87,0,0
133912,-95.2518840822672,4,1,0,88,0,0
133987,-95.0632693589218,4,1,0,88,0,0
134062,-94.875490150501,4,1,0,89,0,0
134212,-94.50205919987,4,1,0,90,0,0
134362,-94.1315563805664,4,1,0,91,0,0
134437,-93.947436409329,4,1,0,92,0,0
134512,-93.7639473871738,4,1,0,92,0,0
134662,-93.3992856822631,4,1,0,93,0,0
134812,-93.0373628745568,4,1,0,94,0,0
134962,-92.6782341459979,4,1,0,95,0,0
135037,-92.4996646887155,4,1,0,95,0,0
135112,-92.3218672651586,4,1,0,96,0,0
135187,-92.144752033865,4,1,0,97,0,0
135262,-91.968230494458,4,1,0,98,0,0
135412,-91.61729258074,4,1,0,98,0,0
135562,-91.2690227460659,4,1,0,99,0,0
135712,-90.9090909090909,4,1,0,100,0,0
135862,-89.3932256025774,4,1,0,100,0,0
136012,-87.9270838279232,4,1,0,100,0,0
136162,-86.5082585108987,4,1,0,100,0,0
136237,-85.8159162779921,4,1,0,100,0,0
136312,-85.1345679548378,4,1,0,100,0,0
136462,-83.8037517263573,4,1,0,100,0,0
136612,-82.5139015295602,4,1,0,100,0,0
136687,-81.8837185689346,4,1,0,100,0,0
136762,-81.2631544731303,4,1,0,100,0,0
136837,-80.6519256453767,4,1,0,100,0,0
136912,-80,4,1,0,100,0,0
137062,-81.2118760999134,4,1,0,100,0,0
137212,-82.4610330388375,4,1,0,100,0,0
137362,-83.749217991677,4,1,0,100,0,0
137437,-84.4084864292256,4,1,0,100,0,0
137512,-85.078216658485,4,1,0,100,0,0
137587,-85.7587332405996,4,1,0,100,0,0
137662,-86.4501493858581,4,1,0,100,0,0
137737,-87.1528809692098,4,1,0,100,0,0
137812,-87.8670536331709,4,1,0,100,0,0
137887,-88.5931060388605,4,1,0,100,0,0
137962,-89.3311774742503,4,1,0,100,0,0
138112,-90.8449213600938,4,1,0,100,0,0
138412,-90.7726843207432,4,1,0,100,0,0
138487,-90.3242822380912,4,1,0,100,0,0
138562,-89.7470300464082,4,1,0,100,0,0
138712,-88.6142241780366,4,1,0,100,0,0
138787,-88.0585554170101,4,1,0,100,0,0
138862,-87.5097354580697,4,1,0,100,0,0
139012,-86.4324405150336,4,1,0,100,0,0
139087,-85.9036418848977,4,1,0,100,0,0
139162,-85.3812743496722,4,1,0,100,0,0
139237,-84.8652933199133,4,1,0,100,0,0
139312,-84.3554400823309,4,1,0,100,0,0
139462,-83.3539634392846,4,1,0,100,0,0
139537,-82.862055393284,4,1,0,100,0,0
139612,-82.3759192122885,4,1,0,100,0,0
139762,-81.42062710167,4,1,0,100,0,0
139912,-80.4872375411793,4,1,0,100,0,0
139987,-80.0284901424907,4,1,0,100,0,0
140062,-79.5749424872103,4,1,0,100,0,0
140212,-78.6831586567211,4,1,0,100,0,0
140362,-77.811141466102,4,1,0,100,0,0
140512,-76.9581816936495,4,1,0,100,0,0
142912,-83.4158455071808,4,1,0,100,0,0
144112,-91.0072960549247,4,1,0,100,0,0
145312,-100.118841064343,4,1,0,100,0,0
145612,-101.264182048696,4,1,0,100,0,0
145912,-102.560631281198,4,1,0,100,0,0
146062,-103.221437853985,4,1,0,100,0,0
146212,-103.890814909163,4,1,0,100,0,0
146512,-105.25595617142,4,1,0,100,0,0
146812,-106.65745146286,4,1,0,100,0,0
146962,-107.372288715495,4,1,0,100,0,0
147262,-108.830981133061,4,1,0,100,0,0
147412,-109.575351682091,4,1,0,100,0,0
147712,-111.095064046304,4,1,0,100,0,0
148012,-112.657523382069,4,1,0,100,0,0
148312,-114.264428455042,4,1,0,100,0,0
148462,-115.085260915549,4,1,0,100,0,0
148612,-115.917971806431,4,1,0,100,0,0
148912,-117.620075394468,4,1,0,100,0,0
149212,-119.37291022799,4,1,0,100,0,0
149362,-120.269065954353,4,1,0,100,0,0
149512,-121.178631844775,4,1,0,100,0,0
149662,-122.102209317375,4,1,0,100,0,0
149812,-123.039973226502,4,1,0,100,0,0
149887,-123.514277632923,4,1,0,100,0,0
150037,-124.473942002611,4,1,0,100,0,0
150112,-124.959388198835,4,1,0,100,0,0
150412,-122.453277951797,4,1,0,100,0,0
150712,-120.008256568052,4,1,0,100,0,0
151012,-117.659101578632,4,1,0,100,0,0
151312,-115.400016848402,4,1,0,100,0,0
151612,-113.226047878767,4,1,0,100,0,0
151912,-111.132473242079,4,1,0,100,0,0
152212,-109.115033432846,4,1,0,100,0,0
152512,-107.169419849063,4,1,0,100,0,0
152662,-106.222402092156,4,1,0,88,0,0
152812,-105.291974645693,4,1,0,76,0,0
152962,-104.37770533965,4,1,0,64,0,0
153112,-103.479176885235,4,1,0,52,0,0
153262,-102.595986239826,4,1,0,40,0,0
153412,-101.727744004167,4,1,0,100,0,0
153562,-100.8741756058,4,1,0,100,0,0
153637,-86.9565217391304,4,1,0,10,0,0
154912,-90.9090909090909,4,1,0,100,0,0
173512,-100,4,1,0,100,0,0
173662,-96.4215085530699,4,1,0,100,0,0
173812,-93.090194158218,4,1,0,100,0,0
173962,-89.9814638184534,4,1,0,100,0,0
174112,-87.0735789156553,4,1,0,100,0,1
182512,-87.0735789156553,4,1,0,100,0,0
183412,-100,4,1,0,100,0,0
193312,-95.2380952380952,4,1,0,100,0,0
198112,-90.9090909090909,4,1,0,100,0,0
201862,-92.5784486629358,4,1,0,100,0,0
201937,-93.4362876641676,4,1,0,100,0,0
202012,-94.3101729554262,4,1,0,100,0,0
202162,-96.1080100259876,4,1,0,100,0,0
202312,-97.9757235752125,4,1,0,100,0,0
202462,-95.2380952380952,4,1,0,100,0,0
202912,-90.9090909090909,4,1,0,100,0,0
212212,-95.2380952380952,4,1,0,100,0,0
212287,-96.3618580493469,4,1,0,100,0,0
212362,-97.5124572164094,4,1,0,100,0,0
212437,-98.6908656669282,4,1,0,100,0,0
212512,-99.8981039339873,4,1,0,100,0,0
221812,-117.647058823529,4,1,0,100,0,0
222112,-95.2380952380952,4,1,0,100,0,0
235312,-86.9565217391304,4,1,0,100,0,1
243712,-86.9565217391304,4,1,0,100,0,0
244912,-86.9565217391304,4,1,0,100,0,1
254512,-86.9565217391304,4,1,0,100,0,0
255412,-100,4,1,0,100,0,0
256874,-90.9090909090909,4,1,0,50,0,0
257099,-93.0083744740376,4,1,0,45,0,0
257324,-95.2068129995382,4,1,0,40,0,0
257549,-97.5117916134008,4,1,0,30,0,0
257774,-99.9310475771717,4,1,0,20,0,0
258074,-90.9090909090909,4,1,0,50,0,0
258299,-93.0083744740376,4,1,0,45,0,0
258524,-95.2068129995382,4,1,0,40,0,0
258749,-97.5117916134008,4,1,0,30,0,0
258974,-99.9310475771717,4,1,0,20,0,0
259274,-90.8521018633766,4,1,0,50,0,0
261674,-90.9090909090909,4,1,0,50,0,0
261899,-93.0083744740376,4,1,0,45,0,0
262124,-95.2068129995382,4,1,0,40,0,0
262349,-97.5117916134008,4,1,0,30,0,0
262574,-99.9310475771717,4,1,0,20,0,0
262874,-90.9090909090909,4,1,0,50,0,0
263099,-93.0083744740376,4,1,0,45,0,0
263324,-95.2068129995382,4,1,0,40,0,0
263549,-97.5117916134008,4,1,0,30,0,0
263774,-99.9310475771717,4,1,0,20,0,0
264074,-90.8521018633766,4,1,0,50,0,0
266474,-90.9090909090909,4,1,0,50,0,0
266699,-93.0083744740376,4,1,0,45,0,0
266924,-95.2068129995382,4,1,0,40,0,0
267149,-97.5117916134008,4,1,0,30,0,0
267374,-99.9310475771717,4,1,0,20,0,0
267674,-90.9090909090909,4,1,0,50,0,0
267899,-93.0083744740376,4,1,0,45,0,0
268124,-95.2068129995382,4,1,0,40,0,0
268349,-97.5117916134008,4,1,0,30,0,0
268574,-99.9310475771717,4,1,0,20,0,0
268874,-90.8521018633766,4,1,0,50,0,0
271274,-90.9090909090909,4,1,0,50,0,0
271499,-93.0083744740376,4,1,0,45,0,0
271724,-95.2068129995382,4,1,0,40,0,0
271949,-97.5117916134008,4,1,0,30,0,0
272174,-99.9310475771717,4,1,0,20,0,0
272474,-90.9090909090909,4,1,0,50,0,0
272699,-93.0083744740376,4,1,0,45,0,0
272924,-95.2068129995382,4,1,0,40,0,0
273149,-97.5117916134008,4,1,0,30,0,0
273374,-99.9310475771717,4,1,0,20,0,0
273674,-97.5609756097561,4,1,0,80,0,0
273862,-99.9310475771717,4,1,0,80,0,0
292837,-99.7935271922393,4,1,0,60,0,0
293362,-124.677552679383,4,1,0,60,0,0
302437,-110.856264875525,4,1,0,80,0,0
312187,-108.167746541336,4,1,0,80,0,0
312262,-105.376298762882,4,1,0,80,0,0
312337,-102.725407794188,4,1,0,80,0,0
312412,-100.204517420054,4,1,0,100,0,0
314737,-100,4,1,0,60,0,0
314812,-100.770186535692,4,1,0,60,0,0
314962,-102.346812408528,4,1,0,60,0,0
315112,-103.973557444871,4,1,0,60,0,0
315187,-104.806422537573,4,1,0,60,0,0
315262,-105.652738466155,4,1,0,60,0,0
315412,-107.387162938542,4,1,0,60,0,0
315562,-109.179364226726,4,1,0,60,0,0
315637,-110.09820760118,4,1,0,60,0,0
315712,-111.032524757477,4,1,0,100,0,0
315862,-100.204517420054,4,1,0,100,0,0
331012,-100,4,1,0,80,0,0
331087,-97.6095423088561,4,1,0,80,0,0
331162,-95.3307022059524,4,1,0,80,0,0
331237,-93.1559271856011,4,1,0,80,0,0
331312,-91.0780821506086,4,1,0,100,0,1
340912,-91.0780821506086,4,1,0,80,0,0
341212,-100,4,1,0,80,0,0
349912,-90.9090909090909,4,1,0,80,0,0
350512,-105.263157894737,4,1,0,70,0,0
354712,-86.9565217391304,4,1,0,70,0,0
355312,-95.2380952380952,4,1,0,70,0,0
355612,-105.263157894737,4,1,0,70,0,0
360412,-111.111111111111,4,1,0,60,0,0
370312,-111.111111111111,4,1,0,5,0,0

[HitObjects]
160,288,39712,5,4,0:0:0:0:
352,96,39862,1,8,0:0:0:0:
352,96,39937,1,8,0:0:0:0:
160,96,40012,1,0,0:0:0:0:
352,96,40162,1,8,0:0:0:0:
160,96,40312,1,0,0:0:0:0:
160,96,40387,1,0,0:0:0:0:
352,96,40462,1,8,0:0:0:0:
160,96,40612,1,0,0:0:0:0:
352,96,40762,1,8,0:0:0:0:
160,96,40912,1,0,0:0:0:0:
352,96,40987,1,8,0:0:0:0:
160,96,41062,1,0,0:0:0:0:
160,96,41137,1,0,0:0:0:0:
352,96,41212,1,8,0:0:0:0:
352,96,41362,1,8,0:0:0:0:
352,96,41437,1,8,0:0:0:0:
160,96,41512,1,0,0:0:0:0:
160,96,41587,1,0,0:0:0:0:
352,96,41662,1,8,0:0:0:0:
352,96,41737,1,8,0:0:0:0:
160,96,41812,1,0,0:0:0:0:
352,96,41962,1,8,0:0:0:0:
352,96,42037,1,8,0:0:0:0:
352,96,42112,1,8,0:0:0:0:
160,96,42187,1,0,0:0:0:0:
160,96,42337,1,0,0:0:0:0:
352,96,42412,1,8,0:0:0:0:
160,96,42562,1,0,0:0:0:0:
160,96,42637,1,0,0:0:0:0:
352,96,42712,1,8,0:0:0:0:
160,96,42787,1,0,0:0:0:0:
352,96,42862,1,8,0:0:0:0:
352,96,42937,1,8,0:0:0:0:
160,96,43012,1,0,0:0:0:0:
352,96,43162,1,8,0:0:0:0:
160,96,43312,1,0,0:0:0:0:
352,96,43387,1,8,0:0:0:0:
352,96,43462,1,8,0:0:0:0:
160,96,43612,1,0,0:0:0:0:
352,96,43687,1,8,0:0:0:0:
352,96,43762,1,8,0:0:0:0:
160,96,43912,1,0,0:0:0:0:
160,96,44062,1,0,0:0:0:0:
352,96,44212,1,8,0:0:0:0:
160,96,44287,1,0,0:0:0:0:
352,96,44362,1,8,0:0:0:0:
352,96,44437,1,8,0:0:0:0:
160,96,44512,1,0,0:0:0:0:
352,96,44662,1,8,0:0:0:0:
352,96,44737,1,8,0:0:0:0:
160,96,44812,1,0,0:0:0:0:
352,96,44962,1,8,0:0:0:0:
160,96,45112,1,0,0:0:0:0:
160,96,45187,1,0,0:0:0:0:
352,96,45262,1,8,0:0:0:0:
352,96,45337,1,8,0:0:0:0:
160,96,45412,1,0,0:0:0:0:
352,96,45562,1,8,0:0:0:0:
160,96,45712,1,0,0:0:0:0:
352,96,45787,1,8,0:0:0:0:
160,96,45862,1,0,0:0:0:0:
160,96,45937,1,0,0:0:0:0:
352,96,46012,1,8,0:0:0:0:
352,96,46162,1,8,0:0:0:0:
352,96,46237,1,8,0:0:0:0:
160,96,46387,1,0,0:0:0:0:
352,96,46462,1,8,0:0:0:0:
160,96,46612,1,0,0:0:0:0:
352,96,46687,1,8,0:0:0:0:
352,96,46762,1,8,0:0:0:0:
160,96,46837,1,0,0:0:0:0:
352,96,46912,1,8,0:0:0:0:
160,96,47062,1,0,0:0:0:0:
352,96,47137,1,8,0:0:0:0:
160,96,47212,1,0,0:0:0:0:
160,96,47362,1,0,0:0:0:0:
160,96,47437,1,0,0:0:0:0:
352,96,47512,1,8,0:0:0:0:
160,96,47587,1,0,0:0:0:0:
352,96,47662,1,8,0:0:0:0:
352,96,47737,1,8,0:0:0:0:
160,96,47812,1,0,0:0:0:0:
352,96,47962,1,8,0:0:0:0:
160,96,48112,1,0,0:0:0:0:
160,96,48187,1,0,0:0:0:0:
352,96,48262,1,8,0:0:0:0:
160,96,48412,1,0,0:0:0:0:
160,96,48487,1,0,0:0:0:0:
352,96,48562,1,8,0:0:0:0:
160,96,48712,1,0,0:0:0:0:
160,96,48862,1,0,0:0:0:0:
352,96,49012,1,8,0:0:0:0:
352,96,49112,1,8,0:0:0:0:
352,96,49212,1,8,0:0:0:0:
160,288,49312,1,4,0:0:0:0:
352,96,49462,1,8,0:0:0:0:
352,96,49537,1,8,0:0:0:0:
160,96,49612,1,0,0:0:0:0:
352,96,49837,1,8,0:0:0:0:
160,96,49912,1,0,0:0:0:0:
160,96,49987,1,0,0:0:0:0:
352,96,50062,1,8,0:0:0:0:
352,96,50137,1,8,0:0:0:0:
160,96,50212,1,0,0:0:0:0:
160,96,50362,1,0,0:0:0:0:
352,96,50437,1,8,0:0:0:0:
160,96,50512,1,0,0:0:0:0:
352,96,50662,1,8,0:0:0:0:
352,96,50737,1,8,0:0:0:0:
160,96,50812,1,0,0:0:0:0:
160,96,51037,1,0,0:0:0:0:
352,96,51112,1,8,0:0:0:0:
352,96,51187,1,8,0:0:0:0:
160,96,51262,1,0,0:0:0:0:
352,96,51412,1,8,0:0:0:0:
352,96,51562,1,8,0:0:0:0:
160,96,51712,1,0,0:0:0:0:
352,96,51862,1,8,0:0:0:0:
352,96,51937,1,8,0:0:0:0:
160,96,52012,1,0,0:0:0:0:
352,96,52162,1,8,0:0:0:0:
160,96,52312,1,0,0:0:0:0:
160,96,52387,1,0,0:0:0:0:
352,96,52462,1,8,0:0:0:0:
352,96,52537,1,8,0:0:0:0:
160,96,52612,1,0,0:0:0:0:
352,96,52837,1,8,0:0:0:0:
160,96,52912,1,0,0:0:0:0:
352,96,52987,1,8,0:0:0:0:
352,96,53062,1,8,0:0:0:0:
160,96,53137,1,0,0:0:0:0:
352,96,53212,1,8,0:0:0:0:
352,96,53362,1,8,0:0:0:0:
352,96,53437,1,8,0:0:0:0:
160,96,53512,1,0,0:0:0:0:
160,96,53587,1,0,0:0:0:0:
352,96,53662,1,8,0:0:0:0:
352,96,53812,1,8,0:0:0:0:
352,96,53887,1,8,0:0:0:0:
352,96,53962,1,8,0:0:0:0:
352,96,54037,1,8,0:0:0:0:
160,96,54112,1,0,0:0:0:0:
160,96,54262,1,0,0:0:0:0:
352,96,54337,1,8,0:0:0:0:
160,96,54412,1,0,0:0:0:0:
160,96,54637,1,0,0:0:0:0:
352,96,54712,1,8,0:0:0:0:
352,96,54787,1,8,0:0:0:0:
160,96,54862,1,0,0:0:0:0:
352,96,54937,1,8,0:0:0:0:
160,96,55012,1,0,0:0:0:0:
352,96,55162,1,8,0:0:0:0:
352,96,55237,1,8,0:0:0:0:
160,96,55312,1,0,0:0:0:0:
160,96,55462,1,0,0:0:0:0:
352,96,55537,1,8,0:0:0:0:
160,96,55612,1,0,0:0:0:0:
160,96,55837,1,0,0:0:0:0:
352,96,55912,1,8,0:0:0:0:
352,96,55987,1,8,0:0:0:0:
160,96,56062,1,0,0:0:0:0:
160,96,56212,1,0,0:0:0:0:
160,96,56287,1,0,0:0:0:0:
160,96,56437,1,0,0:0:0:0:
352,96,56512,1,8,0:0:0:0:
160,96,56662,1,0,0:0:0:0:
160,96,56737,1,0,0:0:0:0:
352,96,56812,1,8,0:0:0:0:
160,96,56962,1,0,0:0:0:0:
352,96,57112,1,8,0:0:0:0:
352,96,57187,1,8,0:0:0:0:
160,96,57262,1,0,0:0:0:0:
160,96,57337,1,0,0:0:0:0:
352,96,57412,1,8,0:0:0:0:
352,96,57562,1,8,0:0:0:0:
160,96,57712,1,0,0:0:0:0:
160,96,57787,1,0,0:0:0:0:
352,96,57862,1,8,0:0:0:0:
352,96,57937,1,8,0:0:0:0:
160,96,58012,1,0,0:0:0:0:
352,96,58162,1,8,0:0:0:0:
352,96,58312,1,8,0:0:0:0:
160,96,58387,1,0,0:0:0:0:
352,96,58462,1,8,0:0:0:0:
160,96,58612,1,0,0:0:0:0:
160,288,58912,1,4,0:0:0:0:
160,96,59062,1,0,0:0:0:0:
160,96,59137,1,0,0:0:0:0:
352,96,59212,1,8,0:0:0:0:
160,96,59362,1,0,0:0:0:0:
160,96,59437,1,0,0:0:0:0:
352,96,59512,1,8,0:0:0:0:
352,96,59587,1,8,0:0:0:0:
160,96,59662,1,0,0:0:0:0:
352,96,59737,1,8,0:0:0:0:
160,96,59812,1,0,0:0:0:0:
352,96,59962,1,8,0:0:0:0:
352,96,60037,1,8,0:0:0:0:
160,96,60112,1,0,0:0:0:0:
352,96,60187,1,8,0:0:0:0:
160,96,60262,1,0,0:0:0:0:
160,96,60337,1,0,0:0:0:0:
352,96,60412,1,8,0:0:0:0:
160,96,60562,1,0,0:0:0:0:
160,96,60637,1,0,0:0:0:0:
352,96,60712,1,8,0:0:0:0:
160,96,60787,1,0,0:0:0:0:
160,96,60937,1,0,0:0:0:0:
352,96,61012,1,8,0:0:0:0:
160,96,61087,1,0,0:0:0:0:
352,96,61237,1,8,0:0:0:0:
160,96,61312,1,0,0:0:0:0:
160,96,61462,1,0,0:0:0:0:
160,96,61537,1,0,0:0:0:0:
352,96,61612,1,8,0:0:0:0:
352,96,61687,1,8,0:0:0:0:
160,96,61762,1,0,0:0:0:0:
352,96,61912,1,8,0:0:0:0:
352,96,61949,1,8,0:0:0:0:
352,96,62062,1,8,0:0:0:0:
352,96,62099,1,8,0:0:0:0:
160,96,62212,1,0,0:0:0:0:
352,96,62362,1,8,0:0:0:0:
352,96,62437,1,8,0:0:0:0:
160,96,62512,1,0,0:0:0:0:
160,96,62662,1,0,0:0:0:0:
352,96,62737,1,8,0:0:0:0:
352,96,62812,1,8,0:0:0:0:
160,96,62887,1,0,0:0:0:0:
352,96,62962,1,8,0:0:0:0:
160,96,63112,1,0,0:0:0:0:
352,96,63187,1,8,0:0:0:0:
160,96,63262,1,0,0:0:0:0:
352,96,63412,1,8,0:0:0:0:
352,96,63487,1,8,0:0:0:0:
352,96,63562,1,8,0:0:0:0:
352,96,63637,1,8,0:0:0:0:
160,96,63712,1,0,0:0:0:0:
160,96,63862,1,0,0:0:0:0:
160,96,63937,1,0,0:0:0:0:
352,96,64012,1,8,0:0:0:0:
160,96,64162,1,0,0:0:0:0:
352,96,64312,1,8,0:0:0:0:
352,96,64387,1,8,0:0:0:0:
160,96,64462,1,0,0:0:0:0:
352,96,64612,1,8,0:0:0:0:
160,96,64687,1,0,0:0:0:0:
352,96,64837,1,8,0:0:0:0:
160,96,64912,1,0,0:0:0:0:
160,96,65062,1,0,0:0:0:0:
160,96,65137,1,0,0:0:0:0:
352,96,65212,1,8,0:0:0:0:
352,96,65287,1,8,0:0:0:0:
160,96,65362,1,0,0:0:0:0:
160,96,65512,1,0,0:0:0:0:
352,96,65587,1,8,0:0:0:0:
160,96,65662,1,0,0:0:0:0:
352,96,65812,1,8,0:0:0:0:
352,96,65962,1,8,0:0:0:0:
160,96,66112,1,0,0:0:0:0:
160,96,66262,1,0,0:0:0:0:
160,96,66337,1,0,0:0:0:0:
352,96,66412,1,8,0:0:0:0:
352,96,66562,1,8,0:0:0:0:
352,96,66637,1,8,0:0:0:0:
160,96,66712,1,0,0:0:0:0:
352,96,66787,1,8,0:0:0:0:
160,96,66862,1,0,0:0:0:0:
160,96,66937,1,0,0:0:0:0:
352,96,67012,1,8,0:0:0:0:
160,96,67162,1,0,0:0:0:0:
352,96,67312,1,8,0:0:0:0:
160,96,67387,1,0,0:0:0:0:
352,96,67462,1,8,0:0:0:0:
352,96,67537,1,8,0:0:0:0:
160,96,67612,1,0,0:0:0:0:
160,96,67687,1,0,0:0:0:0:
352,96,67762,1,8,0:0:0:0:
160,288,67912,1,4,0:0:0:0:
160,288,68062,1,4,0:0:0:0:
352,288,68212,1,12,0:0:0:0:
352,96,68362,1,8,0:0:0:0:
352,96,68437,1,8,0:0:0:0:
160,96,68512,1,0,0:0:0:0:
160,96,68662,1,0,0:0:0:0:
160,96,68737,1,0,0:0:0:0:
352,96,68812,1,8,0:0:0:0:
352,96,68962,1,8,0:0:0:0:
160,96,69037,1,0,0:0:0:0:
352,96,69112,1,8,0:0:0:0:
352,96,69187,1,8,0:0:0:0:
160,96,69262,1,0,0:0:0:0:
352,96,69337,1,8,0:0:0:0:
352,96,69562,1,8,0:0:0:0:
352,96,69637,1,8,0:0:0:0:
160,96,69712,1,0,0:0:0:0:
352,96,69787,1,8,0:0:0:0:
160,96,69862,1,0,0:0:0:0:
160,96,69937,1,0,0:0:0:0:
352,96,70012,1,8,0:0:0:0:
352,96,70162,1,8,0:0:0:0:
352,96,70237,1,8,0:0:0:0:
352,96,70312,1,8,0:0:0:0:
160,96,70387,1,0,0:0:0:0:
160,96,70537,1,0,0:0:0:0:
352,96,70612,1,8,0:0:0:0:
352,96,70762,1,8,0:0:0:0:
352,96,70837,1,8,0:0:0:0:
160,96,70912,1,0,0:0:0:0:
160,96,71062,1,0,0:0:0:0:
160,96,71137,1,0,0:0:0:0:
352,96,71212,1,8,0:0:0:0:
352,96,71287,1,8,0:0:0:0:
160,96,71362,1,0,0:0:0:0:
352,96,71512,1,8,0:0:0:0:
160,96,71587,1,0,0:0:0:0:
160,96,71662,1,0,0:0:0:0:
352,96,71737,1,8,0:0:0:0:
160,96,71812,1,0,0:0:0:0:
352,96,71962,1,8,0:0:0:0:
160,96,72112,1,0,0:0:0:0:
160,96,72262,1,0,0:0:0:0:
352,96,72337,1,8,0:0:0:0:
160,96,72412,1,0,0:0:0:0:
352,96,72562,1,8,0:0:0:0:
352,96,72637,1,8,0:0:0:0:
160,96,72712,1,0,0:0:0:0:
352,96,72787,1,8,0:0:0:0:
160,96,72937,1,0,0:0:0:0:
352,96,73012,1,8,0:0:0:0:
160,96,73087,1,0,0:0:0:0:
352,96,73162,1,8,0:0:0:0:
352,96,73237,1,8,0:0:0:0:
160,96,73312,1,0,0:0:0:0:
160,96,73462,1,0,0:0:0:0:
160,96,73537,1,0,0:0:0:0:
352,96,73612,1,8,0:0:0:0:
160,96,73762,1,0,0:0:0:0:
352,96,73912,1,8,0:0:0:0:
160,96,73987,1,0,0:0:0:0:
160,96,74062,1,0,0:0:0:0:
352,96,74137,1,8,0:0:0:0:
160,96,74212,1,0,0:0:0:0:
352,96,74412,1,8,0:0:0:0:
352,96,74462,1,8,0:0:0:0:
160,96,74512,1,0,0:0:0:0:
160,96,74662,1,0,0:0:0:0:
160,96,74737,1,0,0:0:0:0:
352,96,74812,1,8,0:0:0:0:
160,96,74962,1,0,0:0:0:0:
352,96,75112,1,8,0:0:0:0:
352,96,75187,1,8,0:0:0:0:
160,96,75262,1,0,0:0:0:0:
352,96,75412,1,8,0:0:0:0:
160,96,75449,1,0,0:0:0:0:
352,96,75562,1,8,0:0:0:0:
352,96,75637,1,8,0:0:0:0:
160,96,75712,1,0,0:0:0:0:
160,96,75862,1,0,0:0:0:0:
160,96,75937,1,0,0:0:0:0:
352,96,76012,1,8,0:0:0:0:
160,96,76162,1,0,0:0:0:0:
352,96,76312,1,8,0:0:0:0:
352,96,76387,1,8,0:0:0:0:
160,96,76462,1,0,0:0:0:0:
352,96,76537,1,8,0:0:0:0:
160,96,76612,1,0,0:0:0:0:
352,96,76837,1,8,0:0:0:0:
160,96,76912,1,0,0:0:0:0:
160,96,77062,1,0,0:0:0:0:
160,96,77212,1,0,0:0:0:0:
160,96,77362,1,0,0:0:0:0:
160,96,77512,1,0,0:0:0:0:
160,96,77587,1,0,0:0:0:0:
160,96,77662,1,0,0:0:0:0:
160,96,77737,1,0,0:0:0:0:
352,96,77812,1,8,0:0:0:0:
352,96,77887,1,8,0:0:0:0:
352,96,77962,1,8,0:0:0:0:
352,96,78037,1,8,0:0:0:0:
160,288,78112,1,4,0:0:0:0:
160,96,78262,1,0,0:0:0:0:
352,96,78337,1,8,0:0:0:0:
160,96,78412,1,0,0:0:0:0:
160,96,78562,1,0,0:0:0:0:
160,96,78637,1,0,0:0:0:0:
352,96,78712,1,8,0:0:0:0:
160,96,78787,1,0,0:0:0:0:
352,96,78862,1,8,0:0:0:0:
352,96,78937,1,8,0:0:0:0:
160,96,79012,1,0,0:0:0:0:
160,96,79087,1,0,0:0:0:0:
352,96,79162,1,8,0:0:0:0:
160,96,79312,1,0,0:0:0:0:
352,96,79387,1,8,0:0:0:0:
352,96,79537,1,8,0:0:0:0:
160,96,79612,1,0,0:0:0:0:
352,96,79762,1,8,0:0:0:0:
352,96,79837,1,8,0:0:0:0:
160,96,79912,1,0,0:0:0:0:
352,96,79987,1,8,0:0:0:0:
160,96,80137,1,0,0:0:0:0:
352,96,80212,1,8,0:0:0:0:
160,96,80287,1,0,0:0:0:0:
352,96,80362,1,8,0:0:0:0:
352,96,80437,1,8,0:0:0:0:
160,96,80512,1,0,0:0:0:0:
160,96,80662,1,0,0:0:0:0:
352,96,80737,1,8,0:0:0:0:
160,96,80812,1,0,0:0:0:0:
352,96,80962,1,8,0:0:0:0:
352,96,81037,1,8,0:0:0:0:
352,96,81112,1,8,0:0:0:0:
160,96,81187,1,0,0:0:0:0:
352,96,81262,1,8,0:0:0:0:
352,96,81337,1,8,0:0:0:0:
160,96,81412,1,0,0:0:0:0:
160,96,81487,1,0,0:0:0:0:
352,96,81562,1,8,0:0:0:0:
352,96,81712,1,8,0:0:0:0:
160,96,81787,1,0,0:0:0:0:
160,96,81862,1,0,0:0:0:0:
352,96,81937,1,8,0:0:0:0:
160,96,82012,1,0,0:0:0:0:
352,96,82162,1,8,0:0:0:0:
160,96,82237,1,0,0:0:0:0:
352,96,82312,1,8,0:0:0:0:
352,96,82387,1,8,0:0:0:0:
160,96,82462,1,0,0:0:0:0:
352,288,82612,1,12,0:0:0:0:
160,96,82912,1,0,0:0:0:0:
352,96,83062,1,8,0:0:0:0:
352,96,83137,1,8,0:0:0:0:
160,96,83212,1,0,0:0:0:0:
160,96,83362,1,0,0:0:0:0:
352,96,83437,1,8,0:0:0:0:
352,96,83512,1,8,0:0:0:0:
160,96,83587,1,0,0:0:0:0:
352,96,83662,1,8,0:0:0:0:
352,96,83737,1,8,0:0:0:0:
160,96,83812,1,0,0:0:0:0:
160,96,83887,1,0,0:0:0:0:
352,96,83962,1,8,0:0:0:0:
160,96,84112,1,0,0:0:0:0:
352,96,84262,1,8,0:0:0:0:
352,96,84337,1,8,0:0:0:0:
160,96,84412,1,0,0:0:0:0:
160,96,84562,1,0,0:0:0:0:
352,96,84637,1,8,0:0:0:0:
352,96,84712,1,8,0:0:0:0:
160,96,84787,1,0,0:0:0:0:
160,96,84937,1,0,0:0:0:0:
352,96,85012,1,8,0:0:0:0:
160,96,85087,1,0,0:0:0:0:
352,96,85237,1,8,0:0:0:0:
160,96,85312,1,0,0:0:0:0:
160,96,85462,1,0,0:0:0:0:
352,96,85612,1,8,0:0:0:0:
160,96,85762,1,0,0:0:0:0:
160,96,85837,1,0,0:0:0:0:
352,96,85912,1,8,0:0:0:0:
160,96,85987,1,0,0:0:0:0:
352,96,86137,1,8,0:0:0:0:
160,96,86212,1,0,0:0:0:0:
352,96,86362,1,8,0:0:0:0:
160,288,86512,1,4,0:0:0:0:
352,96,86662,1,8,0:0:0:0:
160,96,86812,1,0,0:0:0:0:
160,96,86962,1,0,0:0:0:0:
352,96,87112,1,8,0:0:0:0:
352,96,87212,1,8,0:0:0:0:
352,96,87312,1,8,0:0:0:0:
160,96,87412,1,0,0:0:0:0:
352,96,87487,1,8,0:0:0:0:
160,96,87562,1,0,0:0:0:0:
160,96,87637,1,0,0:0:0:0:
352,288,87712,1,12,0:0:0:0:
160,96,87862,1,0,0:0:0:0:
160,96,87937,1,0,0:0:0:0:
352,96,88012,1,8,0:0:0:0:
160,96,88087,1,0,0:0:0:0:
352,96,88162,1,8,0:0:0:0:
352,96,88237,1,8,0:0:0:0:
160,96,88312,1,0,0:0:0:0:
352,96,88387,1,8,0:0:0:0:
160,96,88462,1,0,0:0:0:0:
160,96,88537,1,0,0:0:0:0:
352,96,88612,1,8,0:0:0:0:
352,96,88687,1,8,0:0:0:0:
160,96,88762,1,0,0:0:0:0:
160,96,88912,1,0,0:0:0:0:
352,96,88987,1,8,0:0:0:0:
160,96,89062,1,0,0:0:0:0:
352,96,89137,1,8,0:0:0:0:
352,96,89212,1,8,0:0:0:0:
160,96,89287,1,0,0:0:0:0:
352,96,89362,1,8,0:0:0:0:
352,96,89437,1,8,0:0:0:0:
160,96,89512,1,0,0:0:0:0:
352,96,89587,1,8,0:0:0:0:
160,96,89662,1,0,0:0:0:0:
160,96,89737,1,0,0:0:0:0:
352,96,89812,1,8,0:0:0:0:
160,96,89887,1,0,0:0:0:0:
352,96,90037,1,8,0:0:0:0:
160,96,90112,1,0,0:0:0:0:
160,96,90262,1,0,0:0:0:0:
160,96,90337,1,0,0:0:0:0:
352,96,90412,1,8,0:0:0:0:
352,96,90562,1,8,0:0:0:0:
352,96,90637,1,8,0:0:0:0:
160,96,90712,1,0,0:0:0:0:
352,96,90787,1,8,0:0:0:0:
160,96,90862,1,0,0:0:0:0:
160,96,90937,1,0,0:0:0:0:
352,96,91012,1,8,0:0:0:0:
352,96,91087,1,8,0:0:0:0:
160,96,91162,1,0,0:0:0:0:
160,96,91312,1,0,0:0:0:0:
352,96,91387,1,8,0:0:0:0:
160,96,91462,1,0,0:0:0:0:
352,96,91537,1,8,0:0:0:0:
352,96,91612,1,8,0:0:0:0:
160,96,91762,1,0,0:0:0:0:
160,96,91837,1,0,0:0:0:0:
352,96,91912,1,8,0:0:0:0:
352,96,91987,1,8,0:0:0:0:
160,96,92062,1,0,0:0:0:0:
352,96,92212,1,8,0:0:0:0:
352,96,92287,1,8,0:0:0:0:
352,96,92437,1,8,0:0:0:0:
160,96,92512,1,0,0:0:0:0:
352,96,92662,1,8,0:0:0:0:
352,96,92737,1,8,0:0:0:0:
160,96,92812,1,0,0:0:0:0:
352,96,92887,1,8,0:0:0:0:
160,96,92962,1,0,0:0:0:0:
352,96,93037,1,8,0:0:0:0:
160,96,93112,1,0,0:0:0:0:
352,96,93187,1,8,0:0:0:0:
352,96,93262,1,8,0:0:0:0:
352,96,93337,1,8,0:0:0:0:
160,96,93412,1,0,0:0:0:0:
352,96,93487,1,8,0:0:0:0:
160,96,93562,1,0,0:0:0:0:
160,96,93637,1,0,0:0:0:0:
352,96,93712,1,8,0:0:0:0:
352,96,93787,1,8,0:0:0:0:
160,96,93862,1,0,0:0:0:0:
352,96,93937,1,8,0:0:0:0:
160,96,94012,1,0,0:0:0:0:
352,96,94162,1,8,0:0:0:0:
352,96,94237,1,8,0:0:0:0:
160,96,94312,1,0,0:0:0:0:
352,96,94387,1,8,0:0:0:0:
160,96,94462,1,0,0:0:0:0:
160,96,94537,1,0,0:0:0:0:
352,96,94612,1,8,0:0:0:0:
352,96,94687,1,8,0:0:0:0:
352,96,94837,1,8,0:0:0:0:
160,96,94912,1,0,0:0:0:0:
352,96,94987,1,8,0:0:0:0:
352,96,95062,1,8,0:0:0:0:
352,96,95137,1,8,0:0:0:0:
160,96,95212,1,0,0:0:0:0:
352,96,95287,1,8,0:0:0:0:
160,96,95362,1,0,0:0:0:0:
352,96,95437,1,8,0:0:0:0:
160,96,95512,1,0,0:0:0:0:
160,96,95587,1,0,0:0:0:0:
352,96,95662,1,8,0:0:0:0:
160,96,95737,1,0,0:0:0:0:
352,96,95812,1,8,0:0:0:0:
352,96,95887,1,8,0:0:0:0:
160,96,95962,1,0,0:0:0:0:
352,96,96037,1,8,0:0:0:0:
160,96,96112,1,0,0:0:0:0:
352,96,96262,1,8,0:0:0:0:
352,96,96412,1,8,0:0:0:0:
160,96,96562,1,0,0:0:0:0:
352,96,96637,1,8,0:0:0:0:
160,96,96712,1,0,0:0:0:0:
352,96,96787,1,8,0:0:0:0:
352,96,96824,1,8,0:0:0:0:
160,96,96862,1,0,0:0:0:0:
160,96,96937,1,0,0:0:0:0:
352,96,97012,1,8,0:0:0:0:
352,96,97162,1,8,0:0:0:0:
160,288,97312,1,4,0:0:0:0:
352,96,97462,1,8,0:0:0:0:
160,96,97537,1,0,0:0:0:0:
352,96,97612,1,8,0:0:0:0:
160,96,97762,1,0,0:0:0:0:
352,96,97837,1,8,0:0:0:0:
160,96,97912,1,0,0:0:0:0:
352,96,97987,1,8,0:0:0:0:
160,96,98062,1,0,0:0:0:0:
160,96,98137,1,0,0:0:0:0:
352,96,98212,1,8,0:0:0:0:
352,96,98362,1,8,0:0:0:0:
352,96,98437,1,8,0:0:0:0:
160,96,98512,1,0,0:0:0:0:
160,96,98587,1,0,0:0:0:0:
352,96,98662,1,8,0:0:0:0:
160,96,98737,1,0,0:0:0:0:
352,96,98812,1,8,0:0:0:0:
352,96,98887,1,8,0:0:0:0:
160,96,98962,1,0,0:0:0:0:
352,96,99037,1,8,0:0:0:0:
160,96,99112,1,0,0:0:0:0:
160,96,99262,1,0,0:0:0:0:
160,96,99337,1,0,0:0:0:0:
352,96,99412,1,8,0:0:0:0:
352,96,99637,1,8,0:0:0:0:
160,96,99712,1,0,0:0:0:0:
352,96,99862,1,8,0:0:0:0:
160,96,99937,1,0,0:0:0:0:
352,96,100012,1,8,0:0:0:0:
352,96,100087,1,8,0:0:0:0:
160,96,100162,1,0,0:0:0:0:
352,96,100237,1,8,0:0:0:0:
352,96,100312,1,8,0:0:0:0:
352,96,100387,1,8,0:0:0:0:
160,96,100462,1,0,0:0:0:0:
352,96,100537,1,8,0:0:0:0:
160,96,100612,1,0,0:0:0:0:
160,96,100762,1,0,0:0:0:0:
352,96,100837,1,8,0:0:0:0:
160,96,100912,1,0,0:0:0:0:
352,96,100987,1,8,0:0:0:0:
160,96,101062,1,0,0:0:0:0:
160,96,101137,1,0,0:0:0:0:
352,96,101212,1,8,0:0:0:0:
352,96,101287,1,8,0:0:0:0:
160,96,101362,1,0,0:0:0:0:
352,96,101437,1,8,0:0:0:0:
160,96,101512,1,0,0:0:0:0:
352,96,101662,1,8,0:0:0:0:
352,96,101712,1,8,0:0:0:0:
352,96,101762,1,8,0:0:0:0:
160,96,101812,1,0,0:0:0:0:
352,96,101962,1,8,0:0:0:0:
352,96,102012,1,8,0:0:0:0:
352,96,102062,1,8,0:0:0:0:
160,96,102112,1,0,0:0:0:0:
352,96,102262,1,8,0:0:0:0:
160,96,102337,1,0,0:0:0:0:
352,96,102412,1,8,0:0:0:0:
352,96,102487,1,8,0:0:0:0:
160,96,102562,1,0,0:0:0:0:
352,96,102637,1,8,0:0:0:0:
160,96,102712,1,0,0:0:0:0:
352,96,102787,1,8,0:0:0:0:
160,96,102862,1,0,0:0:0:0:
160,96,102937,1,0,0:0:0:0:
352,96,103012,1,8,0:0:0:0:
352,96,103162,1,8,0:0:0:0:
352,96,103237,1,8,0:0:0:0:
160,96,103312,1,0,0:0:0:0:
160,96,103387,1,0,0:0:0:0:
352,96,103462,1,8,0:0:0:0:
160,96,103537,1,0,0:0:0:0:
352,96,103612,1,8,0:0:0:0:
352,96,103687,1,8,0:0:0:0:
160,96,103762,1,0,0:0:0:0:
160,96,103837,1,0,0:0:0:0:
352,96,103912,1,8,0:0:0:0:
352,96,103987,1,8,0:0:0:0:
160,96,104062,1,0,0:0:0:0:
352,96,104212,1,8,0:0:0:0:
352,96,104437,1,8,0:0:0:0:
160,96,104512,1,0,0:0:0:0:
352,96,104662,1,8,0:0:0:0:
160,96,104737,1,0,0:0:0:0:
352,96,104812,1,8,0:0:0:0:
352,96,104887,1,8,0:0:0:0:
160,96,104962,1,0,0:0:0:0:
352,96,105037,1,8,0:0:0:0:
352,96,105112,1,8,0:0:0:0:
352,96,105187,1,8,0:0:0:0:
160,96,105262,1,0,0:0:0:0:
352,96,105337,1,8,0:0:0:0:
160,96,105412,1,0,0:0:0:0:
352,96,105562,1,8,0:0:0:0:
352,96,105712,1,8,0:0:0:0:
352,96,105762,1,8,0:0:0:0:
160,96,105812,1,0,0:0:0:0:
352,96,105962,1,8,0:0:0:0:
160,96,106012,1,0,0:0:0:0:
160,96,106162,1,0,0:0:0:0:
352,96,106312,1,8,0:0:0:0:
352,96,106387,1,8,0:0:0:0:
160,96,106462,1,0,0:0:0:0:
352,96,106612,1,8,0:0:0:0:
352,96,106649,1,8,0:0:0:0:
160,96,106687,1,0,0:0:0:0:
160,288,106912,1,4,0:0:0:0:
352,96,107062,1,8,0:0:0:0:
352,96,107137,1,8,0:0:0:0:
160,96,107212,1,0,0:0:0:0:
160,96,107287,1,0,0:0:0:0:
352,96,107362,1,8,0:0:0:0:
160,96,107512,1,0,0:0:0:0:
352,96,107587,1,8,0:0:0:0:
160,96,107662,1,0,0:0:0:0:
352,96,107812,1,8,0:0:0:0:
160,96,107887,1,0,0:0:0:0:
352,96,107962,1,8,0:0:0:0:
352,96,108037,1,8,0:0:0:0:
160,96,108112,1,0,0:0:0:0:
352,96,108262,1,8,0:0:0:0:
352,96,108337,1,8,0:0:0:0:
160,96,108412,1,0,0:0:0:0:
160,96,108487,1,0,0:0:0:0:
352,96,108562,1,8,0:0:0:0:
160,96,108712,1,0,0:0:0:0:
352,96,108787,1,8,0:0:0:0:
160,96,108862,1,0,0:0:0:0:
160,96,108937,1,0,0:0:0:0:
352,96,109012,1,8,0:0:0:0:
352,96,109062,1,8,0:0:0:0:
352,96,109112,1,8,0:0:0:0:
160,96,109162,1,0,0:0:0:0:
352,96,109237,1,8,0:0:0:0:
160,96,109312,1,0,0:0:0:0:
352,96,109462,1,8,0:0:0:0:
352,96,109537,1,8,0:0:0:0:
160,96,109612,1,0,0:0:0:0:
160,96,109687,1,0,0:0:0:0:
352,96,109762,1,8,0:0:0:0:
160,96,109912,1,0,0:0:0:0:
352,96,109987,1,8,0:0:0:0:
352,96,110024,1,8,0:0:0:0:
160,96,110062,1,0,0:0:0:0:
160,96,110137,1,0,0:0:0:0:
352,96,110212,1,8,0:0:0:0:
352,96,110362,1,8,0:0:0:0:
352,96,110437,1,8,0:0:0:0:
160,96,110512,1,0,0:0:0:0:
160,96,110662,1,0,0:0:0:0:
160,96,110737,1,0,0:0:0:0:
352,96,110812,1,8,0:0:0:0:
160,96,110962,1,0,0:0:0:0:
160,96,111112,1,0,0:0:0:0:
352,96,111187,1,8,0:0:0:0:
160,96,111262,1,0,0:0:0:0:
160,96,111337,1,0,0:0:0:0:
352,96,111412,1,8,0:0:0:0:
352,96,111487,1,8,0:0:0:0:
352,96,111562,1,8,0:0:0:0:
352,96,111637,1,8,0:0:0:0:
160,96,111712,1,0,0:0:0:0:
160,96,111862,1,0,0:0:0:0:
352,96,111937,1,8,0:0:0:0:
352,96,112012,1,8,0:0:0:0:
160,96,112087,1,0,0:0:0:0:
352,96,112162,1,8,0:0:0:0:
160,96,112312,1,0,0:0:0:0:
160,96,112462,1,0,0:0:0:0:
352,96,112612,1,8,0:0:0:0:
160,96,112762,1,0,0:0:0:0:
352,96,112837,1,8,0:0:0:0:
160,96,112912,1,0,0:0:0:0:
160,96,113062,1,0,0:0:0:0:
352,96,113137,1,8,0:0:0:0:
352,96,113212,1,8,0:0:0:0:
160,96,113287,1,0,0:0:0:0:
352,96,113362,1,8,0:0:0:0:
160,96,113512,1,0,0:0:0:0:
160,96,113662,1,0,0:0:0:0:
352,96,113812,1,8,0:0:0:0:
160,96,113887,1,0,0:0:0:0:
352,96,114037,1,8,0:0:0:0:
160,96,114112,1,0,0:0:0:0:
352,96,114187,1,8,0:0:0:0:
160,96,114262,1,0,0:0:0:0:
160,96,114337,1,0,0:0:0:0:
352,96,114412,1,8,0:0:0:0:
160,96,114562,1,0,0:0:0:0:
352,96,114637,1,8,0:0:0:0:
160,96,114712,1,0,0:0:0:0:
352,96,114862,1,8,0:0:0:0:
352,96,115012,1,8,0:0:0:0:
160,96,115087,1,0,0:0:0:0:
160,96,115312,1,0,0:0:0:0:
352,96,115462,1,8,0:0:0:0:
352,96,115512,1,8,0:0:0:0:
352,96,115562,1,8,0:0:0:0:
160,96,115612,1,0,0:0:0:0:
160,96,115762,1,0,0:0:0:0:
160,96,115812,1,0,0:0:0:0:
160,96,115862,1,0,0:0:0:0:
352,96,115912,1,8,0:0:0:0:
352,96,115987,1,8,0:0:0:0:
160,96,116062,1,0,0:0:0:0:
160,96,116137,1,0,0:0:0:0:
352,96,116212,1,8,0:0:0:0:
352,96,116287,1,8,0:0:0:0:
160,96,116362,1,0,0:0:0:0:
352,96,116437,1,8,0:0:0:0:
160,288,116512,1,4,0:0:0:0:
160,96,116812,1,0,0:0:0:0:
352,96,117262,1,8,0:0:0:0:
352,96,117487,1,8,0:0:0:0:
160,96,117712,1,0,0:0:0:0:
160,96,118012,1,0,0:0:0:0:
352,96,118462,1,8,0:0:0:0:
352,96,118687,1,8,0:0:0:0:
160,96,118912,1,0,0:0:0:0:
160,96,119212,1,0,0:0:0:0:
352,96,119662,1,8,0:0:0:0:
352,96,119887,1,8,0:0:0:0:
160,96,120112,1,0,0:0:0:0:
160,96,120412,1,0,0:0:0:0:
352,96,120862,1,8,0:0:0:0:
352,96,121087,1,8,0:0:0:0:
160,96,121312,1,0,0:0:0:0:
160,96,121612,1,0,0:0:0:0:
352,96,122062,1,8,0:0:0:0:
352,96,122287,1,8,0:0:0:0:
160,96,122512,1,0,0:0:0:0:
160,96,122812,1,0,0:0:0:0:
352,96,123262,1,8,0:0:0:0:
352,96,123487,1,8,0:0:0:0:
160,96,123712,1,0,0:0:0:0:
160,96,124012,1,0,0:0:0:0:
352,96,124462,1,8,0:0:0:0:
352,96,124612,1,8,0:0:0:0:
160,96,124687,1,0,0:0:0:0:
352,96,124837,1,8,0:0:0:0:
160,96,124912,1,0,0:0:0:0:
160,96,125137,1,0,0:0:0:0:
352,96,125212,1,8,0:0:0:0:
160,96,125437,1,0,0:0:0:0:
352,96,125512,1,8,0:0:0:0:
352,96,125587,1,8,0:0:0:0:
160,96,125662,1,0,0:0:0:0:
352,96,125812,1,8,0:0:0:0:
352,96,126037,1,8,0:0:0:0:
160,96,126112,1,0,0:0:0:0:
160,96,126262,1,0,0:0:0:0:
352,96,126412,1,8,0:0:0:0:
160,96,126637,1,0,0:0:0:0:
352,96,126712,1,8,0:0:0:0:
352,96,126787,1,8,0:0:0:0:
160,96,126862,1,0,0:0:0:0:
352,96,127012,1,8,0:0:0:0:
352,96,127162,1,8,0:0:0:0:
160,96,127312,1,0,0:0:0:0:
160,96,127537,1,0,0:0:0:0:
352,96,127612,1,8,0:0:0:0:
160,96,127837,1,0,0:0:0:0:
352,96,127912,1,8,0:0:0:0:
352,96,127987,1,8,0:0:0:0:
160,96,128062,1,0,0:0:0:0:
352,96,128212,1,8,0:0:0:0:
160,96,128362,1,0,0:0:0:0:
352,96,128437,1,8,0:0:0:0:
160,96,128512,1,0,0:0:0:0:
160,96,128662,1,0,0:0:0:0:
352,96,128812,1,8,0:0:0:0:
160,96,129037,1,0,0:0:0:0:
352,96,129112,1,8,0:0:0:0:
352,96,129187,1,8,0:0:0:0:
160,96,129262,1,0,0:0:0:0:
352,96,129412,1,8,0:0:0:0:
352,96,129562,1,8,0:0:0:0:
352,96,129637,1,8,0:0:0:0:
160,96,129712,1,0,0:0:0:0:
160,96,129862,1,0,0:0:0:0:
352,96,130012,1,8,0:0:0:0:
160,96,130237,1,0,0:0:0:0:
352,96,130312,1,8,0:0:0:0:
352,96,130387,1,8,0:0:0:0:
160,96,130462,1,0,0:0:0:0:
352,96,130612,1,8,0:0:0:0:
352,96,130762,1,8,0:0:0:0:
352,96,130837,1,8,0:0:0:0:
160,96,130912,1,0,0:0:0:0:
160,96,131062,1,0,0:0:0:0:
352,96,131212,1,8,0:0:0:0:
160,96,131362,1,0,0:0:0:0:
160,96,131437,1,0,0:0:0:0:
352,96,131512,1,8,0:0:0:0:
352,96,131587,1,8,0:0:0:0:
160,96,131662,1,0,0:0:0:0:
352,96,131812,1,8,0:0:0:0:
352,96,131962,1,8,0:0:0:0:
160,96,132112,1,0,0:0:0:0:
160,96,132262,1,0,0:0:0:0:
352,96,132412,1,8,0:0:0:0:
352,96,132562,1,8,0:0:0:0:
160,96,132637,1,0,0:0:0:0:
352,96,132712,1,8,0:0:0:0:
352,96,132787,1,8,0:0:0:0:
160,96,132862,1,0,0:0:0:0:
352,96,133012,1,8,0:0:0:0:
352,96,133162,1,8,0:0:0:0:
352,96,133237,1,8,0:0:0:0:
160,96,133312,1,0,0:0:0:0:
160,96,133462,1,0,0:0:0:0:
352,96,133612,1,8,0:0:0:0:
160,96,133762,1,0,0:0:0:0:
352,96,133837,1,8,0:0:0:0:
352,96,133912,1,8,0:0:0:0:
352,96,133987,1,8,0:0:0:0:
160,96,134062,1,0,0:0:0:0:
352,96,134212,1,8,0:0:0:0:
352,96,134362,1,8,0:0:0:0:
352,96,134437,1,8,0:0:0:0:
160,96,134512,1,0,0:0:0:0:
160,96,134662,1,0,0:0:0:0:
352,96,134812,1,8,0:0:0:0:
352,96,134962,1,8,0:0:0:0:
160,96,135037,1,0,0:0:0:0:
352,96,135112,1,8,0:0:0:0:
352,96,135187,1,8,0:0:0:0:
160,96,135262,1,0,0:0:0:0:
352,96,135412,1,8,0:0:0:0:
352,96,135562,1,8,0:0:0:0:
160,288,135712,5,4,0:0:0:0:
160,96,135862,1,0,0:0:0:0:
352,96,136012,1,8,0:0:0:0:
160,96,136162,1,0,0:0:0:0:
160,96,136237,1,0,0:0:0:0:
160,96,136312,1,0,0:0:0:0:
352,96,136462,1,8,0:0:0:0:
160,96,136612,1,0,0:0:0:0:
352,96,136687,1,8,0:0:0:0:
160,96,136762,1,0,0:0:0:0:
352,96,136837,1,8,0:0:0:0:
160,96,136912,5,0,0:0:0:0:
160,96,137062,1,0,0:0:0:0:
352,96,137212,1,8,0:0:0:0:
352,96,137362,1,8,0:0:0:0:
160,96,137437,1,0,0:0:0:0:
160,96,137512,1,0,0:0:0:0:
352,96,137587,1,8,0:0:0:0:
160,96,137662,1,0,0:0:0:0:
160,96,137737,1,0,0:0:0:0:
352,96,137812,1,8,0:0:0:0:
352,96,137887,1,8,0:0:0:0:
160,96,137962,1,0,0:0:0:0:
160,96,138112,1,0,0:0:0:0:
352,96,138412,1,8,0:0:0:0:
352,96,138487,1,8,0:0:0:0:
160,96,138562,1,0,0:0:0:0:
352,96,138712,1,8,0:0:0:0:
352,96,138787,1,8,0:0:0:0:
160,96,138862,1,0,0:0:0:0:
352,96,139012,1,8,0:0:0:0:
160,96,139087,1,0,0:0:0:0:
352,96,139162,1,8,0:0:0:0:
352,96,139237,1,8,0:0:0:0:
160,288,139312,1,4,0:0:0:0:
160,96,139462,1,0,0:0:0:0:
160,96,139537,1,0,0:0:0:0:
352,96,139612,1,8,0:0:0:0:
160,288,139762,1,4,0:0:0:0:
160,96,139912,1,0,0:0:0:0:
352,96,139987,1,8,0:0:0:0:
160,96,140062,1,0,0:0:0:0:
352,288,140212,1,12,0:0:0:0:
352,96,140362,1,8,0:0:0:0:
160,288,140512,1,4,0:0:0:0:
160,96,140662,1,0,0:0:0:0:
160,96,140737,1,0,0:0:0:0:
352,96,140812,1,8,0:0:0:0:
160,96,140962,1,0,0:0:0:0:
160,96,141037,1,0,0:0:0:0:
352,96,141112,1,8,0:0:0:0:
352,96,141187,1,8,0:0:0:0:
160,96,141262,1,0,0:0:0:0:
160,96,141412,1,0,0:0:0:0:
352,96,141562,1,8,0:0:0:0:
352,96,141637,1,8,0:0:0:0:
160,96,141712,1,0,0:0:0:0:
160,96,141862,1,0,0:0:0:0:
160,96,142012,1,0,0:0:0:0:
352,96,142162,1,8,0:0:0:0:
352,96,142312,1,8,0:0:0:0:
352,96,142462,1,8,0:0:0:0:
160,96,142612,1,0,0:0:0:0:
352,96,142687,1,8,0:0:0:0:
352,96,142762,1,8,0:0:0:0:
160,96,142912,1,0,0:0:0:0:
352,96,142987,1,8,0:0:0:0:
160,96,143062,1,0,0:0:0:0:
160,96,143137,1,0,0:0:0:0:
352,96,143212,1,8,0:0:0:0:
352,96,143362,1,8,0:0:0:0:
352,96,143437,1,8,0:0:0:0:
160,96,143512,1,0,0:0:0:0:
160,96,143662,1,0,0:0:0:0:
352,96,143737,1,8,0:0:0:0:
352,96,143812,1,8,0:0:0:0:
160,96,143887,1,0,0:0:0:0:
352,96,143962,1,8,0:0:0:0:
160,96,144112,1,0,0:0:0:0:
160,96,144262,1,0,0:0:0:0:
352,96,144412,1,8,0:0:0:0:
160,96,144562,1,0,0:0:0:0:
160,96,144637,1,0,0:0:0:0:
352,96,144712,1,8,0:0:0:0:
160,96,144787,1,0,0:0:0:0:
352,96,144862,1,8,0:0:0:0:
160,96,145012,1,0,0:0:0:0:
352,96,145087,1,8,0:0:0:0:
160,288,145312,1,4,0:0:0:0:
352,96,145612,1,8,0:0:0:0:
160,96,145912,1,0,0:0:0:0:
160,96,146062,1,0,0:0:0:0:
352,96,146212,1,8,0:0:0:0:
160,96,146512,1,0,0:0:0:0:
352,96,146812,1,8,0:0:0:0:
160,96,146962,1,0,0:0:0:0:
160,96,147262,1,0,0:0:0:0:
352,96,147412,1,8,0:0:0:0:
160,96,147712,1,0,0:0:0:0:
352,96,148012,1,8,0:0:0:0:
160,96,148312,1,0,0:0:0:0:
160,96,148462,1,0,0:0:0:0:
352,96,148612,1,8,0:0:0:0:
160,96,148912,1,0,0:0:0:0:
352,96,149212,1,8,0:0:0:0:
160,96,149362,1,0,0:0:0:0:
160,96,149512,1,0,0:0:0:0:
160,96,149662,1,0,0:0:0:0:
352,96,149812,1,8,0:0:0:0:
160,96,149887,1,0,0:0:0:0:
160,96,150037,1,0,0:0:0:0:
352,96,150112,1,8,0:0:0:0:
352,96,150412,1,8,0:0:0:0:
352,96,150712,1,8,0:0:0:0:
352,96,151012,1,8,0:0:0:0:
352,96,151312,1,8,0:0:0:0:
352,96,151612,1,8,0:0:0:0:
352,96,151912,1,8,0:0:0:0:
352,96,152212,1,8,0:0:0:0:
352,96,152512,1,8,0:0:0:0:
352,96,152662,1,8,0:0:0:0:
352,96,152812,1,8,0:0:0:0:
352,96,152962,1,8,0:0:0:0:
160,96,153112,1,0,0:0:0:0:
160,96,153262,1,0,0:0:0:0:
352,96,153412,1,8,0:0:0:0:
352,96,153562,1,8,0:0:0:0:
256,192,153712,8,0,154762,0:0:0:0:
160,288,154912,5,4,0:0:0:0:
352,96,155212,1,8,0:0:0:0:
160,96,155662,1,0,0:0:0:0:
352,96,155812,1,8,0:0:0:0:
160,96,156112,1,0,0:0:0:0:
352,96,156412,1,8,0:0:0:0:
160,96,156862,1,0,0:0:0:0:
352,96,157012,1,8,0:0:0:0:
352,96,157162,1,8,0:0:0:0:
352,96,157237,1,8,0:0:0:0:
160,96,157312,1,0,0:0:0:0:
352,96,157612,1,8,0:0:0:0:
160,96,158062,1,0,0:0:0:0:
352,96,158212,1,8,0:0:0:0:
160,96,158512,1,0,0:0:0:0:
352,96,158812,1,8,0:0:0:0:
160,96,159262,1,0,0:0:0:0:
352,96,159412,1,8,0:0:0:0:
352,96,159562,1,8,0:0:0:0:
160,96,159712,1,0,0:0:0:0:
352,96,160012,1,8,0:0:0:0:
160,96,160462,1,0,0:0:0:0:
352,96,160612,1,8,0:0:0:0:
160,96,160912,1,0,0:0:0:0:
160,96,161062,1,0,0:0:0:0:
352,96,161212,1,8,0:0:0:0:
160,96,161512,1,0,0:0:0:0:
352,96,161737,1,8,0:0:0:0:
160,96,161812,1,0,0:0:0:0:
160,96,162112,1,0,0:0:0:0:
352,96,162412,1,8,0:0:0:0:
160,96,162862,1,0,0:0:0:0:
352,96,163012,1,8,0:0:0:0:
160,96,163312,1,0,0:0:0:0:
160,96,163537,1,0,0:0:0:0:
352,96,163612,1,8,0:0:0:0:
160,96,163762,1,0,0:0:0:0:
160,96,164062,1,0,0:0:0:0:
352,96,164212,1,8,0:0:0:0:
160,288,164512,1,4,0:0:0:0:
352,96,164812,1,8,0:0:0:0:
160,96,165262,1,0,0:0:0:0:
352,96,165412,1,8,0:0:0:0:
160,96,165712,1,0,0:0:0:0:
352,96,166012,1,8,0:0:0:0:
160,96,166462,1,0,0:0:0:0:
352,96,166612,1,8,0:0:0:0:
352,96,166762,1,8,0:0:0:0:
352,96,166837,1,8,0:0:0:0:
160,96,166912,1,0,0:0:0:0:
352,96,167212,1,8,0:0:0:0:
160,96,167662,1,0,0:0:0:0:
352,96,167812,1,8,0:0:0:0:
160,96,168112,1,0,0:0:0:0:
352,96,168412,1,8,0:0:0:0:
160,96,168862,1,0,0:0:0:0:
352,96,169012,1,8,0:0:0:0:
352,96,169162,1,8,0:0:0:0:
160,96,169312,1,0,0:0:0:0:
352,96,169612,1,8,0:0:0:0:
160,96,170062,1,0,0:0:0:0:
352,96,170212,1,8,0:0:0:0:
160,96,170512,1,0,0:0:0:0:
160,96,170662,1,0,0:0:0:0:
352,96,170812,1,8,0:0:0:0:
160,96,171112,1,0,0:0:0:0:
160,96,171337,1,0,0:0:0:0:
352,96,171412,1,8,0:0:0:0:
160,96,171712,1,0,0:0:0:0:
352,96,172012,1,8,0:0:0:0:
160,96,172462,1,0,0:0:0:0:
352,96,172612,1,8,0:0:0:0:
160,288,172912,1,4,0:0:0:0:
160,96,173512,1,0,0:0:0:0:
160,96,173662,1,0,0:0:0:0:
160,96,173812,1,0,0:0:0:0:
160,96,173962,1,0,0:0:0:0:
352,288,174112,1,12,0:0:0:0:
160,96,174262,1,0,0:0:0:0:
352,96,174412,1,8,0:0:0:0:
352,96,174562,1,8,0:0:0:0:
352,96,174637,1,8,0:0:0:0:
160,96,174712,1,0,0:0:0:0:
160,96,174787,1,0,0:0:0:0:
352,96,174862,1,8,0:0:0:0:
352,96,175012,1,8,0:0:0:0:
160,96,175087,1,0,0:0:0:0:
352,96,175162,1,8,0:0:0:0:
352,96,175237,1,8,0:0:0:0:
160,96,175312,1,0,0:0:0:0:
160,96,175387,1,0,0:0:0:0:
352,96,175462,1,8,0:0:0:0:
352,96,175512,1,8,0:0:0:0:
352,96,175562,1,8,0:0:0:0:
160,96,175612,1,0,0:0:0:0:
352,96,175762,1,8,0:0:0:0:
160,96,175837,1,0,0:0:0:0:
352,96,175912,1,8,0:0:0:0:
352,96,175987,1,8,0:0:0:0:
160,96,176062,1,0,0:0:0:0:
352,96,176137,1,8,0:0:0:0:
160,96,176212,1,0,0:0:0:0:
160,96,176362,1,0,0:0:0:0:
160,96,176437,1,0,0:0:0:0:
352,96,176512,1,8,0:0:0:0:
352,96,176587,1,8,0:0:0:0:
160,96,176662,1,0,0:0:0:0:
352,96,176812,1,8,0:0:0:0:
352,96,176887,1,8,0:0:0:0:
160,96,176962,1,0,0:0:0:0:
352,96,177112,1,8,0:0:0:0:
352,96,177187,1,8,0:0:0:0:
160,96,177262,1,0,0:0:0:0:
352,96,177337,1,8,0:0:0:0:
160,96,177412,1,0,0:0:0:0:
160,96,177487,1,0,0:0:0:0:
352,96,177562,1,8,0:0:0:0:
160,96,177637,1,0,0:0:0:0:
352,96,177712,1,8,0:0:0:0:
160,96,177862,1,0,0:0:0:0:
160,96,178012,1,0,0:0:0:0:
160,96,178087,1,0,0:0:0:0:
160,96,178162,1,0,0:0:0:0:
160,96,178237,1,0,0:0:0:0:
352,96,178312,1,8,0:0:0:0:
352,96,178362,1,8,0:0:0:0:
352,96,178412,1,8,0:0:0:0:
160,96,178462,1,0,0:0:0:0:
352,96,178612,1,8,0:0:0:0:
160,96,178662,1,0,0:0:0:0:
160,96,178712,1,0,0:0:0:0:
352,96,178762,1,8,0:0:0:0:
160,288,178912,1,4,0:0:0:0:
160,96,179062,1,0,0:0:0:0:
352,96,179212,1,8,0:0:0:0:
160,96,179362,1,0,0:0:0:0:
160,96,179437,1,0,0:0:0:0:
352,96,179512,1,8,0:0:0:0:
352,96,179587,1,8,0:0:0:0:
160,96,179662,1,0,0:0:0:0:
352,96,179812,1,8,0:0:0:0:
352,96,179862,1,8,0:0:0:0:
160,96,179912,1,0,0:0:0:0:
352,96,179962,1,8,0:0:0:0:
160,96,180012,1,0,0:0:0:0:
160,96,180062,1,0,0:0:0:0:
352,96,180112,1,8,0:0:0:0:
352,96,180262,1,8,0:0:0:0:
160,96,180412,1,0,0:0:0:0:
160,96,180487,1,0,0:0:0:0:
352,96,180562,1,8,0:0:0:0:
352,96,180712,1,8,0:0:0:0:
160,96,180787,1,0,0:0:0:0:
352,96,180862,1,8,0:0:0:0:
352,96,180937,1,8,0:0:0:0:
160,96,181012,1,0,0:0:0:0:
160,96,181162,1,0,0:0:0:0:
352,96,181312,1,8,0:0:0:0:
352,96,181362,1,8,0:0:0:0:
352,96,181412,1,8,0:0:0:0:
160,96,181462,1,0,0:0:0:0:
352,96,181537,1,8,0:0:0:0:
160,96,181612,1,0,0:0:0:0:
160,96,181662,1,0,0:0:0:0:
160,96,181712,1,0,0:0:0:0:
352,96,181762,1,8,0:0:0:0:
352,96,181912,1,8,0:0:0:0:
352,96,181987,1,8,0:0:0:0:
160,96,182062,1,0,0:0:0:0:
352,96,182137,1,8,0:0:0:0:
160,96,182212,1,0,0:0:0:0:
160,96,182287,1,0,0:0:0:0:
352,96,182362,1,8,0:0:0:0:
256,192,182512,8,0,183262,0:0:0:0:
352,96,183412,5,8,0:0:0:0:
352,96,183562,1,8,0:0:0:0:
160,288,183712,1,4,0:0:0:0:
160,96,183862,1,0,0:0:0:0:
160,96,183937,1,0,0:0:0:0:
352,96,184012,1,8,0:0:0:0:
352,96,184162,1,8,0:0:0:0:
352,96,184237,1,8,0:0:0:0:
160,96,184312,1,0,0:0:0:0:
352,96,184387,1,8,0:0:0:0:
160,96,184462,1,0,0:0:0:0:
352,96,184612,1,8,0:0:0:0:
352,96,184762,1,8,0:0:0:0:
352,96,184837,1,8,0:0:0:0:
160,96,184912,1,0,0:0:0:0:
160,96,185062,1,0,0:0:0:0:
352,96,185212,1,8,0:0:0:0:
160,96,185362,1,0,0:0:0:0:
352,96,185437,1,8,0:0:0:0:
160,96,185512,1,0,0:0:0:0:
160,96,185662,1,0,0:0:0:0:
352,96,185812,1,8,0:0:0:0:
352,96,185962,1,8,0:0:0:0:
352,96,186037,1,8,0:0:0:0:
160,96,186112,1,0,0:0:0:0:
160,96,186262,1,0,0:0:0:0:
352,96,186412,1,8,0:0:0:0:
352,96,186562,1,8,0:0:0:0:
352,96,186637,1,8,0:0:0:0:
160,96,186712,1,0,0:0:0:0:
352,96,186787,1,8,0:0:0:0:
160,96,186862,1,0,0:0:0:0:
160,96,186937,1,0,0:0:0:0:
352,96,187012,1,8,0:0:0:0:
160,96,187162,1,0,0:0:0:0:
160,96,187312,1,0,0:0:0:0:
160,96,187387,1,0,0:0:0:0:
352,96,187462,1,8,0:0:0:0:
352,96,187537,1,8,0:0:0:0:
160,96,187612,1,0,0:0:0:0:
352,96,187762,1,8,0:0:0:0:
352,96,187912,1,8,0:0:0:0:
160,96,187987,1,0,0:0:0:0:
352,96,188062,1,8,0:0:0:0:
352,96,188212,1,8,0:0:0:0:
160,96,188287,1,0,0:0:0:0:
352,96,188362,1,8,0:0:0:0:
160,96,188512,1,0,0:0:0:0:
160,96,188662,1,0,0:0:0:0:
352,96,188737,1,8,0:0:0:0:
352,96,188812,1,8,0:0:0:0:
160,96,188962,1,0,0:0:0:0:
352,96,189112,1,8,0:0:0:0:
352,96,189187,1,8,0:0:0:0:
160,96,189262,1,0,0:0:0:0:
352,96,189412,1,8,0:0:0:0:
352,96,189562,1,8,0:0:0:0:
352,96,189637,1,8,0:0:0:0:
160,96,189712,1,0,0:0:0:0:
352,96,189787,1,8,0:0:0:0:
160,96,189862,1,0,0:0:0:0:
160,96,189937,1,0,0:0:0:0:
352,96,190012,1,8,0:0:0:0:
160,96,190162,1,0,0:0:0:0:
352,96,190237,1,8,0:0:0:0:
160,96,190312,1,0,0:0:0:0:
160,96,190462,1,0,0:0:0:0:
352,96,190612,1,8,0:0:0:0:
352,96,190687,1,8,0:0:0:0:
352,96,190762,1,8,0:0:0:0:
160,96,190912,1,0,0:0:0:0:
352,96,191212,1,8,0:0:0:0:
352,96,191362,1,8,0:0:0:0:
160,96,191437,1,0,0:0:0:0:
352,96,191512,1,8,0:0:0:0:
352,96,191587,1,8,0:0:0:0:
160,96,191662,1,0,0:0:0:0:
352,96,191812,1,8,0:0:0:0:
160,96,191962,1,0,0:0:0:0:
352,96,192037,1,8,0:0:0:0:
160,96,192112,1,0,0:0:0:0:
160,96,192262,1,0,0:0:0:0:
352,96,192412,1,8,0:0:0:0:
352,96,192487,1,8,0:0:0:0:
160,96,192562,1,0,0:0:0:0:
352,96,192712,1,8,0:0:0:0:
160,96,192787,1,0,0:0:0:0:
352,96,192862,1,8,0:0:0:0:
160,96,193012,1,0,0:0:0:0:
160,96,193062,1,0,0:0:0:0:
160,96,193112,1,0,0:0:0:0:
352,96,193162,1,8,0:0:0:0:
160,288,193312,1,4,0:0:0:0:
352,96,193612,1,8,0:0:0:0:
160,96,193762,1,0,0:0:0:0:
160,96,193837,1,0,0:0:0:0:
352,96,193912,1,8,0:0:0:0:
352,96,193987,1,8,0:0:0:0:
160,96,194062,1,0,0:0:0:0:
352,96,194212,1,8,0:0:0:0:
352,96,194512,1,8,0:0:0:0:
160,96,194587,1,0,0:0:0:0:
352,96,194662,1,8,0:0:0:0:
352,96,194737,1,8,0:0:0:0:
160,96,194812,1,0,0:0:0:0:
160,96,194962,1,0,0:0:0:0:
352,96,195037,1,8,0:0:0:0:
160,96,195112,1,0,0:0:0:0:
160,96,195262,1,0,0:0:0:0:
352,96,195412,1,8,0:0:0:0:
352,96,195487,1,8,0:0:0:0:
160,96,195562,1,0,0:0:0:0:
160,96,195637,1,0,0:0:0:0:
352,96,195712,1,8,0:0:0:0:
352,96,196012,1,8,0:0:0:0:
160,96,196162,1,0,0:0:0:0:
352,96,196237,1,8,0:0:0:0:
160,96,196312,1,0,0:0:0:0:
160,96,196462,1,0,0:0:0:0:
352,96,196612,1,8,0:0:0:0:
160,96,196912,1,0,0:0:0:0:
352,96,197062,1,8,0:0:0:0:
352,96,197137,1,8,0:0:0:0:
160,96,197212,1,0,0:0:0:0:
160,96,197362,1,0,0:0:0:0:
352,96,197512,1,8,0:0:0:0:
352,96,197662,1,8,0:0:0:0:
160,96,197812,1,0,0:0:0:0:
160,96,198112,1,0,0:0:0:0:
352,96,198187,1,8,0:0:0:0:
352,96,198262,1,8,0:0:0:0:
160,96,198337,1,0,0:0:0:0:
352,96,198412,1,8,0:0:0:0:
352,96,198562,1,8,0:0:0:0:
352,96,198637,1,8,0:0:0:0:
160,96,198712,1,0,0:0:0:0:
352,96,198787,1,8,0:0:0:0:
160,96,198862,1,0,0:0:0:0:
160,96,198937,1,0,0:0:0:0:
352,96,199012,1,8,0:0:0:0:
352,96,199112,1,8,0:0:0:0:
160,96,199212,1,0,0:0:0:0:
352,288,199312,1,12,0:0:0:0:
352,288,199612,1,12,0:0:0:0:
160,288,199912,1,4,0:0:0:0:
352,288,200062,1,12,0:0:0:0:
352,96,200212,1,8,0:0:0:0:
160,96,200312,1,0,0:0:0:0:
352,96,200412,1,8,0:0:0:0:
160,96,200512,1,0,0:0:0:0:
352,96,200587,1,8,0:0:0:0:
160,96,200662,1,0,0:0:0:0:
160,96,200737,1,0,0:0:0:0:
352,96,200812,1,8,0:0:0:0:
352,96,200962,1,8,0:0:0:0:
352,96,201037,1,8,0:0:0:0:
160,96,201112,1,0,0:0:0:0:
352,96,201187,1,8,0:0:0:0:
160,96,201262,1,0,0:0:0:0:
160,96,201337,1,0,0:0:0:0:
352,96,201412,1,8,0:0:0:0:
352,96,201487,1,8,0:0:0:0:
160,96,201562,1,0,0:0:0:0:
160,96,201712,1,0,0:0:0:0:
352,96,201862,1,8,0:0:0:0:
352,96,201937,1,8,0:0:0:0:
160,96,202012,1,0,0:0:0:0:
160,96,202162,1,0,0:0:0:0:
352,96,202312,1,8,0:0:0:0:
352,96,202462,1,8,0:0:0:0:
352,96,202762,1,8,0:0:0:0:
160,288,202912,1,4,0:0:0:0:
160,96,203062,1,0,0:0:0:0:
160,96,203137,1,0,0:0:0:0:
352,96,203212,1,8,0:0:0:0:
352,96,203362,1,8,0:0:0:0:
352,96,203437,1,8,0:0:0:0:
160,96,203512,1,0,0:0:0:0:
352,96,203587,1,8,0:0:0:0:
160,96,203662,1,0,0:0:0:0:
352,96,203812,1,8,0:0:0:0:
352,96,203962,1,8,0:0:0:0:
352,96,204037,1,8,0:0:0:0:
160,96,204112,1,0,0:0:0:0:
160,96,204262,1,0,0:0:0:0:
352,96,204412,1,8,0:0:0:0:
160,96,204562,1,0,0:0:0:0:
352,96,204637,1,8,0:0:0:0:
160,96,204712,1,0,0:0:0:0:
160,96,204862,1,0,0:0:0:0:
352,96,205012,1,8,0:0:0:0:
352,96,205162,1,8,0:0:0:0:
352,96,205237,1,8,0:0:0:0:
160,96,205312,1,0,0:0:0:0:
160,96,205462,1,0,0:0:0:0:
352,96,205612,1,8,0:0:0:0:
352,96,205762,1,8,0:0:0:0:
352,96,205837,1,8,0:0:0:0:
160,96,205912,1,0,0:0:0:0:
352,96,205987,1,8,0:0:0:0:
160,96,206062,1,0,0:0:0:0:
160,96,206137,1,0,0:0:0:0:
352,96,206212,1,8,0:0:0:0:
160,96,206362,1,0,0:0:0:0:
160,96,206512,1,0,0:0:0:0:
160,96,206587,1,0,0:0:0:0:
352,96,206662,1,8,0:0:0:0:
352,96,206737,1,8,0:0:0:0:
160,96,206812,1,0,0:0:0:0:
352,96,206962,1,8,0:0:0:0:
352,96,207112,1,8,0:0:0:0:
352,96,207187,1,8,0:0:0:0:
352,96,207262,1,8,0:0:0:0:
160,96,207337,1,0,0:0:0:0:
352,96,207412,1,8,0:0:0:0:
352,96,207487,1,8,0:0:0:0:
160,96,207562,1,0,0:0:0:0:
160,96,207712,1,0,0:0:0:0:
160,96,207862,1,0,0:0:0:0:
352,96,207937,1,8,0:0:0:0:
352,96,208012,1,8,0:0:0:0:
160,96,208162,1,0,0:0:0:0:
352,96,208312,1,8,0:0:0:0:
352,96,208387,1,8,0:0:0:0:
160,96,208462,1,0,0:0:0:0:
352,96,208612,1,8,0:0:0:0:
352,96,208762,1,8,0:0:0:0:
352,96,208837,1,8,0:0:0:0:
160,96,208912,1,0,0:0:0:0:
352,96,208987,1,8,0:0:0:0:
160,96,209062,1,0,0:0:0:0:
160,96,209137,1,0,0:0:0:0:
352,96,209212,1,8,0:0:0:0:
160,96,209362,1,0,0:0:0:0:
352,96,209437,1,8,0:0:0:0:
160,96,209512,1,0,0:0:0:0:
352,96,209587,1,8,0:0:0:0:
352,96,209662,1,8,0:0:0:0:
160,96,209737,1,0,0:0:0:0:
352,96,209812,1,8,0:0:0:0:
352,96,209887,1,8,0:0:0:0:
160,96,209962,1,0,0:0:0:0:
160,96,210112,1,0,0:0:0:0:
352,96,210187,1,8,0:0:0:0:
352,96,210262,1,8,0:0:0:0:
160,96,210337,1,0,0:0:0:0:
352,96,210412,1,8,0:0:0:0:
160,96,210562,1,0,0:0:0:0:
352,96,210712,1,8,0:0:0:0:
352,96,210787,1,8,0:0:0:0:
160,96,210862,1,0,0:0:0:0:
352,96,211012,1,8,0:0:0:0:
160,96,211162,1,0,0:0:0:0:
256,192,211312,12,0,212062,0:0:0:0:
352,96,212212,5,8,0:0:0:0:
352,96,212287,1,8,0:0:0:0:
352,96,212362,1,8,0:0:0:0:
352,96,212437,1,8,0:0:0:0:
160,288,212512,1,4,0:0:0:0:
160,96,212662,1,0,0:0:0:0:
352,96,212737,1,8,0:0:0:0:
160,96,212812,1,0,0:0:0:0:
352,96,212962,1,8,0:0:0:0:
160,96,213112,1,0,0:0:0:0:
352,96,213262,1,8,0:0:0:0:
352,96,213337,1,8,0:0:0:0:
160,96,213412,1,0,0:0:0:0:
352,96,213562,1,8,0:0:0:0:
160,96,213712,1,0,0:0:0:0:
160,96,213862,1,0,0:0:0:0:
352,96,213937,1,8,0:0:0:0:
160,96,214012,1,0,0:0:0:0:
352,96,214162,1,8,0:0:0:0:
352,96,214312,1,8,0:0:0:0:
160,96,214387,1,0,0:0:0:0:
352,96,214462,1,8,0:0:0:0:
352,96,214537,1,8,0:0:0:0:
160,96,214612,1,0,0:0:0:0:
160,96,214912,1,0,0:0:0:0:
160,96,215062,1,0,0:0:0:0:
352,96,215137,1,8,0:0:0:0:
160,96,215212,1,0,0:0:0:0:
352,96,215362,1,8,0:0:0:0:
160,96,215512,1,0,0:0:0:0:
352,96,215587,1,8,0:0:0:0:
352,96,215737,1,8,0:0:0:0:
160,96,215812,1,0,0:0:0:0:
352,96,215962,1,8,0:0:0:0:
160,96,216112,1,0,0:0:0:0:
160,96,216262,1,0,0:0:0:0:
352,96,216337,1,8,0:0:0:0:
160,96,216412,1,0,0:0:0:0:
160,96,216487,1,0,0:0:0:0:
352,96,216562,1,8,0:0:0:0:
352,96,216712,1,8,0:0:0:0:
352,96,216749,1,8,0:0:0:0:
352,96,216862,1,8,0:0:0:0:
352,96,216899,1,8,0:0:0:0:
160,96,217012,1,0,0:0:0:0:
160,288,217312,1,4,0:0:0:0:
160,96,217462,1,0,0:0:0:0:
352,96,217537,1,8,0:0:0:0:
160,96,217612,1,0,0:0:0:0:
352,96,217762,1,8,0:0:0:0:
160,96,217912,1,0,0:0:0:0:
160,96,217987,1,0,0:0:0:0:
352,96,218062,1,8,0:0:0:0:
352,96,218137,1,8,0:0:0:0:
160,96,218212,1,0,0:0:0:0:
352,96,218362,1,8,0:0:0:0:
160,96,218512,1,0,0:0:0:0:
160,96,218662,1,0,0:0:0:0:
352,96,218737,1,8,0:0:0:0:
160,96,218812,1,0,0:0:0:0:
352,96,218962,1,8,0:0:0:0:
352,96,219112,1,8,0:0:0:0:
160,96,219187,1,0,0:0:0:0:
352,96,219262,1,8,0:0:0:0:
352,96,219337,1,8,0:0:0:0:
160,96,219412,1,0,0:0:0:0:
352,96,219637,1,8,0:0:0:0:
160,96,219712,1,0,0:0:0:0:
160,96,219862,1,0,0:0:0:0:
352,96,219937,1,8,0:0:0:0:
160,96,220012,1,0,0:0:0:0:
352,96,220162,1,8,0:0:0:0:
160,96,220312,1,0,0:0:0:0:
352,96,220387,1,8,0:0:0:0:
352,96,220537,1,8,0:0:0:0:
160,96,220612,1,0,0:0:0:0:
160,96,220687,1,0,0:0:0:0:
352,96,220762,1,8,0:0:0:0:
160,96,220912,1,0,0:0:0:0:
160,96,221062,1,0,0:0:0:0:
352,96,221137,1,8,0:0:0:0:
160,96,221212,1,0,0:0:0:0:
160,96,221287,1,0,0:0:0:0:
352,96,221362,1,8,0:0:0:0:
352,288,221812,1,12,0:0:0:0:
160,288,222112,1,4,0:0:0:0:
160,288,222412,1,4,0:0:0:0:
352,288,223312,1,12,0:0:0:0:
352,288,223612,1,12,0:0:0:0:
160,288,224512,1,4,0:0:0:0:
160,288,224812,1,4,0:0:0:0:
352,288,225712,1,12,0:0:0:0:
160,288,226012,1,4,0:0:0:0:
160,96,226312,1,0,0:0:0:0:
352,96,226462,1,8,0:0:0:0:
352,96,226537,1,8,0:0:0:0:
160,96,226612,1,0,0:0:0:0:
160,288,226912,1,4,0:0:0:0:
160,288,227212,1,4,0:0:0:0:
352,96,227512,1,8,0:0:0:0:
160,96,227812,1,0,0:0:0:0:
352,288,228112,1,12,0:0:0:0:
352,288,228412,1,12,0:0:0:0:
352,96,228712,1,8,0:0:0:0:
160,96,229012,1,0,0:0:0:0:
352,96,229162,1,8,0:0:0:0:
160,288,229312,1,4,0:0:0:0:
160,288,229612,1,4,0:0:0:0:
352,96,229912,1,8,0:0:0:0:
352,96,229987,1,8,0:0:0:0:
352,96,230062,1,8,0:0:0:0:
160,96,230137,1,0,0:0:0:0:
352,96,230212,1,8,0:0:0:0:
352,288,230512,1,12,0:0:0:0:
160,288,230812,1,4,0:0:0:0:
160,96,231112,1,0,0:0:0:0:
352,96,231262,1,8,0:0:0:0:
352,96,231337,1,8,0:0:0:0:
160,96,231412,1,0,0:0:0:0:
352,96,231562,1,8,0:0:0:0:
160,288,231712,1,4,0:0:0:0:
160,288,231862,1,4,0:0:0:0:
160,288,232012,1,4,0:0:0:0:
352,96,232312,1,8,0:0:0:0:
352,288,232912,1,12,0:0:0:0:
160,96,233062,1,0,0:0:0:0:
160,96,233137,1,0,0:0:0:0:
352,288,233212,1,12,0:0:0:0:
160,288,233512,1,4,0:0:0:0:
160,288,233662,1,4,0:0:0:0:
160,288,233812,1,4,0:0:0:0:
160,96,234074,1,0,0:0:0:0:
352,96,234112,1,8,0:0:0:0:
352,96,234412,1,8,0:0:0:0:
160,96,234562,1,0,0:0:0:0:
352,96,234862,1,8,0:0:0:0:
160,96,235012,1,0,0:0:0:0:
160,288,235312,1,4,0:0:0:0:
352,96,235462,1,8,0:0:0:0:
352,96,235537,1,8,0:0:0:0:
160,96,235612,1,0,0:0:0:0:
352,96,235762,1,8,0:0:0:0:
160,96,235912,1,0,0:0:0:0:
352,96,235987,1,8,0:0:0:0:
160,96,236062,1,0,0:0:0:0:
160,96,236137,1,0,0:0:0:0:
352,96,236212,1,8,0:0:0:0:
352,96,236287,1,8,0:0:0:0:
160,96,236362,1,0,0:0:0:0:
160,96,236512,1,0,0:0:0:0:
352,96,236587,1,8,0:0:0:0:
352,96,236662,1,8,0:0:0:0:
160,96,236737,1,0,0:0:0:0:
352,96,236812,1,8,0:0:0:0:
352,96,236962,1,8,0:0:0:0:
352,96,237037,1,8,0:0:0:0:
160,96,237112,1,0,0:0:0:0:
352,96,237187,1,8,0:0:0:0:
160,96,237262,1,0,0:0:0:0:
160,96,237412,1,0,0:0:0:0:
352,96,237562,1,8,0:0:0:0:
352,96,237637,1,8,0:0:0:0:
160,96,237712,1,0,0:0:0:0:
352,96,237862,1,8,0:0:0:0:
160,96,237937,1,0,0:0:0:0:
352,96,238012,1,8,0:0:0:0:
160,96,238162,1,0,0:0:0:0:
352,96,238312,1,8,0:0:0:0:
352,96,238387,1,8,0:0:0:0:
352,96,238462,1,8,0:0:0:0:
160,96,238537,1,0,0:0:0:0:
160,96,238612,1,0,0:0:0:0:
160,96,238687,1,0,0:0:0:0:
352,96,238762,1,8,0:0:0:0:
160,96,238912,1,0,0:0:0:0:
352,96,238987,1,8,0:0:0:0:
160,96,239062,1,0,0:0:0:0:
160,96,239137,1,0,0:0:0:0:
352,96,239212,1,8,0:0:0:0:
352,96,239362,1,8,0:0:0:0:
160,96,239437,1,0,0:0:0:0:
352,96,239512,1,8,0:0:0:0:
160,96,239662,1,0,0:0:0:0:
352,96,239812,1,8,0:0:0:0:
352,96,239887,1,8,0:0:0:0:
352,96,239962,1,8,0:0:0:0:
352,96,240037,1,8,0:0:0:0:
160,96,240112,1,0,0:0:0:0:
160,96,240262,1,0,0:0:0:0:
352,96,240412,1,8,0:0:0:0:
160,96,240487,1,0,0:0:0:0:
160,96,240637,1,0,0:0:0:0:
352,96,240712,1,8,0:0:0:0:
160,96,240787,1,0,0:0:0:0:
352,96,240862,1,8,0:0:0:0:
352,96,240937,1,8,0:0:0:0:
160,96,241012,1,0,0:0:0:0:
160,96,241087,1,0,0:0:0:0:
160,96,241162,1,0,0:0:0:0:
160,96,241237,1,0,0:0:0:0:
352,96,241312,1,8,0:0:0:0:
352,96,241462,1,8,0:0:0:0:
352,96,241612,1,8,0:0:0:0:
160,96,241687,1,0,0:0:0:0:
160,96,241762,1,0,0:0:0:0:
352,96,241837,1,8,0:0:0:0:
160,96,241912,1,0,0:0:0:0:
352,96,242062,1,8,0:0:0:0:
352,96,242137,1,8,0:0:0:0:
160,96,242212,1,0,0:0:0:0:
160,96,242362,1,0,0:0:0:0:
352,96,242512,1,8,0:0:0:0:
352,96,242662,1,8,0:0:0:0:
160,96,242737,1,0,0:0:0:0:
352,96,242812,1,8,0:0:0:0:
352,96,242962,1,8,0:0:0:0:
352,96,243037,1,8,0:0:0:0:
160,96,243112,1,0,0:0:0:0:
352,96,243262,1,8,0:0:0:0:
160,96,243337,1,0,0:0:0:0:
352,96,243412,1,8,0:0:0:0:
352,96,243562,1,8,0:0:0:0:
352,96,243637,1,8,0:0:0:0:
160,96,243712,1,0,0:0:0:0:
160,96,243787,1,0,0:0:0:0:
160,96,243862,1,0,0:0:0:0:
160,96,243937,1,0,0:0:0:0:
352,96,244012,1,8,0:0:0:0:
160,96,244162,1,0,0:0:0:0:
352,96,244312,1,8,0:0:0:0:
160,96,244612,1,0,0:0:0:0:
352,96,244762,1,8,0:0:0:0:
352,96,244837,1,8,0:0:0:0:
160,96,244912,1,0,0:0:0:0:
352,96,244987,1,8,0:0:0:0:
352,96,245062,1,8,0:0:0:0:
352,96,245137,1,8,0:0:0:0:
160,96,245212,1,0,0:0:0:0:
160,96,245362,1,0,0:0:0:0:
352,96,245512,1,8,0:0:0:0:
160,96,245587,1,0,0:0:0:0:
352,96,245662,1,8,0:0:0:0:
160,96,245812,1,0,0:0:0:0:
160,96,245962,1,0,0:0:0:0:
352,96,246037,1,8,0:0:0:0:
352,96,246112,1,8,0:0:0:0:
352,96,246262,1,8,0:0:0:0:
352,96,246337,1,8,0:0:0:0:
160,96,246412,1,0,0:0:0:0:
160,96,246562,1,0,0:0:0:0:
352,96,246712,1,8,0:0:0:0:
160,96,246787,1,0,0:0:0:0:
160,96,246862,1,0,0:0:0:0:
352,96,246937,1,8,0:0:0:0:
352,96,247012,1,8,0:0:0:0:
160,96,247162,1,0,0:0:0:0:
352,96,247312,1,8,0:0:0:0:
352,96,247387,1,8,0:0:0:0:
352,96,247462,1,8,0:0:0:0:
160,96,247612,1,0,0:0:0:0:
352,96,247762,1,8,0:0:0:0:
160,96,247837,1,0,0:0:0:0:
352,96,247912,1,8,0:0:0:0:
352,96,248062,1,8,0:0:0:0:
352,96,248137,1,8,0:0:0:0:
160,96,248212,1,0,0:0:0:0:
160,96,248362,1,0,0:0:0:0:
352,96,248512,1,8,0:0:0:0:
352,96,248587,1,8,0:0:0:0:
160,96,248662,1,0,0:0:0:0:
160,96,248737,1,0,0:0:0:0:
160,96,248812,1,0,0:0:0:0:
352,96,248887,1,8,0:0:0:0:
352,96,249037,1,8,0:0:0:0:
352,96,249112,1,8,0:0:0:0:
160,96,249187,1,0,0:0:0:0:
352,96,249262,1,8,0:0:0:0:
352,96,249337,1,8,0:0:0:0:
160,96,249412,1,0,0:0:0:0:
160,96,249562,1,0,0:0:0:0:
352,96,249712,1,8,0:0:0:0:
352,96,249787,1,8,0:0:0:0:
160,96,249862,1,0,0:0:0:0:
352,96,249937,1,8,0:0:0:0:
160,96,250012,1,0,0:0:0:0:
352,96,250162,1,8,0:0:0:0:
352,96,250237,1,8,0:0:0:0:
160,96,250312,1,0,0:0:0:0:
160,96,250387,1,0,0:0:0:0:
352,96,250462,1,8,0:0:0:0:
160,96,250612,1,0,0:0:0:0:
160,96,250687,1,0,0:0:0:0:
352,96,250762,1,8,0:0:0:0:
352,96,250837,1,8,0:0:0:0:
160,96,250912,1,0,0:0:0:0:
352,96,250987,1,8,0:0:0:0:
160,96,251062,1,0,0:0:0:0:
160,96,251137,1,0,0:0:0:0:
352,96,251212,1,8,0:0:0:0:
160,96,251287,1,0,0:0:0:0:
160,96,251437,1,0,0:0:0:0:
352,96,251512,1,8,0:0:0:0:
160,96,251587,1,0,0:0:0:0:
160,96,251737,1,0,0:0:0:0:
352,96,251812,1,8,0:0:0:0:
352,96,251887,1,8,0:0:0:0:
160,96,251962,1,0,0:0:0:0:
160,96,252037,1,0,0:0:0:0:
352,96,252112,1,8,0:0:0:0:
352,96,252149,1,8,0:0:0:0:
352,96,252187,1,8,0:0:0:0:
160,96,252262,1,0,0:0:0:0:
352,96,252412,1,8,0:0:0:0:
160,96,252487,1,0,0:0:0:0:
352,96,252562,1,8,0:0:0:0:
352,96,252637,1,8,0:0:0:0:
160,96,252712,1,0,0:0:0:0:
352,96,252862,1,8,0:0:0:0:
352,96,252937,1,8,0:0:0:0:
160,96,253012,1,0,0:0:0:0:
352,96,253087,1,8,0:0:0:0:
352,96,253237,1,8,0:0:0:0:
160,96,253312,1,0,0:0:0:0:
160,96,253362,1,0,0:0:0:0:
160,96,253412,1,0,0:0:0:0:
352,96,253462,1,8,0:0:0:0:
352,96,253537,1,8,0:0:0:0:
160,96,253612,1,0,0:0:0:0:
352,96,253762,1,8,0:0:0:0:
352,96,253912,1,8,0:0:0:0:
352,96,253949,1,8,0:0:0:0:
352,96,253987,1,8,0:0:0:0:
160,96,254062,1,0,0:0:0:0:
352,96,254137,1,8,0:0:0:0:
160,96,254212,1,0,0:0:0:0:
160,96,254287,1,0,0:0:0:0:
352,96,254362,1,8,0:0:0:0:
352,96,254437,1,8,0:0:0:0:
160,288,254512,1,4,0:0:0:0:
352,96,255412,1,8,0:0:0:0:
352,96,256312,1,8,0:0:0:0:
352,96,256912,1,8,0:0:0:0:
352,96,257137,1,8,0:0:0:0:
352,96,257362,1,8,0:0:0:0:
352,96,257587,1,8,0:0:0:0:
352,96,257812,1,8,0:0:0:0:
160,96,258112,1,0,0:0:0:0:
160,96,258337,1,0,0:0:0:0:
160,96,258562,1,0,0:0:0:0:
160,96,258787,1,0,0:0:0:0:
160,96,259012,1,0,0:0:0:0:
160,96,259312,1,0,0:0:0:0:
352,96,261712,1,8,0:0:0:0:
352,96,261937,1,8,0:0:0:0:
352,96,262162,1,8,0:0:0:0:
352,96,262387,1,8,0:0:0:0:
352,96,262612,1,8,0:0:0:0:
160,96,262912,1,0,0:0:0:0:
160,96,263137,1,0,0:0:0:0:
160,96,263362,1,0,0:0:0:0:
160,96,263587,1,0,0:0:0:0:
160,96,263812,1,0,0:0:0:0:
160,96,264112,1,0,0:0:0:0:
352,96,266512,1,8,0:0:0:0:
352,96,266737,1,8,0:0:0:0:
352,96,266962,1,8,0:0:0:0:
352,96,267187,1,8,0:0:0:0:
352,96,267412,1,8,0:0:0:0:
160,96,267712,1,0,0:0:0:0:
160,96,267937,1,0,0:0:0:0:
160,96,268162,1,0,0:0:0:0:
160,96,268387,1,0,0:0:0:0:
160,96,268612,1,0,0:0:0:0:
160,96,268912,1,0,0:0:0:0:
352,96,271312,1,8,0:0:0:0:
352,96,271537,1,8,0:0:0:0:
352,96,271762,1,8,0:0:0:0:
352,96,271987,1,8,0:0:0:0:
352,96,272212,1,8,0:0:0:0:
160,96,272512,1,0,0:0:0:0:
160,96,272737,1,0,0:0:0:0:
160,96,272962,1,0,0:0:0:0:
160,96,273187,1,0,0:0:0:0:
160,96,273412,1,0,0:0:0:0:
160,288,273712,1,4,0:0:0:0:
352,96,273862,1,8,0:0:0:0:
352,96,273937,1,8,0:0:0:0:
160,96,274012,1,0,0:0:0:0:
160,96,274162,1,0,0:0:0:0:
352,96,274237,1,8,0:0:0:0:
352,96,274312,1,8,0:0:0:0:
160,96,274387,1,0,0:0:0:0:
160,96,274537,1,0,0:0:0:0:
352,96,274612,1,8,0:0:0:0:
160,96,274687,1,0,0:0:0:0:
352,96,274837,1,8,0:0:0:0:
160,96,274912,1,0,0:0:0:0:
352,96,275062,1,8,0:0:0:0:
352,96,275137,1,8,0:0:0:0:
160,96,275212,1,0,0:0:0:0:
160,96,275362,1,0,0:0:0:0:
352,96,275512,1,8,0:0:0:0:
160,96,275587,1,0,0:0:0:0:
160,96,275737,1,0,0:0:0:0:
352,96,275812,1,8,0:0:0:0:
160,96,275962,1,0,0:0:0:0:
352,96,276012,1,8,0:0:0:0:
352,96,276062,1,8,0:0:0:0:
160,96,276112,1,0,0:0:0:0:
160,96,276262,1,0,0:0:0:0:
352,96,276362,1,8,0:0:0:0:
160,96,276412,1,0,0:0:0:0:
160,96,276562,1,0,0:0:0:0:
352,96,276662,1,8,0:0:0:0:
160,96,276712,1,0,0:0:0:0:
160,96,276862,1,0,0:0:0:0:
352,96,277012,1,8,0:0:0:0:
160,96,277087,1,0,0:0:0:0:
352,96,277162,1,8,0:0:0:0:
352,96,277237,1,8,0:0:0:0:
160,96,277312,1,0,0:0:0:0:
160,96,277462,1,0,0:0:0:0:
352,96,277537,1,8,0:0:0:0:
160,96,277612,1,0,0:0:0:0:
160,96,277762,1,0,0:0:0:0:
352,96,277912,1,8,0:0:0:0:
352,96,277949,1,8,0:0:0:0:
352,96,278062,1,8,0:0:0:0:
352,96,278099,1,8,0:0:0:0:
160,96,278212,1,0,0:0:0:0:
160,96,278512,1,0,0:0:0:0:
352,96,278662,1,8,0:0:0:0:
352,96,278737,1,8,0:0:0:0:
160,96,278812,1,0,0:0:0:0:
160,96,278962,1,0,0:0:0:0:
352,96,279037,1,8,0:0:0:0:
352,96,279112,1,8,0:0:0:0:
160,96,279187,1,0,0:0:0:0:
160,96,279337,1,0,0:0:0:0:
352,96,279412,1,8,0:0:0:0:
160,96,279487,1,0,0:0:0:0:
352,96,279637,1,8,0:0:0:0:
160,96,279712,1,0,0:0:0:0:
352,96,279862,1,8,0:0:0:0:
352,96,279937,1,8,0:0:0:0:
160,96,280012,1,0,0:0:0:0:
160,96,280162,1,0,0:0:0:0:
352,288,280312,1,12,0:0:0:0:
160,96,280612,1,0,0:0:0:0:
160,96,280762,1,0,0:0:0:0:
352,96,280812,1,8,0:0:0:0:
352,96,280862,1,8,0:0:0:0:
160,96,280912,1,0,0:0:0:0:
160,96,281062,1,0,0:0:0:0:
352,96,281212,1,8,0:0:0:0:
160,96,281287,1,0,0:0:0:0:
352,96,281362,1,8,0:0:0:0:
160,96,281512,1,0,0:0:0:0:
352,96,281587,1,8,0:0:0:0:
352,96,281737,1,8,0:0:0:0:
160,96,281812,1,0,0:0:0:0:
160,96,281887,1,0,0:0:0:0:
352,96,281962,1,8,0:0:0:0:
352,96,282037,1,8,0:0:0:0:
160,96,282112,1,0,0:0:0:0:
160,96,282262,1,0,0:0:0:0:
352,96,282337,1,8,0:0:0:0:
160,96,282412,1,0,0:0:0:0:
160,96,282562,1,0,0:0:0:0:
352,96,282712,1,8,0:0:0:0:
352,96,282862,1,8,0:0:0:0:
160,96,283012,1,0,0:0:0:0:
352,96,283162,1,8,0:0:0:0:
160,96,283237,1,0,0:0:0:0:
160,96,283312,1,0,0:0:0:0:
352,96,283462,1,8,0:0:0:0:
352,96,283537,1,8,0:0:0:0:
160,96,283612,1,0,0:0:0:0:
160,96,283762,1,0,0:0:0:0:
352,96,283837,1,8,0:0:0:0:
352,96,283912,1,8,0:0:0:0:
160,96,283987,1,0,0:0:0:0:
160,96,284137,1,0,0:0:0:0:
352,96,284212,1,8,0:0:0:0:
160,96,284287,1,0,0:0:0:0:
352,96,284437,1,8,0:0:0:0:
160,96,284512,1,0,0:0:0:0:
352,96,284662,1,8,0:0:0:0:
352,96,284737,1,8,0:0:0:0:
160,96,284812,1,0,0:0:0:0:
160,96,284962,1,0,0:0:0:0:
352,96,285112,1,8,0:0:0:0:
352,96,285187,1,8,0:0:0:0:
160,96,285262,1,0,0:0:0:0:
160,96,285337,1,0,0:0:0:0:
352,96,285412,1,8,0:0:0:0:
160,96,285562,1,0,0:0:0:0:
352,96,285612,1,8,0:0:0:0:
352,96,285662,1,8,0:0:0:0:
160,96,285712,1,0,0:0:0:0:
160,96,285862,1,0,0:0:0:0:
352,96,285937,1,8,0:0:0:0:
160,96,286012,1,0,0:0:0:0:
352,96,286162,1,8,0:0:0:0:
160,96,286237,1,0,0:0:0:0:
352,96,286312,1,8,0:0:0:0:
160,96,286462,1,0,0:0:0:0:
352,96,286537,1,8,0:0:0:0:
160,96,286612,1,0,0:0:0:0:
160,96,286687,1,0,0:0:0:0:
352,96,286762,1,8,0:0:0:0:
352,96,286837,1,8,0:0:0:0:
160,96,286912,1,0,0:0:0:0:
160,96,287062,1,0,0:0:0:0:
352,96,287137,1,8,0:0:0:0:
160,96,287212,1,0,0:0:0:0:
160,96,287362,1,0,0:0:0:0:
352,96,287512,1,8,0:0:0:0:
160,96,287587,1,0,0:0:0:0:
352,96,287662,1,8,0:0:0:0:
160,96,287812,1,0,0:0:0:0:
160,96,288112,1,0,0:0:0:0:
352,96,288262,1,8,0:0:0:0:
352,96,288337,1,8,0:0:0:0:
160,96,288412,1,0,0:0:0:0:
160,96,288562,1,0,0:0:0:0:
352,96,288637,1,8,0:0:0:0:
352,96,288712,1,8,0:0:0:0:
160,96,288787,1,0,0:0:0:0:
352,96,288862,1,8,0:0:0:0:
160,96,288937,1,0,0:0:0:0:
160,96,289012,1,0,0:0:0:0:
352,96,289087,1,8,0:0:0:0:
352,96,289237,1,8,0:0:0:0:
160,96,289312,1,0,0:0:0:0:
352,96,289462,1,8,0:0:0:0:
352,96,289537,1,8,0:0:0:0:
160,96,289612,1,0,0:0:0:0:
160,96,289762,1,0,0:0:0:0:
352,96,289912,1,8,0:0:0:0:
160,96,290062,1,0,0:0:0:0:
352,96,290137,1,8,0:0:0:0:
160,96,290212,1,0,0:0:0:0:
160,96,290362,1,0,0:0:0:0:
352,96,290412,1,8,0:0:0:0:
352,96,290462,1,8,0:0:0:0:
160,96,290512,1,0,0:0:0:0:
160,96,290662,1,0,0:0:0:0:
352,96,290812,1,8,0:0:0:0:
160,96,290887,1,0,0:0:0:0:
352,96,290962,1,8,0:0:0:0:
160,96,291037,1,0,0:0:0:0:
160,96,291112,1,0,0:0:0:0:
352,96,291187,1,8,0:0:0:0:
352,96,291337,1,8,0:0:0:0:
160,96,291412,1,0,0:0:0:0:
160,96,291487,1,0,0:0:0:0:
352,96,291562,1,8,0:0:0:0:
352,96,291637,1,8,0:0:0:0:
160,96,291712,1,0,0:0:0:0:
160,96,291862,1,0,0:0:0:0:
352,96,291937,1,8,0:0:0:0:
160,96,292012,1,0,0:0:0:0:
160,96,292162,1,0,0:0:0:0:
352,96,292312,1,8,0:0:0:0:
352,96,292462,1,8,0:0:0:0:
160,96,292612,1,0,0:0:0:0:
352,96,292762,1,8,0:0:0:0:
160,288,292912,1,4,0:0:0:0:
352,96,293362,1,8,0:0:0:0:
160,96,293662,1,0,0:0:0:0:
160,96,293962,1,0,0:0:0:0:
352,96,294262,1,8,0:0:0:0:
160,96,294712,1,0,0:0:0:0:
352,96,295162,1,8,0:0:0:0:
160,96,295312,1,0,0:0:0:0:
352,96,295762,1,8,0:0:0:0:
160,96,296062,1,0,0:0:0:0:
160,96,296362,1,0,0:0:0:0:
352,96,296662,1,8,0:0:0:0:
160,96,297112,1,0,0:0:0:0:
352,96,297562,1,8,0:0:0:0:
160,96,297712,1,0,0:0:0:0:
352,96,298162,1,8,0:0:0:0:
160,96,298462,1,0,0:0:0:0:
160,96,298762,1,0,0:0:0:0:
352,96,299062,1,8,0:0:0:0:
160,96,299512,1,0,0:0:0:0:
160,96,299812,1,0,0:0:0:0:
160,96,299887,1,0,0:0:0:0:
352,96,299962,1,8,0:0:0:0:
160,96,300037,1,0,0:0:0:0:
160,96,300112,1,0,0:0:0:0:
352,96,300562,1,8,0:0:0:0:
160,96,300862,1,0,0:0:0:0:
160,96,301162,1,0,0:0:0:0:
352,96,301462,1,8,0:0:0:0:
160,96,301912,1,0,0:0:0:0:
352,96,302362,1,8,0:0:0:0:
160,96,302512,1,0,0:0:0:0:
160,96,302662,1,0,0:0:0:0:
160,96,302812,1,0,0:0:0:0:
352,96,302962,1,8,0:0:0:0:
160,96,303112,1,0,0:0:0:0:
160,96,303412,1,0,0:0:0:0:
160,96,303712,1,0,0:0:0:0:
352,96,303862,1,8,0:0:0:0:
160,96,304012,1,0,0:0:0:0:
160,96,304312,1,0,0:0:0:0:
160,96,304462,1,0,0:0:0:0:
160,96,304612,1,0,0:0:0:0:
352,96,304762,1,8,0:0:0:0:
160,96,304912,1,0,0:0:0:0:
160,96,305212,1,0,0:0:0:0:
160,96,305362,1,0,0:0:0:0:
160,96,305512,1,0,0:0:0:0:
352,96,305662,1,8,0:0:0:0:
160,96,305812,1,0,0:0:0:0:
160,96,306112,1,0,0:0:0:0:
352,96,306337,1,8,0:0:0:0:
160,96,306412,1,0,0:0:0:0:
160,96,306487,1,0,0:0:0:0:
352,96,306562,1,8,0:0:0:0:
160,96,306712,1,0,0:0:0:0:
160,96,307012,1,0,0:0:0:0:
160,96,307312,1,0,0:0:0:0:
160,96,307462,1,0,0:0:0:0:
160,96,307612,1,0,0:0:0:0:
352,96,307762,1,8,0:0:0:0:
160,96,307912,1,0,0:0:0:0:
160,96,308212,1,0,0:0:0:0:
160,96,308512,1,0,0:0:0:0:
352,96,308662,1,8,0:0:0:0:
160,96,308812,1,0,0:0:0:0:
160,96,309112,1,0,0:0:0:0:
160,96,309262,1,0,0:0:0:0:
160,96,309412,1,0,0:0:0:0:
352,96,309562,1,8,0:0:0:0:
160,96,309712,1,0,0:0:0:0:
160,96,310012,1,0,0:0:0:0:
160,96,310162,1,0,0:0:0:0:
160,96,310312,1,0,0:0:0:0:
352,96,310462,1,8,0:0:0:0:
160,96,310612,1,0,0:0:0:0:
160,96,310912,1,0,0:0:0:0:
160,96,311212,1,0,0:0:0:0:
352,96,311362,1,8,0:0:0:0:
160,96,311512,1,0,0:0:0:0:
160,96,311812,1,0,0:0:0:0:
352,96,312112,1,8,0:0:0:0:
352,96,312187,1,8,0:0:0:0:
352,96,312262,1,8,0:0:0:0:
352,96,312337,1,8,0:0:0:0:
160,288,312412,1,4,0:0:0:0:
352,96,312637,1,8,0:0:0:0:
160,96,312712,1,0,0:0:0:0:
160,96,312862,1,0,0:0:0:0:
352,96,313012,1,8,0:0:0:0:
160,96,313162,1,0,0:0:0:0:
352,96,313237,1,8,0:0:0:0:
160,96,313312,1,0,0:0:0:0:
160,96,313462,1,0,0:0:0:0:
352,96,313612,1,8,0:0:0:0:
160,96,313762,1,0,0:0:0:0:
352,96,313837,1,8,0:0:0:0:
352,96,313912,1,8,0:0:0:0:
160,96,313987,1,0,0:0:0:0:
160,96,314062,1,0,0:0:0:0:
352,96,314212,1,8,0:0:0:0:
160,96,314362,1,0,0:0:0:0:
352,96,314412,1,8,0:0:0:0:
352,96,314462,1,8,0:0:0:0:
160,96,314512,1,0,0:0:0:0:
160,96,314737,1,0,0:0:0:0:
160,96,314812,1,0,0:0:0:0:
352,96,314962,1,8,0:0:0:0:
160,96,315112,1,0,0:0:0:0:
352,96,315187,1,8,0:0:0:0:
160,96,315262,1,0,0:0:0:0:
160,96,315412,1,0,0:0:0:0:
352,96,315562,1,8,0:0:0:0:
352,96,315637,1,8,0:0:0:0:
160,96,315712,1,0,0:0:0:0:
352,96,315862,1,8,0:0:0:0:
160,96,315937,1,0,0:0:0:0:
352,96,316012,1,8,0:0:0:0:
352,96,316087,1,8,0:0:0:0:
160,96,316162,1,0,0:0:0:0:
160,96,316312,1,0,0:0:0:0:
352,96,316387,1,8,0:0:0:0:
160,96,316462,1,0,0:0:0:0:
352,96,316612,1,8,0:0:0:0:
352,96,316662,1,8,0:0:0:0:
352,96,316712,1,8,0:0:0:0:
160,96,316762,1,0,0:0:0:0:
160,96,316912,1,0,0:0:0:0:
352,96,316987,1,8,0:0:0:0:
160,96,317062,1,0,0:0:0:0:
160,96,317137,1,0,0:0:0:0:
352,96,317212,1,8,0:0:0:0:
160,96,317362,1,0,0:0:0:0:
352,96,317512,1,8,0:0:0:0:
352,96,317587,1,8,0:0:0:0:
160,96,317662,1,0,0:0:0:0:
160,96,317737,1,0,0:0:0:0:
352,96,317812,1,8,0:0:0:0:
352,96,317962,1,8,0:0:0:0:
352,96,318037,1,8,0:0:0:0:
160,96,318112,1,0,0:0:0:0:
352,96,318187,1,8,0:0:0:0:
352,96,318337,1,8,0:0:0:0:
160,96,318412,1,0,0:0:0:0:
160,96,318562,1,0,0:0:0:0:
160,96,318712,1,0,0:0:0:0:
352,96,318787,1,8,0:0:0:0:
160,96,318862,1,0,0:0:0:0:
160,96,318937,1,0,0:0:0:0:
352,96,319012,1,8,0:0:0:0:
160,96,319162,1,0,0:0:0:0:
352,96,319212,1,8,0:0:0:0:
352,96,319262,1,8,0:0:0:0:
160,96,319312,1,0,0:0:0:0:
160,96,319462,1,0,0:0:0:0:
160,96,319537,1,0,0:0:0:0:
352,96,319612,1,8,0:0:0:0:
352,96,319687,1,8,0:0:0:0:
160,96,319762,1,0,0:0:0:0:
160,96,319912,1,0,0:0:0:0:
352,96,319987,1,8,0:0:0:0:
352,96,320062,1,8,0:0:0:0:
160,96,320137,1,0,0:0:0:0:
352,96,320212,1,8,0:0:0:0:
160,96,320362,1,0,0:0:0:0:
352,96,320437,1,8,0:0:0:0:
160,96,320512,1,0,0:0:0:0:
160,96,320587,1,0,0:0:0:0:
352,96,320662,1,8,0:0:0:0:
352,96,320737,1,8,0:0:0:0:
160,96,320812,1,0,0:0:0:0:
352,96,320962,1,8,0:0:0:0:
352,96,321012,1,8,0:0:0:0:
352,96,321062,1,8,0:0:0:0:
160,96,321112,1,0,0:0:0:0:
352,96,321262,1,8,0:0:0:0:
352,96,321312,1,8,0:0:0:0:
352,96,321362,1,8,0:0:0:0:
160,96,321412,1,0,0:0:0:0:
160,96,321562,1,0,0:0:0:0:
352,96,321612,1,8,0:0:0:0:
352,96,321662,1,8,0:0:0:0:
160,96,321712,1,0,0:0:0:0:
352,96,321862,1,8,0:0:0:0:
352,96,321937,1,8,0:0:0:0:
160,96,322012,1,0,0:0:0:0:
160,96,322087,1,0,0:0:0:0:
352,96,322162,1,8,0:0:0:0:
160,96,322312,1,0,0:0:0:0:
352,96,322387,1,8,0:0:0:0:
160,96,322462,1,0,0:0:0:0:
160,96,322537,1,0,0:0:0:0:
352,96,322612,1,8,0:0:0:0:
352,96,322762,1,8,0:0:0:0:
352,96,322837,1,8,0:0:0:0:
160,96,322912,1,0,0:0:0:0:
160,96,323062,1,0,0:0:0:0:
352,96,323212,1,8,0:0:0:0:
160,96,323287,1,0,0:0:0:0:
160,96,323437,1,0,0:0:0:0:
352,96,323512,1,8,0:0:0:0:
160,96,323662,1,0,0:0:0:0:
160,96,323737,1,0,0:0:0:0:
352,96,323812,1,8,0:0:0:0:
160,96,323962,1,0,0:0:0:0:
352,96,324112,1,8,0:0:0:0:
160,96,324262,1,0,0:0:0:0:
352,96,324337,1,8,0:0:0:0:
160,96,324412,1,0,0:0:0:0:
352,96,324562,1,8,0:0:0:0:
352,96,324637,1,8,0:0:0:0:
160,96,324712,1,0,0:0:0:0:
352,96,324787,1,8,0:0:0:0:
160,96,324862,1,0,0:0:0:0:
352,96,325012,1,8,0:0:0:0:
352,96,325162,1,8,0:0:0:0:
352,96,325237,1,8,0:0:0:0:
160,96,325312,1,0,0:0:0:0:
160,96,325462,1,0,0:0:0:0:
160,96,325537,1,0,0:0:0:0:
352,96,325612,1,8,0:0:0:0:
160,96,325762,1,0,0:0:0:0:
160,96,325912,1,0,0:0:0:0:
352,96,325987,1,8,0:0:0:0:
160,96,326062,1,0,0:0:0:0:
160,96,326137,1,0,0:0:0:0:
352,96,326212,1,8,0:0:0:0:
160,96,326362,1,0,0:0:0:0:
352,96,326412,1,8,0:0:0:0:
352,96,326462,1,8,0:0:0:0:
160,96,326512,1,0,0:0:0:0:
160,96,326662,1,0,0:0:0:0:
160,96,326737,1,0,0:0:0:0:
352,96,326812,1,8,0:0:0:0:
352,96,326862,1,8,0:0:0:0:
352,96,326912,1,8,0:0:0:0:
160,96,326962,1,0,0:0:0:0:
160,96,327112,1,0,0:0:0:0:
352,96,327187,1,8,0:0:0:0:
160,96,327262,1,0,0:0:0:0:
160,96,327337,1,0,0:0:0:0:
352,96,327412,1,8,0:0:0:0:
352,96,327462,1,8,0:0:0:0:
352,96,327512,1,8,0:0:0:0:
160,96,327562,1,0,0:0:0:0:
352,96,327712,1,8,0:0:0:0:
352,96,327787,1,8,0:0:0:0:
160,96,327862,1,0,0:0:0:0:
160,96,327912,1,0,0:0:0:0:
160,96,327962,1,0,0:0:0:0:
352,96,328012,1,8,0:0:0:0:
160,96,328087,1,0,0:0:0:0:
352,96,328162,1,8,0:0:0:0:
160,96,328312,1,0,0:0:0:0:
352,96,328462,1,8,0:0:0:0:
160,96,328537,1,0,0:0:0:0:
352,96,328612,1,8,0:0:0:0:
352,96,328662,1,8,0:0:0:0:
352,96,328712,1,8,0:0:0:0:
160,96,328762,1,0,0:0:0:0:
160,96,328912,1,0,0:0:0:0:
160,96,329137,1,0,0:0:0:0:
352,96,329212,1,8,0:0:0:0:
352,96,329362,1,8,0:0:0:0:
160,96,329512,1,0,0:0:0:0:
352,96,329662,1,8,0:0:0:0:
352,96,329737,1,8,0:0:0:0:
160,96,329812,1,0,0:0:0:0:
160,96,329862,1,0,0:0:0:0:
160,96,329912,1,0,0:0:0:0:
352,96,329962,1,8,0:0:0:0:
160,96,330112,1,0,0:0:0:0:
160,96,330187,1,0,0:0:0:0:
352,96,330262,1,8,0:0:0:0:
352,96,330337,1,8,0:0:0:0:
160,96,330412,1,0,0:0:0:0:
352,96,330562,1,8,0:0:0:0:
160,96,330637,1,0,0:0:0:0:
352,96,330712,1,8,0:0:0:0:
160,96,330862,1,0,0:0:0:0:
352,96,331012,1,8,0:0:0:0:
352,96,331087,1,8,0:0:0:0:
352,96,331162,1,8,0:0:0:0:
352,96,331237,1,8,0:0:0:0:
160,288,331312,1,4,0:0:0:0:
160,96,331462,1,0,0:0:0:0:
160,96,331537,1,0,0:0:0:0:
352,96,331612,1,8,0:0:0:0:
160,96,331762,1,0,0:0:0:0:
160,96,331837,1,0,0:0:0:0:
352,96,331912,1,8,0:0:0:0:
160,96,331987,1,0,0:0:0:0:
352,96,332062,1,8,0:0:0:0:
352,96,332137,1,8,0:0:0:0:
160,96,332212,1,0,0:0:0:0:
352,96,332362,1,8,0:0:0:0:
352,96,332512,1,8,0:0:0:0:
160,96,332587,1,0,0:0:0:0:
160,96,332662,1,0,0:0:0:0:
352,96,332737,1,8,0:0:0:0:
160,96,332812,1,0,0:0:0:0:
352,96,332962,1,8,0:0:0:0:
352,96,333037,1,8,0:0:0:0:
160,96,333112,1,0,0:0:0:0:
352,96,333187,1,8,0:0:0:0:
352,96,333337,1,8,0:0:0:0:
160,96,333412,1,0,0:0:0:0:
352,96,333562,1,8,0:0:0:0:
160,96,333712,1,0,0:0:0:0:
160,96,333787,1,0,0:0:0:0:
352,96,333862,1,8,0:0:0:0:
352,96,333937,1,8,0:0:0:0:
160,96,334012,1,0,0:0:0:0:
160,96,334162,1,0,0:0:0:0:
160,96,334237,1,0,0:0:0:0:
352,96,334312,1,8,0:0:0:0:
160,96,334387,1,0,0:0:0:0:
352,96,334537,1,8,0:0:0:0:
160,96,334612,1,0,0:0:0:0:
160,96,334687,1,0,0:0:0:0:
352,96,334762,1,8,0:0:0:0:
160,96,334912,1,0,0:0:0:0:
352,96,335062,1,8,0:0:0:0:
352,96,335137,1,8,0:0:0:0:
160,96,335212,1,0,0:0:0:0:
160,96,335287,1,0,0:0:0:0:
352,96,335362,1,8,0:0:0:0:
160,96,335512,1,0,0:0:0:0:
352,96,335662,1,8,0:0:0:0:
352,96,335712,1,8,0:0:0:0:
352,96,335762,1,8,0:0:0:0:
160,96,335812,1,0,0:0:0:0:
352,96,335962,1,8,0:0:0:0:
160,96,336112,1,0,0:0:0:0:
160,96,336187,1,0,0:0:0:0:
352,96,336262,1,8,0:0:0:0:
352,96,336337,1,8,0:0:0:0:
160,96,336412,1,0,0:0:0:0:
352,96,336562,1,8,0:0:0:0:
160,96,336712,1,0,0:0:0:0:
352,96,336787,1,8,0:0:0:0:
160,96,336862,1,0,0:0:0:0:
352,96,337012,1,8,0:0:0:0:
160,96,337087,1,0,0:0:0:0:
352,96,337162,1,8,0:0:0:0:
352,96,337237,1,8,0:0:0:0:
160,96,337312,1,0,0:0:0:0:
160,96,337387,1,0,0:0:0:0:
352,96,337462,1,8,0:0:0:0:
160,96,337612,1,0,0:0:0:0:
160,96,337762,1,0,0:0:0:0:
352,96,337837,1,8,0:0:0:0:
352,96,337912,1,8,0:0:0:0:
160,96,337987,1,0,0:0:0:0:
160,96,338137,1,0,0:0:0:0:
352,96,338212,1,8,0:0:0:0:
160,96,338362,1,0,0:0:0:0:
160,96,338512,1,0,0:0:0:0:
160,96,338587,1,0,0:0:0:0:
352,96,338662,1,8,0:0:0:0:
352,96,338737,1,8,0:0:0:0:
160,96,338812,1,0,0:0:0:0:
352,96,338962,1,8,0:0:0:0:
352,96,339037,1,8,0:0:0:0:
160,96,339112,1,0,0:0:0:0:
352,96,339187,1,8,0:0:0:0:
160,96,339262,1,0,0:0:0:0:
160,96,339337,1,0,0:0:0:0:
352,96,339412,1,8,0:0:0:0:
160,96,339562,1,0,0:0:0:0:
352,96,339712,1,8,0:0:0:0:
352,96,339787,1,8,0:0:0:0:
160,96,339862,1,0,0:0:0:0:
160,96,339937,1,0,0:0:0:0:
352,96,340012,1,8,0:0:0:0:
160,96,340162,1,0,0:0:0:0:
352,96,340312,1,8,0:0:0:0:
160,96,340387,1,0,0:0:0:0:
352,96,340537,1,8,0:0:0:0:
160,96,340612,1,0,0:0:0:0:
160,96,340687,1,0,0:0:0:0:
352,96,340762,1,8,0:0:0:0:
160,288,340912,1,4,0:0:0:0:
352,96,341212,1,8,0:0:0:0:
160,96,341512,1,0,0:0:0:0:
352,96,341812,1,8,0:0:0:0:
160,96,342112,1,0,0:0:0:0:
352,96,342412,1,8,0:0:0:0:
160,96,342712,1,0,0:0:0:0:
352,96,343012,1,8,0:0:0:0:
160,96,343312,1,0,0:0:0:0:
160,96,343387,1,0,0:0:0:0:
352,96,343462,1,8,0:0:0:0:
352,96,343612,1,8,0:0:0:0:
352,96,343762,1,8,0:0:0:0:
160,96,343837,1,0,0:0:0:0:
352,96,343912,1,8,0:0:0:0:
352,96,344062,1,8,0:0:0:0:
160,96,344212,1,0,0:0:0:0:
160,96,344287,1,0,0:0:0:0:
352,96,344362,1,8,0:0:0:0:
352,96,344512,1,8,0:0:0:0:
160,96,344587,1,0,0:0:0:0:
352,96,344662,1,8,0:0:0:0:
352,96,344737,1,8,0:0:0:0:
160,96,344812,1,0,0:0:0:0:
160,96,344962,1,0,0:0:0:0:
160,96,345037,1,0,0:0:0:0:
352,96,345112,1,8,0:0:0:0:
160,96,345187,1,0,0:0:0:0:
160,96,345337,1,0,0:0:0:0:
352,96,345412,1,8,0:0:0:0:
352,96,345562,1,8,0:0:0:0:
160,96,345712,1,0,0:0:0:0:
352,96,346012,1,8,0:0:0:0:
160,96,346312,1,0,0:0:0:0:
352,96,346612,1,8,0:0:0:0:
160,96,346912,1,0,0:0:0:0:
352,96,347212,1,8,0:0:0:0:
160,96,347512,1,0,0:0:0:0:
352,96,347812,1,8,0:0:0:0:
160,96,348112,1,0,0:0:0:0:
160,96,348187,1,0,0:0:0:0:
352,96,348262,1,8,0:0:0:0:
352,96,348412,1,8,0:0:0:0:
160,96,348487,1,0,0:0:0:0:
160,96,348562,1,0,0:0:0:0:
160,96,348712,1,0,0:0:0:0:
160,96,348787,1,0,0:0:0:0:
352,96,348862,1,8,0:0:0:0:
352,96,349012,1,8,0:0:0:0:
160,96,349087,1,0,0:0:0:0:
160,96,349162,1,0,0:0:0:0:
160,96,349312,1,0,0:0:0:0:
352,96,349462,1,8,0:0:0:0:
352,96,349537,1,8,0:0:0:0:
160,96,349612,1,0,0:0:0:0:
160,96,349762,1,0,0:0:0:0:
352,288,349912,1,12,0:0:0:0:
160,288,350512,1,4,0:0:0:0:
352,96,350812,1,8,0:0:0:0:
160,96,351112,1,0,0:0:0:0:
352,96,351412,1,8,0:0:0:0:
160,96,351712,1,0,0:0:0:0:
352,96,352012,1,8,0:0:0:0:
160,96,352312,1,0,0:0:0:0:
352,96,352612,1,8,0:0:0:0:
160,96,352912,1,0,0:0:0:0:
352,96,353212,1,8,0:0:0:0:
160,96,353512,1,0,0:0:0:0:
352,96,353812,1,8,0:0:0:0:
160,96,354112,1,0,0:0:0:0:
352,96,354412,1,8,0:0:0:0:
352,288,354712,1,12,0:0:0:0:
352,288,355012,1,12,0:0:0:0:
160,288,355312,1,4,0:0:0:0:
352,96,355612,1,8,0:0:0:0:
160,96,355912,1,0,0:0:0:0:
352,96,356212,1,8,0:0:0:0:
160,96,356512,1,0,0:0:0:0:
352,96,356812,1,8,0:0:0:0:
160,96,357112,1,0,0:0:0:0:
352,96,357412,1,8,0:0:0:0:
160,96,357712,1,0,0:0:0:0:
352,96,358012,1,8,0:0:0:0:
160,96,358312,1,0,0:0:0:0:
352,96,358612,1,8,0:0:0:0:
160,96,358912,1,0,0:0:0:0:
352,96,359212,1,8,0:0:0:0:
352,96,359512,1,8,0:0:0:0:
352,96,359662,1,8,0:0:0:0:
352,96,359812,1,8,0:0:0:0:
352,96,359962,1,8,0:0:0:0:
160,288,360112,1,4,0:0:0:0:
352,96,360412,1,8,0:0:0:0:
160,96,360712,1,0,0:0:0:0:
352,96,361012,1,8,0:0:0:0:
160,96,361312,1,0,0:0:0:0:
352,96,361612,1,8,0:0:0:0:
160,96,361912,1,0,0:0:0:0:
352,96,362212,1,8,0:0:0:0:
160,96,362512,1,0,0:0:0:0:
352,96,362812,1,8,0:0:0:0:
160,96,363112,1,0,0:0:0:0:
352,96,363412,1,8,0:0:0:0:
160,96,363712,1,0,0:0:0:0:
352,96,364012,1,8,0:0:0:0:
352,96,364312,1,8,0:0:0:0:
352,96,364462,1,8,0:0:0:0:
160,96,364537,1,0,0:0:0:0:
352,96,364612,1,8,0:0:0:0:
352,96,364762,1,8,0:0:0:0:
352,96,364837,1,8,0:0:0:0:
160,96,364912,1,0,0:0:0:0:
160,96,365062,1,0,0:0:0:0:
352,96,365212,1,8,0:0:0:0:
160,96,365512,1,0,0:0:0:0:
160,96,365662,1,0,0:0:0:0:
352,96,365812,1,8,0:0:0:0:
160,96,366112,1,0,0:0:0:0:
160,96,366187,1,0,0:0:0:0:
160,96,366337,1,0,0:0:0:0:
352,96,366412,1,8,0:0:0:0:
160,96,366712,1,0,0:0:0:0:
160,96,366862,1,0,0:0:0:0:
352,96,367012,1,8,0:0:0:0:
352,96,367087,1,8,0:0:0:0:
352,96,367162,1,8,0:0:0:0:
352,96,367237,1,8,0:0:0:0:
160,96,367312,1,0,0:0:0:0:
160,96,367462,1,0,0:0:0:0:
160,96,367612,1,0,0:0:0:0:
160,96,367762,1,0,0:0:0:0:
160,96,367912,1,0,0:0:0:0:
160,96,368062,1,0,0:0:0:0:
160,96,368212,1,0,0:0:0:0:
160,96,368362,1,0,0:0:0:0:
352,96,368512,1,8,0:0:0:0:
352,96,368587,1,8,0:0:0:0:
352,96,368662,1,8,0:0:0:0:
352,96,368737,1,8,0:0:0:0:
352,96,368812,1,8,0:0:0:0:
352,96,368887,1,8,0:0:0:0:
352,96,368962,1,8,0:0:0:0:
352,96,369037,1,8,0:0:0:0:
256,192,369112,8,0,370312,0:0:0:0:
