osu file format v14

[General]
AudioFilename: audio.mp3
AudioLeadIn: 0
PreviewTime: 45254
Countdown: 0
SampleSet: Soft
StackLeniency: 0.7
Mode: 2
LetterboxInBreaks: 0
WidescreenStoryboard: 1

[Editor]
Bookmarks: 2123,17125,32127,49005,64007,79010,94012,109014,139019,154021,169024,172774,176525,180275,183323
DistanceSpacing: 1.4
BeatDivisor: 4
GridSize: 4
TimelineZoom: 4.199998

[Metadata]
Title:WTF?
TitleUnicode:WTF?
Artist:LukHash
ArtistUnicode:LukHash
Creator:wonjae
Version:Hyperion's Rain
Source:osu!
Tags:digital memories chiptune rock electro glitch distortion Nelly JBHyperion MBomb Magic Bomb Paranoid Grapes Absolute Zero
BeatmapID:2158590
BeatmapSetID:1031588

[Difficulty]
HPDrainRate:6
CircleSize:3.2
OverallDifficulty:8.5
ApproachRate:8.5
SliderMultiplier:2
SliderTickRate:2

[Events]
//Background and Video events
0,0,"pixel arf.jpg",0,0
//Break Periods
//Storyboard Layer 0 (Background)
//Storyboard Layer 1 (Fail)
//Storyboard Layer 2 (Pass)
//Storyboard Layer 3 (Foreground)
//Storyboard Layer 4 (Overlay)
//Storyboard Sound Samples

[TimingPoints]
2123,468.82325363338,4,2,2,40,1,0
16172,468.82325363338,4,2,2,40,1,0
16640,-80,4,2,2,40,0,0
17109,468.82325363338,4,2,2,40,1,0
17109,-100,4,2,2,50,0,0
32127,-100,4,2,2,60,0,0
49005,468.82325363338,4,2,2,65,1,1
49005,-80,4,2,2,65,0,1
64007,-66.6666666666667,4,2,2,50,0,0
64242,-100,4,2,2,50,0,0
94012,-100,4,2,2,60,0,0
102450,-80,4,2,2,60,0,0
103154,-100,4,2,2,60,0,0
109014,-80,4,2,2,65,0,1
115567,468.82325363338,4,2,2,65,1,1
115567,-80,4,2,2,65,0,1
117453,468.82325363338,4,2,2,65,1,1
117453,-80,4,2,2,65,0,1
121658,468.82325363338,4,2,2,65,1,1
121658,-80,4,2,2,65,0,1
138535,-100,4,2,2,55,0,0
139004,-80,4,2,2,60,0,1
139238,-100,4,2,2,60,0,0
145099,-83.3333333333333,4,2,2,60,0,0
145333,-100,4,2,2,60,0,0
152600,-80,4,2,2,60,0,0
152834,-100,4,2,2,60,0,0
156702,-80,4,2,2,60,0,0
156936,-100,4,2,2,60,0,0
167602,-80,4,2,2,60,0,0
168305,-100,4,2,2,60,0,0
169019,468.82325363338,4,2,2,60,1,0
169024,-100,4,2,2,30,0,0

[Colours]
Combo1 : 131,160,90
Combo2 : 53,172,23
Combo3 : 10,120,54
Combo4 : 82,99,58

[HitObjects]
316,292,2123,6,0,L|492:190,1,200,6|2,3:2|0:0,0:0:0:0:
384,192,2826,1,0,0:0:0:0:
172,192,3060,2,0,L|85:142,2,100,8|0|2,1:1|0:0|0:0,0:0:0:0:
300,192,3763,2,0,L|304:256,1,50,0|0,0:0|0:0,0:0:0:0:
228,240,3998,6,0,L|140:192,1,100,2|0,2:2|0:0,0:0:0:0:
280,192,4467,2,0,L|284:300,1,100,2|0,0:0|0:0,0:0:0:0:
64,340,4935,2,0,L|150:290,2,100,8|0|2,1:1|0:0|0:0,0:0:0:0:
188,340,5639,2,0,L|248:340,1,50,0|0,0:0|0:0,0:0:0:0:
388,340,5873,6,0,P|384:272|288:192,1,200,8|2,1:1|0:0,0:0:0:0:
168,192,6576,1,0,0:0:0:0:
388,192,6811,2,0,L|492:192,2,100,8|0|2,0:1|0:0|0:0,0:0:0:0:
268,192,7514,2,0,L|216:192,1,50,0|0,0:0|0:0,0:0:0:0:
144,192,7748,6,0,L|140:84,1,100,2|0,0:0|0:0,0:0:0:0:
268,192,8217,2,0,L|264:84,1,100,2|0,0:0|0:0,0:0:0:0:
192,92,8569,1,0,0:0:0:0:
40,92,8686,2,0,L|148:92,1,100,8|2,1:1|0:0,0:0:0:0:
260,92,9155,1,2,0:0:0:0:
40,92,9389,1,10,0:0:0:0:
400,92,9624,6,0,P|464:156|404:224,1,200,8|2,1:1|0:0,0:0:0:0:
284,224,10327,1,0,0:0:0:0:
64,224,10561,1,8,1:1:0:0:
164,224,10796,1,0,0:0:0:0:
264,224,11030,1,2,0:0:0:0:
144,224,11265,2,0,L|140:172,1,50,0|0,0:0|0:0,0:0:0:0:
220,140,11499,6,0,L|306:90,1,100,2|0,0:0|0:0,0:0:0:0:
196,140,11968,1,2,0:0:0:0:
332,90,12202,1,2,0:0:0:0:
112,88,12437,2,0,L|108:188,1,100,8|0,1:1|0:0,0:0:0:0:
328,188,12905,2,0,L|428:192,1,100,2|0,0:0|0:0,0:0:0:0:
108,188,13374,6,0,B|108:288|108:288|208:288,1,200,12|2,1:1|0:0,0:0:0:0:
320,288,14077,1,0,0:0:0:0:
100,288,14312,2,0,L|13:238,2,100,8|0|2,1:1|0:0|0:0,0:0:0:0:
220,288,15015,2,0,L|272:288,1,50,0|0,0:0|0:0,0:0:0:0:
208,288,15250,5,2,0:0:0:0:
420,288,15484,2,0,L|220:288,1,200,10|2,0:0|0:0,0:0:0:0:
444,192,16172,2,0,L|340:136,1,100,8|2,1:1|0:0,0:0:0:0:
231,144,16640,2,0,L|356:144,1,125,14|0,0:0|0:0,0:0:0:0:
24,144,17109,6,0,L|23:82,1,50,8|8,1:1|1:1,0:0:0:0:
144,92,17460,1,8,1:1:0:0:
296,92,17577,2,0,L|348:92,1,50,8|0,1:1|0:0,0:0:0:0:
348,172,17812,2,0,L|292:172,1,50,2|0,0:0|0:0,0:0:0:0:
208,172,18046,2,0,L|156:192,2,50,14|0|2,0:0|0:0|0:0,0:0:0:0:
440,176,18515,1,8,1:1:0:0:
444,236,18632,1,0,0:0:0:0:
448,296,18749,1,2,0:0:0:0:
216,296,18984,6,0,L|164:296,1,50,8|8,1:1|1:1,0:0:0:0:
276,296,19335,1,8,1:1:0:0:
428,296,19453,2,0,L|440:344,3,50,8|0|2|0,1:1|0:0|0:0|0:0,0:0:0:0:
320,344,20039,1,0,0:0:0:0:
400,344,20156,2,0,L|412:296,1,50,8|0,1:1|0:0,0:0:0:0:
260,248,20390,2,0,L|160:248,1,100,8|2,1:1|0:0,0:0:0:0:
484,192,20859,6,0,L|488:136,1,50,8|8,1:1|1:1,0:0:0:0:
368,140,21211,1,8,1:1:0:0:
220,140,21328,2,0,L|168:140,2,50,8|0|2,1:1|0:0|0:0,0:0:0:0:
280,140,21680,1,0,0:0:0:0:
180,56,21914,2,0,L|288:56,1,100,0|0,0:0|0:0,0:0:0:0:
432,56,22266,2,0,L|436:160,1,100,8|2,1:1|0:0,0:0:0:0:
204,156,22734,6,0,L|200:224,1,50,8|8,1:1|1:1,0:0:0:0:
320,204,23086,1,8,1:1:0:0:
168,204,23203,1,8,1:1:0:0:
108,204,23320,1,0,0:0:0:0:
108,264,23438,1,2,0:0:0:0:
168,264,23555,1,0,0:0:0:0:
348,264,23672,2,0,L|412:264,1,50,8|8,1:1|1:1,0:0:0:0:
328,192,23906,2,0,L|276:192,1,50,2|0,0:0|0:0,0:0:0:0:
460,192,24141,1,8,1:1:0:0:
460,124,24258,1,0,0:0:0:0:
412,72,24375,1,2,0:0:0:0:
344,72,24492,1,0,0:0:0:0:
160,72,24610,6,0,L|104:72,1,50,8|8,1:1|1:1,0:0:0:0:
232,72,24961,1,8,1:1:0:0:
84,72,25078,2,0,L|32:72,2,50,8|0|2,1:1|0:0|0:0,0:0:0:0:
144,72,25430,1,0,0:0:0:0:
204,72,25547,2,0,L|104:72,1,100,8|8,1:1|1:1,0:0:0:0:
336,72,26016,2,0,L|436:72,1,100,2|8,0:0|1:1,0:0:0:0:
200,72,26485,6,0,L|196:124,1,50,8|8,1:1|1:1,0:0:0:0:
316,124,26837,1,8,1:1:0:0:
164,124,26954,2,0,L|140:168,3,50,8|0|2|0,1:1|0:0|0:0|0:0,0:0:0:0:
260,168,27540,2,0,L|264:220,1,50,0|8,0:0|1:1,0:0:0:0:
32,216,27891,2,0,L|132:216,1,100,8|2,1:1|0:0,0:0:0:0:
448,216,28360,6,0,L|452:272,1,50,8|8,1:1|1:1,0:0:0:0:
332,264,28712,1,8,1:1:0:0:
180,268,28829,1,8,1:1:0:0:
120,268,28946,1,0,0:0:0:0:
120,328,29063,1,2,0:0:0:0:
180,328,29181,1,0,0:0:0:0:
312,276,29415,2,0,L|308:328,1,50,0|8,0:0|1:1,0:0:0:0:
80,328,29767,2,0,L|184:328,1,100,8|2,1:1|0:0,0:0:0:0:
416,184,30236,6,0,L|356:184,1,50,8|8,1:1|1:1,0:0:0:0:
244,184,30587,1,8,1:1:0:0:
104,100,30704,2,0,L|212:100,1,100,8|2,1:1|0:0,0:0:0:0:
344,100,31056,1,8,1:1:0:0:
244,100,31290,1,8,1:1:0:0:
92,100,31408,2,0,L|88:48,1,50,8|0,1:1|0:0,0:0:0:0:
276,16,31642,1,8,1:1:0:0:
344,64,31759,1,0,0:0:0:0:
336,148,31876,1,8,1:1:0:0:
260,184,31994,1,0,0:0:0:0:
68,184,32111,6,0,L|16:184,2,50,14|0|2,0:0|0:0|0:0,0:0:0:0:
368,184,32580,2,0,L|468:184,1,100,8|2,1:1|0:0,0:0:0:0:
396,184,32931,1,2,0:0:0:0:
248,184,33048,1,8,1:1:0:0:
316,184,33166,1,0,0:0:0:0:
384,184,33283,1,8,1:1:0:0:
260,272,33517,2,0,L|256:332,1,50,14|8,0:0|1:1,0:0:0:0:
376,272,33869,1,0,0:0:0:0:
228,272,33986,6,0,L|176:272,1,50,8|0,1:1|0:0,0:0:0:0:
428,272,34338,1,0,0:0:0:0:
280,192,34689,2,0,L|224:192,1,50,2|2,0:0|0:0,0:0:0:0:
380,192,34924,2,0,L|432:192,2,50,8|0|2,1:1|0:0|0:0,0:0:0:0:
260,192,35393,2,0,L|256:132,1,50,8|8,1:1|1:1,0:0:0:0:
380,192,35627,2,0,L|384:136,1,50,8|0,1:1|0:0,0:0:0:0:
196,92,35861,5,14,0:0:0:0:
136,92,35979,1,0,0:0:0:0:
76,92,36096,1,2,0:0:0:0:
312,92,36330,2,0,L|316:204,1,100,8|2,1:1|0:0,0:0:0:0:
244,192,36682,1,2,0:0:0:0:
392,192,36799,2,0,L|444:192,2,50,8|0|2,1:1|0:0|0:0,0:0:0:0:
160,192,37268,2,0,L|156:248,1,50,8|8,1:1|1:1,0:0:0:0:
276,240,37620,1,8,1:1:0:0:
144,240,37737,6,0,L|140:188,1,50,8|0,1:1|0:0,0:0:0:0:
280,156,37971,2,0,L|284:84,1,50,14|0,0:0|0:0,0:0:0:0:
124,140,38440,1,2,0:0:0:0:
424,142,38674,2,0,L|428:262,1,100,8|2,1:1|0:0,0:0:0:0:
196,246,39143,1,8,1:1:0:0:
496,244,39378,1,8,1:1:0:0:
304,336,39612,5,14,0:0:0:0:
354,336,39729,1,0,0:0:0:0:
404,336,39846,1,2,0:0:0:0:
104,336,40081,2,0,L|100:232,1,100,8|2,1:1|0:0,0:0:0:0:
178,236,40432,1,2,0:0:0:0:
326,236,40550,2,0,L|378:236,2,50,8|0|2,1:1|0:0|0:0,0:0:0:0:
100,236,41018,2,0,L|96:176,1,50,8|8,1:1|1:1,0:0:0:0:
220,188,41370,1,8,1:1:0:0:
68,184,41487,6,0,L|16:184,1,50,8|0,1:1|0:0,0:0:0:0:
80,104,41722,2,0,L|136:104,1,50,14|0,0:0|0:0,0:0:0:0:
312,104,41956,2,0,L|192:104,1,100,8|2,1:1|0:0,0:0:0:0:
152,104,42308,1,2,0:0:0:0:
300,24,42425,2,0,L|356:24,2,50,8|0|2,1:1|0:0|0:0,0:0:0:0:
68,24,42894,2,0,L|64:124,1,100,8|2,1:1|0:0,0:0:0:0:
296,124,43363,6,0,L|300:184,1,50,8|8,1:1|1:1,0:0:0:0:
180,172,43714,1,0,0:0:0:0:
364,124,43831,2,0,L|476:124,1,100,8|2,1:1|0:0,0:0:0:0:
400,124,44183,1,0,0:0:0:0:
248,124,44300,2,0,L|184:124,2,50,8|0|2,1:1|0:0|0:0,0:0:0:0:
476,212,44769,1,8,1:1:0:0:
484,92,45003,1,2,0:0:0:0:
236,212,45238,6,0,L|184:212,1,50,8|0,1:1|0:0,0:0:0:0:
368,212,45472,1,2,0:0:0:0:
456,212,45590,1,14,0:0:0:0:
368,212,45707,1,0,0:0:0:0:
264,268,45941,2,0,L|262:320,1,50,2|0,0:0|0:0,0:0:0:0:
340,316,46176,1,8,1:1:0:0:
138,316,46410,2,0,L|84:316,1,50,2|0,0:0|0:0,0:0:0:0:
292,212,46644,2,0,L|344:212,1,50,8|8,1:1|1:1,0:0:0:0:
118,212,46879,2,0,L|66:212,1,50,8|8,1:1|1:1,0:0:0:0:
484,192,48520,6,0,P|504:120|480:48,1,150,0|0,0:0|0:0,0:0:0:0:
261,47,49005,6,0,L|197:47,1,62.5,8|2,1:1|0:0,0:0:0:0:
284,48,49239,2,0,L|288:120,1,62.5,0|2,0:0|0:0,0:0:0:0:
84,112,49473,2,0,B|84:176|84:176|144:176,1,125,8|2,1:1|0:0,0:0:0:0:
227,110,49825,1,2,0:0:0:0:
376,112,49942,2,0,L|448:112,2,62.5,4|8|6,1:1|1:1|0:0,0:0:0:0:
124,192,50411,1,8,1:1:0:0:
200,192,50528,1,8,1:1:0:0:
276,192,50645,1,0,0:0:0:0:
24,192,50880,6,0,L|20:264,1,62.5,8|0,1:1|0:0,0:0:0:0:
96,256,51114,2,0,L|32:256,1,62.5,2|2,0:0|0:0,0:0:0:0:
236,256,51349,2,0,L|360:256,1,125,8|2,1:1|0:0,0:0:0:0:
112,256,51817,2,0,L|104:332,2,62.5,8|0|2,1:1|0:0|0:0,0:0:0:0:
344,256,52286,2,0,L|280:256,1,62.5,8|8,1:1|1:1,0:0:0:0:
196,256,52521,2,0,L|188:328,1,62.5,0|8,0:0|1:1,0:0:0:0:
392,316,52755,5,12,1:1:0:0:
468,316,52872,1,8,1:1:0:0:
468,240,52989,1,0,0:0:0:0:
392,240,53107,1,2,0:0:0:0:
184,244,53224,1,8,1:1:0:0:
300,244,53458,2,0,L|304:180,1,62.5,8|2,1:1|0:0,0:0:0:0:
152,184,53693,2,0,L|88:184,2,62.5,14|0|8,0:0|0:0|1:1,0:0:0:0:
400,184,54162,2,0,L|464:184,2,62.5,14|8|0,0:0|1:1|0:0,0:0:0:0:
148,184,54630,6,0,L|144:120,1,62.5,14|8,0:0|1:1,0:0:0:0:
284,120,54865,2,0,L|288:52,1,62.5,0|8,0:0|1:1,0:0:0:0:
80,60,55099,2,0,L|76:184,1,125,8|2,1:1|0:0,0:0:0:0:
304,184,55568,1,8,1:1:0:0:
372,184,55685,1,0,0:0:0:0:
440,184,55802,1,2,0:0:0:0:
212,184,56037,2,0,L|140:184,1,62.5,8|8,1:1|1:1,0:0:0:0:
228,184,56271,2,0,L|232:116,1,62.5,2|0,0:0|0:0,0:0:0:0:
20,100,56506,6,0,L|16:176,1,62.5,8|8,1:1|1:1,0:0:0:0:
152,180,56857,1,8,1:1:0:0:
344,180,56974,2,0,B|344:120|344:120|280:120,1,125,8|8,0:1|1:1,0:0:0:0:
200,120,57326,1,0,0:0:0:0:
352,200,57443,2,0,L|424:200,2,62.5,8|0|14,1:1|0:0|0:0,0:0:0:0:
108,200,57912,1,8,1:1:0:0:
150,200,58029,1,2,0:0:0:0:
192,200,58147,1,0,0:0:0:0:
440,260,58381,6,0,L|444:336,1,62.5,8|8,1:1|1:1,0:0:0:0:
368,320,58615,2,0,L|440:320,1,62.5,2|8,0:0|1:1,0:0:0:0:
232,320,58850,2,0,L|228:220,1,93.75,0|0,0:0|0:0,0:0:0:0:
388,192,59319,2,0,L|452:192,2,62.5,14|0|8,0:0|0:0|1:1,0:0:0:0:
156,192,59787,1,14,0:0:0:0:
212,192,59905,1,2,0:0:0:0:
268,192,60022,1,0,0:0:0:0:
200,192,60139,1,0,0:0:0:0:
392,192,60256,6,0,L|460:192,1,62.5,8|8,1:1|1:1,0:0:0:0:
364,192,60491,2,0,L|296:192,1,62.5,0|8,0:0|1:1,0:0:0:0:
108,192,60725,1,8,1:1:0:0:
228,192,60959,2,0,L|232:120,1,62.5,2|2,0:0|0:0,0:0:0:0:
36,56,61194,1,8,1:1:0:0:
104,56,61311,1,0,0:0:0:0:
172,56,61428,1,2,0:0:0:0:
412,80,61663,2,0,L|476:80,2,62.5,8|2|0,1:1|0:0|0:0,0:0:0:0:
172,80,62132,6,0,L|104:80,2,62.5,8|8|0,1:1|1:1|0:0,0:0:0:0:
248,80,62483,1,8,1:1:0:0:
56,80,62600,1,8,1:1:0:0:
172,80,62835,2,0,L|176:148,1,62.5,2|0,0:0|0:0,0:0:0:0:
254,142,63186,2,0,L|186:142,1,62.5,0|8,0:0|0:1,0:0:0:0:
428,148,63538,1,8,1:1:0:0:
440,193,63597,1,0,0:0:0:0:
445,239,63655,1,0,0:0:0:0:
440,286,63714,1,0,0:0:0:0:
428,331,63772,1,0,0:0:0:0:
124,332,64007,6,0,P|88:280|128:212,1,150.000005722046,12|0,0:0|0:0,0:0:0:0:
188,212,64358,1,0,0:0:0:0:
248,212,64476,1,8,0:0:0:0:
128,116,64710,1,0,0:0:0:0:
188,116,64827,1,0,0:0:0:0:
128,116,64944,1,8,0:0:0:0:
89,156,65062,1,0,0:0:0:0:
90,211,65179,1,0,0:0:0:0:
129,251,65296,1,0,0:0:0:0:
185,251,65413,1,8,0:0:0:0:
225,212,65531,1,0,0:0:0:0:
226,157,65648,1,2,0:0:0:0:
188,116,65765,1,0,0:0:0:0:
48,116,65882,6,0,L|44:56,1,50,8|0,0:0|0:0,0:0:0:0:
164,36,66234,2,0,L|216:36,1,50,0|8,0:0|0:0,0:0:0:0:
332,116,66585,2,0,L|272:116,1,50,2|0,0:0|0:0,0:0:0:0:
224,116,66820,1,8,0:0:0:0:
272,152,66937,1,0,0:0:0:0:
288,212,67054,1,0,0:0:0:0:
272,268,67171,1,0,0:0:0:0:
224,304,67289,1,8,0:0:0:0:
464,304,67523,2,0,L|400:304,1,50,8|0,1:1|0:0,0:0:0:0:
224,304,67757,6,0,L|120:304,1,100,12|0,1:1|0:0,0:0:0:0:
356,304,68226,1,12,1:1:0:0:
236,304,68461,2,0,L|232:244,1,50,2|2,0:0|0:0,0:0:0:0:
348,192,68812,2,0,L|352:128,1,50,0|2,0:0|0:0,0:0:0:0:
120,144,69164,2,0,L|232:144,1,100,8|2,1:1|0:0,0:0:0:0:
340,144,69633,6,0,L|344:80,1,50,8|0,0:0|0:0,0:0:0:0:
224,96,69984,1,0,0:0:0:0:
372,96,70102,1,8,1:1:0:0:
252,96,70336,2,0,L|248:160,1,50,2|2,0:0|0:0,0:0:0:0:
368,144,70688,2,0,L|304:144,1,50,0|2,0:0|0:0,0:0:0:0:
88,144,71039,2,0,L|176:192,1,100,8|2,1:1|0:0,0:0:0:0:
480,192,71508,6,0,L|484:256,1,50,12|0,0:0|0:0,0:0:0:0:
364,244,71860,1,0,0:0:0:0:
212,244,71977,1,8,1:1:0:0:
328,328,72211,2,0,L|384:328,1,50,2|2,0:0|0:0,0:0:0:0:
260,328,72563,2,0,L|312:328,1,50,0|2,0:0|0:0,0:0:0:0:
80,328,72914,2,0,L|76:208,1,100,8|2,1:1|0:0,0:0:0:0:
196,192,73383,6,0,L|296:192,1,100,8|0,0:0|0:0,0:0:0:0:
68,192,73852,1,8,1:1:0:0:
188,192,74087,2,0,L|192:136,1,50,2|2,0:0|0:0,0:0:0:0:
72,96,74438,2,0,L|68:44,1,50,0|2,0:0|0:0,0:0:0:0:
300,40,74790,2,0,L|400:40,1,100,8|0,1:1|0:0,0:0:0:0:
168,40,75259,6,0,L|164:96,1,50,8|0,0:0|0:0,0:0:0:0:
284,88,75610,1,0,0:0:0:0:
136,88,75727,1,8,1:1:0:0:
248,180,75962,2,0,L|196:180,1,50,2|2,0:0|0:0,0:0:0:0:
320,180,76313,2,0,L|260:180,1,50,0|2,0:0|0:0,0:0:0:0:
40,180,76665,2,0,L|160:180,1,100,8|2,1:1|0:0,0:0:0:0:
260,180,77134,6,0,L|264:232,1,50,8|0,0:0|0:0,0:0:0:0:
184,228,77368,2,0,L|180:288,1,50,0|0,0:0|0:0,0:0:0:0:
332,276,77603,1,8,1:1:0:0:
212,356,77837,2,0,L|148:356,1,50,2|2,0:0|0:0,0:0:0:0:
224,356,78072,2,0,L|324:356,1,100,0|2,0:0|0:0,0:0:0:0:
92,264,78540,2,0,L|204:264,1,100,8|2,1:1|0:0,0:0:0:0:
252,264,78892,1,0,0:0:0:0:
64,264,79009,6,0,L|60:204,1,50,12|8,1:1|1:1,0:0:0:0:
184,192,79361,1,8,1:1:0:0:
368,192,79478,2,0,L|372:136,1,50,8|0,1:1|0:0,0:0:0:0:
292,112,79712,2,0,L|228:112,1,50,2|0,0:0|0:0,0:0:0:0:
304,112,79947,1,8,0:0:0:0:
242,112,80064,1,0,0:0:0:0:
180,112,80181,1,8,1:1:0:0:
412,112,80416,2,0,L|416:176,1,50,8|0,1:1|0:0,0:0:0:0:
328,192,80650,2,0,L|324:248,1,50,2|0,0:0|0:0,0:0:0:0:
172,240,80884,6,0,L|112:240,1,50,8|8,1:1|1:1,0:0:0:0:
240,240,81236,1,8,1:1:0:0:
88,240,81353,2,0,L|64:192,3,50,8|0|2|0,1:1|0:0|0:0|0:0,0:0:0:0:
184,192,81939,2,0,L|132:192,2,50,0|8|0,0:0|1:1|0:0,0:0:0:0:
336,192,82291,2,0,L|440:192,1,100,8|2,1:1|0:0,0:0:0:0:
204,192,82760,6,0,L|200:252,1,50,8|8,1:1|1:1,0:0:0:0:
320,240,83111,1,8,1:1:0:0:
172,240,83229,2,0,L|168:312,1,50,8|0,1:1|0:0,0:0:0:0:
248,288,83463,2,0,L|252:220,1,50,2|0,0:0|0:0,0:0:0:0:
172,240,83697,2,0,L|120:240,1,50,8|0,0:0|0:0,0:0:0:0:
240,240,84049,1,0,0:0:0:0:
392,236,84166,2,0,L|492:236,1,100,8|2,1:1|0:0,0:0:0:0:
264,140,84635,6,0,L|212:140,1,50,8|8,1:1|1:1,0:0:0:0:
336,140,84987,1,0,0:0:0:0:
184,140,85104,2,0,L|132:140,1,50,8|0,1:1|0:0,0:0:0:0:
136,64,85338,2,0,L|188:64,1,50,2|0,0:0|0:0,0:0:0:0:
368,64,85573,2,0,L|420:64,1,50,12|0,1:1|0:0,0:0:0:0:
352,140,85807,2,0,L|292:140,1,50,2|0,0:0|0:0,0:0:0:0:
488,140,86042,1,12,1:1:0:0:
488,208,86159,1,0,0:0:0:0:
440,260,86276,1,8,1:1:0:0:
372,264,86393,1,0,0:0:0:0:
180,264,86510,6,0,L|116:264,1,50,8|8,1:1|1:1,0:0:0:0:
268,264,86862,1,8,1:1:0:0:
116,264,86979,2,0,L|112:208,1,50,8|0,1:1|0:0,0:0:0:0:
192,192,87214,2,0,L|248:192,1,50,0|0,0:0|0:0,0:0:0:0:
172,192,87448,2,0,L|116:192,2,50,8|0|2,0:0|0:0|0:0,0:0:0:0:
404,192,87917,2,0,L|456:192,1,50,8|0,1:1|0:0,0:0:0:0:
396,112,88151,2,0,L|448:112,1,50,2|0,0:0|0:0,0:0:0:0:
296,112,88386,6,0,L|232:112,1,50,8|8,1:1|1:1,0:0:0:0:
368,112,88737,1,8,1:1:0:0:
216,112,88854,2,0,L|164:112,1,50,8|0,1:1|0:0,0:0:0:0:
246,112,89089,2,0,L|250:164,1,50,2|0,0:0|0:0,0:0:0:0:
108,192,89441,2,0,L|104:252,1,50,0|8,0:0|1:1,0:0:0:0:
336,240,89792,2,0,L|440:240,1,100,8|2,1:1|0:0,0:0:0:0:
132,244,90261,6,0,L|128:324,1,50,8|8,1:1|1:1,0:0:0:0:
248,292,90613,1,8,1:1:0:0:
400,292,90730,2,0,L|452:292,2,50,8|0|2,1:1|0:0|0:0,0:0:0:0:
340,292,91081,1,0,0:0:0:0:
408,292,91199,2,0,L|512:292,1,100,8|8,0:0|1:1,0:0:0:0:
276,292,91667,1,8,1:1:0:0:
408,292,91902,1,2,0:0:0:0:
176,292,92136,6,0,L|120:292,1,50,8|8,1:1|1:1,0:0:0:0:
256,292,92488,1,8,1:1:0:0:
72,292,92605,2,0,L|68:188,1,100,8|2,1:1|0:0,0:0:0:0:
208,192,92957,1,8,0:1:0:0:
128,192,93191,1,0,0:0:0:0:
268,192,93308,2,0,L|320:192,1,50,8|0,1:1|0:0,0:0:0:0:
136,96,93543,2,0,L|90:70,1,50,8|0,1:1|0:0,0:0:0:0:
292,96,93777,2,0,L|337:70,1,50,8|0,1:1|0:0,0:0:0:0:
152,96,94012,6,0,L|148:140,1,25,8|0,1:1|0:0,0:0:0:0:
292,192,94246,2,0,L|288:236,1,25,8|0,1:1|0:0,0:0:0:0:
120,212,94480,2,0,L|116:256,1,25,8|0,1:1|0:0,0:0:0:0:
272,308,94715,2,0,L|268:352,1,25,8|0,1:1|0:0,0:0:0:0:
26,332,94949,2,0,L|182:332,2,150,12|12|12,0:0|0:0|0:0,0:0:0:0:
258,332,95887,6,0,L|262:296,1,25,8|0,1:1|0:0,0:0:0:0:
172,224,96121,2,0,L|168:192,1,25,8|0,1:1|0:0,0:0:0:0:
278,192,96356,2,0,L|274:152,1,25,8|0,1:1|0:0,0:0:0:0:
102,168,96590,1,8,1:1:0:0:
406,192,96824,2,0,L|410:88,1,100,12|8,1:1|1:1,0:0:0:0:
270,92,97293,1,8,1:1:0:0:
498,92,97528,1,12,1:1:0:0:
278,92,97762,6,0,L|178:92,2,100,12|0|0,0:0|0:0|0:0,0:0:0:0:
158,92,98465,1,12,0:0:0:0:
386,92,98700,2,0,L|282:92,2,100,12|2|0,1:1|0:0|0:0,0:0:0:0:
254,92,99403,1,2,0:0:0:0:
374,92,99637,5,12,0:0:0:0:
146,92,99872,2,0,L|142:192,1,100,0|2,0:0|0:0,0:0:0:0:
262,192,100341,1,12,0:0:0:0:
34,192,100575,2,0,L|134:192,1,100,12|8,1:1|1:1,0:0:0:0:
455,192,101044,1,12,1:1:0:0:
395,192,101161,1,0,0:0:0:0:
395,192,101278,1,8,1:1:0:0:
455,192,101395,1,0,0:0:0:0:
272,192,101513,6,0,L|268:168,2,25,14|0|0,0:0|0:0|0:0,0:0:0:0:
344,112,101747,2,0,L|340:88,2,25,2|0|0,0:0|0:0|0:0,0:0:0:0:
267,167,101982,2,0,L|263:143,2,25,10|0|0,0:0|0:0|0:0,0:0:0:0:
348,136,102216,2,0,L|344:112,2,25,2|0|0,0:0|0:0|0:0,0:0:0:0:
219,166,102450,6,0,L|343:166,3,125,14|2|10|2,0:0|0:0|0:0|0:0,0:0:0:0:
22,324,103388,6,0,L|18:284,1,25,12|0,1:1|0:0,0:0:0:0:
174,248,103622,2,0,L|178:208,1,25,8|0,1:1|0:0,0:0:0:0:
334,192,103857,2,0,L|338:152,1,25,8|0,1:1|0:0,0:0:0:0:
186,124,104091,2,0,L|182:92,1,25,2|0,0:0|0:0,0:0:0:0:
424,99,104326,2,0,L|316:99,1,100,12|8,1:1|1:1,0:0:0:0:
264,100,104677,1,0,0:0:0:0:
204,100,104794,1,8,1:1:0:0:
344,100,105029,1,8,1:1:0:0:
112,101,105263,6,0,L|216:101,2,100,12|0|0,0:0|0:0|0:0,0:0:0:0:
244,100,105967,1,12,0:0:0:0:
16,100,106201,2,0,L|12:200,1,100,12|2,1:1|2:2,0:0:0:0:
132,200,106670,1,8,1:1:0:0:
352,200,106904,1,8,1:1:0:0:
220,200,107139,5,12,0:0:0:0:
452,200,107373,2,0,L|456:300,1,100,0|2,0:0|0:0,0:0:0:0:
336,300,107842,1,12,0:0:0:0:
32,300,108076,1,12,1:1:0:0:
232,352,108311,2,0,L|236:300,1,50,8|0,1:1|0:0,0:0:0:0:
56,192,108545,2,0,L|108:192,1,50,12|8,1:1|1:1,0:0:0:0:
292,192,108779,2,0,L|344:192,1,50,8|0,1:1|0:0,0:0:0:0:
124,192,109014,6,0,L|120:128,1,62.5,12|8,1:1|1:1,0:0:0:0:
240,112,109248,2,0,L|248:44,1,62.5,0|8,0:0|1:1,0:0:0:0:
60,48,109483,2,0,L|184:48,1,125,8|8,1:1|1:1,0:0:0:0:
259,49,109834,1,2,0:0:0:0:
392,48,109952,1,8,1:1:0:0:
468,48,110069,1,0,0:0:0:0:
468,124,110186,1,8,1:1:0:0:
216,152,110420,2,0,L|152:152,1,62.5,8|0,1:1|0:0,0:0:0:0:
220,232,110655,2,0,L|284:232,1,62.5,8|0,1:1|0:0,0:0:0:0:
132,232,110889,6,0,L|128:296,1,62.5,8|8,1:1|1:1,0:0:0:0:
452,296,111241,2,0,P|500:240|444:148,1,187.5,8|8,1:1|1:1,0:0:0:0:
364,148,111710,1,2,0:0:0:0:
224,148,111827,1,8,1:1:0:0:
296,148,111944,1,0,0:0:0:0:
368,148,112061,1,8,1:1:0:0:
224,148,112296,2,0,L|160:148,1,62.5,8|2,1:1|0:0,0:0:0:0:
352,148,112530,2,0,L|356:84,1,62.5,12|2,0:0|0:0,0:0:0:0:
216,36,112764,6,0,L|212:104,1,62.5,8|8,1:1|1:1,0:0:0:0:
300,148,112999,2,0,L|236:148,1,62.5,0|8,0:0|1:1,0:0:0:0:
440,148,113233,2,0,L|448:276,1,125,8|8,1:1|1:1,0:0:0:0:
372,272,113585,1,2,0:0:0:0:
224,272,113702,2,0,L|220:200,1,62.5,8|0,1:1|0:0,0:0:0:0:
296,192,113937,1,8,1:1:0:0:
48,192,114171,1,8,1:1:0:0:
12,108,114288,2,0,L|20:76,4,31.25,2|0|8|0|0,0:0|0:0|0:1|0:0|0:0,0:0:0:0:
212,108,114640,6,0,L|276:108,2,62.5,8|8|0,1:1|1:1|0:0,0:0:0:0:
400,108,114991,1,8,1:1:0:0:
228,48,115343,2,0,L|170:82,1,62.5,8|0,1:1|0:0,0:0:0:0:
308,48,115567,2,0,L|380:48,2,62.5,8|0|8,1:1|0:0|1:1,0:0:0:0:
48,48,116035,1,8,1:1:0:0:
48,48,116153,1,8,1:1:0:0:
208,48,116387,1,8,1:1:0:0:
24,48,116504,6,0,L|20:128,1,62.5,8|8,1:1|1:1,0:0:0:0:
108,108,116739,2,0,L|44:108,1,62.5,0|8,0:0|1:1,0:0:0:0:
244,108,116973,2,0,L|372:108,1,125,8|2,1:1|0:0,0:0:0:0:
292,108,117325,1,2,0:0:0:0:
144,108,117453,1,8,1:1:0:0:
208,108,117570,1,0,0:0:0:0:
272,108,117687,1,8,1:1:0:0:
144,108,117921,2,0,L|208:108,1,62.5,8|8,1:1|1:1,0:0:0:0:
332,84,118273,1,8,1:1:0:0:
180,84,118390,6,0,L|116:84,2,62.5,8|0|0,1:1|1:1|0:0,0:0:0:0:
368,84,118742,2,0,L|432:84,1,62.5,8|0,1:1|0:0,0:0:0:0:
356,84,118976,1,0,0:0:0:0:
264,238,119093,2,0,L|327:238,1,62.5,2|2,0:0|0:0,0:0:0:0:
124,177,119328,2,0,L|60:177,2,62.5,8|0|8,1:1|0:0|1:1,0:0:0:0:
276,176,119797,1,8,1:1:0:0:
276,100,119914,1,8,1:1:0:0:
200,100,120031,1,0,0:0:0:0:
452,100,120265,6,0,L|456:32,1,62.5,8|0,1:1|0:0,0:0:0:0:
368,40,120500,1,0,0:0:0:0:
444,40,120617,1,0,0:0:0:0:
244,40,120734,2,0,L|112:40,1,125,8|8,1:1|1:1,0:0:0:0:
196,40,121086,1,2,0:0:0:0:
52,40,121203,2,0,L|40:108,2,62.5,8|0|8,1:1|0:0|1:1,0:0:0:0:
264,44,121658,2,0,L|263:90,1,31.25,8|0,1:1|0:0,0:0:0:0:
160,140,121892,2,0,L|161:186,1,31.25,2|0,0:0|0:0,0:0:0:0:
348,172,122126,6,0,L|284:172,1,62.5,8|0,1:1|0:0,0:0:0:0:
360,172,122361,1,0,0:0:0:0:
172,172,122478,1,8,1:1:0:0:
284,296,122830,2,0,L|288:232,1,62.5,8|2,1:1|0:0,0:0:0:0:
148,232,123064,1,8,1:1:0:0:
300,320,123298,2,0,L|372:320,1,62.5,8|0,1:1|0:0,0:0:0:0:
164,320,123533,2,0,L|222:286,1,62.5,8|8,1:1|1:1,0:0:0:0:
404,228,123767,2,0,L|320:228,1,62.5,8|0,1:1|0:0,0:0:0:0:
130,227,124002,6,0,L|126:151,1,62.5,12|8,1:1|1:1,0:0:0:0:
222,143,124236,2,0,L|242:79,1,62.5,0|8,0:0|1:1,0:0:0:0:
428,84,124470,1,8,1:1:0:0:
304,84,124705,2,0,L|232:84,1,62.5,2|0,0:0|0:0,0:0:0:0:
444,84,124939,1,8,1:1:0:0:
444,160,125056,1,0,0:0:0:0:
376,192,125174,1,8,1:1:0:0:
140,192,125408,2,0,L|84:224,2,62.5,8|2|8,1:1|0:0|1:1,0:0:0:0:
256,192,125760,1,2,0:0:0:0:
456,192,125877,6,0,L|464:272,1,62.5,8|8,1:1|1:1,0:0:0:0:
136,256,126229,2,0,P|76:192|136:140,1,187.5,8|2,1:1|0:0,0:0:0:0:
224,140,126697,1,2,0:0:0:0:
36,64,126815,1,8,1:1:0:0:
98,64,126932,1,0,0:0:0:0:
160,64,127049,1,8,1:1:0:0:
380,64,127283,2,0,L|316:64,1,62.5,8|8,1:1|1:1,0:0:0:0:
252,64,127518,2,0,L|248:136,1,62.5,0|8,0:0|1:1,0:0:0:0:
436,192,127752,6,0,L|364:192,1,62.5,8|8,1:1|1:1,0:0:0:0:
456,276,127987,2,0,L|380:276,1,62.5,0|8,0:0|1:1,0:0:0:0:
208,276,128221,1,8,1:1:0:0:
340,276,128455,2,0,L|344:352,1,62.5,2|2,0:0|0:0,0:0:0:0:
140,340,128690,2,0,L|68:340,2,62.5,8|0|8,1:1|0:0|1:1,0:0:0:0:
376,340,129159,1,8,1:1:0:0:
376,264,129276,1,8,1:1:0:0:
320,212,129393,1,0,0:0:0:0:
244,212,129510,1,8,1:1:0:0:
432,212,129627,6,0,L|436:140,1,62.5,8|0,1:1|0:0,0:0:0:0:
348,148,129862,1,0,0:0:0:0:
160,148,129979,1,8,0:1:0:0:
300,16,130331,2,0,L|364:16,1,62.5,2|2,0:0|0:0,0:0:0:0:
172,16,130565,1,8,1:1:0:0:
96,16,130682,1,8,1:1:0:0:
96,92,130800,1,2,0:0:0:0:
172,92,130917,1,0,0:0:0:0:
360,92,131034,2,0,L|424:92,1,62.5,8|2,1:1|0:0,0:0:0:0:
220,192,131268,2,0,L|152:192,1,62.5,8|2,1:1|0:0,0:0:0:0:
356,192,131503,6,0,L|360:260,1,62.5,12|8,1:1|1:1,0:0:0:0:
268,256,131737,2,0,L|244:320,1,62.5,0|8,0:0|1:1,0:0:0:0:
56,316,131972,2,0,L|192:316,1,125,8|2,1:1|0:0,0:0:0:0:
100,316,132323,1,0,0:0:0:0:
304,316,132440,2,0,L|368:316,2,62.5,8|2|2,1:1|0:0|0:0,0:0:0:0:
72,316,132909,2,0,L|76:240,1,62.5,8|8,1:1|1:1,0:0:0:0:
208,256,133261,1,8,1:1:0:0:
412,256,133378,6,0,L|416:192,1,62.5,8|2,1:1|0:0,0:0:0:0:
88,192,133730,2,0,P|104:120|200:68,1,187.5,8|2,1:1|0:0,0:0:0:0:
284,68,134199,1,2,0:0:0:0:
96,68,134316,1,8,1:1:0:0:
96,68,134433,1,0,0:0:0:0:
160,68,134550,1,2,0:0:0:0:
392,68,134785,2,0,L|320:68,1,62.5,8|8,1:1|1:1,0:0:0:0:
268,144,135019,2,0,L|340:144,1,62.5,0|8,0:0|1:1,0:0:0:0:
144,144,135253,6,0,L|140:224,1,62.5,8|0,1:1|0:0,0:0:0:0:
276,206,135605,1,8,1:1:0:0:
140,206,135722,1,8,1:1:0:0:
164,208,135957,1,2,0:0:0:0:
240,208,136074,1,2,0:0:0:0:
360,292,136191,2,0,L|428:292,2,62.5,8|0|8,1:1|0:0|1:1,0:0:0:0:
128,292,136660,1,8,1:1:0:0:
108,264,136718,1,0,0:0:0:0:
128,292,136777,1,2,0:0:0:0:
196,208,136894,1,8,1:1:0:0:
232,208,136953,1,0,0:0:0:0:
196,208,137011,1,2,0:0:0:0:
72,212,137129,5,8,1:1:0:0:
372,212,137363,2,0,L|376:88,1,125,12|0,1:1|0:0,0:0:0:0:
152,88,137832,1,12,1:1:0:0:
452,88,138066,1,12,1:1:0:0:
140,88,138301,1,12,1:1:0:0:
300,24,138535,5,0,0:0:0:0:
188,24,139004,6,0,P|152:72|188:120,1,125,8|0,1:1|0:0,0:0:0:0:
256,120,139356,1,8,1:1:0:0:
440,120,139473,2,0,L|444:248,1,100,8|2,1:1|0:0,0:0:0:0:
372,220,139824,1,0,0:0:0:0:
220,220,139942,1,8,1:1:0:0:
288,220,140059,1,8,1:1:0:0:
356,220,140176,1,2,0:0:0:0:
116,220,140410,1,8,1:1:0:0:
44,220,140528,1,8,1:1:0:0:
44,288,140645,1,0,0:0:0:0:
116,288,140762,1,0,0:0:0:0:
296,288,140879,6,0,L|352:288,1,50,8|0,1:1|0:0,0:0:0:0:
272,364,141114,2,0,L|212:364,1,50,0|8,0:0|1:1,0:0:0:0:
404,288,141348,1,0,0:0:0:0:
292,192,141582,2,0,L|348:192,1,50,2|2,0:0|0:0,0:0:0:0:
192,192,141817,2,0,L|116:192,2,50,8|8|2,1:1|1:1|0:0,0:0:0:0:
432,192,142286,2,0,L|436:128,1,50,8|8,1:1|1:1,0:0:0:0:
356,104,142520,2,0,L|300:104,1,50,0|0,0:0|0:0,0:0:0:0:
124,100,142755,6,0,L|120:40,1,50,8|8,1:1|1:1,0:0:0:0:
252,52,143106,1,8,1:1:0:0:
60,52,143223,2,0,L|176:52,1,100,8|2,1:1|0:0,0:0:0:0:
392,52,143692,1,8,1:1:0:0:
324,52,143809,1,8,1:1:0:0:
392,52,143927,1,2,0:0:0:0:
168,52,144161,2,0,L|164:128,1,50,8|8,1:1|1:1,0:0:0:0:
248,148,144395,2,0,L|304:148,1,50,0|0,0:0|0:0,0:0:0:0:
448,148,144630,6,0,L|452:232,1,50,8|8,1:1|1:1,0:0:0:0:
320,196,144981,1,8,1:1:0:0:
136,196,145099,2,0,L|269:193,1,119.999996337891,0|8,0:0|1:1,0:0:0:0:
24,196,145567,1,8,1:1:0:0:
24,268,145685,1,8,1:1:0:0:
92,268,145802,1,2,0:0:0:0:
312,196,146036,1,8,1:1:0:0:
372,196,146154,1,8,1:1:0:0:
372,136,146271,1,0,0:0:0:0:
296,136,146388,1,0,0:0:0:0:
480,140,146505,6,0,L|484:76,1,50,8|8,1:1|1:1,0:0:0:0:
352,92,146857,1,8,1:1:0:0:
168,92,146974,1,8,1:1:0:0:
296,92,147208,2,0,L|232:92,1,50,2|0,0:0|0:0,0:0:0:0:
100,92,147443,2,0,L|88:24,2,50,8|8|2,1:1|1:1|0:0,0:0:0:0:
400,96,147912,2,0,L|348:96,1,50,8|8,1:1|1:1,0:0:0:0:
420,96,148146,2,0,L|424:164,1,50,2|0,0:0|0:0,0:0:0:0:
232,192,148380,6,0,L|164:192,1,50,8|8,1:1|1:1,0:0:0:0:
120,272,148615,2,0,L|176:272,1,50,0|8,0:0|1:1,0:0:0:0:
356,272,148849,1,0,0:0:0:0:
226,272,149084,2,0,L|222:344,1,50,2|0,0:0|0:0,0:0:0:0:
374,324,149318,1,8,1:1:0:0:
314,324,149435,1,8,1:1:0:0:
374,324,149552,1,2,0:0:0:0:
148,192,149787,2,0,L|98:192,1,50,8|8,1:1|1:1,0:0:0:0:
22,192,150021,1,0,0:0:0:0:
92,192,150139,1,0,0:0:0:0:
272,192,150256,6,0,L|212:192,1,50,8|8,1:1|1:1,0:0:0:0:
100,192,150607,1,8,1:1:0:0:
288,192,150725,2,0,L|388:192,1,100,8|8,1:1|1:1,0:0:0:0:
320,192,151076,1,2,0:0:0:0:
188,192,151193,2,0,L|136:192,2,50,8|8|2,1:1|1:1|0:0,0:0:0:0:
428,40,151662,2,0,L|372:40,1,50,8|8,1:1|1:1,0:0:0:0:
328,40,151897,2,0,L|388:40,1,50,0|0,0:0|0:0,0:0:0:0:
196,40,152131,6,0,L|124:40,1,50,8|8,1:1|1:1,0:0:0:0:
272,40,152483,1,8,1:1:0:0:
456,40,152600,2,0,B|456:104|456:104|392:104,1,125,0|2,0:0|0:0,0:0:0:0:
324,104,152951,1,0,0:0:0:0:
176,104,153069,1,8,1:1:0:0:
172,178,153186,1,8,1:1:0:0:
168,253,153303,1,2,0:0:0:0:
468,256,153537,6,0,L|472:372,1,100,0|0,0:0|0:0,0:0:0:0:
172,356,154006,6,0,L|112:356,1,50,8|8,1:1|1:1,0:0:0:0:
244,356,154358,1,8,1:1:0:0:
396,356,154475,2,0,L|400:252,1,100,8|0,1:1|0:0,0:0:0:0:
208,192,154827,2,0,L|104:192,1,100,8|8,1:1|1:1,0:0:0:0:
168,192,155178,1,8,1:1:0:0:
400,192,155413,2,0,L|348:192,1,50,8|0,1:1|0:0,0:0:0:0:
408,192,155647,2,0,L|468:192,1,50,2|0,0:0|0:0,0:0:0:0:
272,192,155882,6,0,L|216:192,1,50,8|8,1:1|1:1,0:0:0:0:
296,192,156233,1,8,1:1:0:0:
112,192,156350,2,0,L|4:192,1,100,0|2,0:0|0:0,0:0:0:0:
204,192,156702,2,0,L|80:192,1,125,8|0,1:1|0:0,0:0:0:0:
12,192,157054,1,2,0:0:0:0:
248,100,157288,1,8,1:1:0:0:
272,100,157405,1,8,1:1:0:0:
296,100,157522,1,2,0:0:0:0:
40,100,157757,6,0,L|36:48,1,50,8|0,1:1|0:0,0:0:0:0:
156,52,158109,1,0,0:0:0:0:
364,52,158226,2,0,L|248:52,1,100,8|2,1:1|0:0,0:0:0:0:
324,52,158577,1,0,0:0:0:0:
472,52,158695,1,8,1:1:0:0:
472,112,158812,1,8,1:1:0:0:
412,112,158929,1,2,0:0:0:0:
180,140,159163,2,0,L|176:212,1,50,8|8,1:1|1:1,0:0:0:0:
248,188,159398,2,0,L|192:188,1,50,2|0,0:0|0:0,0:0:0:0:
384,188,159632,6,0,L|456:188,1,50,8|0,1:1|0:0,0:0:0:0:
312,188,159984,1,8,1:1:0:0:
128,188,160101,2,0,L|124:304,1,100,0|2,0:0|0:0,0:0:0:0:
196,288,160453,1,2,0:0:0:0:
332,288,160570,1,8,1:1:0:0:
264,288,160687,1,8,1:1:0:0:
196,288,160804,1,2,0:0:0:0:
496,288,161039,2,0,L|500:228,1,50,8|8,1:1|1:1,0:0:0:0:
412,192,161273,2,0,L|348:192,1,50,2|0,0:0|0:0,0:0:0:0:
168,192,161507,6,0,L|112:192,1,50,8|8,1:1|1:1,0:0:0:0:
256,192,161859,1,8,1:1:0:0:
60,108,161976,2,0,L|164:108,1,100,8|2,1:1|0:0,0:0:0:0:
304,108,162328,2,0,L|196:108,1,100,0|8,0:0|1:1,0:0:0:0:
132,108,162680,1,2,0:0:0:0:
436,108,162914,2,0,L|364:108,1,50,8|8,1:1|1:1,0:0:0:0:
456,32,163148,2,0,L|508:32,1,50,0|0,0:0|0:0,0:0:0:0:
316,32,163383,6,0,L|248:32,1,50,8|8,1:1|1:1,0:0:0:0:
136,32,163734,1,8,1:1:0:0:
327,32,163852,1,0,0:0:0:0:
212,32,164086,2,0,L|208:104,1,50,2|0,0:0|0:0,0:0:0:0:
360,124,164320,2,0,L|416:124,2,50,8|8|2,1:1|1:1|0:0,0:0:0:0:
56,124,164789,1,8,1:1:0:0:
124,124,164906,1,8,1:1:0:0:
124,124,165024,1,0,0:0:0:0:
56,124,165141,1,0,0:0:0:0:
256,124,165258,6,0,L|312:124,1,50,8|8,1:1|1:1,0:0:0:0:
176,124,165610,1,8,1:1:0:0:
376,124,165727,2,0,L|480:124,1,100,8|2,1:1|0:0,0:0:0:0:
336,124,166079,2,0,L|228:124,1,100,0|8,0:0|1:1,0:0:0:0:
314,124,166430,1,2,0:0:0:0:
16,124,166665,2,0,L|72:124,1,50,8|8,1:1|1:1,0:0:0:0:
136,192,166899,2,0,L|60:192,1,50,0|8,0:0|1:1,0:0:0:0:
272,192,167133,6,0,L|276:260,1,50,8|0,1:1|0:0,0:0:0:0:
160,192,167485,1,8,0:1:0:0:
344,192,167602,2,0,L|472:192,1,125,0|2,0:0|0:0,0:0:0:0:
268,104,167954,2,0,L|144:104,1,125,2|0,0:0|0:0,0:0:0:0:
68,104,168305,1,2,0:0:0:0:
372,104,168540,1,8,1:1:0:0:
388,137,168598,1,0,0:0:0:0:
396,174,168657,1,2,0:0:0:0:
395,211,168716,1,0,0:0:0:0:
385,247,168774,1,0,0:0:0:0:
296,248,168891,1,0,0:0:0:0:
78,302,169019,6,0,P|70:214|86:98,1,200,10|0,0:0|0:0,0:0:0:0:
208,104,169722,1,0,0:0:0:0:
334,210,169956,2,0,L|342:94,1,100,0|0,0:0|0:0,0:0:0:0:
256,192,170659,12,0,172535,0:0:0:0:
304,192,172769,6,0,L|404:192,2,100,0|0|0,0:0|0:0|0:0,0:0:0:0:
184,192,173472,1,0,0:0:0:0:
64,192,173707,2,0,L|184:192,1,100,0|0,0:0|0:0,0:0:0:0:
256,192,174410,12,0,176285,0:0:0:0:
344,192,176520,5,0,0:0:0:0:
204,192,176754,1,0,0:0:0:0:
64,192,176988,1,0,0:0:0:0:
204,192,177223,1,0,0:0:0:0:
344,192,177457,2,0,L|444:192,1,100,0|0,0:0|0:0,0:0:0:0:
256,192,178161,12,0,180036,0:0:0:0:
316,192,180270,5,0,0:0:0:0:
176,192,180505,1,0,0:0:0:0:
296,192,180739,2,0,L|304:80,1,100,0|0,0:0|0:0,0:0:0:0:
164,92,181208,2,0,L|64:92,1,100,0|0,0:0|0:0,0:0:0:0:
256,192,181911,12,0,183786,0:0:0:0:
