osu file format v14

[General]
AudioFilename: audio.mp3
AudioLeadIn: 0
PreviewTime: 45254
Countdown: 0
SampleSet: Soft
StackLeniency: 0.7
Mode: 2
LetterboxInBreaks: 0
WidescreenStoryboard: 1

[Editor]
Bookmarks: 2123,17125,32127,49005,64007,79010,94012,109014,124017,139019,154021,169024,172774,176525,180275,183323
DistanceSpacing: 1.4
BeatDivisor: 4
GridSize: 4
TimelineZoom: 2.3

[Metadata]
Title:WTF?
TitleUnicode:WTF?
Artist:LukHash
ArtistUnicode:LukHash
Creator:wonjae
Version:HyperiBomb's Platter
Source:osu!
Tags:digital memories chiptune rock electro glitch distortion Nelly JBHyperion MBomb Magic Bomb Paranoid Grapes Absolute Zero
BeatmapID:2159476
BeatmapSetID:1031588

[Difficulty]
HPDrainRate:5
CircleSize:3
OverallDifficulty:7.8
ApproachRate:7.8
SliderMultiplier:2
SliderTickRate:1

[Events]
//Background and Video events
0,0,"pixel arf.jpg",0,0
//Break Periods
//Storyboard Layer 0 (Background)
//Storyboard Layer 1 (Fail)
//Storyboard Layer 2 (Pass)
//Storyboard Layer 3 (Foreground)
//Storyboard Layer 4 (Overlay)
//Storyboard Sound Samples

[TimingPoints]
2123,468.82325363338,4,2,2,40,1,0
16172,468.82325363338,4,2,2,40,1,0
17109,468.82325363338,4,2,2,40,1,0
17125,-100,4,2,2,50,0,0
32127,-100,4,2,2,60,0,0
49005,468.82325363338,4,2,2,65,1,1
49005,-100,4,2,2,65,0,1
51231,-80,4,2,2,65,0,1
51583,-100,4,2,2,65,0,1
64007,-100,4,2,2,50,0,0
94012,-100,4,2,2,60,0,0
109014,-100,4,2,2,65,0,1
111241,-80,4,2,2,65,0,1
111593,-100,4,2,2,65,0,1
115567,468.82325363338,4,2,2,65,1,1
117453,468.82325363338,4,2,2,65,1,1
121658,468.82325363338,4,2,2,65,1,1
138535,-100,4,2,2,55,0,0
139004,-100,4,2,2,60,0,1
139238,-100,4,2,2,60,0,0
153537,-80,4,2,2,60,0,0
154021,-100,4,2,2,60,0,0
169019,468.82325363338,4,2,2,60,1,0
169019,-133.333333333333,4,2,2,30,0,0

[Colours]
Combo1 : 131,160,90
Combo2 : 53,172,23
Combo3 : 10,120,54
Combo4 : 82,99,58

[HitObjects]
384,192,2123,6,0,P|444:136|384:56,1,200,6|2,3:2|0:0,0:0:0:0:
272,56,2826,1,0,0:0:0:0:
496,56,3060,2,0,P|504:136|496:256,1,200,8|2,1:1|0:0,0:0:0:0:
376,256,3763,1,0,0:0:0:0:
324,256,3881,1,0,0:0:0:0:
276,256,3998,6,0,L|468:192,1,200,2|2,2:2|0:0,0:0:0:0:
84,192,4935,2,0,L|184:192,1,100,8|0,1:1|0:0,0:0:0:0:
304,192,5404,2,0,L|204:192,1,100,2|0,0:0|0:0,0:0:0:0:
424,192,5873,6,0,P|412:124|308:52,1,200,8|2,1:1|0:0,0:0:0:0:
200,52,6576,1,0,0:0:0:0:
420,52,6811,2,0,L|236:132,1,200,8|2,0:1|0:0,0:0:0:0:
116,132,7514,1,0,0:0:0:0:
172,132,7631,1,0,0:0:0:0:
228,132,7748,6,0,L|316:180,2,100,2|0|2,0:0|0:0|0:0,0:0:0:0:
116,132,8452,1,0,0:0:0:0:
336,132,8686,2,0,L|340:244,1,100,8|2,1:1|0:0,0:0:0:0:
228,232,9155,1,2,0:0:0:0:
368,232,9389,1,10,0:0:0:0:
132,232,9624,5,8,1:1:0:0:
292,232,10092,2,0,L|188:232,1,100,2|0,0:0|0:0,0:0:0:0:
412,232,10561,2,0,P|420:172|396:28,1,200,8|2,1:1|0:0,0:0:0:0:
288,36,11265,1,0,0:0:0:0:
236,36,11382,1,0,0:0:0:0:
180,36,11499,5,2,0:0:0:0:
312,132,11968,1,2,0:0:0:0:
204,132,12202,1,2,0:0:0:0:
424,132,12437,2,0,L|432:240,1,100,8|0,1:1|0:0,0:0:0:0:
320,232,12905,2,0,L|220:232,1,100,2|0,0:0|0:0,0:0:0:0:
452,232,13374,6,0,P|444:304|344:372,1,200,12|2,1:1|0:0,0:0:0:0:
236,372,14077,1,0,0:0:0:0:
16,372,14312,2,0,L|200:296,1,200,8|2,1:1|0:0,0:0:0:0:
312,296,15015,1,0,0:0:0:0:
252,296,15132,1,0,0:0:0:0:
192,296,15250,5,2,0:0:0:0:
496,296,15484,1,10,0:0:0:0:
336,296,15953,1,2,0:0:0:0:
32,296,16172,2,0,L|28:192,1,100,8|2,1:1|0:0,0:0:0:0:
148,192,16640,2,0,L|156:72,1,100,14|0,0:0|0:0,0:0:0:0:
468,192,17109,6,0,L|472:136,1,50,8|8,1:1|1:1,0:0:0:0:
352,144,17460,1,8,1:1:0:0:
280,144,17577,2,0,L|180:144,1,100,8|2,1:1|0:0,0:0:0:0:
300,144,18046,2,0,L|304:88,2,50,14|0|2,0:0|0:0|0:0,0:0:0:0:
80,144,18515,2,0,L|184:144,1,100,8|2,1:1|0:0,0:0:0:0:
400,144,18984,6,0,L|404:196,1,50,8|8,1:1|1:1,0:0:0:0:
284,192,19335,1,8,1:1:0:0:
216,192,19453,2,0,L|164:192,1,50,8|0,1:1|0:0,0:0:0:0:
164,272,19687,2,0,L|228:272,1,50,2|0,0:0|0:0,0:0:0:0:
324,272,20039,1,0,0:0:0:0:
264,272,20156,1,8,1:1:0:0:
488,272,20390,2,0,L|388:272,1,100,8|2,1:1|0:0,0:0:0:0:
168,272,20859,6,0,L|160:352,1,50,8|8,1:1|1:1,0:0:0:0:
284,324,21211,1,8,1:1:0:0:
352,324,21328,2,0,L|248:324,1,100,8|2,1:1|0:0,0:0:0:0:
140,324,21797,2,0,L|80:324,2,50,14|0|2,0:0|0:0|0:0,0:0:0:0:
368,324,22266,2,0,L|472:324,1,100,8|2,1:1|0:0,0:0:0:0:
248,324,22734,6,0,L|240:248,1,50,8|8,1:1|1:1,0:0:0:0:
352,192,23086,1,8,1:1:0:0:
276,192,23203,2,0,L|224:192,2,50,8|0|2,1:1|0:0|0:0,0:0:0:0:
496,192,23672,2,0,L|500:136,1,50,8|8,1:1|1:1,0:0:0:0:
432,100,23906,1,2,0:0:0:0:
364,100,24024,1,0,0:0:0:0:
216,100,24141,2,0,L|112:100,1,100,8|2,1:1|0:0,0:0:0:0:
424,100,24610,6,0,L|428:168,1,50,8|8,1:1|1:1,0:0:0:0:
316,152,24961,1,8,1:1:0:0:
240,152,25078,2,0,L|184:152,1,50,8|0,1:1|0:0,0:0:0:0:
140,152,25313,1,2,0:0:0:0:
372,152,25547,2,0,L|376:264,1,100,8|8,1:1|1:1,0:0:0:0:
152,252,26016,2,0,L|144:368,1,100,2|8,0:0|1:1,0:0:0:0:
376,352,26485,6,0,L|320:352,1,50,8|8,1:1|1:1,0:0:0:0:
204,352,26837,1,8,1:1:0:0:
276,352,26954,2,0,L|336:352,1,50,8|0,1:1|0:0,0:0:0:0:
328,272,27188,2,0,L|264:272,1,50,2|0,0:0|0:0,0:0:0:0:
112,272,27657,1,8,1:1:0:0:
344,272,27891,2,0,L|444:272,1,100,8|2,1:1|0:0,0:0:0:0:
136,272,28360,6,0,L|132:216,1,50,8|8,1:1|1:1,0:0:0:0:
244,192,28712,1,8,1:1:0:0:
312,192,28829,2,0,L|316:80,1,100,8|2,1:1|0:0,0:0:0:0:
196,92,29298,2,0,L|296:92,1,100,10|8,0:0|1:1,0:0:0:0:
72,92,29767,2,0,L|68:200,1,100,8|2,1:1|0:0,0:0:0:0:
292,192,30236,6,0,L|296:248,1,50,8|8,1:1|1:1,0:0:0:0:
184,244,30587,1,8,1:1:0:0:
332,244,30704,2,0,L|436:244,1,100,8|2,1:1|0:0,0:0:0:0:
376,244,31056,1,8,1:1:0:0:
136,244,31290,2,0,L|132:312,1,50,8|8,1:1|1:1,0:0:0:0:
368,340,31642,1,8,1:1:0:0:
424,340,31759,1,0,0:0:0:0:
480,340,31876,1,8,1:1:0:0:
160,340,32111,6,0,L|56:340,1,100,14|2,0:0|0:0,0:0:0:0:
288,340,32580,2,0,L|292:240,1,100,8|2,1:1|0:0,0:0:0:0:
224,220,32931,1,2,0:0:0:0:
156,192,33048,2,0,L|264:192,1,100,8|8,1:1|1:1,0:0:0:0:
480,192,33517,2,0,L|484:140,1,50,14|8,0:0|1:1,0:0:0:0:
336,140,33986,5,8,1:1:0:0:
400,140,34103,1,0,0:0:0:0:
190,151,34338,2,0,P|118:101|108:40,1,150,0|2,0:0|0:0,0:0:0:0:
332,44,34924,1,8,1:1:0:0:
382,44,35041,2,0,L|384:104,1,50,0|2,0:0|0:0,0:0:0:0:
264,96,35393,1,8,1:1:0:0:
492,96,35627,1,8,1:1:0:0:
276,96,35861,6,0,L|272:196,1,100,14|2,0:0|0:0,0:0:0:0:
160,192,36330,2,0,L|156:296,1,100,8|2,1:1|0:0,0:0:0:0:
224,292,36682,1,2,0:0:0:0:
292,292,36799,2,0,L|296:192,1,100,8|2,1:1|0:0,0:0:0:0:
68,192,37268,2,0,L|64:136,1,50,8|8,1:1|1:1,0:0:0:0:
216,140,37737,5,8,1:1:0:0:
440,140,37971,2,0,L|320:140,2,100,14|0|2,0:0|0:0|0:0,0:0:0:0:
216,140,38674,2,0,L|212:28,1,100,8|2,1:1|0:0,0:0:0:0:
344,40,39143,1,8,1:1:0:0:
132,40,39378,1,8,1:1:0:0:
352,140,39612,6,0,L|252:140,1,100,14|2,0:0|0:0,0:0:0:0:
152,140,40081,1,8,1:1:0:0:
272,140,40315,1,2,0:0:0:0:
228,140,40432,1,2,0:0:0:0:
80,140,40550,2,0,L|24:140,2,50,8|0|2,1:1|0:0|0:0,0:0:0:0:
304,48,41018,2,0,L|360:48,1,50,8|8,1:1|1:1,0:0:0:0:
204,48,41487,6,0,L|200:120,1,50,8|0,1:1|0:0,0:0:0:0:
428,96,41839,2,0,B|432:192|432:192|376:192,1,150,0|2,0:0|0:0,0:0:0:0:
316,192,42308,1,2,0:0:0:0:
168,192,42425,1,8,1:1:0:0:
166,241,42542,1,0,0:0:0:0:
164,291,42659,1,2,0:0:0:0:
284,292,42894,2,0,L|180:292,1,100,8|2,1:1|0:0,0:0:0:0:
412,292,43363,6,0,L|512:292,1,100,8|2,1:1|0:0,0:0:0:0:
398,292,43831,1,8,1:1:0:0:
284,292,44066,1,2,0:0:0:0:
504,192,44300,1,8,1:1:0:0:
448,192,44417,1,0,0:0:0:0:
392,192,44535,1,2,0:0:0:0:
272,192,44769,2,0,L|268:84,1,100,8|2,1:1|0:0,0:0:0:0:
388,92,45238,5,8,1:1:0:0:
172,96,45472,2,0,P|104:148|176:192,1,200,2|2,0:0|0:0,0:0:0:0:
396,192,46176,1,8,1:1:0:0:
288,192,46410,2,0,L|212:192,1,50,2|0,0:0|0:0,0:0:0:0:
388,280,46644,2,0,L|440:280,1,50,8|8,1:1|1:1,0:0:0:0:
368,280,46879,2,0,L|300:280,1,50,8|8,1:1|1:1,0:0:0:0:
104,192,49005,6,0,L|100:80,1,100,8|0,1:1|0:0,0:0:0:0:
328,92,49473,2,0,L|436:92,1,100,8|2,1:1|0:0,0:0:0:0:
360,92,49825,2,0,L|256:92,1,100,2|8,0:0|1:1,0:0:0:0:
188,92,50177,1,6,0:0:0:0:
428,92,50411,1,8,1:1:0:0:
431,166,50528,1,8,1:1:0:0:
435,241,50645,1,0,0:0:0:0:
204,244,50880,6,0,L|144:244,1,50,8|0,1:1|0:0,0:0:0:0:
376,308,51231,2,0,P|403:243|317:193,1,187.5,2|2,0:0|0:0,0:0:0:0:
197,193,51817,1,8,1:1:0:0:
257,193,51935,1,0,0:0:0:0:
317,193,52052,1,2,0:0:0:0:
92,192,52286,2,0,L|32:192,2,50,8|8|0,1:1|1:1|0:0,0:0:0:0:
152,192,52638,1,8,1:1:0:0:
300,192,52755,6,0,L|304:84,1,100,12|0,1:1|0:0,0:0:0:0:
72,96,53224,2,0,L|192:96,1,100,8|8,1:1|1:1,0:0:0:0:
236,96,53576,1,2,0:0:0:0:
168,96,53693,2,0,L|104:96,2,50,14|0|8,0:0|0:0|1:1,0:0:0:0:
392,96,54162,1,14,0:0:0:0:
392,164,54279,1,8,1:1:0:0:
328,192,54396,1,0,0:0:0:0:
100,192,54630,6,0,L|96:248,1,50,14|8,0:0|1:1,0:0:0:0:
328,240,54982,2,0,B|428:240|428:240|428:296,1,150,8|2,1:1|0:0,0:0:0:0:
280,356,55568,1,8,1:1:0:0:
340,356,55685,1,0,0:0:0:0:
400,356,55802,1,2,0:0:0:0:
172,356,56037,1,8,1:1:0:0:
112,356,56154,1,8,1:1:0:0:
112,296,56271,1,2,0:0:0:0:
420,296,56506,6,0,L|424:188,1,100,8|0,1:1|0:0,0:0:0:0:
348,192,56857,1,8,1:1:0:0:
196,192,56974,2,0,L|88:192,1,100,8|8,0:1|1:1,0:0:0:0:
164,192,57326,1,0,0:0:0:0:
236,192,57443,2,0,L|300:192,2,50,8|0|14,1:1|0:0|0:0,0:0:0:0:
16,104,57912,1,8,1:1:0:0:
72,104,58029,1,2,0:0:0:0:
128,104,58147,1,0,0:0:0:0:
356,104,58381,6,0,L|360:44,1,50,8|8,1:1|1:1,0:0:0:0:
52,28,58733,2,0,P|52:88|128:104,1,150,8|8,1:1|1:1,0:0:0:0:
200,104,59201,1,0,0:0:0:0:
128,103,59319,2,0,L|72:104,2,50,14|0|8,0:0|0:0|1:1,0:0:0:0:
360,104,59787,1,14,0:0:0:0:
410,104,59905,1,2,0:0:0:0:
460,104,60022,1,0,0:0:0:0:
228,104,60256,6,0,L|224:168,1,50,8|8,1:1|1:1,0:0:0:0:
344,192,60608,1,8,1:1:0:0:
196,192,60725,2,0,L|88:192,1,100,8|2,1:1|0:0,0:0:0:0:
168,192,61077,2,0,L|280:192,1,100,2|0,0:0|0:0,0:0:0:0:
328,192,61428,1,2,0:0:0:0:
104,192,61663,2,0,L|48:192,2,50,8|2|0,1:1|0:0|0:0,0:0:0:0:
328,192,62132,6,0,L|332:248,1,50,8|8,1:1|1:1,0:0:0:0:
24,192,62483,2,0,L|20:348,1,150,8|2,1:1|0:0,0:0:0:0:
92,344,62952,1,0,0:0:0:0:
212,344,63186,1,0,0:0:0:0:
144,344,63304,1,8,0:1:0:0:
368,344,63538,2,0,L|372:292,2,50,8|0|0,1:1|0:0|0:0,0:0:0:0:
64,192,64007,6,0,P|16:152|72:112,1,150,12|0,0:0|0:0,0:0:0:0:
136,192,64476,1,8,0:0:0:0:
264,192,64710,2,0,L|264:128,1,50,0|0,0:0|0:0,0:0:0:0:
136,192,65062,2,0,L|136:136,1,50,0|0,0:0|0:0,0:0:0:0:
352,192,65413,2,0,L|408:192,1,50,8|0,0:0|0:0,0:0:0:0:
402,192,65648,2,0,L|352:192,1,50,2|0,0:0|0:0,0:0:0:0:
200,192,65882,6,0,L|144:192,1,50,8|0,0:0|0:0,0:0:0:0:
280,192,66234,2,0,L|336:192,1,50,0|8,0:0|0:0,0:0:0:0:
200,192,66585,2,0,L|144:192,1,50,2|0,0:0|0:0,0:0:0:0:
280,192,66937,1,0,0:0:0:0:
224,192,67054,1,0,0:0:0:0:
168,192,67171,1,0,0:0:0:0:
112,192,67289,1,8,0:0:0:0:
416,192,67523,1,8,1:1:0:0:
416,192,67640,1,0,0:0:0:0:
272,192,67757,6,0,P|208:160|232:96,1,150,12|0,1:1|0:0,0:0:0:0:
376,192,68226,1,12,1:1:0:0:
248,192,68461,2,0,L|312:192,1,50,2|2,0:0|0:0,0:0:0:0:
426,192,68812,2,0,L|362:192,1,50,0|2,0:0|0:0,0:0:0:0:
152,192,69164,2,0,P|88:178|64:128,1,100,8|2,1:1|0:0,0:0:0:0:
296,192,69633,6,0,P|368:160|408:88,1,150,8|0,0:0|0:0,0:0:0:0:
248,192,70102,1,8,1:1:0:0:
120,192,70336,2,0,L|64:192,1,50,2|2,0:0|0:0,0:0:0:0:
198,192,70688,2,0,L|262:192,1,50,0|2,0:0|0:0,0:0:0:0:
16,192,71039,2,0,P|40:136|96:136,1,100,8|2,1:1|0:0,0:0:0:0:
376,192,71508,6,0,P|472:152|496:96,1,150,12|0,0:0|0:0,0:0:0:0:
336,192,71977,1,8,1:1:0:0:
144,192,72211,2,0,L|200:192,1,50,2|2,0:0|0:0,0:0:0:0:
320,192,72563,2,0,L|376:192,1,50,0|2,0:0|0:0,0:0:0:0:
144,192,72914,2,0,L|264:192,1,100,8|2,1:1|0:0,0:0:0:0:
16,192,73383,6,0,P|32:128|128:104,1,150,8|0,0:0|0:0,0:0:0:0:
256,192,73852,1,8,1:1:0:0:
136,192,74087,2,0,L|136:136,1,50,2|2,0:0|0:0,0:0:0:0:
288,192,74321,1,8,0:0:0:0:
288,192,74438,1,0,0:0:0:0:
224,192,74555,1,2,0:0:0:0:
440,192,74790,2,0,P|480:160|440:144,1,100,8|0,1:1|0:0,0:0:0:0:
152,192,75259,6,0,L|96:192,1,50,8|0,0:0|0:0,0:0:0:0:
224,192,75610,1,0,0:0:0:0:
72,192,75727,1,8,1:1:0:0:
168,192,75962,2,0,L|232:192,1,50,2|2,0:0|0:0,0:0:0:0:
90,192,76313,2,0,L|26:192,1,50,0|2,0:0|0:0,0:0:0:0:
256,192,76665,2,0,P|328:168|352:112,1,100,8|2,1:1|0:0,0:0:0:0:
120,192,77134,6,0,L|56:192,1,50,8|0,0:0|0:0,0:0:0:0:
200,192,77486,1,0,0:0:0:0:
352,192,77603,1,8,1:1:0:0:
256,192,77837,2,0,L|184:192,1,50,2|2,0:0|0:0,0:0:0:0:
334,192,78189,2,0,L|414:192,1,50,0|2,0:0|0:0,0:0:0:0:
160,192,78540,2,0,P|112:144|136:88,1,100,8|2,1:1|0:0,0:0:0:0:
424,192,79009,6,0,L|496:192,1,50,12|8,1:1|1:1,0:0:0:0:
352,192,79361,1,8,1:1:0:0:
296,192,79478,1,8,1:1:0:0:
352,192,79595,1,0,0:0:0:0:
170,192,79947,1,8,0:0:0:0:
120,192,80064,2,0,L|170:192,1,50,0|8,0:0|1:1,0:0:0:0:
392,192,80416,2,0,P|440:136|408:112,1,100,8|2,1:1|0:0,0:0:0:0:
208,192,80884,6,0,L|136:192,1,50,8|8,1:1|1:1,0:0:0:0:
280,192,81236,1,8,1:1:0:0:
336,192,81353,1,8,1:1:0:0:
280,192,81471,1,0,0:0:0:0:
344,192,81588,2,0,L|400:192,1,50,2|0,0:0|0:0,0:0:0:0:
264,192,81939,2,0,L|200:192,1,50,0|8,0:0|1:1,0:0:0:0:
432,192,82291,2,0,P|480:136|448:112,1,100,8|2,1:1|0:0,0:0:0:0:
160,192,82760,6,0,L|104:192,1,50,8|8,1:1|1:1,0:0:0:0:
232,192,83111,1,8,1:1:0:0:
176,192,83229,1,8,1:1:0:0:
120,192,83346,1,0,0:0:0:0:
304,192,83697,2,0,L|368:192,2,50,8|0|2,0:0|0:0|0:0,0:0:0:0:
248,192,84049,1,0,0:0:0:0:
96,192,84166,2,0,P|144:144|184:144,1,100,8|2,1:1|0:0,0:0:0:0:
400,192,84635,6,0,L|456:192,1,50,8|8,1:1|1:1,0:0:0:0:
328,192,84987,1,0,0:0:0:0:
384,192,85104,1,8,1:1:0:0:
440,192,85221,1,0,0:0:0:0:
384,192,85338,1,2,0:0:0:0:
328,192,85456,1,0,0:0:0:0:
176,192,85573,1,12,1:1:0:0:
120,192,85690,1,0,0:0:0:0:
120,192,85807,1,2,0:0:0:0:
176,192,85924,1,0,0:0:0:0:
328,192,86042,2,0,P|408:168|432:128,1,100,12|8,1:1|1:1,0:0:0:0:
104,192,86510,6,0,L|48:192,1,50,8|8,1:1|1:1,0:0:0:0:
176,192,86862,1,8,1:1:0:0:
232,192,86979,1,8,1:1:0:0:
288,192,87096,1,0,0:0:0:0:
96,192,87448,2,0,L|208:192,1,100,8|2,0:0|0:0,0:0:0:0:
416,192,87917,2,0,L|304:192,1,100,8|2,1:1|0:0,0:0:0:0:
88,192,88386,6,0,L|152:192,1,50,8|8,1:1|1:1,0:0:0:0:
266,192,88737,2,0,L|330:192,2,50,8|8|0,1:1|1:1|0:0,0:0:0:0:
200,192,89089,2,0,L|136:192,1,50,2|0,0:0|0:0,0:0:0:0:
266,192,89441,1,0,0:0:0:0:
328,192,89558,1,8,1:1:0:0:
328,192,89675,1,0,0:0:0:0:
176,192,89792,2,0,P|72:152|64:136,1,100,8|2,1:1|0:0,0:0:0:0:
394,192,90261,6,0,L|450:192,1,50,8|8,1:1|1:1,0:0:0:0:
322,192,90613,1,8,1:1:0:0:
266,192,90730,1,8,1:1:0:0:
210,192,90847,1,0,0:0:0:0:
402,192,91199,2,0,L|290:192,1,100,8|8,0:0|1:1,0:0:0:0:
82,192,91667,2,0,L|194:192,1,100,8|2,1:1|0:0,0:0:0:0:
408,192,92136,6,0,L|408:128,1,50,8|8,1:1|1:1,0:0:0:0:
288,192,92488,2,0,L|368:192,1,50,8|8,1:1|1:1,0:0:0:0:
458,192,92839,2,0,L|394:192,1,50,2|8,0:0|0:1,0:0:0:0:
272,192,93191,2,0,L|200:192,2,50,0|8|0,0:0|1:1|0:0,0:0:0:0:
424,192,93543,1,8,1:1:0:0:
384,192,93660,1,0,0:0:0:0:
328,192,93777,1,8,1:1:0:0:
24,192,94012,6,0,L|128:192,3,100,8|8|8|8,1:1|1:1|1:1|1:1,0:0:0:0:
344,192,94949,2,0,L|184:192,2,150,12|12|12,0:0|0:0|0:0,0:0:0:0:
120,192,95887,5,8,1:1:0:0:
224,192,96121,1,8,1:1:0:0:
328,192,96356,1,8,1:1:0:0:
432,192,96590,1,8,1:1:0:0:
208,192,96824,2,0,L|88:192,1,100,12|8,1:1|1:1,0:0:0:0:
208,192,97293,1,8,1:1:0:0:
72,192,97528,1,12,1:1:0:0:
384,192,97762,6,0,L|480:192,1,75,12|0,0:0|0:0,0:0:0:0:
336,192,98114,1,12,0:0:0:0:
192,192,98348,1,0,0:0:0:0:
459,192,98700,2,0,L|315:192,1,125,12|0,1:1|0:0,0:0:0:0:
424,192,99169,2,0,P|469:144|456:104,1,100,0|2,0:0|0:0,0:0:0:0:
240,192,99637,6,0,L|144:192,1,75,12|0,0:0|0:0,0:0:0:0:
288,192,99989,1,12,0:0:0:0:
432,192,100223,1,0,0:0:0:0:
165,192,100575,2,0,L|309:192,1,125,12|0,1:1|0:0,0:0:0:0:
80,192,101044,1,12,1:1:0:0:
24,192,101161,1,0,0:0:0:0:
80,192,101278,1,8,1:1:0:0:
384,192,101513,6,0,L|416:176,12,25,14|0|0|0|2|0|0|0|10|0|0|0|2,0:0|0:0|0:0|0:0|0:0|0:0|0:0|0:0|0:0|0:0|0:0|0:0|0:0,0:0:0:0:
168,192,102450,2,0,L|136:176,12,25,14|0|0|0|2|0|0|0|10|0|0|0|2,0:0|0:0|0:0|0:0|0:0|0:0|0:0|0:0|0:0|0:0|0:0|0:0|0:0,0:0:0:0:
384,192,103388,5,12,1:1:0:0:
272,192,103622,1,8,1:1:0:0:
384,192,103857,1,8,1:1:0:0:
272,192,104091,1,2,0:0:0:0:
56,192,104326,2,0,L|176:192,1,100,12|8,1:1|1:1,0:0:0:0:
284,192,104794,2,0,L|404:192,1,100,8|8,1:1|1:1,0:0:0:0:
80,192,105263,6,0,L|-16:192,1,75,12|0,0:0|0:0,0:0:0:0:
128,192,105615,1,12,0:0:0:0:
280,192,105967,1,12,0:0:0:0:
64,192,106201,2,0,L|208:192,1,125,12|0,1:1|0:0,0:0:0:0:
99,192,106670,2,0,P|56:168|24:120,1,100,8|8,1:1|1:1,0:0:0:0:
248,192,107139,6,0,L|344:192,1,75,12|0,0:0|0:0,0:0:0:0:
200,192,107490,1,12,0:0:0:0:
40,192,107842,1,12,0:0:0:0:
264,192,108076,2,0,L|144:192,1,100,12|8,1:1|1:1,0:0:0:0:
384,192,108545,1,12,1:1:0:0:
440,192,108662,1,8,1:1:0:0:
384,192,108779,1,8,1:1:0:0:
80,192,109014,6,0,L|20:192,1,50,12|8,1:1|1:1,0:0:0:0:
96,108,109248,2,0,L|148:108,1,50,0|8,0:0|1:1,0:0:0:0:
296,108,109483,2,0,L|300:212,1,100,8|8,1:1|1:1,0:0:0:0:
228,208,109834,1,2,0:0:0:0:
76,208,109952,1,8,1:1:0:0:
136,208,110069,1,0,0:0:0:0:
196,208,110186,1,8,1:1:0:0:
428,208,110420,2,0,L|432:268,1,50,8|0,1:1|0:0,0:0:0:0:
300,256,110772,1,0,0:0:0:0:
368,256,110889,6,0,L|372:200,1,50,8|8,1:1|1:1,0:0:0:0:
64,204,111241,2,0,P|8:264|64:336,1,187.5,8|8,1:1|1:1,0:0:0:0:
132,336,111710,1,2,0:0:0:0:
284,336,111827,2,0,L|336:336,2,50,8|0|8,1:1|0:0|1:1,0:0:0:0:
164,336,112296,1,8,1:1:0:0:
472,336,112530,1,12,0:0:0:0:
352,336,112764,6,0,L|296:336,1,50,8|8,1:1|1:1,0:0:0:0:
368,248,112999,2,0,L|420:248,1,50,0|8,0:0|1:1,0:0:0:0:
272,248,113233,2,0,L|168:248,1,100,8|8,1:1|1:1,0:0:0:0:
112,248,113585,1,2,0:0:0:0:
264,168,113702,1,8,1:1:0:0:
324,168,113819,2,0,L|328:104,1,50,0|8,0:0|1:1,0:0:0:0:
100,116,114171,2,0,L|96:60,1,50,8|2,1:1|0:0,0:0:0:0:
216,68,114523,1,0,0:0:0:0:
280,68,114640,6,0,L|284:144,1,50,8|8,1:1|1:1,0:0:0:0:
224,120,114874,1,0,0:0:0:0:
82,120,114991,1,8,1:1:0:0:
224,120,115343,1,8,1:1:0:0:
456,120,115567,1,8,1:1:0:0:
456,60,115684,1,0,0:0:0:0:
396,60,115801,1,8,1:1:0:0:
80,184,116035,1,8,1:1:0:0:
16,184,116153,1,8,1:1:0:0:
80,184,116270,1,2,0:0:0:0:
144,184,116387,1,8,1:1:0:0:
296,184,116504,6,0,L|396:192,1,100,8|0,1:1|0:0,0:0:0:0:
168,192,116973,2,0,L|164:296,1,100,8|2,1:1|0:0,0:0:0:0:
236,292,117325,1,2,0:0:0:0:
388,292,117453,2,0,L|448:292,2,50,8|0|8,1:1|0:0|1:1,0:0:0:0:
168,292,117921,2,0,L|164:348,1,50,8|8,1:1|1:1,0:0:0:0:
276,340,118273,1,8,1:1:0:0:
216,340,118390,6,0,L|116:340,1,100,8|0,1:1|0:0,0:0:0:0:
176,296,118742,1,8,1:1:0:0:
236,252,118859,2,0,L|132:252,1,100,0|2,0:0|0:0,0:0:0:0:
368,252,119328,1,8,1:1:0:0:
308,252,119445,1,0,0:0:0:0:
248,252,119562,1,8,1:1:0:0:
20,252,119797,2,0,L|100:192,1,100,8|0,1:1|0:0,0:0:0:0:
332,192,120265,6,0,L|336:136,1,50,8|0,1:1|0:0,0:0:0:0:
224,144,120617,1,0,0:0:0:0:
376,144,120734,2,0,L|484:144,1,100,8|8,1:1|1:1,0:0:0:0:
416,144,121086,1,2,0:0:0:0:
268,56,121203,2,0,L|212:56,2,50,8|0|8,1:1|0:0|1:1,0:0:0:0:
496,56,121658,1,8,1:1:0:0:
376,56,121892,1,2,0:0:0:0:
256,56,122126,5,8,1:1:0:0:
488,56,122361,2,0,L|496:176,1,100,0|0,0:0|0:0,0:0:0:0:
396,192,122830,1,8,1:1:0:0:
192,192,123064,1,8,1:1:0:0:
320,192,123298,1,8,1:1:0:0:
16,192,123533,1,8,1:1:0:0:
16,260,123650,1,8,1:1:0:0:
84,260,123767,1,8,1:1:0:0:
401,192,124002,6,0,L|457:192,1,50,12|8,1:1|1:1,0:0:0:0:
336,192,124353,1,8,1:1:0:0:
187,187,124470,1,8,1:1:0:0:
304,192,124705,2,0,L|304:136,1,50,2|0,0:0|0:0,0:0:0:0:
240,192,124939,1,8,1:1:0:0:
176,192,125056,2,0,L|176:128,1,50,0|8,0:0|1:1,0:0:0:0:
392,192,125408,2,0,L|416:176,4,25,8|0|2|0|8,1:1|0:0|0:0|0:0|1:1,0:0:0:0:
88,192,125877,6,0,L|32:192,1,50,8|8,1:1|1:1,0:0:0:0:
248,192,126229,2,0,L|312:192,1,50,8|8,1:1|1:1,0:0:0:0:
176,192,126580,2,0,L|232:192,1,50,2|2,0:0|0:0,0:0:0:0:
280,192,126815,1,8,1:1:0:0:
226,192,126932,2,0,L|176:192,1,50,0|8,0:0|1:1,0:0:0:0:
392,192,127283,2,0,L|464:192,2,50,8|8|0,1:1|1:1|0:0,0:0:0:0:
88,192,127752,6,0,L|32:192,1,50,8|8,1:1|1:1,0:0:0:0:
160,192,128104,1,8,1:1:0:0:
310,193,128221,1,8,1:1:0:0:
210,192,128455,2,0,L|154:192,2,50,2|2|8,0:0|0:0|1:1,0:0:0:0:
144,192,128807,2,0,L|80:192,1,50,0|8,0:0|1:1,0:0:0:0:
304,192,129159,1,8,1:1:0:0:
248,192,129276,1,8,1:1:0:0:
192,192,129393,1,0,0:0:0:0:
496,192,129627,6,0,L|496:136,1,50,8|0,1:1|0:0,0:0:0:0:
352,192,129862,1,0,0:0:0:0:
232,192,129979,2,0,L|160:192,1,50,8|0,0:1|0:0,0:0:0:0:
304,192,130331,2,0,L|240:192,1,50,2|2,0:0|0:0,0:0:0:0:
104,192,130565,2,0,L|48:192,2,50,8|8|2,1:1|1:1|0:0,0:0:0:0:
408,192,131034,1,8,1:1:0:0:
464,192,131151,1,2,0:0:0:0:
408,192,131268,1,8,1:1:0:0:
104,192,131503,6,0,L|104:136,1,50,12|8,1:1|1:1,0:0:0:0:
224,192,131854,1,8,1:1:0:0:
72,192,131972,1,8,1:1:0:0:
184,192,132206,2,0,L|264:192,1,50,2|0,0:0|0:0,0:0:0:0:
176,192,132440,1,8,1:1:0:0:
120,192,132558,2,0,L|56:192,1,50,2|2,0:0|0:0,0:0:0:0:
288,192,132909,1,8,1:1:0:0:
352,192,133026,1,8,1:1:0:0:
384,192,133144,1,0,0:0:0:0:
80,192,133378,6,0,L|80:136,1,50,8|2,1:1|0:0,0:0:0:0:
288,192,133730,2,0,L|360:192,1,50,8|0,1:1|0:0,0:0:0:0:
216,192,134081,2,0,L|272:192,1,50,2|2,0:0|0:0,0:0:0:0:
216,192,134316,1,8,1:1:0:0:
280,192,134433,2,0,L|344:192,1,50,0|2,0:0|0:0,0:0:0:0:
104,192,134785,1,8,1:1:0:0:
40,192,134902,1,8,1:1:0:0:
104,192,135019,1,0,0:0:0:0:
408,192,135253,6,0,L|352:192,1,50,8|0,1:1|0:0,0:0:0:0:
248,192,135605,1,8,1:1:0:0:
400,192,135722,1,8,1:1:0:0:
280,192,135957,2,0,L|280:136,1,50,2|2,0:0|0:0,0:0:0:0:
344,192,136191,1,8,1:1:0:0:
408,192,136308,2,0,L|408:128,1,50,0|8,0:0|1:1,0:0:0:0:
192,192,136660,2,0,L|144:192,4,25,8|0|2|0|8,1:1|0:0|0:0|0:0|1:1,0:0:0:0:
496,192,137129,6,0,L|384:192,1,100,8|12,1:1|1:1,0:0:0:0:
176,192,137597,2,0,L|304:192,1,100,0|12,0:0|1:1,0:0:0:0:
488,192,138066,1,12,1:1:0:0:
368,192,138301,1,12,1:1:0:0:
496,192,138535,2,0,L|496:80,1,100,0|0,0:0|0:0,0:0:0:0:
176,92,139004,6,0,L|116:92,1,50,8|8,1:1|1:1,0:0:0:0:
228,92,139356,1,8,1:1:0:0:
380,92,139473,2,0,L|484:92,1,100,8|2,1:1|0:0,0:0:0:0:
416,92,139824,2,0,L|316:92,1,100,0|8,0:0|1:1,0:0:0:0:
248,92,140176,1,2,0:0:0:0:
468,92,140410,2,0,L|472:40,2,50,8|8|0,1:1|1:1|0:0,0:0:0:0:
236,92,140879,6,0,L|176:92,1,50,8|0,1:1|0:0,0:0:0:0:
492,192,141231,2,0,B|492:268|492:268|408:268,1,150,8|2,1:1|0:0,0:0:0:0:
288,192,141817,1,8,1:1:0:0:
220,192,141934,1,8,1:1:0:0:
288,192,142051,1,2,0:0:0:0:
64,192,142286,1,8,1:1:0:0:
92,192,142403,1,8,1:1:0:0:
120,192,142520,1,0,0:0:0:0:
340,292,142755,6,0,L|336:232,1,50,8|8,1:1|1:1,0:0:0:0:
228,244,143106,1,8,1:1:0:0:
76,192,143223,2,0,L|176:192,1,100,8|2,1:1|0:0,0:0:0:0:
248,192,143575,2,0,L|136:192,1,100,0|8,0:0|1:1,0:0:0:0:
76,192,143927,1,2,0:0:0:0:
304,192,144161,2,0,L|356:192,2,50,8|8|0,1:1|1:1|0:0,0:0:0:0:
84,192,144630,6,0,L|76:128,1,50,8|8,1:1|1:1,0:0:0:0:
384,192,144981,2,0,P|428:136|388:76,1,150,8|8,1:1|1:1,0:0:0:0:
320,76,145450,2,0,L|436:76,1,100,0|8,0:0|1:1,0:0:0:0:
480,76,145802,1,2,0:0:0:0:
260,76,146036,1,8,1:1:0:0:
200,76,146154,1,8,1:1:0:0:
140,76,146271,1,0,0:0:0:0:
444,76,146505,6,0,L|452:144,1,50,8|8,1:1|1:1,0:0:0:0:
344,192,146857,1,8,1:1:0:0:
192,192,146974,2,0,L|80:192,1,100,8|2,1:1|0:0,0:0:0:0:
164,192,147326,2,0,L|272:192,1,100,0|8,0:0|1:1,0:0:0:0:
196,192,147677,1,2,0:0:0:0:
424,192,147912,1,8,1:1:0:0:
364,192,148029,1,8,1:1:0:0:
304,192,148146,1,2,0:0:0:0:
80,192,148380,6,0,L|76:260,1,50,8|8,1:1|1:1,0:0:0:0:
384,284,148732,2,0,L|236:264,1,150,8|2,1:1|0:0,0:0:0:0:
304,272,149201,2,0,L|188:256,1,100,0|8,0:0|1:1,0:0:0:0:
136,244,149552,1,2,0:0:0:0:
360,192,149787,2,0,L|424:192,2,50,8|8|0,1:1|1:1|0:0,0:0:0:0:
132,192,150256,6,0,L|184:192,1,50,8|8,1:1|1:1,0:0:0:0:
292,192,150607,1,8,1:1:0:0:
140,192,150725,2,0,L|40:192,1,100,8|8,1:1|1:1,0:0:0:0:
112,192,151076,2,0,L|216:192,1,100,2|8,0:0|1:1,0:0:0:0:
276,192,151428,1,2,0:0:0:0:
52,84,151662,1,8,1:1:0:0:
112,84,151779,1,8,1:1:0:0:
172,84,151897,1,0,0:0:0:0:
400,84,152131,6,0,L|456:84,1,50,8|8,1:1|1:1,0:0:0:0:
144,84,152483,2,0,P|100:136|144:192,1,150,8|2,1:1|0:0,0:0:0:0:
212,192,152951,2,0,L|92:192,1,100,0|8,0:0|1:1,0:0:0:0:
40,192,153303,1,2,0:0:0:0:
288,192,153537,2,0,L|412:192,1,125,0|0,0:0|0:0,0:0:0:0:
104,192,154006,6,0,L|31:191,1,62.5,8|8,1:1|1:1,0:0:0:0:
176,192,154358,1,8,1:1:0:0:
328,192,154475,1,8,1:1:0:0:
328,192,154710,1,0,0:0:0:0:
176,192,154827,1,8,1:1:0:0:
16,192,155061,2,0,L|80:192,1,50,8|8,1:1|1:1,0:0:0:0:
288,192,155413,1,8,1:1:0:0:
224,192,155530,1,0,0:0:0:0:
160,192,155647,1,2,0:0:0:0:
376,192,155882,6,0,L|464:192,1,50,8|8,1:1|1:1,0:0:0:0:
208,192,156233,2,0,L|144:192,1,50,8|0,1:1|0:0,0:0:0:0:
272,192,156585,1,2,0:0:0:0:
120,192,156702,1,8,1:1:0:0:
120,192,156936,2,0,L|200:192,1,50,0|2,0:0|0:0,0:0:0:0:
48,192,157288,2,0,L|112:192,1,50,8|8,1:1|1:1,0:0:0:0:
152,192,157522,1,2,0:0:0:0:
456,192,157757,6,0,L|472:144,1,50,8|0,1:1|0:0,0:0:0:0:
344,192,158109,1,0,0:0:0:0:
192,192,158226,1,8,1:1:0:0:
304,192,158460,2,0,L|304:128,1,50,2|0,0:0|0:0,0:0:0:0:
368,192,158695,1,8,1:1:0:0:
432,192,158812,2,0,L|432:128,1,50,8|2,1:1|0:0,0:0:0:0:
216,192,159163,2,0,L|152:192,2,50,8|8|2,1:1|1:1|0:0,0:0:0:0:
432,192,159632,6,0,L|360:192,1,50,8|0,1:1|0:0,0:0:0:0:
160,192,159984,2,0,L|160:136,1,50,8|0,1:1|0:0,0:0:0:0:
288,192,160335,2,0,L|352:192,1,50,2|2,0:0|0:0,0:0:0:0:
272,192,160570,1,8,1:1:0:0:
208,192,160687,2,0,L|144:192,1,50,8|2,1:1|0:0,0:0:0:0:
376,192,161039,2,0,L|440:192,1,50,8|8,1:1|1:1,0:0:0:0:
448,192,161273,1,2,0:0:0:0:
144,192,161507,6,0,L|144:136,1,50,8|8,1:1|1:1,0:0:0:0:
264,192,161859,1,8,1:1:0:0:
112,192,161976,1,8,1:1:0:0:
224,192,162211,2,0,L|224:128,1,50,2|0,0:0|0:0,0:0:0:0:
160,192,162445,1,8,1:1:0:0:
96,192,162562,2,0,L|96:120,1,50,8|2,1:1|0:0,0:0:0:0:
312,192,162914,2,0,L|384:192,2,50,8|8|0,1:1|1:1|0:0,0:0:0:0:
88,192,163383,6,0,L|168:192,1,50,8|8,1:1|1:1,0:0:0:0:
362,192,163734,2,0,L|290:192,1,50,8|0,1:1|0:0,0:0:0:0:
424,192,164086,2,0,L|368:192,1,50,2|0,0:0|0:0,0:0:0:0:
344,192,164320,1,8,1:1:0:0:
374,192,164438,2,0,L|424:192,1,50,8|2,1:1|0:0,0:0:0:0:
208,192,164789,1,8,1:1:0:0:
144,192,164906,1,8,1:1:0:0:
144,192,165024,1,0,0:0:0:0:
448,192,165258,6,0,L|448:136,1,50,8|8,1:1|1:1,0:0:0:0:
328,192,165610,1,8,1:1:0:0:
480,192,165727,1,8,1:1:0:0:
378,192,165961,2,0,L|306:192,1,50,2|0,0:0|0:0,0:0:0:0:
378,192,166196,1,8,1:1:0:0:
312,192,166313,2,0,L|224:192,1,50,8|2,1:1|0:0,0:0:0:0:
472,192,166665,1,8,1:1:0:0:
416,192,166782,1,8,1:1:0:0:
352,192,166899,1,0,0:0:0:0:
128,192,167133,6,0,L|72:192,1,50,8|0,1:1|0:0,0:0:0:0:
296,192,167485,2,0,L|208:192,1,50,8|0,0:1|0:0,0:0:0:0:
128,192,167837,2,0,L|128:128,1,50,2|2,0:0|0:0,0:0:0:0:
248,192,168188,2,0,L|304:192,1,50,0|2,0:0|0:0,0:0:0:0:
80,192,168540,1,8,1:1:0:0:
40,192,168598,1,0,0:0:0:0:
24,192,168657,1,2,0:0:0:0:
40,192,168716,1,0,0:0:0:0:
80,192,168774,1,0,0:0:0:0:
392,192,169019,6,0,L|396:40,1,150.000005722046,10|0,0:0|0:0,0:0:0:0:
200,40,169956,2,0,L|300:40,1,75.0000028610231,0|0,0:0|0:0,0:0:0:0:
256,192,170659,12,0,172300,0:0:0:0:
256,192,172769,5,0,0:0:0:0:
344,192,173003,1,0,0:0:0:0:
432,192,173238,1,0,0:0:0:0:
220,192,173707,2,0,L|120:192,1,75.0000028610231,0|0,0:0|0:0,0:0:0:0:
256,192,174410,12,0,176051,0:0:0:0:
256,192,176520,6,0,L|96:192,1,150.000005722046,0|0,0:0|0:0,0:0:0:0:
348,192,177457,1,0,0:0:0:0:
244,192,177692,1,0,0:0:0:0:
256,192,178161,12,0,179801,0:0:0:0:
256,192,180270,5,0,0:0:0:0:
160,192,180505,1,0,0:0:0:0:
256,192,180739,1,0,0:0:0:0:
32,192,181208,1,0,0:0:0:0:
136,192,181442,1,0,0:0:0:0:
256,192,181911,12,0,183786,0:0:0:0:
