osu file format v14

[General]
AudioFilename: audio.mp3
AudioLeadIn: 0
PreviewTime: 45254
Countdown: 0
SampleSet: Soft
StackLeniency: 0.7
Mode: 2
LetterboxInBreaks: 0
WidescreenStoryboard: 0

[Editor]
Bookmarks: 79010,109014,139019,169024,172774,176525,180275,183323
DistanceSpacing: 0.8
BeatDivisor: 8
GridSize: 8
TimelineZoom: 1.5

[Metadata]
Title:WTF?
TitleUnicode:WTF?
Artist:LukHash
ArtistUnicode:LukHash
Creator:wonjae
Version:Chaos
Source:osu!
Tags:digital memories chiptune rock electro glitch distortion Nelly JBHyperion MBomb Magic Bomb Paranoid Grapes Absolute Zero
BeatmapID:2157151
BeatmapSetID:1031588

[Difficulty]
HPDrainRate:7
CircleSize:4.1
OverallDifficulty:9.3
ApproachRate:9.3
SliderMultiplier:2.2
SliderTickRate:2

[Events]
//Background and Video events
0,0,"pixel arf.jpg",0,0
//Break Periods
//Storyboard Layer 0 (Background)
//Storyboard Layer 1 (Fail)
//Storyboard Layer 2 (Pass)
//Storyboard Layer 3 (Foreground)
//Storyboard Layer 4 (Overlay)
//Storyboard Sound Samples

[TimingPoints]
2123,468.82325363338,4,2,2,40,1,0
16172,468.82325363338,4,2,2,40,1,0
17109,468.82325363338,4,2,2,40,1,0
17125,-100,4,2,2,50,0,0
32127,-66.6666666666667,4,2,2,60,0,0
49005,468.82325363338,4,2,2,65,1,1
49005,-59.8802395209581,4,2,2,65,0,1
64007,-100,4,2,2,50,0,0
94012,-66.6666666666667,4,2,2,60,0,0
109014,-59.8802395209581,4,2,2,65,0,1
115567,468.82325363338,4,2,2,65,1,1
115567,-59.8802395209581,4,2,2,65,0,1
117453,468.82325363338,4,2,2,65,1,1
117453,-59.8802395209581,4,2,2,65,0,1
121658,468.82325363338,4,2,2,65,1,1
121658,-59.8802395209581,4,2,2,65,0,1
123050,-59.8802395209581,4,2,2,65,0,1
138535,-100,4,2,2,55,0,0
139004,-59.8802395209581,4,2,2,60,0,1
139238,-59.8802395209581,4,2,2,60,0,0
169019,468.82325363338,4,2,2,60,1,0
169024,-59.8802395209581,4,2,2,30,0,0

[Colours]
Combo1 : 131,160,90
Combo2 : 53,172,23
Combo3 : 10,120,54
Combo4 : 82,99,58

[HitObjects]
346,317,2123,6,0,P|411:246|302:169,1,220,6|2,3:2|0:0,0:0:0:0:
236,145,2826,1,0,0:0:0:0:
439,78,3060,2,0,L|491:326,1,220,8|2,1:1|0:0,0:0:0:0:
263,294,3763,1,0,0:0:0:0:
210,272,3881,1,0,0:0:0:0:
263,263,3998,6,0,L|378:260,1,110,2|0,2:2|0:0,0:0:0:0:
265,244,4467,2,0,L|251:121,1,110,2|0,0:0|0:0,0:0:0:0:
460,89,4935,2,0,L|221:91,1,220,8|2,1:1|0:0,0:0:0:0:
378,107,5639,1,0,0:0:0:0:
378,159,5756,1,0,0:0:0:0:
167,220,5873,6,0,P|176:327|300:361,1,220,8|2,1:1|0:0,0:0:0:0:
382,360,6576,1,0,0:0:0:0:
167,317,6811,2,0,L|142:164,1,110,8|0,0:1|0:0,0:0:0:0:
262,168,7280,2,0,L|238:43,1,110,2|0,0:0|0:0,0:0:0:0:
133,62,7631,1,0,0:0:0:0:
21,68,7748,6,0,L|276:58,1,220,2|2,0:0|0:0,0:0:0:0:
414,79,8686,2,0,L|450:226,1,110,8|2,1:1|0:0,0:0:0:0:
312,186,9155,2,0,L|340:313,1,110,2|10,0:0|0:0,0:0:0:0:
414,293,9506,1,0,0:0:0:0:
217,258,9624,6,0,L|-17:298,1,220,8|2,1:1|0:0,0:0:0:0:
126,189,10327,1,0,0:0:0:0:
344,74,10561,2,0,B|357:181|357:181|309:232|309:232|244:233,1,220,8|2,1:1|0:0,0:0:0:0:
128,255,11265,1,0,0:0:0:0:
177,298,11382,1,0,0:0:0:0:
223,331,11499,6,0,L|349:333,1,110,2|0,0:0|0:0,0:0:0:0:
182,270,11968,2,0,L|158:108,1,110,2|2,0:0|0:0,0:0:0:0:
389,94,12437,2,0,L|145:91,1,220,8|2,1:1|0:0,0:0:0:0:
48,46,13140,1,0,0:0:0:0:
361,79,13374,6,0,P|357:183|234:224,1,220,12|2,1:1|0:0,0:0:0:0:
107,309,14077,1,0,0:0:0:0:
335,321,14312,2,0,L|449:314,1,110,8|0,1:1|0:0,0:0:0:0:
313,150,14781,2,0,L|308:31,1,110,2|0,0:0|0:0,0:0:0:0:
195,46,15132,1,0,0:0:0:0:
84,45,15250,5,2,0:0:0:0:
392,158,15484,2,0,L|129:161,1,220,10|2,0:0|0:0,0:0:0:0:
476,211,16172,2,0,L|490:349,1,110,8|2,1:1|0:0,0:0:0:0:
148,334,16640,2,0,L|328:333,1,165,14|0,0:0|0:0,0:0:0:0:
42,229,17109,5,8,1:1:0:0:
114,226,17226,1,8,1:1:0:0:
320,140,17460,1,8,1:1:0:0:
206,195,17577,2,0,L|214:319,1,110,8|2,1:1|0:0,0:0:0:0:
349,274,17929,1,0,0:0:0:0:
125,269,18046,2,0,L|151:185,1,55,14|0,0:0|0:0,0:0:0:0:
248,224,18281,2,0,L|272:163,1,55,2|0,0:0|0:0,0:0:0:0:
136,136,18515,1,8,1:1:0:0:
335,209,18749,1,2,0:0:0:0:
30,146,18984,5,8,1:1:0:0:
45,94,19101,1,8,1:1:0:0:
269,71,19335,1,8,1:1:0:0:
153,177,19453,2,0,L|149:123,1,55,8|0,1:1|0:0,0:0:0:0:
18,249,19687,2,0,L|145:249,1,110,2|2,0:0|0:0,0:0:0:0:
348,336,20156,2,0,L|348:257,1,55,8|0,1:1|0:0,0:0:0:0:
211,253,20390,2,0,L|139:254,1,55,8|0,1:1|0:0,0:0:0:0:
18,249,20625,1,2,0:0:0:0:
420,211,20859,6,0,L|487:216,1,55,8|8,1:1|1:1,0:0:0:0:
239,126,21211,1,8,1:1:0:0:
372,177,21328,2,0,L|439:178,1,55,8|0,1:1|0:0,0:0:0:0:
368,185,21562,1,2,0:0:0:0:
14,326,21797,2,0,L|17:265,1,55,14|0,0:0|0:0,0:0:0:0:
151,202,22031,2,0,L|240:199,1,55,2|0,0:0|0:0,0:0:0:0:
80,139,22266,2,0,L|163:131,1,55,8|0,1:1|0:0,0:0:0:0:
384,96,22500,1,2,0:0:0:0:
192,176,22734,5,8,1:1:0:0:
106,181,22852,1,8,1:1:0:0:
343,252,22969,2,0,L|348:322,1,55,2|8,0:0|1:1,0:0:0:0:
217,321,23203,2,0,L|206:254,1,55,8|0,1:1|0:0,0:0:0:0:
78,263,23438,1,2,0:0:0:0:
430,183,23672,1,8,1:1:0:0:
496,183,23789,1,8,1:1:0:0:
182,128,23906,1,2,0:0:0:0:
163,53,24024,1,0,0:0:0:0:
402,127,24141,1,8,1:1:0:0:
321,170,24258,1,0,0:0:0:0:
244,221,24375,1,2,0:0:0:0:
321,276,24492,1,0,0:0:0:0:
57,264,24610,6,0,L|-20:264,1,55,8|8,1:1|1:1,0:0:0:0:
208,173,24961,1,8,1:1:0:0:
313,171,25078,1,8,1:1:0:0:
204,152,25196,1,0,0:0:0:0:
182,63,25313,1,2,0:0:0:0:
476,266,25547,2,0,L|405:269,1,55,8|0,1:1|0:0,0:0:0:0:
283,319,25782,2,0,L|359:321,1,55,8|0,1:1|0:0,0:0:0:0:
475,344,26016,1,2,0:0:0:0:
165,272,26251,2,0,P|204:217|177:152,1,110,8|8,1:1|1:1,0:0:0:0:
13,153,26602,5,8,1:1:0:0:
221,86,26837,1,8,1:1:0:0:
99,119,26954,2,0,L|107:176,1,55,8|0,1:1|0:0,0:0:0:0:
225,210,27188,2,0,L|294:215,1,55,2|0,0:0|0:0,0:0:0:0:
58,285,27423,1,14,0:0:0:0:
257,334,27657,2,0,L|190:340,1,55,8|0,1:1|0:0,0:0:0:0:
89,218,27891,2,0,L|145:218,1,55,8|0,1:1|0:0,0:0:0:0:
275,162,28126,2,0,L|349:162,1,55,2|0,0:0|0:0,0:0:0:0:
114,93,28360,5,8,1:1:0:0:
221,86,28477,1,8,1:1:0:0:
428,212,28712,1,8,1:1:0:0:
314,236,28829,2,0,L|328:372,1,110,8|2,1:1|0:0,0:0:0:0:
432,349,29181,1,0,0:0:0:0:
176,341,29298,1,10,0:0:0:0:
159,263,29415,1,0,0:0:0:0:
299,192,29532,1,8,1:1:0:0:
382,182,29650,1,0,0:0:0:0:
240,107,29767,2,0,L|120:107,1,110,8|2,1:1|0:0,0:0:0:0:
451,50,30236,5,8,1:1:0:0:
329,53,30353,1,8,1:1:0:0:
116,179,30587,1,8,1:1:0:0:
232,191,30704,2,0,L|248:317,1,110,8|2,1:1|0:0,0:0:0:0:
475,308,31056,2,0,L|315:303,1,110,8|8,1:1|1:1,0:0:0:0:
121,219,31408,1,8,1:1:0:0:
212,200,31525,1,0,0:0:0:0:
403,158,31642,1,8,1:1:0:0:
291,126,31759,1,0,0:0:0:0:
424,162,31876,1,8,1:1:0:0:
248,113,31994,1,0,0:0:0:0:
475,152,32111,5,14,0:0:0:0:
501,211,32228,1,0,0:0:0:0:
432,232,32345,1,2,0:0:0:0:
103,283,32580,2,0,L|196:285,1,82.5000031471254,8|0,1:1|0:0,0:0:0:0:
413,335,32814,1,2,0:0:0:0:
340,332,32931,1,2,0:0:0:0:
78,252,33048,1,8,1:1:0:0:
289,202,33283,1,8,1:1:0:0:
78,252,33517,1,14,0:0:0:0:
159,255,33635,1,8,1:1:0:0:
78,252,33752,1,2,0:0:0:0:
448,185,33986,6,0,B|283:188|283:188|461:185,1,330.000012588501,8|8,1:1|1:1,0:0:0:0:
50,129,34689,1,2,0:0:0:0:
123,124,34807,1,2,0:0:0:0:
50,129,34924,1,8,1:1:0:0:
260,204,35158,1,2,0:0:0:0:
50,129,35393,1,8,1:1:0:0:
67,198,35510,1,8,1:1:0:0:
197,214,35627,1,8,1:1:0:0:
19,197,35744,1,0,0:0:0:0:
314,272,35861,6,0,L|307:179,1,82.5000031471254,14|0,0:0|0:0,0:0:0:0:
177,159,36096,1,2,0:0:0:0:
487,59,36330,1,8,1:1:0:0:
403,82,36447,1,0,0:0:0:0:
290,178,36565,1,2,0:0:0:0:
383,212,36682,1,2,0:0:0:0:
130,288,36799,2,0,L|129:185,1,82.5000031471254,8|0,1:1|0:0,0:0:0:0:
253,138,37033,2,0,L|340:131,1,82.5000031471254,2|0,0:0|0:0,0:0:0:0:
103,73,37268,2,0,L|15:91,3,82.5000031471254,8|8|2|8,1:1|1:1|0:0|1:1,0:0:0:0:
301,208,37737,5,8,1:1:0:0:
380,210,37854,1,0,0:0:0:0:
301,208,37971,1,14,0:0:0:0:
36,224,38088,2,0,B|202:223|202:223|116:223,1,247.500009441376,0|2,0:0|0:0,0:0:0:0:
36,224,38557,1,0,0:0:0:0:
343,178,38674,1,8,1:1:0:0:
242,176,38792,1,0,0:0:0:0:
144,169,38909,1,2,0:0:0:0:
473,124,39143,1,8,1:1:0:0:
142,102,39378,1,8,1:1:0:0:
455,185,39612,5,14,0:0:0:0:
364,218,39729,1,0,0:0:0:0:
455,185,39846,1,2,0:0:0:0:
129,111,40081,1,8,1:1:0:0:
26,109,40198,1,0,0:0:0:0:
313,131,40315,1,2,0:0:0:0:
312,217,40432,1,2,0:0:0:0:
106,300,40550,1,8,1:1:0:0:
312,217,40784,1,2,0:0:0:0:
11,216,41018,2,0,L|94:216,1,82.5000031471254,8|8,1:1|1:1,0:0:0:0:
233,145,41253,2,0,L|364:148,1,82.5000031471254,2|8,0:0|1:1,0:0:0:0:
34,198,41487,6,0,L|30:113,1,82.5000031471254,8|0,1:1|0:0,0:0:0:0:
134,57,41722,1,14,0:0:0:0:
395,62,41839,1,0,0:0:0:0:
281,113,41956,2,0,L|294:283,1,165.000006294251,8|2,1:1|0:0,0:0:0:0:
414,309,42308,1,2,0:0:0:0:
113,328,42425,2,0,L|1:342,1,82.5000031471254,8|0,1:1|0:0,0:0:0:0:
33,266,42659,2,0,L|116:265,1,82.5000031471254,2|0,0:0|0:0,0:0:0:0:
326,209,42894,2,0,L|452:195,1,82.5000031471254,8|0,1:1|0:0,0:0:0:0:
159,137,43128,2,0,L|84:187,1,82.5000031471254,2|0,0:0|0:0,0:0:0:0:
365,239,43363,5,8,1:1:0:0:
287,254,43480,1,8,1:1:0:0:
365,239,43597,1,2,0:0:0:0:
61,176,43831,1,8,1:1:0:0:
252,127,44066,1,2,0:0:0:0:
356,128,44183,1,0,0:0:0:0:
128,53,44300,1,8,1:1:0:0:
129,127,44417,1,0,0:0:0:0:
264,196,44535,1,2,0:0:0:0:
27,316,44769,2,0,L|137:311,1,82.5000031471254,8|0,1:1|0:0,0:0:0:0:
348,267,45003,2,0,L|432:266,1,82.5000031471254,2|0,0:0|0:0,0:0:0:0:
107,187,45238,6,0,L|103:7,1,165.000006294251,8|2,1:1|0:0,0:0:0:0:
402,97,45590,2,0,L|190:105,1,165.000006294251,14|0,0:0|0:0,0:0:0:0:
464,181,45941,1,2,0:0:0:0:
462,231,46058,1,0,0:0:0:0:
119,268,46176,1,8,1:1:0:0:
214,271,46293,1,0,0:0:0:0:
457,300,46410,1,2,0:0:0:0:
364,301,46527,1,0,0:0:0:0:
24,297,46644,5,8,1:1:0:0:
222,224,46762,1,8,1:1:0:0:
147,224,46879,1,8,1:1:0:0:
400,147,46996,1,8,1:1:0:0:
437,76,47113,1,0,0:0:0:0:
360,179,48520,2,0,L|428:175,7,41.2500015735627
158,125,49005,5,8,1:1:0:0:
43,151,49122,1,2,0:0:0:0:
371,274,49356,1,2,0:0:0:0:
99,197,49473,2,0,L|102:330,1,91.8499971268846,8|0,1:1|0:0,0:0:0:0:
371,274,49708,2,0,L|215:277,1,91.8499971268846,2|2,0:0|0:0,0:0:0:0:
32,316,49942,2,0,L|135:368,2,91.8499971268846,4|8|6,1:1|1:1|0:0,0:0:0:0:
271,214,50411,1,8,1:1:0:0:
59,214,50528,1,8,1:1:0:0:
55,154,50763,1,2,0:0:0:0:
342,192,50880,6,0,L|330:-9,1,183.699994253769,8|2,1:1|0:0,0:0:0:0:
207,31,51231,1,2,0:0:0:0:
331,15,51349,1,8,1:1:0:0:
72,141,51583,2,0,L|173:142,1,91.8499971268846,2|0,0:0|0:0,0:0:0:0:
439,230,51817,1,8,1:1:0:0:
211,316,52052,1,2,0:0:0:0:
439,230,52286,1,8,1:1:0:0:
211,316,52403,1,8,1:1:0:0:
195,175,52638,1,8,1:1:0:0:
474,121,52755,2,0,L|364:120,1,91.8499971268846,12|8,1:1|1:1,0:0:0:0:
153,206,53107,1,2,0:0:0:0:
422,219,53224,6,0,L|229:206,1,183.699994253769,8|8,1:1|1:1,0:0:0:0:
357,194,53576,1,2,0:0:0:0:
99,91,53693,2,0,L|311:104,1,183.699994253769,14|8,0:0|1:1,0:0:0:0:
386,113,54044,1,2,0:0:0:0:
102,295,54162,2,0,L|209:290,1,91.8499971268846,14|8,0:0|1:1,0:0:0:0:
400,170,54513,1,2,0:0:0:0:
119,248,54630,6,0,L|4:254,1,91.8499971268846,14|8,0:0|1:1,0:0:0:0:
248,172,54982,1,8,1:1:0:0:
124,145,55099,2,0,L|315:124,1,183.699994253769,8|2,1:1|0:0,0:0:0:0:
200,79,55451,1,2,0:0:0:0:
460,218,55568,2,0,L|251:242,1,183.699994253769,8|2,1:1|0:0,0:0:0:0:
160,223,55920,1,0,0:0:0:0:
431,200,56037,1,8,1:1:0:0:
329,181,56154,1,8,1:1:0:0:
431,200,56271,1,2,0:0:0:0:
104,108,56506,6,0,L|107:227,1,91.8499971268846,8|8,1:1|1:1,0:0:0:0:
326,199,56857,1,8,1:1:0:0:
111,297,56974,2,0,L|232:303,1,91.8499971268846,8|0,0:1|0:0,0:0:0:0:
23,221,57209,1,8,1:1:0:0:
30,164,57326,1,0,0:0:0:0:
265,87,57443,2,0,L|489:75,1,183.699994253769,8|14,1:1|0:0,0:0:0:0:
213,132,57912,1,8,1:1:0:0:
423,180,58029,2,0,P|457:260|402:354,1,183.699994253769,2|0,0:0|0:0,0:0:0:0:
114,230,58381,6,0,L|207:226,1,91.8499971268846,8|8,1:1|1:1,0:0:0:0:
114,230,58615,1,2,0:0:0:0:
367,178,58733,2,0,L|113:163,1,183.699994253769,8|0,1:1|0:0,0:0:0:0:
398,124,59084,1,8,1:1:0:0:
501,115,59201,1,0,0:0:0:0:
214,131,59319,2,0,L|426:122,1,183.699994253769,14|8,0:0|1:1,0:0:0:0:
190,131,59787,1,14,0:0:0:0:
398,95,59905,2,0,L|423:304,1,183.699994253769,2|0,0:0|0:0,0:0:0:0:
177,307,60256,6,0,L|60:303,1,91.8499971268846,8|8,1:1|1:1,0:0:0:0:
312,199,60608,1,8,1:1:0:0:
106,151,60725,2,0,L|304:144,1,183.699994253769,8|2,1:1|0:0,0:0:0:0:
403,144,61077,1,2,0:0:0:0:
155,213,61194,2,0,L|132:18,1,183.699994253769,8|2,1:1|0:0,0:0:0:0:
359,24,61663,1,8,1:1:0:0:
143,81,61780,1,2,0:0:0:0:
127,134,62014,1,2,0:0:0:0:
387,214,62132,6,0,L|219:215,1,91.8499971268846,8|8,1:1|1:1,0:0:0:0:
66,168,62483,1,8,1:1:0:0:
280,114,62600,2,0,L|43:120,1,183.699994253769,8|2,1:1|0:0,0:0:0:0:
219,176,62952,1,0,0:0:0:0:
414,172,63069,1,8,1:1:0:0:
195,303,63304,1,8,0:1:0:0:
496,155,63538,2,0,L|440:159,1,45.9249985634423,8|0,1:1|0:0,0:0:0:0:
288,100,63655,2,0,L|223:105,1,45.9249985634423,0|0,0:0|0:0,0:0:0:0:
61,103,63772,1,0,0:0:0:0:
362,156,64007,5,12,0:0:0:0:
429,149,64124,1,0,0:0:0:0:
362,156,64241,1,0,0:0:0:0:
294,173,64358,1,0,0:0:0:0:
228,185,64476,1,8,0:0:0:0:
362,156,64710,1,0,0:0:0:0:
294,173,64827,1,0,0:0:0:0:
228,185,64944,1,8,0:0:0:0:
306,178,65062,1,0,0:0:0:0:
360,169,65179,1,0,0:0:0:0:
308,175,65296,1,0,0:0:0:0:
228,185,65413,1,8,0:0:0:0:
92,223,65648,1,2,0:0:0:0:
335,266,65882,6,0,L|339:322,1,55,8|0,0:0|0:0,0:0:0:0:
174,313,66234,1,0,0:0:0:0:
171,257,66351,1,8,0:0:0:0:
318,198,66585,1,2,0:0:0:0:
87,112,66820,1,8,0:0:0:0:
102,202,66937,1,0,0:0:0:0:
200,186,67054,1,0,0:0:0:0:
218,279,67171,1,0,0:0:0:0:
121,301,67289,1,8,0:0:0:0:
331,320,67523,1,8,1:1:0:0:
189,328,67640,1,0,0:0:0:0:
453,238,67757,6,0,P|477:179|380:39,1,220,12|12,1:1|1:1,0:0:0:0:
205,120,68461,1,2,0:0:0:0:
267,122,68578,1,2,0:0:0:0:
385,185,68812,1,0,0:0:0:0:
385,185,68929,1,2,0:0:0:0:
156,259,69164,2,0,L|310:259,1,110,8|2,1:1|0:0,0:0:0:0:
273,189,69516,1,0,0:0:0:0:
34,169,69633,6,0,P|64:66|181:37,1,220,8|8,0:0|1:1,0:0:0:0:
368,89,70336,1,2,0:0:0:0:
297,90,70453,1,2,0:0:0:0:
174,173,70688,1,0,0:0:0:0:
174,173,70805,1,2,0:0:0:0:
378,195,71039,2,0,L|488:190,1,110,8|2,1:1|0:0,0:0:0:0:
401,235,71391,1,0,0:0:0:0:
149,251,71508,6,0,L|330:247,1,165,12|0,0:0|0:0,0:0:0:0:
195,248,71977,1,8,1:1:0:0:
492,83,72211,1,2,0:0:0:0:
387,90,72328,2,0,L|387:261,1,165,2|2,0:0|0:0,0:0:0:0:
162,312,72914,1,8,1:1:0:0:
141,221,73032,1,0,0:0:0:0:
241,210,73149,1,2,0:0:0:0:
224,115,73266,1,0,0:0:0:0:
76,70,73383,6,0,P|38:132|126:256,1,220,8|8,0:0|1:1,0:0:0:0:
282,271,74087,1,2,0:0:0:0:
155,278,74204,1,2,0:0:0:0:
386,226,74321,2,0,L|501:230,1,110,8|2,0:0|0:0,0:0:0:0:
195,154,74790,2,0,L|391:146,1,165,8|0,1:1|0:0,0:0:0:0:
111,85,75259,5,8,0:0:0:0:
15,84,75376,1,0,0:0:0:0:
332,207,75727,1,8,1:1:0:0:
200,259,75962,1,2,0:0:0:0:
340,211,76079,2,0,P|388:151|310:98,1,165,2|2,0:0|0:0,0:0:0:0:
42,95,76665,2,0,L|203:90,1,110,8|2,1:1|0:0,0:0:0:0:
166,155,77017,1,0,0:0:0:0:
397,208,77134,6,0,L|204:210,1,165,8|0,0:0|0:0,0:0:0:0:
461,166,77603,2,0,L|466:33,1,110,8|2,1:1|0:0,0:0:0:0:
354,47,77954,1,2,0:0:0:0:
457,64,78189,1,0,0:0:0:0:
354,47,78306,1,2,0:0:0:0:
45,154,78540,1,8,1:1:0:0:
156,153,78658,1,0,0:0:0:0:
402,134,78775,1,2,0:0:0:0:
286,128,78892,1,0,0:0:0:0:
34,63,79009,5,12,1:1:0:0:
125,61,79126,1,8,1:1:0:0:
254,121,79361,1,8,1:1:0:0:
118,170,79478,2,0,L|130:331,1,110,8|2,1:1|0:0,0:0:0:0:
217,320,79830,1,0,0:0:0:0:
440,296,79947,2,0,L|438:193,1,55,8|0,0:0|0:0,0:0:0:0:
297,161,80181,2,0,L|201:161,1,55,8|0,1:1|0:0,0:0:0:0:
387,88,80416,1,8,1:1:0:0:
160,91,80650,1,2,0:0:0:0:
491,92,80884,5,8,1:1:0:0:
418,96,81002,1,8,1:1:0:0:
211,176,81236,1,8,1:1:0:0:
322,263,81353,2,0,L|317:352,1,55,8|0,1:1|0:0,0:0:0:0:
194,177,81588,1,2,0:0:0:0:
405,178,81822,1,8,0:0:0:0:
88,127,82057,2,0,L|84:30,1,55,8|0,1:1|0:0,0:0:0:0:
330,59,82291,2,0,L|255:61,1,55,8|0,1:1|0:0,0:0:0:0:
144,134,82525,2,0,L|199:134,1,55,2|0,0:0|0:0,0:0:0:0:
440,208,82760,5,8,1:1:0:0:
343,212,82877,1,8,1:1:0:0:
158,259,83111,1,8,1:1:0:0:
251,286,83229,2,0,L|353:289,1,55,8|0,1:1|0:0,0:0:0:0:
223,281,83463,1,2,0:0:0:0:
437,244,83697,1,8,0:0:0:0:
357,234,83815,1,0,0:0:0:0:
467,190,83932,2,0,L|484:102,1,55,2|0,0:0|0:0,0:0:0:0:
369,111,84166,1,8,1:1:0:0:
136,83,84401,1,2,0:0:0:0:
471,54,84635,5,8,1:1:0:0:
471,54,84752,1,8,1:1:0:0:
240,182,84869,2,0,L|316:182,1,55,2|0,0:0|0:0,0:0:0:0:
240,182,85045,1,0,0:0:0:0:
67,239,85104,2,0,L|69:305,1,55,8|0,1:1|0:0,0:0:0:0:
351,298,85338,1,2,0:0:0:0:
158,226,85573,1,12,1:1:0:0:
384,174,85690,1,0,0:0:0:0:
384,174,85807,1,2,0:0:0:0:
57,72,86042,1,12,1:1:0:0:
141,92,86159,1,0,0:0:0:0:
56,78,86276,1,8,1:1:0:0:
141,92,86393,1,0,0:0:0:0:
487,101,86510,5,8,1:1:0:0:
397,118,86628,1,8,1:1:0:0:
193,220,86862,1,8,1:1:0:0:
320,274,86979,2,0,L|317:308,1,27.5,8|0,1:1|0:0,0:0:0:0:
118,340,87096,2,0,L|-11:346,1,110
321,259,87448,2,0,L|324:200,1,55,8|0,0:0|0:0,0:0:0:0:
194,158,87682,2,0,L|199:67,1,55,2|0,0:0|0:0,0:0:0:0:
338,51,87917,1,8,1:1:0:0:
117,62,88151,1,2,0:0:0:0:
494,53,88386,5,8,1:1:0:0:
377,110,88503,1,8,1:1:0:0:
494,59,88620,2,0,L|492:133,1,55,2|8,0:0|1:1,0:0:0:0:
425,114,88796,1,0,0:0:0:0:
202,157,88854,2,0,L|199:216,1,55,8|0,1:1|0:0,0:0:0:0:
325,288,89089,2,0,L|392:291,1,55,2|0,0:0|0:0,0:0:0:0:
118,204,89323,2,0,L|-8:202,1,110,8|8,0:0|1:1,0:0:0:0:
322,227,89792,2,0,L|349:355,1,110,8|2,1:1|0:0,0:0:0:0:
26,109,90261,5,8,1:1:0:0:
111,113,90378,1,8,1:1:0:0:
313,228,90613,1,8,1:1:0:0:
373,227,90671,1,0,0:0:0:0:
168,161,90730,2,0,L|93:159,2,55,8|0|2,1:1|0:0|0:0,0:0:0:0:
483,75,91199,2,0,L|484:142,1,55,8|0,0:0|0:0,0:0:0:0:
359,155,91433,2,0,L|295:156,1,55,8|0,1:1|0:0,0:0:0:0:
428,229,91667,2,0,L|483:226,1,55,8|0,1:1|0:0,0:0:0:0:
353,301,91902,1,2,0:0:0:0:
38,205,92136,5,8,1:1:0:0:
121,201,92253,1,8,1:1:0:0:
335,248,92488,1,8,1:1:0:0:
334,294,92546,1,0,0:0:0:0:
160,304,92605,2,0,L|29:306,1,110,8|2,1:1|0:0,0:0:0:0:
326,220,92957,2,0,L|461:216,1,110,8|0,0:1|0:0,0:0:0:0:
142,251,93308,2,0,L|136:172,1,55,8|0,1:1|0:0,0:0:0:0:
356,143,93543,1,8,1:1:0:0:
247,142,93660,1,0,0:0:0:0:
483,104,93777,1,8,1:1:0:0:
373,99,93894,1,0,0:0:0:0:
59,138,94012,6,0,L|71:231,1,82.5000031471254,8|0,1:1|0:0,0:0:0:0:
306,248,94246,2,0,L|396:264,1,82.5000031471254,8|0,1:1|0:0,0:0:0:0:
104,266,94480,2,0,L|19:271,1,82.5000031471254,8|0,1:1|0:0,0:0:0:0:
381,243,94715,2,0,L|400:153,1,82.5000031471254,8|0,1:1|0:0,0:0:0:0:
62,129,94949,2,0,L|232:123,1,165.000006294251,12|0,0:0|0:0,0:0:0:0:
91,80,95301,1,12,0:0:0:0:
352,58,95652,1,12,0:0:0:0:
39,119,95887,6,0,L|97:125,1,41.2500015735627,8|0,1:1|0:0,0:0:0:0:
382,226,96121,2,0,L|331:226,1,41.2500015735627,8|0,1:1|0:0,0:0:0:0:
62,178,96356,2,0,L|63:115,1,41.2500015735627,8|0,1:1|0:0,0:0:0:0:
379,145,96590,2,0,L|420:146,1,41.2500015735627,8|0,1:1|0:0,0:0:0:0:
78,76,96824,1,12,1:1:0:0:
76,128,96883,1,2,0:0:0:0:
145,151,96942,1,2,0:0:0:0:
432,185,97059,2,0,L|424:282,1,82.5000031471254,8|0,1:1|0:0,0:0:0:0:
302,262,97293,2,0,L|209:260,1,82.5000031471254,8|0,1:1|0:0,0:0:0:0:
485,333,97528,2,0,L|487:289,1,41.2500015735627,12|0,1:1|0:0,0:0:0:0:
128,199,97762,6,0,P|91:119|117:18,1,165.000006294251,12|0,0:0|0:0,0:0:0:0:
356,64,98114,1,12,0:0:0:0:
96,126,98465,1,12,0:0:0:0:
450,144,98700,2,0,L|450:245,1,82.5000031471254,12|0,1:1|0:0,0:0:0:0:
208,311,98934,1,2,0:0:0:0:
316,274,99051,2,0,L|69:253,1,247.500009441376,0|2,0:0|0:0,0:0:0:0:
414,198,99637,6,0,L|411:106,1,82.5000031471254,12|0,0:0|0:0,0:0:0:0:
101,19,99872,1,0,0:0:0:0:
85,108,99989,1,12,0:0:0:0:
279,165,100106,1,2,0:0:0:0:
187,177,100223,1,0,0:0:0:0:
387,233,100341,2,0,L|482:229,1,82.5000031471254,12|0,0:0|0:0,0:0:0:0:
234,133,100575,2,0,L|39:146,1,165.000006294251,12|8,1:1|1:1,0:0:0:0:
441,286,101044,1,12,1:1:0:0:
215,296,101161,1,0,0:0:0:0:
210,221,101278,1,8,1:1:0:0:
443,159,101395,1,0,0:0:0:0:
208,188,101513,6,0,L|135:198,1,41.2500015735627,14|0,0:0|0:0,0:0:0:0:
20,270,101630,2,0,L|35:208,1,41.2500015735627,0|0,0:0|0:0,0:0:0:0:
181,201,101747,2,0,L|243:200,1,41.2500015735627,2|0,0:0|0:0,0:0:0:0:
360,113,101864,2,0,L|412:112,1,41.2500015735627,0|0,0:0|0:0,0:0:0:0:
229,42,101982,2,0,L|160:44,1,41.2500015735627,10|0,0:0|0:0,0:0:0:0:
37,112,102099,2,0,L|28:181,1,41.2500015735627,0|0,0:0|0:0,0:0:0:0:
186,206,102216,2,0,L|233:206,1,41.2500015735627,2|0,0:0|0:0,0:0:0:0:
427,128,102450,6,0,L|369:129,1,41.2500015735627,14|0,0:0|0:0,0:0:0:0:
249,160,102568,2,0,L|191:178,1,41.2500015735627,0|0,0:0|0:0,0:0:0:0:
72,240,102685,2,0,L|56:315,1,41.2500015735627,2|0,0:0|0:0,0:0:0:0:
205,315,102802,2,0,L|277:306,1,41.2500015735627,0|0,0:0|0:0,0:0:0:0:
397,270,102919,2,0,L|413:214,1,41.2500015735627,10|0,0:0|0:0,0:0:0:0:
255,155,103036,2,0,L|185:175,1,41.2500015735627,0|0,0:0|0:0,0:0:0:0:
50,184,103154,2,0,L|69:255,1,41.2500015735627,2|0,0:0|0:0,0:0:0:0:
386,256,103388,5,12,1:1:0:0:
431,254,103447,1,0,0:0:0:0:
188,269,103622,1,8,1:1:0:0:
142,264,103681,1,0,0:0:0:0:
482,230,103857,2,0,L|478:168,1,41.2500015735627,8|0,1:1|0:0,0:0:0:0:
152,90,104091,2,0,L|193:87,1,41.2500015735627,2|0,0:0|0:0,0:0:0:0:
478,104,104326,1,12,1:1:0:0:
483,29,104443,1,0,0:0:0:0:
216,56,104560,2,0,L|311:48,1,82.5000031471254,8|0,1:1|0:0,0:0:0:0:
67,35,104794,2,0,L|155:29,1,82.5000031471254,8|0,1:1|0:0,0:0:0:0:
359,144,105029,2,0,L|247:157,1,82.5000031471254,8|0,1:1|0:0,0:0:0:0:
489,135,105263,6,0,L|507:307,1,165.000006294251,12|0,0:0|0:0,0:0:0:0:
263,288,105615,1,12,0:0:0:0:
497,217,105967,1,12,0:0:0:0:
404,225,106084,1,0,0:0:0:0:
150,253,106201,1,12,1:1:0:0:
360,183,106435,2,0,L|180:194,1,165.000006294251,2|8,2:2|1:1,0:0:0:0:
425,114,106904,1,8,1:1:0:0:
113,90,107139,6,0,L|222:91,1,82.5000031471254,12|0,0:0|0:0,0:0:0:0:
441,198,107373,2,0,L|423:287,1,82.5000031471254,0|12,0:0|0:0,0:0:0:0:
187,250,107607,2,0,L|156:334,1,82.5000031471254,2|0,0:0|0:0,0:0:0:0:
435,260,107842,2,0,L|315:262,1,82.5000031471254,12|0,0:0|0:0,0:0:0:0:
111,188,108076,2,0,L|300:181,1,165.000006294251,12|8,1:1|1:1,0:0:0:0:
363,175,108428,1,0,0:0:0:0:
86,101,108545,1,12,1:1:0:0:
297,167,108662,1,8,1:1:0:0:
228,167,108779,1,8,1:1:0:0:
447,223,108897,1,0,0:0:0:0:
194,285,109014,5,12,1:1:0:0:
80,342,109131,2,0,L|276:359,1,183.699994253769,8|8,1:1|1:1,0:0:0:0:
467,270,109483,2,0,L|271:293,1,183.699994253769,8|8,1:1|1:1,0:0:0:0:
168,217,109834,1,2,0:0:0:0:
400,61,109952,2,0,P|420:154|326:216,1,183.699994253769,8|8,1:1|1:1,0:0:0:0:
20,342,110420,6,0,L|14:288,1,45.9249985634423,8|0,1:1|0:0,0:0:0:0:
156,208,110538,2,0,L|220:207,1,45.9249985634423
325,169,110655,2,0,L|378:167,1,45.9249985634423,8|0,1:1|0:0,0:0:0:0:
502,101,110772,2,0,L|507:41,1,45.9249985634423
283,49,110889,6,0,L|169:57,1,91.8499971268846,8|8,1:1|1:1,0:0:0:0:
502,111,111241,2,0,L|302:129,1,183.699994253769,8|0,1:1|0:0,0:0:0:0:
16,276,111592,2,0,L|125:293,1,91.8499971268846,8|2,1:1|0:0,0:0:0:0:
387,145,111827,2,0,L|260:152,2,91.8499971268846,8|0|8,1:1|0:0|1:1,0:0:0:0:
66,175,112296,2,0,L|85:72,1,91.8499971268846,8|2,1:1|0:0,0:0:0:0:
321,69,112530,2,0,L|429:65,1,91.8499971268846,12|2,0:0|0:0,0:0:0:0:
174,42,112764,5,8,1:1:0:0:
287,109,112882,2,0,L|76:130,1,183.699994253769,8|8,1:1|1:1,0:0:0:0:
358,234,113233,2,0,B|357:297|177:283,1,183.699994253769,8|8,1:1|1:1,0:0:0:0:
66,278,113585,1,2,0:0:0:0:
329,219,113702,2,0,L|533:214,1,183.699994253769,8|8,1:1|1:1,0:0:0:0:
195,164,114171,6,0,L|195:243,1,45.9249985634423,8|0,1:1|0:0,0:0:0:0:
368,260,114288,2,0,L|424:259,1,45.9249985634423,2|0,0:0|0:0,0:0:0:0:
240,160,114405,2,0,L|195:164,1,45.9249985634423,8|0,0:1|0:0,0:0:0:0:
40,94,114523,2,0,L|37:21,1,45.9249985634423,0|0,0:0|0:0,0:0:0:0:
239,60,114640,6,0,L|335:59,1,91.8499971268846,8|8,1:1|1:1,0:0:0:0:
28,257,114991,2,0,L|228:251,1,183.699994253769,8|0,1:1|0:0,0:0:0:0:
340,194,115343,2,0,L|345:95,1,91.8499971268846,8|0,1:1|0:0,0:0:0:0:
73,70,115567,2,0,L|175:66,2,91.8499971268846,8|0|8,1:1|0:0|1:1,0:0:0:0:
400,146,116035,1,8,1:1:0:0:
191,158,116153,2,0,L|187:277,1,91.8499971268846,8|2,1:1|0:0,0:0:0:0:
400,146,116387,1,8,1:1:0:0:
155,149,116504,5,8,1:1:0:0:
17,229,116621,2,0,L|202:239,1,183.699994253769,8|8,1:1|1:1,0:0:0:0:
429,232,116973,2,0,L|202:253,1,183.699994253769,8|2,1:1|0:0,0:0:0:0:
109,278,117325,1,2,0:0:0:0:
319,260,117453,2,0,P|404:240|494:310,1,183.699994253769,8|8,1:1|1:1,0:0:0:0:
123,317,117921,6,0,L|68:323,1,45.9249985634423,8|0,1:1|0:0,0:0:0:0:
257,237,118039,2,0,L|312:226,1,45.9249985634423,8|0,1:1|0:0,0:0:0:0:
471,184,118156,2,0,L|469:132,1,45.9249985634423,2|0,0:0|0:0,0:0:0:0:
297,59,118273,2,0,L|243:63,1,45.9249985634423,8|0,1:1|0:0,0:0:0:0:
63,71,118390,6,0,L|56:178,1,91.8499971268846,8|0,1:1|1:1,0:0:0:0:
440,245,118742,2,0,L|227:259,1,183.699994253769,8|0,1:1|0:0,0:0:0:0:
35,173,119093,2,0,L|141:167,1,91.8499971268846,2|2,0:0|0:0,0:0:0:0:
454,74,119328,2,0,L|340:76,2,91.8499971268846,8|0|8,1:1|0:0|1:1,0:0:0:0:
102,188,119797,2,0,L|-22:187,1,91.8499971268846,8|8,1:1|1:1,0:0:0:0:
210,289,120148,1,8,1:1:0:0:
441,213,120265,6,0,L|317:212,1,91.8499971268846,8|0,1:1|0:0,0:0:0:0:
129,146,120617,1,0,0:0:0:0:
336,163,120734,2,0,P|436:130|543:183,1,183.699994253769,8|8,1:1|1:1,0:0:0:0:
392,196,121086,1,2,0:0:0:0:
95,270,121203,2,0,L|216:267,2,91.8499971268846,8|0|8,1:1|0:0|1:1,0:0:0:0:
430,253,121658,2,0,L|384:255,1,45.9249985634423,8|0,1:1|0:0,0:0:0:0:
223,108,121775,2,0,L|169:107,1,45.9249985634423,8|0,1:1|0:0,0:0:0:0:
355,56,121892,2,0,L|410:50,1,45.9249985634423,2|0,0:0|0:0,0:0:0:0:
234,56,122009,2,0,L|159:63,1,45.9249985634423,8|0,1:1|0:0,0:0:0:0:
16,71,122126,6,0,L|8:183,1,91.8499971268846,8|0,1:1|0:0,0:0:0:0:
321,257,122478,2,0,L|129:254,1,183.699994253769,8|2,1:1|0:0,0:0:0:0:
385,185,122830,2,0,L|498:175,1,91.8499971268846,8|2,1:1|0:0,0:0:0:0:
179,174,123064,2,0,L|163:64,1,91.8499971268846,8|0,1:1|0:0,0:0:0:0:
388,50,123298,2,0,L|482:39,1,91.8499971268846,8|0,1:1|0:0,0:0:0:0:
223,81,123533,2,0,L|218:180,1,91.8499971268846,8|8,1:1|1:1,0:0:0:0:
423,216,123767,1,8,1:1:0:0:
205,74,123884,1,0,0:0:0:0:
412,177,124002,6,0,L|433:316,1,91.8499971268846,12|8,1:1|1:1,0:0:0:0:
207,297,124353,1,8,1:1:0:0:
484,264,124470,2,0,L|279:287,1,183.699994253769,8|2,1:1|0:0,0:0:0:0:
418,324,124822,1,0,0:0:0:0:
196,247,124939,2,0,P|97:231|-7:267,1,183.699994253769,8|8,1:1|1:1,0:0:0:0:
401,79,125408,6,0,L|416:154,1,45.9249985634423,8|0,1:1|0:0,0:0:0:0:
240,176,125525,2,0,L|152:181,1,45.9249985634423,2|0,0:0|0:0,0:0:0:0:
376,249,125642,2,0,L|442:245,1,45.9249985634423,8|0,1:1|0:0,0:0:0:0:
247,194,125760,2,0,L|186:198,1,45.9249985634423,2|0,0:0|0:0,0:0:0:0:
36,200,125877,6,0,L|32:84,1,91.8499971268846,8|8,1:1|1:1,0:0:0:0:
369,107,126229,2,0,L|467:107,1,91.8499971268846,8|8,1:1|1:1,0:0:0:0:
120,208,126580,2,0,L|239:205,1,91.8499971268846,2|2,0:0|0:0,0:0:0:0:
460,107,126815,2,0,L|257:167,1,183.699994253769,8|8,1:1|1:1,0:0:0:0:
164,169,127166,1,0,0:0:0:0:
481,114,127283,2,0,L|494:17,1,91.8499971268846,8|8,1:1|1:1,0:0:0:0:
275,33,127635,1,8,1:1:0:0:
485,178,127752,6,0,L|356:178,1,91.8499971268846,8|8,1:1|1:1,0:0:0:0:
183,244,128104,1,8,1:1:0:0:
450,207,128221,2,0,L|238:214,1,183.699994253769,8|2,1:1|0:0,0:0:0:0:
135,183,128573,1,2,0:0:0:0:
378,122,128690,2,0,L|383:224,1,91.8499971268846,8|0,1:1|0:0,0:0:0:0:
126,176,128924,2,0,L|222:177,1,91.8499971268846,8|0,1:1|0:0,0:0:0:0:
465,145,129159,2,0,L|361:140,1,91.8499971268846,8|8,1:1|1:1,0:0:0:0:
163,56,129510,1,8,1:1:0:0:
415,135,129627,6,0,L|428:244,1,91.8499971268846,8|0,1:1|0:0,0:0:0:0:
97,301,129979,2,0,L|325:298,1,183.699994253769,8|2,0:1|0:0,0:0:0:0:
414,248,130331,2,0,L|415:110,1,91.8499971268846,2|2,0:0|0:0,0:0:0:0:
156,106,130565,2,0,L|280:106,1,91.8499971268846,8|8,1:1|1:1,0:0:0:0:
466,189,130800,2,0,L|363:189,1,91.8499971268846,2|0,0:0|0:0,0:0:0:0:
54,187,131034,1,8,1:1:0:0:
260,244,131151,1,2,0:0:0:0:
465,292,131268,1,8,1:1:0:0:
260,244,131386,1,2,0:0:0:0:
54,187,131503,6,0,L|78:72,1,91.8499971268846,12|8,1:1|1:1,0:0:0:0:
288,77,131854,1,8,1:1:0:0:
53,105,131972,2,0,L|240:113,1,183.699994253769,8|2,1:1|0:0,0:0:0:0:
372,127,132323,1,0,0:0:0:0:
112,204,132440,2,0,L|-21:213,1,91.8499971268846,8|2,1:1|0:0,0:0:0:0:
320,282,132675,2,0,L|316:86,1,183.699994253769,2|8,0:0|1:1,0:0:0:0:
65,61,133026,1,8,1:1:0:0:
142,52,133261,1,8,1:1:0:0:
433,98,133378,6,0,L|432:204,1,91.8499971268846,8|2,1:1|0:0,0:0:0:0:
108,249,133730,2,0,L|338:259,1,183.699994253769,8|0,1:1|0:0,0:0:0:0:
428,263,134081,2,0,L|426:363,1,91.8499971268846,2|2,0:0|0:0,0:0:0:0:
191,310,134316,2,0,L|-5:319,1,183.699994253769,8|2,1:1|0:0,0:0:0:0:
375,145,134785,2,0,L|486:132,1,91.8499971268846,8|8,1:1|1:1,0:0:0:0:
219,76,135136,1,8,1:1:0:0:
434,171,135253,6,0,L|416:279,1,91.8499971268846,8|0,1:1|0:0,0:0:0:0:
228,183,135605,1,8,1:1:0:0:
473,157,135722,2,0,L|347:160,1,91.8499971268846,8|2,1:1|0:0,0:0:0:0:
146,303,135957,2,0,L|257:291,1,91.8499971268846,2|2,0:0|0:0,0:0:0:0:
499,116,136191,2,0,L|259:94,1,183.699994253769,8|8,1:1|1:1,0:0:0:0:
23,105,136660,6,0,L|38:164,1,45.9249985634423,8|0,1:1|0:0,0:0:0:0:
225,227,136777,2,0,L|300:227,1,45.9249985634423,2|0,0:0|0:0,0:0:0:0:
464,246,136894,2,0,L|467:307,1,45.9249985634423,8|0,1:1|0:0,0:0:0:0:
284,193,137011,2,0,L|230:195,1,45.9249985634423,2|0,0:0|0:0,0:0:0:0:
51,148,137129,6,0,L|45:332,1,183.699994253769,8|12,1:1|1:1,0:0:0:0:
321,289,137480,2,0,L|63:275,1,183.699994253769,0|0,0:0|0:0,0:0:0:0:
405,275,137832,2,0,L|437:164,1,91.8499971268846,12|0,1:1|0:0,0:0:0:0:
164,80,138066,1,12,1:1:0:0:
475,81,138301,1,12,1:1:0:0:
283,105,138535,1,0,0:0:0:0:
237,140,139004,6,0,L|118:135,1,91.8499971268846,8|8,1:1|1:1,0:0:0:0:
379,204,139356,1,8,1:1:0:0:
146,231,139473,2,0,L|344:231,1,183.699994253769,8|2,1:1|0:0,0:0:0:0:
332,156,139824,1,0,0:0:0:0:
68,167,139942,1,8,1:1:0:0:
33,242,140059,1,8,1:1:0:0:
151,276,140176,1,2,0:0:0:0:
321,315,140410,1,8,1:1:0:0:
129,293,140528,1,8,1:1:0:0:
292,310,140762,1,0,0:0:0:0:
33,242,140879,6,0,L|17:99,1,91.8499971268846,8|0,1:1|0:0,0:0:0:0:
416,85,141231,2,0,L|217:84,1,183.699994253769,8|2,1:1|0:0,0:0:0:0:
87,171,141582,2,0,L|77:290,1,91.8499971268846,2|2,0:0|0:0,0:0:0:0:
334,262,141817,1,8,1:1:0:0:
238,257,141934,1,8,1:1:0:0:
334,262,142051,1,2,0:0:0:0:
133,284,142286,1,8,1:1:0:0:
364,265,142403,1,8,1:1:0:0:
211,190,142637,1,0,0:0:0:0:
458,184,142755,6,0,L|480:84,1,91.8499971268846,8|8,1:1|1:1,0:0:0:0:
272,63,143106,1,8,1:1:0:0:
474,207,143223,2,0,L|210:197,1,183.699994253769,8|2,1:1|0:0,0:0:0:0:
417,149,143575,2,0,L|404:16,1,91.8499971268846,0|8,0:0|1:1,0:0:0:0:
290,39,143809,1,8,1:1:0:0:
484,27,143927,1,2,0:0:0:0:
259,118,144161,1,8,1:1:0:0:
38,165,144278,1,8,1:1:0:0:
247,186,144513,1,0,0:0:0:0:
21,167,144630,6,0,L|21:297,1,91.8499971268846,8|8,1:1|1:1,0:0:0:0:
374,237,144981,2,0,P|372:286|250:334,1,183.699994253769,8|0,1:1|0:0,0:0:0:0:
401,289,145333,2,0,L|403:168,1,91.8499971268846,8|0,1:1|0:0,0:0:0:0:
177,107,145567,1,8,1:1:0:0:
68,110,145685,1,8,1:1:0:0:
314,62,145802,1,2,0:0:0:0:
430,140,146036,1,8,1:1:0:0:
157,182,146154,1,8,1:1:0:0:
75,246,146388,1,0,0:0:0:0:
374,270,146505,6,0,L|472:276,1,91.8499971268846,8|8,1:1|1:1,0:0:0:0:
246,211,146857,1,8,1:1:0:0:
484,163,146974,2,0,L|260:153,1,183.699994253769,8|2,1:1|0:0,0:0:0:0:
408,104,147326,1,0,0:0:0:0:
108,78,147443,1,8,1:1:0:0:
110,143,147560,1,8,1:1:0:0:
366,173,147677,1,2,0:0:0:0:
184,213,147912,1,8,1:1:0:0:
438,244,148029,2,0,L|429:345,1,91.8499971268846,8|2,1:1|0:0,0:0:0:0:
7,143,148380,6,0,L|124:139,1,91.8499971268846,8|8,1:1|1:1,0:0:0:0:
416,92,148732,2,0,L|173:83,1,183.699994253769,8|0,1:1|0:0,0:0:0:0:
489,36,149084,2,0,L|476:144,1,91.8499971268846,2|0,0:0|0:0,0:0:0:0:
229,181,149318,2,0,L|128:178,1,91.8499971268846,8|8,1:1|1:1,0:0:0:0:
394,270,149552,1,2,0:0:0:0:
226,313,149787,1,8,1:1:0:0:
453,330,149904,1,8,1:1:0:0:
274,287,150139,1,0,0:0:0:0:
487,224,150256,6,0,L|343:218,1,91.8499971268846,8|8,1:1|1:1,0:0:0:0:
221,147,150607,1,8,1:1:0:0:
1,69,150725,2,0,B|37:67|185:75,1,183.699994253769,8|8,1:1|1:1,0:0:0:0:
321,152,151076,1,2,0:0:0:0:
115,221,151193,2,0,L|205:264,2,91.8499971268846,8|8|2,1:1|1:1|0:0,0:0:0:0:
266,291,151662,1,8,1:1:0:0:
37,320,151779,1,8,1:1:0:0:
213,340,152014,1,0,0:0:0:0:
21,271,152131,6,0,L|142:261,1,91.8499971268846,8|8,1:1|1:1,0:0:0:0:
437,157,152483,2,0,L|229:145,1,183.699994253769,8|0,1:1|0:0,0:0:0:0:
382,184,152834,2,0,L|393:299,1,91.8499971268846,2|0,0:0|0:0,0:0:0:0:
109,303,153069,2,0,L|9:320,2,91.8499971268846,8|8|2,1:1|1:1|0:0,0:0:0:0:
454,160,153537,1,0,0:0:0:0:
363,114,154006,6,0,L|454:113,1,91.8499971268846,8|8,1:1|1:1,0:0:0:0:
275,51,154358,1,8,1:1:0:0:
55,94,154475,2,0,L|64:299,1,183.699994253769,8|0,1:1|0:0,0:0:0:0:
421,306,154827,1,8,1:1:0:0:
240,287,155061,1,8,1:1:0:0:
450,317,155178,2,0,L|446:156,1,137.774995690327,8|0,1:1|0:0,0:0:0:0:
184,104,155413,2,0,L|82:107,1,91.8499971268846,8|0,1:1|0:0,0:0:0:0:
339,180,155647,2,0,L|351:285,1,91.8499971268846,2|0,0:0|0:0,0:0:0:0:
56,280,155882,6,0,L|186:277,1,91.8499971268846,8|8,1:1|1:1,0:0:0:0:
472,166,156233,2,0,L|178:174,1,275.549991380654,8|2,1:1|0:0,0:0:0:0:
472,166,156702,1,8,1:1:0:0:
289,132,156936,1,0,0:0:0:0:
491,110,157054,2,0,L|483:14,1,91.8499971268846,2|0,0:0|0:0,0:0:0:0:
157,41,157288,2,0,L|273:40,1,91.8499971268846,8|8,1:1|1:1,0:0:0:0:
464,162,157522,2,0,L|461:296,1,91.8499971268846,2|8,0:0|1:1,0:0:0:0:
142,288,157757,6,0,L|15:295,1,91.8499971268846,8|0,1:1|0:0,0:0:0:0:
247,188,158109,1,0,0:0:0:0:
33,111,158226,2,0,L|229:95,1,183.699994253769,8|2,1:1|0:0,0:0:0:0:
329,96,158577,1,0,0:0:0:0:
102,189,158695,2,0,L|209:195,2,91.8499971268846,8|8|2,1:1|1:1|0:0,0:0:0:0:
459,245,159163,2,0,L|455:370,1,91.8499971268846,8|8,1:1|1:1,0:0:0:0:
200,261,159398,2,0,L|325:262,1,91.8499971268846,2|0,0:0|0:0,0:0:0:0:
26,180,159632,6,0,L|148:179,1,91.8499971268846,8|0,1:1|0:0,0:0:0:0:
413,137,159984,2,0,L|208:136,1,183.699994253769,8|2,1:1|0:0,0:0:0:0:
102,91,160335,2,0,L|93:206,1,91.8499971268846,2|2,0:0|0:0,0:0:0:0:
341,286,160570,2,0,L|235:297,2,91.8499971268846,8|8|2,1:1|1:1|0:0,0:0:0:0:
12,237,161039,2,0,L|17:329,1,91.8499971268846,8|8,1:1|1:1,0:0:0:0:
274,173,161273,2,0,L|170:172,1,91.8499971268846,2|0,0:0|0:0,0:0:0:0:
445,94,161507,6,0,L|332:97,1,91.8499971268846,8|8,1:1|1:1,0:0:0:0:
134,60,161859,1,8,1:1:0:0:
365,151,161976,2,0,L|168:144,1,183.699994253769,8|2,1:1|0:0,0:0:0:0:
420,287,162328,2,0,L|524:286,2,91.8499971268846,0|8|8,0:0|1:1|1:1,0:0:0:0:
149,225,162680,1,2,0:0:0:0:
337,180,162914,1,8,1:1:0:0:
59,146,163031,2,0,L|260:119,1,183.699994253769,8|0,1:1|0:0,0:0:0:0:
472,125,163383,6,0,L|479:227,1,91.8499971268846,8|8,1:1|1:1,0:0:0:0:
145,103,163734,2,0,P|280:102|349:114,1,183.699994253769,8|0,1:1|0:0,0:0:0:0:
461,165,164086,2,0,L|459:290,1,91.8499971268846,2|0,0:0|0:0,0:0:0:0:
218,314,164320,2,0,L|325:308,2,91.8499971268846,8|8|2,1:1|1:1|0:0,0:0:0:0:
401,240,164789,1,8,1:1:0:0:
189,148,164906,2,0,L|2:156,1,183.699994253769,8|0,1:1|0:0,0:0:0:0:
290,80,165258,6,0,L|423:76,1,91.8499971268846,8|8,1:1|1:1,0:0:0:0:
184,47,165610,1,8,1:1:0:0:
431,199,165727,2,0,L|207:209,1,183.699994253769,8|2,1:1|0:0,0:0:0:0:
111,261,166079,1,0,0:0:0:0:
390,316,166196,2,0,L|502:317,1,91.8499971268846,8|8,1:1|1:1,0:0:0:0:
239,247,166430,2,0,L|219:138,1,91.8499971268846,2|0,0:0|0:0,0:0:0:0:
476,101,166665,2,0,L|341:100,1,91.8499971268846,8|8,1:1|1:1,0:0:0:0:
203,70,167016,1,8,1:1:0:0:
472,181,167133,6,0,L|478:288,1,91.8499971268846,8|0,1:1|0:0,0:0:0:0:
109,325,167485,2,0,L|317:316,1,183.699994253769,8|0,0:1|0:0,0:0:0:0:
46,219,167837,2,0,L|55:102,1,91.8499971268846,2|2,0:0|0:0,0:0:0:0:
261,91,168188,1,0,0:0:0:0:
42,71,168305,1,2,0:0:0:0:
475,174,168540,2,0,L|483:263,1,45.9249985634423,8|0,1:1|0:0,0:0:0:0:
283,235,168657,2,0,L|207:244,1,45.9249985634423,2|0,0:0|0:0,0:0:0:0:
34,281,168774,2,0,L|40:375,1,91.8499971268846
392,360,169019,5,10,0:0:0:0:
256,192,169487,12,0,172535,0:0:0:0:
255,189,172769,5,0,0:0:0:0:
256,192,173238,12,0,176285,0:0:0:0:
114,73,176520,5,0,0:0:0:0:
256,192,176988,12,0,180036,0:0:0:0:
253,184,180270,5,0,0:0:0:0:
256,192,180739,12,0,183786,0:0:0:0:
