osu file format v14

[General]
AudioFilename: audio.mp3
AudioLeadIn: 0
PreviewTime: 135647
Countdown: 0
SampleSet: Normal
StackLeniency: 0.7
Mode: 2
LetterboxInBreaks: 0
WidescreenStoryboard: 1

[Editor]
Bookmarks: 10146,26556,42966,59376,75787,92197,117724,135718,153712,171706,189701,198698
DistanceSpacing: 0.6
BeatDivisor: 4
GridSize: 8
TimelineZoom: 3.399999

[Metadata]
Title:WINTER ERROR
TitleUnicode:WINTER ERROR
Artist:LukHash
ArtistUnicode:LukHash
Creator:Rocma
Version:COLLAB PLATTER
Source:osu!
Tags:digital memories featured artist fa nelly - magic bomb - mbomb electro 8bit chiptune
BeatmapID:2163462
BeatmapSetID:1031668

[Difficulty]
HPDrainRate:5
CircleSize:3.6
OverallDifficulty:8
ApproachRate:8
SliderMultiplier:2.55999990463257
SliderTickRate:2

[Events]
//Background and Video events
0,0,"BG.jpg",0,0
//Break Periods
//Storyboard Layer 0 (Background)
//Storyboard Layer 1 (Fail)
//Storyboard Layer 2 (Pass)
//Storyboard Layer 3 (Foreground)
//Storyboard Layer 4 (Overlay)
//Storyboard Sound Samples

[TimingPoints]
915,512.820512820513,4,1,3,40,1,0
1941,512.820512820513,4,1,3,70,1,0
18351,-100,4,1,3,80,0,0
34761,-100,4,1,3,90,0,0
51171,-100,4,1,3,80,0,0
83992,-100,4,1,3,90,0,0
100402,517.241379310345,4,1,3,80,1,0
104539,530.973451327434,4,1,3,78,1,0
106662,538.116591928251,4,1,3,76,1,0
108814,542.986425339367,4,1,3,74,1,0
110985,552.995391705069,4,1,3,72,1,0
113196,560.747663551402,4,1,3,70,1,0
115438,571.428571428571,4,1,3,65,1,0
117723,562.32427366448,4,1,2,60,1,0
153712,-100,4,1,2,70,0,0
171706,-100,4,1,2,60,0,0
173956,-100,4,1,2,55,0,0
176205,-100,4,1,2,50,0,0
178454,-100,4,1,2,45,0,0
180703,-100,4,1,2,40,0,0
182953,-100,4,1,2,35,0,0
185202,-100,4,1,2,30,0,0
187451,-100,4,1,2,25,0,0
189701,-100,4,2,2,25,0,0
198698,-100,4,2,2,20,0,0
199822,-100,4,2,2,19,0,0
200947,-100,4,2,2,18,0,0
202072,-100,4,2,2,17,0,0
203196,-100,4,2,2,16,0,0
204321,-100,4,2,2,15,0,0
205446,-100,4,2,2,14,0,0
206570,-100,4,2,2,13,0,0
207695,-100,4,2,2,12,0,0
208820,-100,4,2,2,11,0,0
209944,-100,4,2,2,10,0,0
211069,-100,4,2,2,9,0,0
212194,-100,4,2,2,8,0,0
213318,-100,4,2,2,7,0,0
214443,-100,4,2,2,6,0,0

[Colours]
Combo1 : 0,96,183
Combo2 : 177,125,255

[HitObjects]
256,192,915,12,0,1428,0:0:0:0:
256,176,1941,5,4,0:0:0:0:
144,160,2197,1,8,0:0:0:0:
256,144,2453,1,0,0:0:0:0:
16,128,2710,2,0,L|16:64,1,63.9999976158143,8|0,0:0|0:0,0:0:0:0:
144,64,3094,2,0,L|144:128,1,63.9999976158143,8|0,0:0|0:0,0:0:0:0:
384,80,3479,1,8,0:0:0:0:
439,105,3607,1,0,0:0:0:0:
440,165,3735,1,0,0:0:0:0:
385,192,3863,1,0,0:0:0:0:
224,192,3992,6,0,L|224:288,1,63.9999976158143,2|0,0:0|0:0,0:0:0:0:
352,256,4376,2,0,L|352:352,1,63.9999976158143,0|8,0:0|0:0,0:0:0:0:
112,320,4761,2,0,L|112:256,1,63.9999976158143,0|0,0:0|0:0,0:0:0:0:
240,272,5146,2,0,L|240:208,1,63.9999976158143,0|0,0:0|0:0,0:0:0:0:
128,224,5530,2,0,L|128:80,1,127.999995231629,8|0,0:0|0:0,0:0:0:0:
208,96,5915,1,0,0:0:0:0:
432,96,6043,5,4,0:0:0:0:
336,144,6299,2,0,L|336:208,1,63.9999976158143,8|0,0:0|0:0,0:0:0:0:
416,240,6556,1,0,0:0:0:0:
192,240,6812,2,0,L|192:160,1,63.9999976158143,8|0,0:0|0:0,0:0:0:0:
320,208,7197,2,0,L|320:128,1,63.9999976158143,8|0,0:0|0:0,0:0:0:0:
192,112,7582,1,8,0:0:0:0:
130,111,7710,1,0,0:0:0:0:
100,164,7838,1,0,0:0:0:0:
131,216,7966,1,0,0:0:0:0:
288,224,8094,6,0,L|432:224,2,127.999995231629,2|0|8,0:0|0:0|0:0,0:0:0:0:
160,176,8864,2,0,L|160:256,1,63.9999976158143,0|0,0:0|0:0,0:0:0:0:
288,240,9248,2,0,L|288:304,1,63.9999976158143,0|0,0:0|0:0,0:0:0:0:
64,272,9633,2,0,L|64:128,1,127.999995231629,8|8,0:0|0:0,0:0:0:0:
144,144,10017,1,0,0:0:0:0:
336,192,10146,6,0,L|464:192,2,127.999995231629,4|8|0,0:0|0:0|0:0,0:0:0:0:
200,192,10915,2,0,L|280:192,1,63.9999976158143,8|0,0:0|0:0,0:0:0:0:
400,192,11299,2,0,L|328:192,1,63.9999976158143,8|0,0:0|0:0,0:0:0:0:
80,192,11684,2,0,L|208:192,1,127.999995231629,8|0,0:0|0:0,0:0:0:0:
256,192,12069,1,0,0:0:0:0:
96,192,12197,6,0,L|32:192,2,63.9999976158143,2|0|0,0:0|0:0|0:0,0:0:0:0:
224,192,12710,1,8,0:0:0:0:
96,192,12966,2,0,L|160:192,1,63.9999976158143,0|0,0:0|0:0,0:0:0:0:
288,192,13351,2,0,L|288:112,1,63.9999976158143,0|0,0:0|0:0,0:0:0:0:
32,192,13735,2,0,P|72:136|160:120,1,127.999995231629,8|0,0:0|0:0,0:0:0:0:
200,192,14120,1,0,0:0:0:0:
360,192,14248,5,4,0:0:0:0:
424,192,14376,1,0,0:0:0:0:
424,192,14505,1,8,0:0:0:0:
296,192,14761,1,0,0:0:0:0:
168,192,15017,2,0,L|232:192,1,63.9999976158143,8|0,0:0|0:0,0:0:0:0:
104,192,15402,2,0,L|168:192,1,63.9999976158143,8|0,0:0|0:0,0:0:0:0:
424,192,15787,2,0,P|464:144|416:120,1,127.999995231629,8|0,0:0|0:0,0:0:0:0:
336,192,16171,1,0,0:0:0:0:
176,192,16299,6,0,L|104:192,2,63.9999976158143,2|0|0,0:0|0:0|0:0,0:0:0:0:
304,192,16812,1,8,0:0:0:0:
176,192,17069,2,0,L|104:192,1,63.9999976158143,0|0,0:0|0:0,0:0:0:0:
272,192,17325,1,8,0:0:0:0:
336,192,17453,1,0,0:0:0:0:
336,192,17582,1,8,0:0:0:0:
272,192,17710,1,0,0:0:0:0:
352,192,17838,1,8,0:0:0:0:
416,192,17966,1,0,0:0:0:0:
416,192,18094,1,8,0:0:0:0:
352,192,18222,1,8,0:0:0:0:
152,192,18351,6,0,L|80:192,1,63.9999976158143,4|0,0:3|0:0,0:0:0:0:
224,192,18735,2,0,L|296:192,1,63.9999976158143,0|8,0:0|0:0,0:0:0:0:
32,192,19120,2,0,L|112:192,1,63.9999976158143,0|8,0:0|0:0,0:0:0:0:
352,192,19505,2,0,L|288:192,1,63.9999976158143,0|8,0:0|0:0,0:0:0:0:
32,192,19889,1,8,0:0:0:0:
32,192,20017,1,0,0:0:0:0:
80,192,20146,1,8,0:0:0:0:
144,192,20274,1,0,0:0:0:0:
304,192,20402,6,0,L|384:192,1,63.9999976158143,2|0,0:0|0:0,0:0:0:0:
232,192,20787,2,0,L|168:192,1,63.9999976158143,0|8,0:0|0:0,0:0:0:0:
424,192,21171,2,0,L|344:192,1,63.9999976158143,0|8,0:0|0:0,0:0:0:0:
104,192,21556,2,0,L|104:128,1,63.9999976158143,0|8,0:0|0:0,0:0:0:0:
360,192,21941,1,8,0:0:0:0:
296,192,22069,1,0,0:0:0:0:
232,192,22197,1,8,0:0:0:0:
168,192,22325,1,0,0:0:0:0:
360,192,22453,6,0,L|432:192,1,63.9999976158143,4|0,0:0|0:0,0:0:0:0:
296,192,22838,2,0,L|296:128,1,63.9999976158143,0|8,0:0|0:0,0:0:0:0:
32,192,23223,2,0,L|32:112,1,63.9999976158143,0|8,0:0|0:0,0:0:0:0:
160,192,23607,2,0,L|160:120,1,63.9999976158143,0|8,0:0|0:0,0:0:0:0:
384,192,23992,2,0,L|464:192,1,63.9999976158143,8|0,0:0|0:0,0:0:0:0:
448,192,24248,2,0,L|376:192,1,63.9999976158143,8|0,0:0|0:0,0:0:0:0:
224,192,24505,6,0,L|152:192,1,63.9999976158143,2|0,0:0|0:0,0:0:0:0:
32,192,24889,2,0,L|32:128,1,63.9999976158143,0|8,0:0|0:0,0:0:0:0:
288,192,25274,2,0,L|360:192,1,63.9999976158143,0|8,0:0|0:0,0:0:0:0:
96,192,25658,2,0,L|16:192,1,63.9999976158143,0|8,0:0|0:0,0:0:0:0:
288,192,26043,1,8,0:0:0:0:
368,192,26171,1,0,0:0:0:0:
416,192,26299,1,8,0:0:0:0:
432,192,26428,1,0,0:0:0:0:
240,208,26556,6,0,L|160:208,1,63.9999976158143,4|0,0:3|0:0,0:0:0:0:
288,144,26941,2,0,L|288:80,1,63.9999976158143,0|8,0:0|0:0,0:0:0:0:
32,112,27325,2,0,L|32:48,1,63.9999976158143,0|8,0:0|0:0,0:0:0:0:
288,32,27710,2,0,L|368:32,1,63.9999976158143,0|8,0:0|0:0,0:0:0:0:
96,96,28094,2,0,L|32:128,1,63.9999976158143,8|0,0:0|0:0,0:0:0:0:
38,124,28351,2,0,L|96:96,1,63.9999976158143,8|0,0:0|0:0,0:0:0:0:
240,96,28607,6,0,L|336:96,1,63.9999976158143,2|0,0:0|0:0,0:0:0:0:
448,160,28992,2,0,L|448:224,1,63.9999976158143,0|8,0:0|0:0,0:0:0:0:
192,224,29376,2,0,L|192:288,1,63.9999976158143,0|8,0:0|0:0,0:0:0:0:
448,320,29761,2,0,L|384:320,1,63.9999976158143,0|8,0:0|0:0,0:0:0:0:
128,288,30146,2,0,L|96:224,2,63.9999976158143,8|0|8,0:0|0:0|0:0,0:0:0:0:
224,288,30530,1,0,0:0:0:0:
416,288,30658,6,0,L|416:224,1,63.9999976158143,4|0,0:0|0:0,0:0:0:0:
288,192,31043,2,0,L|224:192,1,63.9999976158143,0|8,0:0|0:0,0:0:0:0:
480,80,31428,2,0,L|384:80,1,63.9999976158143,0|8,0:0|0:0,0:0:0:0:
288,80,31812,2,0,L|224:80,1,63.9999976158143,0|8,0:0|0:0,0:0:0:0:
448,176,32197,5,8,0:0:0:0:
430,236,32325,1,0,0:0:0:0:
384,279,32453,1,8,0:0:0:0:
322,291,32581,1,0,0:0:0:0:
160,256,32710,6,0,L|240:256,1,63.9999976158143,2|0,0:0|0:0,0:0:0:0:
352,224,33094,2,0,L|352:160,1,63.9999976158143,0|8,0:0|0:0,0:0:0:0:
96,128,33479,2,0,L|176:128,1,63.9999976158143,0|8,0:0|0:0,0:0:0:0:
320,128,33735,6,0,L|384:144,1,63.9999976158143,8|0,0:0|0:0,0:0:0:0:
382,143,33992,2,0,L|320:128,1,63.9999976158143,8|0,0:0|0:0,0:0:0:0:
160,128,34248,2,0,L|96:144,2,63.9999976158143,8|0|0,0:0|0:0|0:0,0:0:0:0:
238,161,34633,1,8,0:0:0:0:
448,208,34761,6,0,L|448:144,1,63.9999976158143,4|0,0:3|0:0,0:0:0:0:
112,112,35274,1,2,0:0:0:0:
256,144,35530,2,0,L|256:80,1,63.9999976158143,8|8,0:0|0:0,0:0:0:0:
96,64,35787,6,0,L|16:64,1,63.9999976158143,0|0,0:0|0:0,0:0:0:0:
368,48,36299,1,2,0:0:0:0:
208,112,36556,2,0,L|144:112,1,63.9999976158143,8|0,0:0|0:0,0:0:0:0:
288,160,36812,6,0,L|352:160,1,63.9999976158143,4|0,0:0|0:0,0:0:0:0:
16,224,37325,1,2,0:0:0:0:
160,224,37582,2,0,L|240:224,1,63.9999976158143,8|8,0:0|0:0,0:0:0:0:
448,224,37838,6,0,B|448:160|448:160|352:160,1,127.999995231629,8|0,0:0|0:0,0:0:0:0:
256,96,38351,1,8,0:0:0:0:
400,224,38479,2,0,B|400:160|400:160|320:160,1,127.999995231629,8|0,0:0|0:0,0:0:0:0:
64,208,38864,6,0,L|64:144,1,63.9999976158143,4|0,0:3|0:0,0:0:0:0:
400,112,39377,1,2,0:0:0:0:
256,144,39633,2,0,L|256:80,1,63.9999976158143,8|8,0:0|0:0,0:0:0:0:
400,48,39890,6,0,L|320:48,1,63.9999976158143,0|0,0:0|0:0,0:0:0:0:
16,48,40402,1,2,0:0:0:0:
272,112,40659,2,0,L|192:112,1,63.9999976158143,8|0,0:0|0:0,0:0:0:0:
64,160,40915,6,0,L|128:160,1,63.9999976158143,4|0,0:0|0:0,0:0:0:0:
448,224,41428,1,2,0:0:0:0:
304,224,41685,2,0,L|224:224,1,63.9999976158143,8|0,0:0|0:0,0:0:0:0:
432,144,41941,2,0,B|496:144|496:144|496:208,1,127.999995231629,8|8,0:0|0:0,0:0:0:0:
176,224,42454,1,8,0:0:0:0:
96,144,42582,2,0,B|32:144|32:144|112:144,1,127.999995231629,0|2,0:0|0:0,0:0:0:0:
288,192,42966,6,0,L|360:192,1,63.9999976158143,4|0,0:3|0:0,0:0:0:0:
48,192,43479,1,2,0:0:0:0:
176,192,43735,2,0,L|240:192,1,63.9999976158143,8|8,0:0|0:0,0:0:0:0:
80,192,43992,2,0,L|8:192,2,63.9999976158143,0|0|0,0:0|0:0|0:0,0:0:0:0:
336,192,44505,1,2,0:0:0:0:
464,192,44761,1,8,0:0:0:0:
384,192,44889,1,0,0:0:0:0:
224,192,45017,6,0,L|144:192,1,63.9999976158143,4|0,0:0|0:0,0:0:0:0:
464,192,45530,1,2,0:0:0:0:
264,192,45915,1,8,0:0:0:0:
424,192,46043,2,0,P|464:144|424:112,1,127.999995231629,8|0,0:0|0:0,0:0:0:0:
168,192,46556,1,8,0:0:0:0:
248,192,46684,1,8,0:0:0:0:
392,192,46941,1,0,0:0:0:0:
200,192,47069,6,0,L|120:192,1,63.9999976158143,4|0,0:3|0:0,0:0:0:0:
456,192,47582,1,2,0:0:0:0:
304,192,47838,2,0,L|216:192,1,63.9999976158143,8|8,0:0|0:0,0:0:0:0:
400,192,48094,2,0,L|472:192,2,63.9999976158143,0|0|0,0:0|0:0|0:0,0:0:0:0:
144,192,48607,1,2,0:0:0:0:
272,192,48864,2,0,L|272:128,1,63.9999976158143,8|0,0:0|0:0,0:0:0:0:
112,192,49120,6,0,L|40:192,1,63.9999976158143,4|0,0:0|0:0,0:0:0:0:
360,192,49633,1,2,0:0:0:0:
168,192,50017,1,8,0:0:0:0:
328,192,50146,2,0,P|414:170|432:112,1,127.999995231629,8|8,0:0|0:0,0:0:0:0:
176,192,50658,1,8,0:0:0:0:
256,192,50787,1,0,0:0:0:0:
112,192,51043,1,2,0:0:0:0:
304,192,51171,6,0,L|440:192,2,127.999995231629,8|0|8,0:0|0:0|0:0,0:0:0:0:
168,192,51941,2,0,P|133:179|136:144,1,63.9999976158143,8|8,0:0|0:0,0:0:0:0:
272,192,52325,2,0,L|336:192,1,63.9999976158143,8|8,0:0|0:0,0:0:0:0:
80,192,52710,2,0,P|56:160|120:120,1,127.999995231629,8|8,0:0|0:0,0:0:0:0:
192,192,53094,1,0,0:0:0:0:
352,192,53223,6,0,L|416:192,2,63.9999976158143,8|0|0,0:0|0:0|0:0,0:0:0:0:
224,192,53736,1,8,0:0:0:0:
352,192,53992,2,0,L|288:192,1,63.9999976158143,8|8,0:0|0:0,0:0:0:0:
160,192,54377,2,0,L|160:112,1,63.9999976158143,8|8,0:0|0:0,0:0:0:0:
416,192,54761,2,0,P|376:136|288:120,1,127.999995231629,8|8,0:0|0:0,0:0:0:0:
248,192,55146,1,0,0:0:0:0:
88,192,55274,5,8,0:0:0:0:
24,192,55402,1,0,0:0:0:0:
24,192,55531,1,0,0:0:0:0:
152,192,55787,1,8,0:0:0:0:
280,192,56043,2,0,L|216:192,1,63.9999976158143,8|8,0:0|0:0,0:0:0:0:
344,192,56428,2,0,L|280:192,1,63.9999976158143,8|8,0:0|0:0,0:0:0:0:
24,192,56813,2,0,P|16:144|80:112,1,127.999995231629,8|8,0:0|0:0,0:0:0:0:
160,192,57197,1,0,0:0:0:0:
320,192,57325,6,0,L|392:192,2,63.9999976158143,8|0|0,0:0|0:0|0:0,0:0:0:0:
192,192,57838,1,8,0:0:0:0:
320,192,58095,2,0,L|392:192,1,63.9999976158143,0|8,0:0|0:0,0:0:0:0:
256,192,58479,2,0,L|184:192,1,63.9999976158143,0|8,0:0|0:0,0:0:0:0:
448,192,58864,2,0,P|488:136|440:112,1,127.999995231629,8|8,0:0|0:0,0:0:0:0:
368,192,59248,1,0,0:0:0:0:
176,192,59376,6,0,L|40:192,2,127.999995231629,8|0|8,0:0|0:0|0:0,0:0:0:0:
320,176,60146,2,0,L|256:176,1,63.9999976158143,8|8,0:0|0:0,0:0:0:0:
144,176,60530,2,0,L|80:176,1,63.9999976158143,8|8,0:0|0:0,0:0:0:0:
304,144,60915,2,0,P|344:93|288:80,1,127.999995231629,8|8,0:0|0:0,0:0:0:0:
224,64,61299,1,0,0:0:0:0:
64,80,61428,5,8,0:0:0:0:
128,80,61556,1,0,0:0:0:0:
192,80,61684,1,0,0:0:0:0:
320,128,61941,1,8,0:0:0:0:
192,176,62197,2,0,L|192:96,1,63.9999976158143,8|8,0:0|0:0,0:0:0:0:
336,80,62582,2,0,L|400:80,1,63.9999976158143,8|8,0:0|0:0,0:0:0:0:
176,80,62966,2,0,P|139:129|192:176,1,127.999995231629,8|8,0:0|0:0,0:0:0:0:
256,176,63351,1,0,0:0:0:0:
416,240,63479,5,8,0:0:0:0:
480,240,63607,1,0,0:0:0:0:
416,240,63736,1,0,0:0:0:0:
288,240,63992,1,8,0:0:0:0:
416,192,64248,2,0,L|352:192,1,63.9999976158143,8|8,0:0|0:0,0:0:0:0:
448,112,64633,2,0,L|384:112,1,63.9999976158143,8|8,0:0|0:0,0:0:0:0:
160,112,65017,2,0,P|128:176|176:192,1,127.999995231629,8|8,0:0|0:0,0:0:0:0:
240,192,65402,1,0,0:0:0:0:
400,224,65530,5,8,0:0:0:0:
336,224,65658,1,0,0:0:0:0:
272,224,65786,1,0,0:0:0:0:
400,176,66043,1,8,0:0:0:0:
272,144,66300,2,0,L|200:144,1,63.9999976158143,0|8,0:0|0:0,0:0:0:0:
368,128,66556,6,0,L|368:48,1,63.9999976158143,8|0,0:0|0:0,0:0:0:0:
304,48,66812,2,0,L|240:48,1,63.9999976158143,8|0,0:0|0:0,0:0:0:0:
320,112,67069,2,0,L|400:112,3,63.9999976158143,8|0|8|0,0:0|0:0|0:0|0:0,0:0:0:0:
176,144,67582,6,0,L|176:224,1,63.9999976158143,4|0,0:3|0:0,0:0:0:0:
304,240,67966,2,0,L|368:240,1,63.9999976158143,0|8,0:0|0:0,0:0:0:0:
144,256,68351,2,0,L|80:256,1,63.9999976158143,0|8,0:0|0:0,0:0:0:0:
304,208,68735,2,0,L|304:128,1,63.9999976158143,0|8,0:0|0:0,0:0:0:0:
176,144,69120,1,8,0:0:0:0:
96,160,69248,2,0,L|64:240,2,63.9999976158143,0|8|0,0:0|0:0|0:0,0:0:0:0:
320,176,69633,6,0,L|400:176,1,63.9999976158143,2|0,0:0|0:0,0:0:0:0:
240,240,70017,2,0,L|240:304,1,63.9999976158143,0|8,0:0|0:0,0:0:0:0:
464,288,70402,2,0,L|464:224,1,63.9999976158143,0|8,0:0|0:0,0:0:0:0:
240,208,70787,2,0,L|176:208,1,63.9999976158143,0|8,0:0|0:0,0:0:0:0:
320,176,71171,2,0,L|384:160,1,63.9999976158143,8|0,0:0|0:0,0:0:0:0:
382,160,71428,2,0,L|319:175,1,63.9999976158143,8|0,0:0|0:0,0:0:0:0:
176,176,71684,6,0,L|96:176,1,63.9999976158143,4|0,0:0|0:0,0:0:0:0:
240,112,72069,2,0,L|240:32,1,63.9999976158143,0|8,0:0|0:0,0:0:0:0:
464,80,72453,2,0,L|464:144,1,63.9999976158143,0|8,0:0|0:0,0:0:0:0:
240,224,72838,2,0,L|160:224,1,63.9999976158143,0|8,0:0|0:0,0:0:0:0:
320,192,73223,1,8,0:0:0:0:
380,182,73351,1,0,0:0:0:0:
399,124,73479,1,8,0:0:0:0:
356,81,73607,1,0,0:0:0:0:
128,80,73735,6,0,L|128:160,1,63.9999976158143,2|0,0:0|0:0,0:0:0:0:
256,176,74120,2,0,L|320:176,1,63.9999976158143,0|8,0:0|0:0,0:0:0:0:
96,272,74505,2,0,L|160:272,1,63.9999976158143,0|8,0:0|0:0,0:0:0:0:
384,256,74889,2,0,L|384:176,1,63.9999976158143,0|8,0:0|0:0,0:0:0:0:
256,176,75274,1,8,0:0:0:0:
195,157,75402,1,0,0:0:0:0:
149,113,75530,1,8,0:0:0:0:
128,53,75658,1,0,0:0:0:0:
320,192,75787,6,0,L|392:192,1,63.9999976158143,4|0,0:3|0:0,0:0:0:0:
248,192,76171,2,0,L|176:192,1,63.9999976158143,0|8,0:0|0:0,0:0:0:0:
440,192,76556,2,0,L|360:192,1,63.9999976158143,0|8,0:0|0:0,0:0:0:0:
120,192,76941,2,0,L|184:192,1,63.9999976158143,0|8,0:0|0:0,0:0:0:0:
440,192,77325,1,8,0:0:0:0:
440,192,77453,1,0,0:0:0:0:
392,192,77582,1,8,0:0:0:0:
328,192,77710,1,0,0:0:0:0:
168,192,77838,6,0,L|88:192,1,63.9999976158143,2|0,0:0|0:0,0:0:0:0:
240,192,78223,2,0,L|304:192,1,63.9999976158143,0|8,0:0|0:0,0:0:0:0:
48,192,78607,2,0,L|128:192,1,63.9999976158143,0|8,0:0|0:0,0:0:0:0:
368,192,78992,2,0,L|368:128,1,63.9999976158143,0|8,0:0|0:0,0:0:0:0:
112,192,79377,1,8,0:0:0:0:
176,192,79505,1,0,0:0:0:0:
240,192,79633,1,8,0:0:0:0:
304,192,79761,1,0,0:0:0:0:
112,192,79889,6,0,L|40:192,1,63.9999976158143,4|0,0:0|0:0,0:0:0:0:
176,192,80274,2,0,L|176:128,1,63.9999976158143,0|8,0:0|0:0,0:0:0:0:
440,192,80659,2,0,L|440:112,1,63.9999976158143,0|8,0:0|0:0,0:0:0:0:
312,192,81043,2,0,L|312:120,1,63.9999976158143,0|8,0:0|0:0,0:0:0:0:
88,192,81428,2,0,L|8:192,1,63.9999976158143,8|0,0:0|0:0,0:0:0:0:
24,192,81684,2,0,L|96:192,1,63.9999976158143,8|0,0:0|0:0,0:0:0:0:
248,192,81941,6,0,L|320:192,1,63.9999976158143,2|0,0:0|0:0,0:0:0:0:
440,192,82325,2,0,L|440:128,1,63.9999976158143,0|8,0:0|0:0,0:0:0:0:
184,192,82710,2,0,L|184:128,1,63.9999976158143,0|8,0:0|0:0,0:0:0:0:
344,192,82966,1,8,0:0:0:0:
408,192,83094,1,0,0:0:0:0:
408,192,83223,1,8,0:0:0:0:
344,192,83351,1,0,0:0:0:0:
496,192,83479,1,8,0:0:0:0:
496,192,83607,1,0,0:0:0:0:
464,192,83735,1,8,0:0:0:0:
384,192,83864,1,0,0:0:0:0:
192,192,83992,6,0,L|120:192,1,63.9999976158143,4|0,0:3|0:0,0:0:0:0:
432,192,84505,1,2,0:0:0:0:
304,192,84761,2,0,L|248:160,1,63.9999976158143,8|8,0:0|0:0,0:0:0:0:
416,192,85018,2,0,L|488:192,2,63.9999976158143,0|0|0,0:0|0:0|0:0,0:0:0:0:
160,192,85531,1,2,0:0:0:0:
32,192,85787,1,8,0:0:0:0:
112,192,85915,1,0,0:0:0:0:
272,192,86043,6,0,L|328:152,1,63.9999976158143,4|0,0:0|0:0,0:0:0:0:
16,192,86556,1,2,0:0:0:0:
208,192,86941,1,8,0:0:0:0:
48,192,87069,2,0,P|16:144|64:112,1,127.999995231629,8|0,0:0|0:0,0:0:0:0:
312,192,87582,1,8,0:0:0:0:
232,192,87710,1,8,0:0:0:0:
88,192,87967,1,0,0:0:0:0:
280,192,88095,6,0,L|360:192,1,63.9999976158143,4|0,0:3|0:0,0:0:0:0:
24,192,88608,1,2,0:0:0:0:
176,192,88864,2,0,L|240:160,1,63.9999976158143,8|8,0:0|0:0,0:0:0:0:
80,192,89120,2,0,L|24:160,2,63.9999976158143,0|0|0,0:0|0:0|0:0,0:0:0:0:
336,192,89633,1,2,0:0:0:0:
208,192,89890,2,0,L|208:128,1,63.9999976158143,8|0,0:0|0:0,0:0:0:0:
368,192,90146,6,0,L|424:160,1,63.9999976158143,4|0,0:0|0:0,0:0:0:0:
120,192,90659,1,2,0:0:0:0:
312,192,91043,1,8,0:0:0:0:
152,192,91172,2,0,P|66:170|48:112,1,127.999995231629,8|8,0:0|0:0,0:0:0:0:
304,192,91684,1,8,0:0:0:0:
224,192,91813,1,0,0:0:0:0:
368,192,92069,1,2,0:0:0:0:
144,192,92197,6,0,L|80:192,1,63.9999976158143,4|0,0:3|0:0,0:0:0:0:
400,112,92710,1,2,0:0:0:0:
256,144,92966,2,0,L|256:80,1,63.9999976158143,8|8,0:0|0:0,0:0:0:0:
416,64,93223,6,0,L|496:64,1,63.9999976158143,0|0,0:0|0:0,0:0:0:0:
144,48,93735,1,2,0:0:0:0:
304,112,93992,2,0,L|368:112,1,63.9999976158143,8|0,0:0|0:0,0:0:0:0:
224,160,94248,6,0,L|160:160,1,63.9999976158143,4|0,0:0|0:0,0:0:0:0:
496,224,94761,1,2,0:0:0:0:
352,224,95018,2,0,L|272:224,1,63.9999976158143,8|8,0:0|0:0,0:0:0:0:
80,224,95274,6,0,B|80:160|80:160|176:160,1,127.999995231629,8|0,0:0|0:0,0:0:0:0:
272,96,95787,1,8,0:0:0:0:
128,224,95915,2,0,B|128:160|128:160|208:160,1,127.999995231629,8|0,0:0|0:0,0:0:0:0:
384,144,96300,6,0,L|448:144,1,63.9999976158143,4|0,0:3|0:0,0:0:0:0:
112,112,96813,1,2,0:0:0:0:
256,144,97069,2,0,L|256:80,1,63.9999976158143,8|8,0:0|0:0,0:0:0:0:
112,48,97326,6,0,L|192:48,1,63.9999976158143,0|0,0:0|0:0,0:0:0:0:
496,48,97838,1,2,0:0:0:0:
240,112,98095,2,0,L|320:112,1,63.9999976158143,8|0,0:0|0:0,0:0:0:0:
448,160,98351,6,0,L|384:160,1,63.9999976158143,4|0,0:0|0:0,0:0:0:0:
64,224,98864,1,2,0:0:0:0:
208,224,99121,2,0,L|288:224,1,63.9999976158143,8|0,0:0|0:0,0:0:0:0:
80,144,99377,2,0,B|16:144|16:144|16:208,1,127.999995231629,8|8,0:0|0:0,0:0:0:0:
336,224,99890,1,8,0:0:0:0:
416,144,100018,2,0,B|480:144|480:144|400:144,1,127.999995231629,0|2,0:0|0:0,0:0:0:0:
224,256,100402,6,0,L|96:256,1,127.999995231629,8|0,0:0|0:0,0:0:0:0:
160,256,100789,1,0,0:0:0:0:
304,272,100919,2,0,P|344:227|288:192,1,127.999995231629,8|0,0:0|0:0,0:0:0:0:
224,176,101307,6,0,P|184:131|240:96,1,127.999995231629,0|8,0:0|0:0,0:0:0:0:
304,96,101695,1,0,0:0:0:0:
80,112,101953,2,0,P|80:192|144:208,1,127.999995231629,8|0,0:0|0:0,0:0:0:0:
192,240,102341,1,0,0:0:0:0:
352,144,102470,6,0,P|416:192|416:256,1,127.999995231629,8|0,0:0|0:0,0:0:0:0:
352,256,102857,1,0,0:0:0:0:
208,272,102987,2,0,P|168:227|224:192,1,127.999995231629,8|0,0:0|0:0,0:0:0:0:
288,176,103375,6,0,P|328:131|272:96,1,127.999995231629,0|8,0:0|0:0,0:0:0:0:
208,96,103763,1,0,0:0:0:0:
432,112,104022,2,0,L|464:208,2,63.9999976158143,8|0|0,0:0|0:0|0:0,0:0:0:0:
352,112,104410,1,0,0:0:0:0:
144,112,104539,6,0,P|176:192|240:192,1,127.999995231629,8|0,0:0|0:0,0:0:0:0:
288,208,104937,1,0,0:0:0:0:
128,320,105069,2,0,P|93:258|129:229,1,127.999995231629,8|0,0:0|0:0,0:0:0:0:
208,224,105468,2,0,P|272:192|288:128,1,127.999995231629,0|8,0:0|0:0,0:0:0:0:
208,112,105866,1,0,0:0:0:0:
448,112,106131,2,0,L|304:112,1,127.999995231629,8|0,0:0|0:0,0:0:0:0:
240,112,106530,1,0,0:0:0:0:
464,288,106662,6,0,P|496:224|439:184,1,127.999995231629,8|0,0:0|0:0,0:0:0:0:
384,176,107065,1,0,0:0:0:0:
224,176,107200,2,0,P|144:224|144:288,1,127.999995231629,8|0,0:0|0:0,0:0:0:0:
224,256,107603,2,0,P|304:304|304:368,1,127.999995231629,0|8,0:0|0:0,0:0:0:0:
224,352,108007,1,0,0:0:0:0:
448,320,108276,2,0,L|432:240,1,63.9999976158143,8|0,0:0|0:0,0:0:0:0:
336,224,108545,1,0,0:0:0:0:
432,192,108679,1,0,0:0:0:0:
208,224,108814,6,0,P|152:253|131:312,1,127.999995231629,8|0,0:0|0:0,0:0:0:0:
208,304,109221,1,0,0:0:0:0:
368,304,109356,2,0,P|320:224|240:224,1,127.999995231629,8|0,0:0|0:0,0:0:0:0:
208,208,109764,6,0,P|152:178|131:119,1,127.999995231629,0|8,0:0|0:0,0:0:0:0:
208,80,110171,1,0,0:0:0:0:
496,128,110442,2,0,P|475:189|416:224,1,127.999995231629,8|0,0:0|0:0,0:0:0:0:
336,224,110850,1,0,0:0:0:0:
112,256,110985,6,0,P|48:208|48:112,1,127.999995231629,8|0,0:0|0:0,0:0:0:0:
112,128,111399,1,0,0:0:0:0:
272,128,111537,2,0,P|352:160|400:208,1,127.999995231629,8|0,0:0|0:0,0:0:0:0:
288,208,111952,2,0,P|208:240|160:288,1,127.999995231629,0|8,0:0|0:0,0:0:0:0:
272,304,112367,1,0,0:0:0:0:
32,304,112643,2,0,L|48:224,1,63.9999976158143,8|0,0:0|0:0,0:0:0:0:
144,224,112920,2,0,L|160:144,1,63.9999976158143,0|0,0:0|0:0,0:0:0:0:
384,208,113196,6,0,P|423:164|368:128,1,127.999995231629,8|0,0:0|0:0,0:0:0:0:
304,128,113616,1,0,0:0:0:0:
128,208,113756,2,0,P|89:164|144:128,1,127.999995231629,8|0,0:0|0:0,0:0:0:0:
224,128,114177,6,0,P|263:84|208:48,1,127.999995231629,0|8,0:0|0:0,0:0:0:0:
128,32,114597,1,0,0:0:0:0:
384,32,114878,2,0,P|464:96|464:128,1,127.999995231629,8|0,0:0|0:0,0:0:0:0:
256,192,115438,12,8,117152,0:0:0:0:
144,192,117723,6,0,L|72:192,2,63.9999976158143,4|0|0,0:0|0:0|0:0,0:0:0:0:
288,192,118285,2,0,L|288:48,1,127.999995231629,2|0,0:0|0:0,0:0:0:0:
144,192,118847,1,0,0:0:0:0:
216,192,118988,1,0,0:0:0:0:
288,192,119128,1,0,0:0:0:0:
144,192,119409,2,0,P|64:176|48:112,1,127.999995231629,2|0,0:0|0:0,0:0:0:0:
192,192,119972,6,0,L|264:192,2,63.9999976158143,0|0|0,0:0|0:0|0:0,0:0:0:0:
336,192,120534,2,0,P|432:168|456:120,1,127.999995231629,2|0,0:0|0:0,0:0:0:0:
304,192,121096,2,0,L|240:192,2,63.9999976158143,0|0|0,0:0|0:0|0:0,0:0:0:0:
448,192,121659,1,2,0:0:0:0:
496,192,121799,1,0,0:0:0:0:
448,192,121940,1,0,0:0:0:0:
376,192,122081,1,0,0:0:0:0:
216,192,122221,6,0,L|152:192,2,63.9999976158143,4|0|0,0:0|0:0|0:0,0:0:0:0:
456,192,122783,2,0,P|496:136|448:112,1,127.999995231629,2|0,0:0|0:0,0:0:0:0:
376,192,123205,2,0,P|312:184|264:144,1,127.999995231629,0|0,0:0|0:0,0:0:0:0:
352,192,123627,2,0,P|360:120|304:104,1,127.999995231629,0|2,0:0|0:0,0:0:0:0:
232,192,124049,2,0,L|160:192,2,63.9999976158143,0|0|0,0:0|0:0|0:0,0:0:0:0:
392,192,124470,6,0,L|456:192,2,63.9999976158143,0|0|0,0:0|0:0|0:0,0:0:0:0:
136,192,125033,2,0,P|56:144|64:88,1,127.999995231629,2|0,0:0|0:0,0:0:0:0:
144,192,125454,2,0,P|224:168|240:128,1,127.999995231629,0|0,0:0|0:0,0:0:0:0:
80,192,125876,2,0,P|32:144|96:112,1,127.999995231629,0|2,0:0|0:0,0:0:0:0:
224,192,126298,1,0,0:0:0:0:
160,192,126439,1,0,0:0:0:0:
96,192,126579,1,0,0:0:0:0:
312,192,126720,6,0,L|384:192,2,63.9999976158143,4|0|0,0:0|0:0|0:0,0:0:0:0:
56,192,127282,2,0,L|192:192,1,127.999995231629,2|0,0:0|0:0,0:0:0:0:
272,192,127704,2,0,P|312:136|272:120,1,127.999995231629,0|0,0:0|0:0,0:0:0:0:
192,192,128125,2,0,L|352:192,1,127.999995231629,0|2,0:0|0:0,0:0:0:0:
384,192,128547,1,0,0:0:0:0:
384,192,128688,1,0,0:0:0:0:
320,192,128828,1,0,0:0:0:0:
160,192,128969,6,0,L|88:192,2,63.9999976158143,0|0|0,0:0|0:0|0:0,0:0:0:0:
416,192,129531,2,0,P|480:160|480:104,1,127.999995231629,2|0,0:0|0:0,0:0:0:0:
400,192,129953,2,0,P|316:174|288:144,1,127.999995231629,0|0,0:0|0:0,0:0:0:0:
448,192,130375,2,0,P|488:144|440:120,1,127.999995231629,0|2,0:0|0:0,0:0:0:0:
288,192,130797,1,0,0:0:0:0:
224,192,130937,1,0,0:0:0:0:
224,192,131078,1,0,0:0:0:0:
384,192,131218,6,0,L|456:192,2,63.9999976158143,4|0|0,0:0|0:0|0:0,0:0:0:0:
128,192,131781,2,0,P|112:152|176:120,1,127.999995231629,2|0,0:0|0:0,0:0:0:0:
256,192,132202,2,0,L|120:192,1,127.999995231629,0|0,0:0|0:0,0:0:0:0:
48,192,132624,2,0,L|192:192,1,127.999995231629,0|2,0:0|0:0,0:0:0:0:
104,192,133046,2,0,L|40:192,2,63.9999976158143,0|0|0,0:0|0:0|0:0,0:0:0:0:
264,192,133468,6,0,L|344:192,2,63.9999976158143,0|0|0,0:0|0:0|0:0,0:0:0:0:
136,192,134030,2,0,L|264:192,1,127.999995231629,2|0,0:0|0:0,0:0:0:0:
344,192,134452,2,0,P|384:136|328:120,1,127.999995231629,0|0,0:0|0:0,0:0:0:0:
128,192,134873,2,0,P|24:152|104:64,1,255.999990463257,0|0,0:0|0:0,0:0:0:0:
480,80,135717,6,0,P|464:144|384:160,1,127.999995231629,4|0,0:0|0:0,0:0:0:0:
320,176,136138,1,0,0:0:0:0:
160,240,136279,1,8,0:0:0:0:
304,288,136560,1,0,0:0:0:0:
32,320,136841,6,0,P|48:240|96:192,1,127.999995231629,2|0,0:0|0:0,0:0:0:0:
240,176,137403,2,0,P|276:124|284:61,1,127.999995231629,8|0,0:0|0:0,0:0:0:0:
32,80,137966,6,0,P|48:144|128:160,1,127.999995231629,2|0,0:0|0:0,0:0:0:0:
192,176,138387,1,0,0:0:0:0:
352,240,138528,1,8,0:0:0:0:
208,288,138809,1,0,0:0:0:0:
352,208,139090,6,0,P|388:259|396:322,1,127.999995231629,2|0,0:0|0:0,0:0:0:0:
112,208,139653,2,0,P|75:259|67:322,1,127.999995231629,8|0,0:0|0:0,0:0:0:0:
144,320,140075,1,0,0:0:0:0:
384,320,140215,6,0,P|432:256|368:240,1,127.999995231629,4|0,0:0|0:0,0:0:0:0:
320,208,140637,1,0,0:0:0:0:
160,192,140777,1,8,0:0:0:0:
304,144,141059,1,0,0:0:0:0:
48,160,141340,6,0,P|80:240|160:240,1,127.999995231629,2|0,0:0|0:0,0:0:0:0:
256,256,141902,2,0,P|310:286|321:347,1,127.999995231629,8|0,0:0|0:0,0:0:0:0:
64,352,142464,6,0,P|16:288|80:224,1,127.999995231629,2|0,0:0|0:0,0:0:0:0:
112,224,142886,1,0,0:0:0:0:
256,208,143027,1,8,0:0:0:0:
416,176,143308,1,0,0:0:0:0:
400,96,143448,1,0,0:0:0:0:
224,96,143589,2,0,P|160:144|160:224,1,127.999995231629,2|2,0:0|0:0,0:0:0:0:
416,176,144151,2,0,P|480:224|480:304,1,127.999995231629,8|0,0:0|0:0,0:0:0:0:
128,288,144714,6,0,L|64:288,2,63.9999976158143,4|0|0,0:0|0:0|0:0,0:0:0:0:
288,256,145276,1,8,0:0:0:0:
224,256,145416,1,0,0:0:0:0:
160,256,145557,1,0,0:0:0:0:
432,256,145838,2,0,P|432:160|400:96,1,127.999995231629,2|2,0:0|0:0,0:0:0:0:
256,96,146401,2,0,L|416:96,1,127.999995231629,8|0,0:0|0:0,0:0:0:0:
112,208,146963,6,0,L|96:272,1,63.9999976158143,2|0,0:0|0:0,0:0:0:0:
176,288,147244,1,0,0:0:0:0:
304,256,147525,2,0,L|320:320,1,63.9999976158143,8|0,0:0|0:0,0:0:0:0:
240,336,147806,1,0,0:0:0:0:
80,336,148088,2,0,P|96:272|176:240,1,127.999995231629,2|2,0:0|0:0,0:0:0:0:
398,240,148650,2,0,P|450:275|464:336,1,127.999995231629,8|0,0:0|0:0,0:0:0:0:
384,352,149072,1,0,0:0:0:0:
160,336,149212,6,0,L|176:272,1,63.9999976158143,4|0,0:0|0:0,0:0:0:0:
256,272,149493,1,0,0:0:0:0:
128,240,149775,2,0,L|144:176,1,63.9999976158143,8|0,0:0|0:0,0:0:0:0:
224,176,150056,1,0,0:0:0:0:
480,160,150337,2,0,P|464:224|368:240,1,127.999995231629,2|2,0:0|0:0,0:0:0:0:
288,160,150899,2,0,P|301:220|355:250,1,127.999995231629,8|0,0:0|0:0,0:0:0:0:
96,320,151462,6,0,L|32:272,2,63.9999976158143,2|0|0,0:0|0:0|0:0,0:0:0:0:
240,320,152024,2,0,L|304:272,2,63.9999976158143,8|0|0,0:0|0:0|0:0,0:0:0:0:
96,320,152586,2,0,L|80:256,1,63.9999976158143,2|0,0:0|0:0,0:0:0:0:
176,256,152867,2,0,L|192:192,1,63.9999976158143,2|0,0:0|0:0,0:0:0:0:
368,192,153149,2,0,P|448:160|432:96,1,127.999995231629,8|0,0:0|0:0,0:0:0:0:
384,112,153570,1,0,0:0:0:0:
168,192,153711,6,0,P|96:186|80:104,1,127.999995231629,4|0,0:0|0:0,0:0:0:0:
232,192,154133,2,0,P|312:168|320:104,1,127.999995231629,0|0,0:0|0:0,0:0:0:0:
184,192,154695,1,0,0:0:0:0:
256,192,154836,2,0,L|392:192,1,127.999995231629,2|0,0:0|0:0,0:0:0:0:
128,192,155398,2,0,P|88:176|128:120,1,127.999995231629,8|0,0:0|0:0,0:0:0:0:
384,192,155960,6,0,P|472:168|488:128,1,127.999995231629,2|0,0:0|0:0,0:0:0:0:
400,192,156382,2,0,P|312:176|272:144,1,127.999995231629,0|0,0:0|0:0,0:0:0:0:
416,192,156944,1,0,0:0:0:0:
352,192,157085,2,0,L|488:192,1,127.999995231629,2|0,0:0|0:0,0:0:0:0:
128,192,157647,2,0,P|56:168|32:112,1,127.999995231629,8|0,0:0|0:0,0:0:0:0:
392,192,158209,6,0,L|464:192,2,63.9999976158143,4|0|0,0:0|0:0|0:0,0:0:0:0:
232,192,158631,2,0,P|184:160|232:128,1,127.999995231629,0|0,0:0|0:0,0:0:0:0:
368,192,159194,1,0,0:0:0:0:
440,192,159334,2,0,L|312:192,1,127.999995231629,2|0,0:0|0:0,0:0:0:0:
56,192,159896,2,0,L|184:192,1,127.999995231629,8|0,0:0|0:0,0:0:0:0:
440,192,160459,5,2,0:0:0:0:
376,192,160599,1,0,0:0:0:0:
312,192,160740,1,0,0:0:0:0:
264,192,160881,1,0,0:0:0:0:
424,192,161021,2,0,L|424:128,1,63.9999976158143,8|0,0:0|0:0,0:0:0:0:
280,192,161443,1,0,0:0:0:0:
200,192,161583,1,2,0:0:0:0:
144,192,161724,1,0,0:0:0:0:
120,192,161865,1,2,0:0:0:0:
464,192,162146,2,0,P|455:139|384:120,1,127.999995231629,8|0,0:0|0:0,0:0:0:0:
48,192,162708,5,4,0:0:0:0:
48,192,162849,1,0,0:0:0:0:
120,192,162989,1,0,0:0:0:0:
280,192,163130,2,0,P|376:168|408:120,1,127.999995231629,2|0,0:0|0:0,0:0:0:0:
240,192,163692,1,0,0:0:0:0:
312,192,163833,2,0,P|376:176|392:120,1,127.999995231629,2|2,0:0|0:0,0:0:0:0:
136,192,164395,2,0,P|80:184|24:128,1,127.999995231629,8|0,0:0|0:0,0:0:0:0:
376,192,164957,6,0,L|456:192,2,63.9999976158143,2|0|0,0:0|0:0|0:0,0:0:0:0:
288,192,165379,2,0,L|440:192,1,127.999995231629,2|0,0:0|0:0,0:0:0:0:
272,192,165941,1,0,0:0:0:0:
200,192,166082,2,0,P|112:160|96:120,1,127.999995231629,2|2,0:0|0:0,0:0:0:0:
440,192,166644,2,0,P|488:136|456:120,1,127.999995231629,8|0,0:0|0:0,0:0:0:0:
120,192,167207,5,4,0:0:0:0:
56,192,167347,1,0,0:0:0:0:
56,192,167488,1,0,0:0:0:0:
216,192,167628,2,0,B|280:192|280:192|216:192,1,127.999995231629,2|0,0:0|0:0,0:0:0:0:
368,192,168191,1,0,0:0:0:0:
440,192,168331,2,0,L|304:192,1,127.999995231629,2|2,0:0|0:0,0:0:0:0:
56,192,168894,2,0,L|184:192,1,127.999995231629,8|0,0:0|0:0,0:0:0:0:
440,192,169456,5,2,0:0:0:0:
440,192,169597,1,0,0:0:0:0:
368,192,169737,1,0,0:0:0:0:
208,192,169878,2,0,P|152:152|184:112,1,127.999995231629,2|0,0:0|0:0,0:0:0:0:
320,192,170440,1,0,0:0:0:0:
384,192,170581,2,0,L|456:192,2,63.9999976158143,2|0|2,0:0|0:0|0:0,0:0:0:0:
128,192,171143,2,0,P|58:176|32:128,1,127.999995231629,8|0,0:0|0:0,0:0:0:0:
384,176,171705,6,0,P|440:150|453:90,1,127.999995231629,4|0,0:0|0:0,0:0:0:0:
384,96,172126,1,0,0:0:0:0:
320,96,172267,1,8,0:0:0:0:
448,192,172548,1,0,0:0:0:0:
192,288,172829,6,0,P|208:208|256:160,1,127.999995231629,2|0,0:0|0:0,0:0:0:0:
336,160,173393,2,0,P|372:108|380:45,1,127.999995231629,8|0,0:0|0:0,0:0:0:0:
128,80,173954,6,0,P|144:144|224:160,1,127.999995231629,2|0,0:0|0:0,0:0:0:0:
256,192,174377,1,0,0:0:0:0:
192,224,174516,1,8,0:0:0:0:
48,272,174797,1,0,0:0:0:0:
320,224,175080,6,0,P|356:275|364:338,1,127.999995231629,2|0,0:0|0:0,0:0:0:0:
96,208,175641,2,0,P|59:259|51:322,1,127.999995231629,8|0,0:0|0:0,0:0:0:0:
416,320,176203,6,0,P|464:256|400:240,1,127.999995231629,4|0,0:0|0:0,0:0:0:0:
368,224,176625,1,0,0:0:0:0:
288,224,176767,1,0,0:0:0:0:
144,224,177047,1,0,0:0:0:0:
432,176,177328,6,0,P|400:256|320:256,1,127.999995231629,2|0,0:0|0:0,0:0:0:0:
224,256,177890,2,0,P|170:286|159:347,1,127.999995231629,8|0,0:0|0:0,0:0:0:0:
448,256,178454,6,0,P|458:316|413:358,1,127.999995231629
480,336,178874,1,0,0:0:0:0:
416,368,179015,1,8,0:0:0:0:
288,368,179296,1,0,0:0:0:0:
16,304,179577,2,0,P|64:256|144:256,1,127.999995231629,2|0,0:0|0:0,0:0:0:0:
256,256,180140,2,0,P|318:265|361:311,1,127.999995231629,8|0,0:0|0:0,0:0:0:0:
80,304,180702,6,0,L|16:304,2,63.9999976158143,4|0|0,0:0|0:0|0:0,0:0:0:0:
192,304,181265,2,0,P|208:224|176:160,1,127.999995231629,8|0,0:0|0:0,0:0:0:0:
16,176,181827,2,0,P|80:112|208:192,1,255.999990463257,2|8,0:0|0:0,0:0:0:0:
64,192,182671,1,0,0:0:0:0:
336,208,182952,6,0,L|352:272,1,63.9999976158143,2|0,0:0|0:0,0:0:0:0:
272,288,183232,1,0,0:0:0:0:
144,304,183514,2,0,P|112:240|160:208,1,127.999995231629,8|0,0:0|0:0,0:0:0:0:
304,208,184076,2,0,P|368:176|272:48,1,255.999990463257,2|8,0:0|0:0,0:0:0:0:
160,48,184920,1,0,0:0:0:0:
432,288,185201,6,0,L|416:224,1,63.9999976158143,4|0,0:0|0:0,0:0:0:0:
336,224,185483,1,0,0:0:0:0:
192,224,185763,2,0,L|320:224,1,127.999995231629,8|0,0:0|0:0,0:0:0:0:
48,240,186326,2,0,P|64:176|224:96,1,255.999990463257,2|8,0:0|0:0,0:0:0:0:
368,96,187169,1,0,0:0:0:0:
96,304,187450,6,0,L|32:256,2,63.9999976158143,2|0|0,0:0|0:0|0:0,0:0:0:0:
256,304,188013,2,0,P|272:224|240:176,1,127.999995231629,8|0,0:0|0:0,0:0:0:0:
96,176,188575,2,0,L|80:96,2,63.9999976158143,2|0|2,0:0|0:0|0:0,0:0:0:0:
240,208,189137,2,0,L|112:208,1,127.999995231629,8|0,0:0|0:0,0:0:0:0:
368,192,189700,6,0,P|428:161|400:112,1,127.999995231629,8|0,0:0|0:0,0:0:0:0:
304,192,190121,2,0,P|232:168|184:144,1,127.999995231629
392,192,190824,2,0,L|248:192,1,127.999995231629,2|0,0:0|0:0,0:0:0:0:
416,192,191387,2,0,P|392:136|320:128,1,127.999995231629,2|0,0:0|0:0,0:0:0:0:
72,192,191949,5,0,0:0:0:0:
16,192,192090,1,0,0:0:0:0:
72,192,192230,1,0,0:0:0:0:
160,192,192371,2,0,P|224:152|168:112,1,127.999995231629,0|0,0:0|0:0,0:0:0:0:
16,192,193074,2,0,L|168:192,1,127.999995231629,2|0,0:0|0:0,0:0:0:0:
296,192,193636,2,0,L|152:192,1,127.999995231629,2|0,0:0|0:0,0:0:0:0:
328,192,194198,6,0,P|384:160|344:120,1,127.999995231629,2|0,0:0|0:0,0:0:0:0:
256,192,194620,2,0,L|400:192,1,127.999995231629,0|0,0:0|0:0,0:0:0:0:
184,192,195323,2,0,P|104:168|96:112,1,127.999995231629,2|0,0:0|0:0,0:0:0:0:
248,192,195885,2,0,L|384:192,1,127.999995231629,2|0,0:0|0:0,0:0:0:0:
216,192,196448,6,0,P|128:168|112:120,1,127.999995231629,2|0,0:0|0:0,0:0:0:0:
192,192,196869,2,0,P|265:170|280:120,1,127.999995231629,0|0,0:0|0:0,0:0:0:0:
64,192,197572,2,0,L|64:64,1,127.999995231629,2|0,0:0|0:0,0:0:0:0:
208,192,198134,2,0,P|280:168|304:120,1,127.999995231629,2|0,0:0|0:0,0:0:0:0:
40,192,198697,5,2,0:0:0:0:
256,192,198837,12,0,214442,0:0:0:0:
