osu file format v14

[General]
AudioFilename: audio.mp3
AudioLeadIn: 0
PreviewTime: 26664
Countdown: 0
SampleSet: Soft
StackLeniency: 0.7
Mode: 2
LetterboxInBreaks: 0
WidescreenStoryboard: 1

[Editor]
Bookmarks: 1333,26763,52193,77624,103054,128485
DistanceSpacing: 1.2
BeatDivisor: 4
GridSize: 8
TimelineZoom: 1

[Metadata]
Title:WHEN AN ANGEL DIES
TitleUnicode:WHEN AN ANGEL DIES
Artist:LukHash
ArtistUnicode:LukHash
Creator:Nelly
Version:HyperiBomb's Salad
Source:osu!
Tags:larakagi JBH JBHyperion MBomb Magic Bomb mappers guild featured artist fa fruit factory dead pixels electronic dark
BeatmapID:2111511
BeatmapSetID:1008600

[Difficulty]
HPDrainRate:5
CircleSize:3
OverallDifficulty:6.5
ApproachRate:6.5
SliderMultiplier:1.6
SliderTickRate:1

[Events]
//Background and Video events
0,0,"bg.jpg",0,0
//Break Periods
2,52199,73673
//Storyboard Layer 0 (Background)
//Storyboard Layer 1 (Fail)
//Storyboard Layer 2 (Pass)
//Storyboard Layer 3 (Foreground)
//Storyboard Layer 4 (Overlay)
//Storyboard Sound Samples

[TimingPoints]
1337,397.350993377483,4,2,1,20,1,0
1337,-100,4,2,1,20,0,0
26767,-100,4,2,1,60,0,1
52197,-100,4,2,1,20,0,0
78423,-133.333333333333,4,2,1,20,0,0
102264,-100,4,2,1,30,0,0
103058,-100,4,2,1,60,0,1
128489,-100,4,2,1,40,0,0

[Colours]
Combo1 : 170,0,0
Combo2 : 200,200,200

[HitObjects]
132,192,1337,5,2,0:0:0:0:
324,192,2131,2,0,L|185:112,1,160,2|2,0:0|0:0,0:0:0:0:
328,112,2926,1,2,0:0:0:0:
184,112,3323,1,2,0:0:0:0:
45,32,3721,2,0,L|187:114,1,160,2|2,0:0|0:0,0:0:0:0:
424,192,5310,6,0,L|285:112,1,160,2|2,0:0|0:0,0:0:0:0:
136,112,6105,1,2,0:0:0:0:
264,112,6502,1,2,0:0:0:0:
264,232,6899,1,2,0:0:0:0:
136,232,7297,1,2,0:0:0:0:
380,240,8489,6,0,L|228:192,1,160,2|2,0:0|0:0,0:0:0:0:
372,192,9284,1,2,0:0:0:0:
252,192,9681,1,2,0:0:0:0:
252,72,10078,1,2,0:0:0:0:
372,72,10476,1,2,0:0:0:0:
132,192,11668,6,0,L|271:112,1,160,2|2,0:0|0:0,0:0:0:0:
128,112,12463,1,2,0:0:0:0:
272,112,12860,1,2,0:0:0:0:
411,32,13258,2,0,L|269:114,1,160,2|2,0:0|0:0,0:0:0:0:
80,192,14846,6,0,L|76:32,1,160,0|2,0:0|0:0,0:0:0:0:
214,112,15641,2,0,L|71:30,1,160,2|2,0:0|0:0,0:0:0:0:
214,112,16436,2,0,L|356:30,1,160,2|2,0:0|0:0,0:0:0:0:
176,32,17231,5,2,0:0:0:0:
368,32,18025,2,0,L|372:192,1,160,2|2,0:0|0:0,0:0:0:0:
234,112,18820,2,0,L|376:194,1,160,2|2,0:0|0:0,0:0:0:0:
212,192,19615,2,0,L|372:192,1,160,2|2,0:0|0:0,0:0:0:0:
36,192,20409,5,2,0:0:0:0:
324,384,21601,2,0,L|332:300,1,80,2|2,0:0|0:0,0:0:0:0:
236,304,21999,2,0,L|96:224,1,160,2|2,0:0|0:0,0:0:0:0:
264,224,22793,1,2,0:0:0:0:
80,224,23191,1,2,0:0:0:0:
416,224,23588,5,2,0:0:0:0:
272,192,24780,2,0,L|352:192,1,80,2|2,0:0|0:0,0:0:0:0:
248,192,25178,1,2,0:0:0:0:
168,160,25376,1,2,0:0:0:0:
168,72,25575,1,2,0:0:0:0:
248,32,25774,1,2,0:0:0:0:
152,32,25972,2,0,L|8:104,1,160,2|2,0:0|0:0,0:0:0:0:
368,32,26767,6,0,L|372:212,1,160,6|0,0:0|0:0,0:0:0:0:
48,192,27562,1,8,0:0:0:0:
48,192,27761,2,0,L|128:192,1,80,0|2,0:0|0:0,0:0:0:0:
304,192,28356,2,0,L|144:192,1,160,2|0,0:0|0:0,0:0:0:0:
496,192,29151,1,8,0:0:0:0:
496,104,29350,1,0,0:0:0:0:
408,104,29548,1,0,0:0:0:0:
56,104,29946,6,0,B|56:184|56:184|136:192,1,160,2|2,0:0|0:0,0:0:0:0:
224,192,30542,1,2,0:0:0:0:
128,192,30740,2,0,L|124:352,1,160,10|0,0:0|0:0,0:0:0:0:
476,352,31535,2,0,L|480:188,1,160,2|0,0:0|0:0,0:0:0:0:
304,192,32330,1,10,0:0:0:0:
392,192,32529,2,0,L|484:192,1,80,0|2,0:0|0:0,0:0:0:0:
120,192,33125,6,0,L|112:24,1,160,2|0,0:0|0:0,0:0:0:0:
288,32,33919,2,0,L|124:32,1,160,8|2,0:0|0:0,0:0:0:0:
216,32,34515,1,2,0:0:0:0:
408,32,34714,1,2,0:0:0:0:
496,32,34913,1,0,0:0:0:0:
496,120,35111,1,0,0:0:0:0:
320,120,35509,1,8,0:0:0:0:
496,120,35906,1,0,0:0:0:0:
144,120,36303,6,0,L|56:120,2,80,2|0|0,0:0|0:0|0:0,0:0:0:0:
320,120,37098,2,0,L|156:120,1,160,8|0,0:0|0:0,0:0:0:0:
248,120,37694,1,0,0:0:0:0:
48,120,37893,2,0,L|44:284,1,160,2|0,0:0|0:0,0:0:0:0:
236,280,38687,2,0,L|400:280,1,160,10|2,0:0|0:0,0:0:0:0:
44,280,39482,6,0,L|48:112,1,160,2|0,0:0|0:0,0:0:0:0:
240,120,40277,2,0,L|152:120,1,80,8|0,0:0|0:0,0:0:0:0:
64,120,40674,2,0,L|144:120,1,80,0|0,0:0|0:0,0:0:0:0:
348,120,41072,2,0,L|352:300,1,160,2|0,0:0|0:0,0:0:0:0:
175,279,41866,1,8,0:0:0:0:
263,279,42065,1,0,0:0:0:0:
351,279,42264,1,0,0:0:0:0:
16,280,42661,6,0,L|12:112,1,160,2|2,0:0|0:0,0:0:0:0:
100,120,43257,1,0,0:0:0:0:
188,120,43456,1,10,0:0:0:0:
100,120,43654,1,0,0:0:0:0:
100,32,43853,1,0,0:0:0:0:
436,32,44250,2,0,L|512:56,2,80,2|2|2,0:0|0:0|0:0,0:0:0:0:
260,32,45045,2,0,L|436:32,1,160,8|0,0:0|0:0,0:0:0:0:
68,32,45840,6,0,L|60:192,1,160,2|0,0:0|0:0,0:0:0:0:
236,192,46635,1,8,0:0:0:0:
36,192,47032,1,2,0:0:0:0:
228,192,47429,2,0,L|396:192,1,160,2|0,0:0|0:0,0:0:0:0:
52,192,48224,2,0,L|44:368,1,160,10|0,0:0|0:0,0:0:0:0:
396,352,49019,5,2,0:0:0:0:
484,352,49217,1,0,0:0:0:0:
484,264,49416,1,0,0:0:0:0:
308,264,49813,2,0,L|452:192,1,160,8|0,0:0|0:0,0:0:0:0:
364,192,50409,1,2,0:0:0:0:
172,192,50608,1,2,0:0:0:0:
348,192,51005,1,0,0:0:0:0:
12,192,51403,2,0,L|8:100,1,80,8|0,0:0|0:0,0:0:0:0:
104,112,51800,1,0,0:0:0:0:
8,112,51999,5,0,0:0:0:0:
256,192,74648,12,0,77231,0:0:0:0:
136,192,77628,5,8,3:0:0:0:
376,192,78423,2,0,L|480:192,2,90.0000034332277,0|0|0,0:0|0:0|0:0,0:0:0:0:
272,192,79217,5,0,0:0:0:0:
80,192,80012,2,0,L|176:192,2,90.0000034332277,0|0|0,0:0|0:0|0:0,0:0:0:0:
176,192,80807,5,8,3:0:0:0:
384,192,81601,1,0,0:0:0:0:
288,192,81899,1,0,0:0:0:0:
192,192,82197,1,0,0:0:0:0:
280,192,82396,5,0,0:0:0:0:
32,192,83191,1,0,0:0:0:0:
128,192,83489,1,0,0:0:0:0:
224,192,83787,1,0,0:0:0:0:
320,192,83986,5,8,3:0:0:0:
120,192,84780,2,0,L|16:192,2,90.0000034332277,0|0|0,0:0|0:0|0:0,0:0:0:0:
216,192,85575,5,0,0:0:0:0:
432,192,86370,2,0,L|328:192,2,90.0000034332277,0|0|0,0:0|0:0|0:0,0:0:0:0:
336,192,87164,5,8,3:0:0:0:
112,192,87959,1,0,0:0:0:0:
112,192,88257,1,0,0:0:0:0:
112,192,88555,1,0,0:0:0:0:
200,192,88754,5,0,0:0:0:0:
16,192,89548,1,0,0:0:0:0:
104,192,89846,1,0,0:0:0:0:
16,192,90144,1,0,0:0:0:0:
112,192,90343,5,8,3:0:0:0:
352,192,91138,2,0,L|456:192,2,90.0000034332277,0|0|0,0:0|0:0|0:0,0:0:0:0:
256,192,91933,5,8,3:0:0:0:
488,192,92727,2,0,L|384:192,2,90.0000034332277,0|0|0,0:0|0:0|0:0,0:0:0:0:
392,192,93522,5,8,3:0:0:0:
176,192,94317,2,0,L|280:192,2,90.0000034332277,0|0|0,0:0|0:0|0:0,0:0:0:0:
80,192,95111,5,8,3:0:0:0:
304,192,95906,2,0,L|200:192,2,90.0000034332277,0|0|0,0:0|0:0|0:0,0:0:0:0:
208,192,96701,5,8,3:0:0:0:
408,192,97495,2,0,P|464:176|480:128,2,90.0000034332277,0|0|0,0:0|0:0|0:0,0:0:0:0:
312,192,98290,5,8,3:0:0:0:
104,192,99085,1,0,0:0:0:0:
200,192,99383,1,0,0:0:0:0:
296,192,99681,1,0,0:0:0:0:
200,192,99880,5,8,3:0:0:0:
432,192,100674,2,0,P|488:160|488:128,1,90.0000034332277,0|0,0:0|0:0,0:0:0:0:
400,192,101270,1,0,0:0:0:0:
304,192,101469,5,8,3:0:0:0:
32,192,102264,1,0,0:0:0:0:
168,192,102562,1,0,0:0:0:0:
32,192,102860,1,0,0:0:0:0:
216,192,103058,6,0,P|291:187|368:104,1,160,6|0,0:0|0:0,0:0:0:0:
160,192,103853,2,0,L|64:192,2,80,10|0|2,0:0|0:0|0:0,0:0:0:0:
352,192,104648,5,2,0:0:0:0:
160,192,105045,1,2,0:0:0:0:
344,192,105442,2,0,P|416:136|376:88,1,160,10|2,0:0|0:0,0:0:0:0:
80,192,106237,6,0,P|96:112|168:88,1,160,2|0,0:0|0:0,0:0:0:0:
360,192,107032,2,0,L|440:192,2,80,10|0|2,0:0|0:0|0:0,0:0:0:0:
152,192,107827,5,2,0:0:0:0:
328,192,108224,1,2,0:0:0:0:
152,192,108621,1,10,0:0:0:0:
16,192,109019,1,2,0:0:0:0:
328,192,109416,6,0,P|328:128|240:96,1,160,2|0,0:0|0:0,0:0:0:0:
56,192,110211,2,0,L|152:192,2,80,10|0|2,0:0|0:0|0:0,0:0:0:0:
248,192,111005,5,2,0:0:0:0:
440,192,111403,1,2,0:0:0:0:
248,192,111800,2,0,L|416:192,1,160,10|2,0:0|0:0,0:0:0:0:
96,192,112595,6,0,P|24:152|16:80,1,160,2|0,0:0|0:0,0:0:0:0:
192,192,113389,1,10,0:0:0:0:
32,192,113787,1,2,0:0:0:0:
208,192,114184,6,0,L|368:192,1,160,2|2,0:0|0:0,0:0:0:0:
48,192,114979,2,0,L|48:32,1,160,10|2,0:0|0:0,0:0:0:0:
352,192,115774,6,0,L|192:192,1,160,2|0,0:0|0:0,0:0:0:0:
368,192,116568,2,0,L|448:192,2,80,10|0|2,0:0|0:0|0:0,0:0:0:0:
168,192,117363,5,2,0:0:0:0:
352,192,117760,1,2,0:0:0:0:
176,192,118158,2,0,L|336:192,1,160,10|2,0:0|0:0,0:0:0:0:
24,192,118952,6,0,P|56:128|152:104,1,160,2|0,0:0|0:0,0:0:0:0:
328,192,119747,2,0,L|408:192,2,80,10|0|2,0:0|0:0|0:0,0:0:0:0:
496,192,120542,5,2,0:0:0:0:
328,192,120939,1,2,0:0:0:0:
160,192,121336,1,10,0:0:0:0:
16,192,121734,1,2,0:0:0:0:
328,192,122131,6,0,P|448:160|336:96,1,320,2|8,0:0|0:0,0:0:0:0:
152,192,123323,2,0,L|240:192,1,80,2|2,0:0|0:0,0:0:0:0:
344,192,123721,6,0,P|432:160|448:88,1,160,2|2,0:0|0:0,0:0:0:0:
264,192,124515,2,0,L|432:192,1,160,10|2,0:0|0:0,0:0:0:0:
112,192,125310,6,0,P|16:144|144:48,1,320,2|8,0:0|0:0,0:0:0:0:
312,192,126502,2,0,L|416:192,1,80,2|2,0:0|0:0,0:0:0:0:
280,192,126899,6,0,L|192:192,4,80,2|0|2|0|10,0:0|0:0|0:0|0:0|0:0,0:0:0:0:
104,192,128091,1,2,0:0:0:0:
416,192,128489,5,0,0:0:0:0:
