osu file format v14

[General]
AudioFilename: audio.mp3
AudioLeadIn: 0
PreviewTime: 26664
Countdown: 0
SampleSet: Soft
StackLeniency: 0.7
Mode: 2
LetterboxInBreaks: 0
WidescreenStoryboard: 1

[Editor]
Bookmarks: 1311,26741,52171,77602,103032,128463
DistanceSpacing: 1.1
BeatDivisor: 4
GridSize: 8
TimelineZoom: 1

[Metadata]
Title:WHEN AN ANGEL DIES
TitleUnicode:WHEN AN ANGEL DIES
Artist:LukHash
ArtistUnicode:LukHash
Creator:Nelly
Version:Cup
Source:osu!
Tags:larakagi JBH JBHyperion MBomb Magic Bomb mappers guild featured artist fa fruit factory dead pixels electronic dark
BeatmapID:2112245
BeatmapSetID:1008600

[Difficulty]
HPDrainRate:4
CircleSize:2.5
OverallDifficulty:5.5
ApproachRate:5.5
SliderMultiplier:1.4
SliderTickRate:1

[Events]
//Background and Video events
0,0,"bg.jpg",0,0
//Break Periods
2,52199,73523
//Storyboard Layer 0 (Background)
//Storyboard Layer 1 (Fail)
//Storyboard Layer 2 (Pass)
//Storyboard Layer 3 (Foreground)
//Storyboard Layer 4 (Overlay)
//Storyboard Sound Samples

[TimingPoints]
1337,397.350993377483,4,2,1,20,1,0
1337,-100,4,2,1,20,0,0
26767,-100,4,2,1,60,0,1
52197,-100,4,2,1,20,0,0
78423,-133.333333333333,4,2,1,20,0,0
102264,-100,4,2,1,30,0,0
103058,-100,4,2,1,60,0,1
128489,-100,4,2,1,40,0,0

[Colours]
Combo1 : 170,0,0
Combo2 : 200,200,200

[HitObjects]
132,192,1337,5,2,0:0:0:0:
391,201,2131,2,0,L|250:195,2,140,2|2|2,0:0|0:0|0:0,0:0:0:0:
250,79,3323,2,0,L|109:73,2,140,2|2|2,0:0|0:0|0:0,0:0:0:0:
426,261,5310,6,0,L|437:115,1,140,2|2,0:0|0:0,0:0:0:0:
253,74,6105,2,0,L|111:71,2,140,2|2|2,0:0|0:0|0:0,0:0:0:0:
421,82,7297,1,2,0:0:0:0:
174,279,8489,6,0,L|34:281,2,140,2|2|2,0:0|0:0|0:0,0:0:0:0:
329,192,9681,2,0,L|468:194,2,140,2|2|2,0:0|0:0|0:0,0:0:0:0:
86,261,11668,6,0,L|75:115,1,140,2|2,0:0|0:0,0:0:0:0:
259,74,12463,2,0,L|401:71,2,140,2|2|2,0:0|0:0|0:0,0:0:0:0:
91,82,13655,1,2,0:0:0:0:
368,317,14846,6,0,P|398:290|367:207,1,140,0|2,0:0|0:0,0:0:0:0:
200,199,15641,2,0,L|61:197,1,140,2|2,0:0|0:0,0:0:0:0:
243,83,16436,2,0,L|382:81,1,140,2|2,0:0|0:0,0:0:0:0:
200,199,17231,1,2,0:0:0:0:
440,331,18025,6,0,L|447:191,1,140,2|2,0:0|0:0,0:0:0:0:
277,121,18820,2,0,L|136:118,2,140,2|2|2,0:0|0:0|0:0,0:0:0:0:
440,236,20012,1,2,0:0:0:0:
264,239,20409,1,2,0:0:0:0:
50,240,21601,6,0,L|28:171,2,70,2|2|2,0:0|0:0|0:0,0:0:0:0:
233,250,22396,2,0,P|260:223|232:136,1,140,2|2,0:0|0:0,0:0:0:0:
68,55,23191,2,0,L|213:52,1,140,2|2,0:0|0:0,0:0:0:0:
486,239,24780,6,0,L|491:168,1,70,2|2,0:0|0:0,0:0:0:0:
391,106,25178,1,2,0:0:0:0:
328,134,25376,1,2,0:0:0:0:
303,197,25575,1,2,0:0:0:0:
328,260,25774,1,2,0:0:0:0:
408,288,25972,2,0,P|441:277|434:187,1,140,2|2,0:0|0:0,0:0:0:0:
245,177,26767,6,0,L|105:174,1,140,6|0,0:0|0:0,0:0:0:0:
271,48,27562,1,8,0:0:0:0:
340,49,27760,1,0,0:0:0:0:
271,48,27959,1,2,0:0:0:0:
100,51,28356,2,0,P|67:79|95:159,1,140,2|0,0:0|0:0,0:0:0:0:
265,171,29151,2,0,L|125:168,1,140,8|0,0:0|0:0,0:0:0:0:
311,72,29946,6,0,P|348:73|423:143,1,140,2|2,0:0|0:0,0:0:0:0:
326,178,30542,1,2,0:0:0:0:
230,219,30740,2,0,P|193:220|118:290,1,140,10|0,0:0|0:0,0:0:0:0:
291,337,31535,2,0,L|434:327,1,140,2|0,0:0|0:0,0:0:0:0:
256,259,32330,2,0,P|227:236|256:150,1,140,10|2,0:0|0:0,0:0:0:0:
444,122,33125,6,0,L|304:112,1,140,2|0,0:0|0:0,0:0:0:0:
140,103,33919,2,0,P|114:121|142:210,1,140,8|2,0:0|0:0,0:0:0:0:
222,211,34515,1,2,0:0:0:0:
306,212,34714,1,2,0:0:0:0:
375,213,34912,1,0,0:0:0:0:
306,212,35111,1,0,0:0:0:0:
135,335,35509,2,0,L|275:331,1,140,8|0,0:0|0:0,0:0:0:0:
98,157,36303,5,2,0:0:0:0:
29,158,36501,1,0,0:0:0:0:
98,157,36700,1,0,0:0:0:0:
277,286,37098,2,0,L|136:283,1,140,8|0,0:0|0:0,0:0:0:0:
225,210,37694,1,0,0:0:0:0:
310,171,37893,2,0,L|451:168,1,140,2|0,0:0|0:0,0:0:0:0:
277,317,38687,2,0,P|243:296|279:222,1,140,10|2,0:0|0:0,0:0:0:0:
439,134,39482,6,0,L|298:131,1,140,2|0,0:0|0:0,0:0:0:0:
134,124,40277,1,8,0:0:0:0:
65,125,40475,1,0,0:0:0:0:
134,124,40674,1,0,0:0:0:0:
335,132,41072,2,0,P|365:152|333:235,1,140,2|0,0:0|0:0,0:0:0:0:
179,234,41866,2,0,L|326:233,1,140,8|0,0:0|0:0,0:0:0:0:
125,292,42661,6,0,P|96:265|126:181,1,140,2|2,0:0|0:0,0:0:0:0:
219,163,43257,1,0,0:0:0:0:
325,136,43456,2,0,P|340:171|277:254,1,140,10|0,0:0|0:0,0:0:0:0:
89,136,44250,2,0,P|74:171|137:254,1,140,2|2,0:0|0:0,0:0:0:0:
289,256,45045,2,0,L|144:252,1,140,8|0,0:0|0:0,0:0:0:0:
287,160,45840,5,0,0:0:0:0:
356,158,46038,1,0,0:0:0:0:
422,156,46237,1,2,0:0:0:0:
228,47,46635,2,0,P|213:82|276:165,1,140,8|2,0:0|0:0,0:0:0:0:
438,261,47429,2,0,L|295:255,1,140,2|0,0:0|0:0,0:0:0:0:
145,248,48224,2,0,P|116:221|146:137,1,140,10|0,0:0|0:0,0:0:0:0:
326,122,49019,5,2,0:0:0:0:
395,123,49217,1,0,0:0:0:0:
326,122,49416,1,0,0:0:0:0:
148,128,49813,2,0,P|111:183|147:238,1,140,8|0,0:0|0:0,0:0:0:0:
224,238,50409,1,2,0:0:0:0:
301,238,50608,5,2,0:0:0:0:
153,329,51005,1,0,0:0:0:0:
321,338,51403,1,8,0:0:0:0:
391,308,51601,1,0,0:0:0:0:
381,231,51800,1,0,0:0:0:0:
289,202,51999,1,0,0:0:0:0:
256,192,74648,12,0,77231,0:0:0:0:
136,192,77628,5,8,3:0:0:0:
376,248,78423,2,0,L|457:251,2,78.7500030040742,0|0|0,0:0|0:0|0:0,0:0:0:0:
285,241,79217,1,0,0:0:0:0:
80,192,80012,6,0,L|158:195,2,78.7500030040742
184,93,80807,1,8,3:0:0:0:
384,192,81601,6,0,L|298:190,1,78.7500030040742,0|0,0:0|0:0,0:0:0:0:
201,102,82197,1,0,0:0:0:0:
271,97,82395,1,0,0:0:0:0:
44,295,83191,6,0,P|31:263|56:222,1,78.7500030040742,0|0,0:0|0:0,0:0:0:0:
179,204,83787,1,0,0:0:0:0:
98,200,83985,1,8,3:0:0:0:
333,289,84780,6,0,L|414:290,2,78.7500030040742,0|0|0,0:0|0:0|0:0,0:0:0:0:
237,289,85575,1,0,0:0:0:0:
464,185,86370,6,0,L|382:186,2,78.7500030040742,0|0|0,0:0|0:0|0:0,0:0:0:0:
369,93,87164,1,8,3:0:0:0:
112,192,87959,6,0,P|104:149|127:117,1,78.7500030040742,0|0,0:0|0:0,0:0:0:0:
269,91,88556,1,0,0:0:0:0:
194,83,88754,1,0,0:0:0:0:
395,260,89548,6,0,L|476:261,2,78.7500030040742
299,260,90343,1,8,3:0:0:0:
99,127,91138,6,0,L|208:134,2,105.000004005432,0|8|8,0:0|3:0|3:0,0:0:0:0:
333,304,92727,2,0,P|367:270|340:219,1,105.000004005432,0|8,0:0|3:0,0:0:0:0:
164,211,93522,1,8,3:0:0:0:
446,119,94317,6,0,L|337:126,2,105.000004005432,0|8|8,0:0|3:0|3:0,0:0:0:0:
172,301,95906,2,0,L|67:294,1,105.000004005432,0|8,0:0|3:0,0:0:0:0:
172,301,96701,1,8,3:0:0:0:
373,310,97495,2,0,P|407:276|380:225,1,105.000004005432,0|8,0:0|3:0,0:0:0:0:
204,217,98290,1,8,3:0:0:0:
462,71,99085,6,0,L|350:66,2,105.000004005432,0|8|8,0:0|3:0|3:0,0:0:0:0:
178,297,100674,2,0,P|144:263|171:212,1,105.000004005432,0|8,0:0|3:0,0:0:0:0:
347,204,101469,1,8,3:0:0:0:
32,192,102264,1,0,0:0:0:0:
149,193,102562,1,0,0:0:0:0:
32,192,102860,1,0,0:0:0:0:
131,105,103058,6,0,L|272:99,1,140,6|0,0:0|0:0,0:0:0:0:
443,86,103853,2,0,P|477:111|441:193,1,140,10|2,0:0|0:0,0:0:0:0:
284,242,104648,1,2,0:0:0:0:
436,248,105045,1,2,0:0:0:0:
280,334,105442,2,0,L|140:332,1,140,10|2,0:0|0:0,0:0:0:0:
320,258,106237,6,0,P|304:178|256:157,1,140,2|0,0:0|0:0,0:0:0:0:
94,150,107032,1,10,0:0:0:0:
246,156,107429,1,2,0:0:0:0:
83,301,107827,2,0,P|64:260|123:192,1,140,2|2,0:0|0:0,0:0:0:0:
270,194,108621,2,0,L|409:200,1,140,10|2,0:0|0:0,0:0:0:0:
220,84,109416,6,0,P|181:111|220:189,1,140,2|0,0:0|0:0,0:0:0:0:
409,200,110211,2,0,L|270:194,1,140,10|2,0:0|0:0,0:0:0:0:
109,180,111005,2,0,P|75:205|111:287,1,140,2|2,0:0|0:0,0:0:0:0:
266,293,111800,1,10,0:0:0:0:
114,287,112197,1,2,0:0:0:0:
291,202,112595,6,0,P|336:174|319:95,1,140,2|0,0:0|0:0,0:0:0:0:
129,203,113389,2,0,P|110:162|169:94,1,140,10|2,0:0|0:0,0:0:0:0:
322,90,114184,2,0,L|465:95,2,140,2|2|10,0:0|0:0|0:0,0:0:0:0:
165,89,115376,1,2,0:0:0:0:
353,187,115774,6,0,P|386:210|353:290,1,140,2|0,0:0|0:0,0:0:0:0:
175,296,116568,1,10,0:0:0:0:
314,292,116965,1,2,0:0:0:0:
176,192,117363,2,0,L|31:188,1,140,2|2,0:0|0:0,0:0:0:0:
207,190,118158,2,0,P|248:149|210:87,1,140,10|2,0:0|0:0,0:0:0:0:
36,188,118952,6,0,L|176:192,1,140,2|0,0:0|0:0,0:0:0:0:
324,76,119747,1,10,0:0:0:0:
184,78,120144,1,2,0:0:0:0:
371,171,120542,2,0,P|390:212|331:280,1,140,2|2,0:0|0:0,0:0:0:0:
137,280,121336,1,10,0:0:0:0:
283,282,121733,1,2,0:0:0:0:
456,276,122131,6,0,P|488:242|397:70,1,280,2|8,0:0|0:0,0:0:0:0:
237,61,123323,1,2,0:0:0:0:
168,62,123521,1,2,0:0:0:0:
237,61,123720,1,2,0:0:0:0:
393,68,124118,2,0,P|428:85|391:163,1,140,2|10,0:0|0:0,0:0:0:0:
238,181,124913,1,2,0:0:0:0:
409,288,125310,6,0,L|126:296,1,280,2|8,0:0|0:0,0:0:0:0:
245,205,126502,2,0,L|325:202,1,70,2|2,0:0|0:0,0:0:0:0:
217,207,126899,1,2,0:0:0:0:
154,179,127097,1,0,0:0:0:0:
129,116,127296,1,2,0:0:0:0:
154,53,127495,1,0,0:0:0:0:
234,25,127694,2,0,L|375:22,1,140,10|2,0:0|0:0,0:0:0:0:
182,119,128489,5,0,0:0:0:0:
