osu file format v14

[General]
AudioFilename: audio.mp3
AudioLeadIn: 0
PreviewTime: 26675
Countdown: 0
SampleSet: Soft
StackLeniency: 0.7
Mode: 0
LetterboxInBreaks: 0
WidescreenStoryboard: 0

[Editor]
Bookmarks: 1270,26700,52130,77561,77566,102991,128422
DistanceSpacing: 1
BeatDivisor: 4
GridSize: 16
TimelineZoom: 1.04

[Metadata]
Title:WHEN AN ANGEL DIES
TitleUnicode:WHEN AN ANGEL DIES
Artist:LukHash
ArtistUnicode:LukHash
Creator:Namki
Version:Normal
Source:osu!
Tags:featured artist dead pixels electronic dark Sieg
BeatmapID:1344674
BeatmapSetID:605726

[Difficulty]
HPDrainRate:3
CircleSize:3
OverallDifficulty:3
ApproachRate:4
SliderMultiplier:1.3
SliderTickRate:1

[Events]
//Background and Video events
0,0,"9k_jc5trEk0.jpg",0,0
//Break Periods
//Storyboard Layer 0 (Background)
//Storyboard Layer 1 (Fail)
//Storyboard Layer 2 (Pass)
//Storyboard Layer 3 (Foreground)
//Storyboard Sound Samples

[TimingPoints]
1311,397.350993377483,4,2,72,15,1,0
1311,-100,4,2,72,15,0,0
26741,-100,4,2,72,60,0,1
52171,-100,4,2,72,20,0,0
103032,-100,4,2,72,20,0,1
128463,-100,4,2,72,80,0,1
128562,-100,4,2,72,60,0,0

[Colours]
Combo1 : 153,0,0
Combo2 : 222,222,222
SliderBody : 222,222,222
SliderTrackOverride : 153,0,0

[HitObjects]
449,189,1312,6,0,P|379:188|305:189,1,130,0|0,0:0|0:0,0:0:0:0:
231,284,2106,1,2,0:0:0:0:
231,284,2504,1,0,0:0:0:0:
146,185,2901,6,0,P|140:126|179:66,1,130,0|0,0:0|0:0,0:0:0:0:
306,63,3696,1,0,0:0:0:0:
306,63,4093,1,4,0:0:0:0:
437,321,5285,6,0,P|373:319|297:311,1,130,2|0,0:0|0:0,0:0:0:0:
214,220,6080,2,0,P|169:207|91:243,1,130,0|0,0:0|0:0,0:0:0:0:
102,367,6874,1,0,0:0:0:0:
102,367,7272,1,0,0:0:0:0:
386,340,8464,5,2,0:0:0:0:
386,340,8861,1,0,0:0:0:0:
470,241,9259,2,0,P|464:183|458:94,1,130,0|0,0:0|0:0,0:0:0:0:
342,53,10053,2,0,P|337:117|330:182,1,130,0|4,0:0|0:0,0:0:0:0:
43,138,11643,6,0,P|83:104|184:119,1,130,2|0,0:0|0:0,0:0:0:0:
239,203,12437,1,0,0:0:0:0:
239,203,12835,1,2,0:0:0:0:
296,319,13232,2,0,P|359:316|434:312,1,130
85,226,14821,5,2,0:0:0:0:
85,226,15219,1,0,0:0:0:0:
196,158,15616,2,0,P|199:95|195:25,2,130
85,226,16808,2,0,P|131:281|205:288,1,130,0|4,0:0|0:0,0:0:0:0:
411,353,18000,6,0,P|401:293|401:219,1,130,2|0,0:0|0:0,0:0:0:0:
425,99,18795,1,0,0:0:0:0:
425,99,19192,1,2,0:0:0:0:
295,107,19590,2,0,P|242:116|164:88,1,130,0|0,0:0|0:0,0:0:0:0:
50,43,20384,6,0,B|45:127|45:127|67:190|67:190|57:318,1,260,4|0,0:0|0:0,0:0:0:0:
188,294,21576,2,0,P|186:339|186:371,2,65,2|2|2,0:0|0:0|0:0,0:0:0:0:
287,209,22371,2,0,P|287:285|290:360,1,130,0|0,0:0|0:0,0:0:0:0:
403,277,23166,1,0,0:0:0:0:
399,150,23563,6,0,P|343:78|190:106,1,260,4|0,0:0|0:0,0:0:0:0:
70,151,24755,2,0,P|67:113|53:82,2,65,2|0|2,0:0|0:0|0:0,0:0:0:0:
100,277,25550,2,0,P|88:307|86:339,2,65,2|0|0,0:0|0:0|0:0,0:0:0:0:
215,337,26345,1,0,0:0:0:0:
343,354,26742,6,0,P|413:352|484:356,1,130,4|0,1:1|0:0,0:0:0:0:
495,226,27537,2,0,P|430:224|365:227,1,130,8|0,0:1|0:0,0:0:0:0:
258,162,28331,1,4,3:1:0:0:
363,86,28729,1,0,0:0:0:0:
244,32,29126,2,0,P|151:20|90:28,1,130,8|0,0:1|0:0,0:0:0:0:
61,141,29921,6,0,P|62:200|67:230,2,65,4|0|0,1:1|0:0|0:0,0:0:0:0:
157,228,30715,2,0,P|157:260|155:292,2,65,8|0|0,0:1|3:0|3:0,0:0:0:0:
237,330,31510,1,4,3:1:0:0:
289,210,31908,1,0,0:0:0:0:
214,103,32305,2,0,P|242:72|335:73,1,130,8|0,0:1|0:0,0:0:0:0:
426,149,33100,6,0,P|418:210|416:281,1,130,4|0,1:1|0:0,0:0:0:0:
288,253,33894,2,0,P|303:295|312:338,2,65,8|0|4,0:1|3:0|3:1,0:0:0:0:
163,215,34689,1,4,1:1:0:0:
41,260,35086,1,0,0:0:0:0:
63,130,35484,2,0,P|67:100|82:68,2,65,8|0|0,0:1|3:0|0:0,0:0:0:0:
167,52,36278,6,0,P|235:55|326:52,1,130,4|0,1:1|0:0,0:0:0:0:
389,145,37073,2,0,P|324:147|259:146,1,130,8|0,0:1|0:0,0:0:0:0:
165,231,37868,1,4,3:1:0:0:
278,293,38265,1,0,0:0:0:0:
171,367,38662,2,0,P|94:367|35:363,1,130,8|0,0:1|3:0,0:0:0:0:
12,236,39457,6,0,P|47:261|78:270,2,65,4|0|0,1:1|0:0|0:0,0:0:0:0:
137,201,40252,2,0,P|167:189|192:168,2,65,8|0|0,0:1|3:0|0:0,0:0:0:0:
179,77,41047,1,4,3:1:0:0:
292,14,41444,1,0,0:0:0:0:
368,118,41841,2,0,P|434:117|504:108,1,130,8|0,0:1|3:0,0:0:0:0:
501,239,42636,6,0,P|504:298|438:351,1,130,4|0,1:1|0:0,0:0:0:0:
335,294,43431,1,0,0:0:0:0:
268,182,43828,1,0,3:0:0:0:
229,306,44225,2,0,P|243:346|250:377,2,65,2|0|0,0:1|0:1|0:1,0:0:0:0:
98,305,45020,2,0,P|106:273|117:243,2,65,8|0|0,0:1|3:0|0:0,0:0:0:0:
37,189,45815,6,0,P|36:128|30:47,1,130,4|0,1:1|0:0,0:0:0:0:
151,8,46610,1,0,0:0:0:0:
175,135,47007,1,0,3:0:0:0:
269,224,47404,2,0,P|251:260|226:299,2,65,4|0|0,3:1|0:0|0:0,0:0:0:0:
336,112,48199,2,0,P|360:203|377:246,1,130,8|0,0:1|0:0,0:0:0:0:
493,284,48994,6,0,P|478:340|411:368,1,130,4|0,1:1|0:0,0:0:0:0:
303,303,49788,1,8,0:1:0:0:
191,370,50186,1,0,0:0:0:0:
130,255,50583,2,0,P|130:204|120:175,2,65,4|0|0,1:1|0:0|0:0,0:0:0:0:
225,166,51378,2,0,P|222:133|228:101,2,65,8|0|0,0:1|3:0|0:0,0:0:0:0:
256,192,52172,12,0,55351,0:0:0:0:
215,101,56941,6,0,B|144:98|144:98|104:83|104:83|17:81,2,195,2|0|0,0:1|0:0|0:0,0:0:0:0:
312,186,58530,2,0,B|383:183|383:183|423:168|423:168|510:166,2,195,0|0|0,0:0|0:0|0:0,0:0:0:0:
221,279,60119,6,0,P|157:283|95:179,2,195,0|0|0,0:0|0:0|0:0,0:0:0:0:
333,344,61709,2,0,P|397:348|459:244,2,195,2|0|0,0:1|0:0|0:0,0:0:0:0:
324,214,63298,6,0,P|329:146|331:75,1,130,0|0,0:0|0:0,0:0:0:0:
220,15,64093,2,0,P|221:79|226:144,1,130,0|0,0:0|0:0,0:0:0:0:
190,269,64888,6,0,P|89:264|-14:253,2,195,2|0|0,0:1|0:0|0:0,0:0:0:0:
301,336,66477,2,0,P|401:331|505:320,2,195,0|0|0,0:0|0:0|0:0,0:0:0:0:
257,213,68066,6,0,P|270:166|414:149,2,195,0|0|0,0:0|0:0|0:0,0:0:0:0:
153,134,69656,2,0,P|140:87|-4:70,2,195,2|0|0,0:1|0:0|0:0,0:0:0:0:
81,242,71245,6,0,P|82:307|84:378,1,130,0|0,0:0|0:0,0:0:0:0:
214,369,72040,2,0,P|215:304|216:239,1,130,0|0,0:0|0:0,0:0:0:0:
309,147,72835,6,0,B|394:142|394:142|434:157|434:157|516:154,2,195,2|0|0,0:1|0:0|0:0,0:0:0:0:
210,61,74424,2,0,B|125:56|125:56|85:71|85:71|3:68,2,195,0|0|0,0:0|0:0|0:0,0:0:0:0:
310,146,76013,6,0,P|270:185|459:247,1,390,0|0,0:0|0:0,0:0:0:0:
477,144,77603,6,0,P|474:81|466:7,1,130,4|0,0:1|0:0,0:0:0:0:
337,5,78398,2,0,P|306:12|258:78,1,97.5,0|0,0:0|0:0,0:0:0:0:
279,154,78994,2,0,P|244:151|198:141,1,65,0|0,0:0|0:0,0:0:0:0:
80,325,79987,6,0,P|42:292|42:224,1,97.5,0|0,0:0|0:0,0:0:0:0:
107,183,80583,2,0,P|72:156|41:151,1,65,0|0,0:0|3:0,0:0:0:0:
242,329,81576,6,0,P|286:325|342:321,1,97.5,0|0,0:0|0:0,0:0:0:0:
436,331,82172,2,0,P|454:302|457:267,1,65,0|0,0:0|0:0,0:0:0:0:
306,59,83166,6,0,L|322:178,1,97.5,0|0,0:0|0:0,0:0:0:0:
260,233,83762,2,0,P|217:216|180:211,1,65,0|0,0:0|3:0,0:0:0:0:
276,321,84755,6,0,P|325:321|401:310,1,97.5,0|0,0:0|0:0,0:0:0:0:
444,248,85351,2,0,P|486:246|515:256,1,65,0|0,0:0|0:0,0:0:0:0:
292,105,86345,6,0,P|230:94|178:98,1,97.5,0|0,0:0|0:0,0:0:0:0:
135,172,86941,2,0,P|92:172|66:177,1,65,0|0,0:0|3:0,0:0:0:0:
272,340,87934,6,0,L|260:239,1,97.5,0|0,0:0|0:0,0:0:0:0:
344,193,88530,2,0,L|342:272,1,65,0|0,0:0|0:0,0:0:0:0:
439,119,89523,6,0,P|412:83|333:74,1,97.5,0|0,0:0|0:0,0:0:0:0:
272,101,90119,2,0,P|238:104|197:96,1,65,0|0,0:0|3:0,0:0:0:0:
67,318,91113,6,0,P|86:227|96:170,2,130,0|0|0,0:0|0:0|3:0,0:0:0:0:
326,299,92702,6,0,P|290:254|208:249,1,130,0|0,0:0|3:0,0:0:0:0:
228,374,93497,1,0,3:0:0:0:
463,263,94292,6,0,L|443:124,2,130
236,133,95881,6,0,P|190:169|116:170,1,130
148,47,96675,1,0,3:0:0:0:
310,248,97470,6,0,L|162:255,2,130,0|0|0,0:0|3:0|3:0,0:0:0:0:
450,72,99060,6,0,P|399:28|332:37,1,130,0|0,0:0|0:0,0:0:0:0:
356,161,99855,1,0,3:0:0:0:
102,215,100649,6,0,L|110:71,2,130,0|0|0,0:0|0:0|3:0,0:0:0:0:
462,335,103033,6,0,P|460:265|464:194,1,130,4|0,1:1|0:0,0:0:0:0:
375,108,103828,2,0,P|373:173|376:238,1,130,8|0,0:1|0:0,0:0:0:0:
317,354,104623,1,4,3:1:0:0:
187,341,105020,1,0,0:0:0:0:
172,211,105417,2,0,P|190:170|209:140,2,65,8|0|0,0:1|3:0|3:0,0:0:0:0:
82,305,106212,6,0,P|80:222|64:147,1,130,4|0,1:1|0:0,0:0:0:0:
0,66,107007,1,0,0:0:0:0:
127,27,107404,1,0,3:0:0:0:
237,95,107802,2,0,P|311:106|366:93,1,130,4|0,3:1|0:0,0:0:0:0:
480,35,108596,1,8,0:1:0:0:
488,164,108994,1,0,0:0:0:0:
449,288,109391,6,0,P|457:337|462:368,2,65,4|0|0,1:1|0:0|0:0,0:0:0:0:
323,252,110186,2,0,P|315:301|310:332,2,65,8|0|0,0:1|0:0|0:0,0:0:0:0:
216,177,110980,2,0,P|181:195|83:190,1,130,4|0,3:1|0:0,0:0:0:0:
26,81,111775,1,8,0:1:0:0:
146,32,112172,1,0,3:0:0:0:
271,66,112569,6,0,P|339:69|430:66,1,130,4|0,1:1|0:0,0:0:0:0:
403,198,113364,2,0,P|338:200|273:199,1,130,8|4,0:1|3:1,0:0:0:0:
152,248,114159,1,4,1:1:0:0:
278,293,114556,1,0,0:0:0:0:
171,367,114953,2,0,P|94:367|35:363,1,130,12|0,0:1|3:0,0:0:0:0:
25,234,115749,6,0,P|48:256|92:271,2,65,4|0|0,1:1|0:0|0:0,0:0:0:0:
154,219,116543,2,0,P|148:152|138:67,1,130,8|0,0:1|3:0,0:0:0:0:
252,21,117338,1,4,3:1:0:0:
267,149,117735,1,0,0:0:0:0:
379,219,118133,2,0,P|445:218|515:209,1,130,8|0,0:1|3:0,0:0:0:0:
405,308,118927,6,0,P|340:307|275:299,1,130,4|0,1:1|0:0,0:0:0:0:
161,362,119722,1,8,0:1:0:0:
174,232,120119,1,0,3:0:0:0:
63,300,120517,2,0,P|25:306|-17:317,2,65,4|0|0,3:1|0:0|0:0,0:0:0:0:
91,168,121311,2,0,P|122:175|154:180,2,65,8|0|0,0:1|0:0|3:0,0:0:0:0:
212,120,122106,6,0,L|362:116,1,130,4|0,1:1|0:0,0:0:0:0:
419,12,122901,1,8,0:1:0:0:
486,122,123298,2,0,P|471:171|454:195,2,65,0|0|4,3:0|0:0|3:1,0:0:0:0:
376,193,124093,1,2,0:1:0:0:
301,299,124490,2,0,P|211:292|166:291,1,130,8|0,0:1|3:0,0:0:0:0:
47,332,125285,6,0,P|11:279|46:207,1,130,4|0,1:1|0:0,0:0:0:0:
107,116,126080,1,8,0:1:0:0:
227,165,126477,2,0,P|260:161|292:157,2,65,0|0|0,3:0|0:0|0:0,0:0:0:0:
322,76,127272,2,0,P|355:80|387:84,2,65,0|0|0,0:0|0:0|0:0,0:0:0:0:
206,16,128066,1,0,3:0:0:0:
92,79,128464,5,0,0:1:0:0:
