osu file format v14

[General]
AudioFilename: audio.mp3
AudioLeadIn: 0
PreviewTime: 26675
Countdown: 0
SampleSet: Soft
StackLeniency: 0.7
Mode: 0
LetterboxInBreaks: 0
WidescreenStoryboard: 0

[Editor]
Bookmarks: 1270,26700,52130,77561,77566,102991,128422
DistanceSpacing: 1.1
BeatDivisor: 4
GridSize: 16
TimelineZoom: 1.04

[Metadata]
Title:WHEN AN ANGEL DIES
TitleUnicode:WHEN AN ANGEL DIES
Artist:LukHash
ArtistUnicode:LukHash
Creator:Namki
Version:Advanced
Source:osu!
Tags:featured artist dead pixels electronic dark Sieg
BeatmapID:1341644
BeatmapSetID:605726

[Difficulty]
HPDrainRate:4
CircleSize:3.6
OverallDifficulty:5
ApproachRate:6
SliderMultiplier:1.5
SliderTickRate:1

[Events]
//Background and Video events
0,0,"9k_jc5trEk0.jpg",0,0
//Break Periods
//Storyboard Layer 0 (Background)
//Storyboard Layer 1 (Fail)
//Storyboard Layer 2 (Pass)
//Storyboard Layer 3 (Foreground)
//Storyboard Sound Samples

[TimingPoints]
1311,397.350993377483,4,2,72,15,1,0
1311,-133.333333333333,4,2,72,15,0,0
26741,-100,4,2,72,60,0,1
52171,-133.333333333333,4,2,72,20,0,0
103032,-100,4,2,72,20,0,1
128463,-100,4,2,72,80,0,1
128562,-100,4,2,72,60,0,0

[Colours]
Combo1 : 153,0,0
Combo2 : 222,222,222
SliderBody : 222,222,222
SliderTrackOverride : 153,0,0

[HitObjects]
208,160,1311,6,0,P|138:154|80:160,1,112.500004291535,0|0,0:0|0:0,0:0:0:0:
26,246,2105,2,0,P|37:287|40:303,1,56.2500021457673,2|0,0:0|0:0,0:0:0:0:
114,327,2503,2,0,P|119:299|127:272,1,56.2500021457673,0|0,0:0|0:0,0:0:0:0:
192,228,2900,5,0,0:0:0:0:
295,271,3297,1,2,0:0:0:0:
220,355,3695,1,0,0:0:0:0:
331,341,4092,2,0,P|369:299|360:230,1,112.500004291535,4|0,0:0|0:0,0:0:0:0:
211,83,5284,6,0,L|134:67,1,56.2500021457673,2|0,0:0|0:0,0:0:0:0:
109,135,5681,2,0,L|53:146,1,56.2500021457673,0|0,0:0|0:0,0:0:0:0:
13,214,6079,1,0,0:0:0:0:
122,240,6476,6,0,L|115:357,1,112.500004291535,2|0,0:0|0:0,0:0:0:0:
216,303,7271,2,0,L|209:190,1,112.500004291535,0|0,0:0|0:0,0:0:0:0:
421,117,8463,5,2,0:0:0:0:
433,228,8860,1,0,0:0:0:0:
441,340,9258,2,0,L|377:347,1,56.2500021457673,0|0,0:0|0:0,0:0:0:0:
306,352,9655,2,0,P|283:317|275:291,1,56.2500021457673,2|0,0:0|0:0,0:0:0:0:
211,261,10052,2,0,P|199:286|183:309,1,56.2500021457673,0|0,0:0|0:0,0:0:0:0:
108,335,10450,2,0,L|109:200,1,112.500004291535,4|0,0:0|0:0,0:0:0:0:
293,94,11642,6,0,P|342:92|391:50,2,112.500004291535,2|0|0,0:0|0:0|0:0,0:0:0:0:
194,147,12834,1,2,0:0:0:0:
267,232,13231,2,0,L|330:228,1,56.2500021457673,0|0,0:0|0:0,0:0:0:0:
395,198,13628,2,0,P|432:227|442:292,1,112.500004291535,0|0,0:0|0:0,0:0:0:0:
217,299,14820,5,2,0:0:0:0:
105,312,15218,1,0,0:0:0:0:
32,225,15615,2,0,P|44:187|49:149,1,56.2500021457673,0|0,0:0|0:0,0:0:0:0:
28,94,16012,2,0,L|151:93,1,112.500004291535,2|0,0:0|0:0,0:0:0:0:
243,47,16807,2,0,P|278:52|299:58,1,56.2500021457673,0|0,0:0|0:0,0:0:0:0:
347,119,17205,2,0,P|374:111|402:108,1,56.2500021457673,4|0,0:0|0:0,0:0:0:0:
301,243,17999,6,0,P|310:296|320:366,1,112.500004291535,2|0,0:0|0:0,0:0:0:0:
221,296,18794,1,0,0:0:0:0:
159,201,19191,2,0,P|165:135|165:132,1,56.2500021457673,2|0,0:0|0:0,0:0:0:0:
115,84,19589,2,0,P|159:65|226:95,1,112.500004291535,0|0,0:0|0:0,0:0:0:0:
255,191,20383,6,0,P|314:187|376:187,2,112.500004291535,4|0|0,0:0|0:0|0:0,0:0:0:0:
180,278,21575,2,0,P|132:274|102:273,2,56.2500021457673,2|2|2,0:0|0:0|0:0,0:0:0:0:
287,311,22370,2,0,L|407:301,1,112.500004291535,0|0,0:0|0:0,0:0:0:0:
510,315,23165,1,0,0:0:0:0:
488,204,23562,5,4,0:0:0:0:
259,223,24754,2,0,L|264:146,1,56.2500021457673,2|0,0:0|0:0,0:0:0:0:
189,136,25152,2,0,L|185:79,1,56.2500021457673,2|0,0:0|0:0,0:0:0:0:
119,36,25549,2,0,P|73:27|38:23,2,56.2500021457673,2|0|0,0:0|0:0|0:0,0:0:0:0:
60,132,26344,1,0,0:0:0:0:
60,132,26741,6,0,L|53:288,2,150,4|0|8,1:1|0:0|0:1,0:0:0:0:
135,98,27734,1,0,3:0:0:0:
135,98,27933,1,0,3:0:0:0:
261,196,28330,2,0,P|223:196|186:200,1,75,4|0,3:1|0:0,0:0:0:0:
135,265,28728,1,0,0:0:0:0:
279,304,29125,1,8,0:1:0:0:
355,272,29324,1,0,3:0:0:0:
355,272,29522,2,0,P|409:273|431:279,1,75,0|0,3:0|0:0,0:0:0:0:
478,211,29920,6,0,P|477:138|477:57,1,150,4|0,1:1|0:0,0:0:0:0:
330,95,30714,2,0,L|341:178,2,75,8|0|0,0:1|3:0|3:0,0:0:0:0:
194,30,31509,2,0,P|183:71|168:106,1,75,4|0,3:1|0:0,0:0:0:0:
90,121,31907,2,0,P|57:178|99:248,1,150,0|8,0:0|0:1,0:0:0:0:
173,221,32503,1,0,3:0:0:0:
173,221,32701,1,0,3:0:0:0:
297,311,33099,6,0,P|286:348|280:385,2,75,4|0|0,1:1|0:0|0:0,0:0:0:0:
421,227,33893,1,8,0:1:0:0:
403,151,34092,1,0,3:0:0:0:
403,151,34291,2,0,P|419:99|423:67,1,75,4|0,3:1|0:0,0:0:0:0:
351,35,34688,2,0,L|193:41,1,150,4|0,1:1|0:0,0:0:0:0:
103,158,35483,1,8,0:1:0:0:
103,158,35681,1,0,3:0:0:0:
173,200,35880,2,0,P|225:200|259:180,1,75,4|0,3:2|0:0,0:0:0:0:
315,233,36277,6,0,P|352:229|387:242,1,75,4|0,1:1|0:0,0:0:0:0:
343,312,36675,1,0,0:0:0:0:
197,348,37072,2,0,P|158:338|122:301,2,75,8|0|0,0:1|3:0|3:0,0:0:0:0:
199,265,37668,1,0,0:0:0:0:
134,212,37867,2,0,P|163:188|199:180,2,75,4|0|0,3:1|0:0|0:0,0:0:0:0:
286,204,38661,1,8,0:1:0:0:
338,139,38860,1,0,3:0:0:0:
338,139,39059,2,0,P|322:82|321:45,1,75,0|0,3:0|0:0,0:0:0:0:
247,27,39456,6,0,P|195:44|102:3,1,150,4|0,1:1|0:0,0:0:0:0:
39,144,40251,2,0,P|85:140|121:141,1,75,8|0,0:1|3:0,0:0:0:0:
184,182,40648,2,0,P|230:178|266:179,1,75,0|0,3:0|0:0,0:0:0:0:
339,218,41046,1,4,3:1:0:0:
339,218,41244,1,0,0:0:0:0:
396,157,41443,2,0,P|376:128|343:100,1,75,0|0,0:0|0:0,0:0:0:0:
413,54,41840,2,0,P|440:22|469:-2,2,75,8|0|0,0:1|3:0|3:0,0:0:0:0:
488,211,42635,6,0,P|453:254|450:296,1,75,4|0,1:1|0:0,0:0:0:0:
474,350,43032,1,2,0:1:0:0:
331,303,43430,1,8,0:1:0:0:
253,289,43628,1,0,3:0:0:0:
253,289,43827,2,0,P|201:284|147:289,1,75,0|0,3:0|0:0,0:0:0:0:
104,321,44224,6,0,P|56:301|52:189,1,150,2|0,0:1|0:1,0:0:0:0:
108,89,45019,2,0,P|150:88|187:111,1,75,8|0,0:1|3:0,0:0:0:0:
128,171,45416,1,0,3:0:0:0:
268,140,45814,6,0,P|274:117|278:51,1,75,4|0,1:1|0:0,0:0:0:0:
361,66,46211,2,0,P|363:103|372:139,1,75,0|0,0:0|0:0,0:0:0:0:
440,198,46609,1,8,0:1:0:0:
440,198,46807,1,0,3:0:0:0:
381,257,47006,2,0,P|337:249|305:249,1,75,0|0,3:0|0:0,0:0:0:0:
229,279,47403,2,0,P|232:336|233:370,2,75,4|0|0,3:1|0:0|0:0,0:0:0:0:
96,350,48198,2,0,P|105:275|108:200,1,150,8|0,0:1|3:0,0:0:0:0:
148,58,48993,6,0,P|196:66|225:68,1,75,4|0,1:1|0:0,0:0:0:0:
295,106,49390,2,0,P|343:114|372:116,1,75,0|0,0:0|0:0,0:0:0:0:
450,100,49787,1,8,0:1:0:0:
475,178,49986,1,0,3:0:0:0:
475,178,50185,1,0,3:0:0:0:
367,282,50582,2,0,L|206:268,1,150,4|0,1:1|0:0,0:0:0:0:
86,342,51377,1,8,0:1:0:0:
86,342,51575,1,0,3:0:0:0:
39,273,51774,2,0,P|46:221|136:234,1,150,0|4,3:0|0:1,0:0:0:0:
256,192,52370,12,0,55350,0:0:0:0:
219,157,56940,6,0,B|125:181|152:101|36:143,2,168.750006437302,2|0|0,0:1|0:0|0:0,0:0:0:0:
314,97,58529,2,0,P|380:100|404:206,2,168.750006437302,0|0|0,0:0|0:0|0:0,0:0:0:0:
263,197,60118,6,0,L|280:370,2,168.750006437302,0|0|0,0:0|0:0|0:0,0:0:0:0:
181,274,61708,2,0,P|118:278|63:183,2,168.750006437302,2|0|0,0:1|0:0|0:0,0:0:0:0:
223,169,63297,6,0,B|250:70|183:98|223:-1,2,168.750006437302,0|0|0,0:0|0:0|0:0,0:0:0:0:
119,123,64887,2,0,P|71:154|80:276,2,168.750006437302,2|0|0,0:1|0:0|0:0,0:0:0:0:
192,208,66476,6,0,L|178:382,2,168.750006437302,0|0|0,0:0|0:0|0:0,0:0:0:0:
289,152,68065,2,0,P|303:215|404:213,2,168.750006437302,0|0|0,0:0|0:0|0:0,0:0:0:0:
348,56,69655,6,0,B|451:33|419:105|529:71,2,168.750006437302,2|0|0,0:1|0:0|0:0,0:0:0:0:
237,33,71244,2,0,P|185:31|148:145,2,168.750006437302,0|0|0,0:0|0:0|0:0,0:0:0:0:
256,192,72834,12,0,76012,0:0:0:0:
103,189,77602,6,0,P|181:186|275:192,1,168.750006437302,4|0,0:1|0:0,0:0:0:0:
326,134,78397,2,0,B|363:154|363:154|426:153,2,84.3750032186509,0|0|0,0:0|0:0|0:0,0:0:0:0:
381,78,79191,5,0,0:0:0:0:
266,271,79986,2,0,L|275:358,2,84.3750032186509,0|0|0,0:0|0:0|0:0,0:0:0:0:
200,227,80781,6,0,P|149:232|98:126,1,168.750006437302,0|0,3:0|0:0,0:0:0:0:
141,82,81575,2,0,B|182:91|182:91|234:88,2,84.3750032186509,0|0|0,0:0|0:0|0:0,0:0:0:0:
71,43,82370,5,0,0:0:0:0:
213,217,83165,2,0,L|308:205,2,84.3750032186509,0|0|0,0:0|0:0|0:0,0:0:0:0:
154,269,83960,6,0,P|100:270|71:165,1,168.750006437302,0|0,3:0|0:0,0:0:0:0:
127,129,84754,2,0,B|138:94|138:94|125:38,2,84.3750032186509,0|0|0,0:0|0:0|0:0,0:0:0:0:
59,87,85549,5,0,0:0:0:0:
281,56,86344,2,0,L|384:62,2,84.3750032186509,0|0|0,0:0|0:0|0:0,0:0:0:0:
223,109,87138,6,0,P|256:150|188:239,1,168.750006437302,0|0,3:0|0:0,0:0:0:0:
133,200,87933,2,0,L|28:194,1,84.3750032186509,0|0,0:0|0:0,0:0:0:0:
98,302,88529,1,0,0:0:0:0:
98,302,88728,1,0,0:0:0:0:
411,269,89522,6,0,P|375:271|314:271,1,84.3750032186509,0|0,0:0|0:0,0:0:0:0:
247,183,90118,1,0,0:0:0:0:
247,183,90317,2,0,P|231:121|131:125,1,168.750006437302,0|0,3:0|0:0,0:0:0:0:
89,178,91112,2,0,L|98:298,1,112.500004291535,0|0,0:0|3:0,0:0:0:0:
160,336,91708,1,0,0:0:0:0:
226,293,91907,6,0,P|280:294|301:304,1,56.2500021457673,0|0,3:0|0:0,0:0:0:0:
504,371,92701,2,0,P|471:301|465:256,1,112.500004291535,0|0,0:0|3:0,0:0:0:0:
485,190,93297,1,0,0:0:0:0:
485,190,93496,2,0,P|457:138|346:143,1,168.750006437302,0|0,3:0|0:0,0:0:0:0:
296,184,94291,6,0,L|188:176,2,84.3750032186509,0|0|0,0:0|0:0|0:0,0:0:0:0:
339,249,95085,2,0,P|351:294|354:312,1,56.2500021457673,0|0,3:0|0:0,0:0:0:0:
195,366,95880,6,0,P|197:326|197:250,1,112.500004291535,0|0,0:0|3:0,0:0:0:0:
162,182,96476,1,0,0:0:0:0:
162,182,96675,2,0,P|141:139|273:82,1,225.000008583069,0|0,3:0|0:0,0:0:0:0:
353,134,97867,2,0,P|391:133|419:132,1,56.2500021457673,0|0,3:0|0:0,0:0:0:0:
485,113,98264,5,0,3:0:0:0:
345,259,99059,2,0,P|333:298|336:351,2,84.3750032186509,0|0|0,0:0|0:0|0:0,0:0:0:0:
291,200,99854,6,0,P|251:212|180:113,1,168.750006437302,0|0,3:0|0:0,0:0:0:0:
196,52,100648,2,0,P|154:25|81:28,1,112.500004291535,0|0,0:0|3:0,0:0:0:0:
35,77,101244,1,0,0:0:0:0:
35,77,101443,6,0,P|42:109|31:205,1,112.500004291535,0|0,3:0|0:0,0:0:0:0:
19,299,102238,2,0,P|59:308|105:313,1,84.3750032186509,0|0,0:0|0:0,0:0:0:0:
212,271,102834,1,0,0:0:0:0:
284,310,103032,6,0,P|288:364|292:402,2,75,4|0|0,1:1|0:0|0:0,0:0:0:0:
330,178,103827,2,0,P|369:175|414:175,1,75,8|0,0:1|3:0,0:0:0:0:
406,92,104224,2,0,P|368:89|331:88,1,75,0|0,3:0|0:0,0:0:0:0:
258,128,104622,2,0,P|205:128|88:114,1,150,4|0,3:1|0:0,0:0:0:0:
35,248,105416,1,8,0:1:0:0:
113,288,105615,1,0,3:0:0:0:
113,288,105814,2,0,P|151:288|198:291,1,75,0|0,3:0|0:0,0:0:0:0:
267,313,106211,6,0,P|308:299|331:267,2,75,4|0|0,1:1|0:0|0:0,0:0:0:0:
371,204,107006,2,0,P|395:231|431:241,2,75,8|0|0,0:1|3:0|3:0,0:0:0:0:
419,61,107801,2,0,P|343:64|239:65,1,150,4|0,3:1|0:0,0:0:0:0:
203,199,108595,2,0,P|201:247|217:280,1,75,8|0,0:1|3:0,0:0:0:0:
290,295,108993,1,0,3:0:0:0:
350,159,109390,6,0,P|312:152|275:148,1,75,4|0,1:1|0:0,0:0:0:0:
197,173,109787,2,0,P|159:179|122:184,1,75,0|0,0:0|0:0,0:0:0:0:
57,133,110185,1,8,0:1:0:0:
10,201,110383,1,0,3:0:0:0:
10,201,110582,1,0,3:0:0:0:
125,296,110979,2,0,P|123:333|118:375,2,75,4|0|0,3:1|0:0|0:0,0:0:0:0:
267,254,111774,2,0,P|320:255|425:269,1,150,8|0,0:1|3:0,0:0:0:0:
498,263,112370,1,0,0:0:0:0:
487,180,112569,6,0,P|469:146|461:110,1,75,4|0,1:1|0:0,0:0:0:0:
387,74,112966,2,0,P|378:110|361:143,1,75,0|0,0:0|0:0,0:0:0:0:
284,172,113363,2,0,P|211:167|118:157,1,150,8|4,0:1|3:1,0:0:0:0:
47,281,114158,1,4,1:1:0:0:
114,339,114357,1,0,0:0:0:0:
114,339,114556,2,0,P|146:354|190:354,1,75,0|0,0:0|0:0,0:0:0:0:
248,300,114953,2,0,P|283:287|321:293,1,75,12|0,0:1|3:0,0:0:0:0:
293,371,115350,1,0,3:0:0:0:
443,380,115748,6,0,P|445:324|447:214,1,150,4|0,1:1|0:0,0:0:0:0:
335,129,116542,1,8,0:1:0:0:
413,102,116741,1,0,3:0:0:0:
436,22,116940,2,0,P|375:4|346:4,1,75,0|0,3:0|0:0,0:0:0:0:
291,43,117337,2,0,P|262:85|220:107,2,75,4|0|0,3:1|0:0|0:0,0:0:0:0:
214,12,117933,1,0,0:0:0:0:
131,17,118132,2,0,L|56:24,1,75,8|0,0:1|3:0,0:0:0:0:
46,105,118529,2,0,L|137:114,1,75,0|0,3:0|0:0,0:0:0:0:
184,164,118926,6,0,P|209:212|218:251,2,75,4|0|0,1:1|0:0|0:0,0:0:0:0:
197,326,119721,1,8,0:1:0:0:
277,361,119920,1,0,3:0:0:0:
277,361,120118,2,0,P|315:368|362:353,1,75,0|0,3:0|0:0,0:0:0:0:
410,302,120516,2,0,P|403:230|400:145,1,150,4|0,3:1|0:0,0:0:0:0:
487,17,121310,2,0,P|441:36|410:41,1,75,8|0,0:1|0:0,0:0:0:0:
334,44,121708,2,0,P|299:28|263:20,1,75,0|0,3:0|0:0,0:0:0:0:
183,42,122105,6,0,P|182:86|191:198,1,150,4|0,1:1|0:0,0:0:0:0:
252,328,122900,2,0,P|305:308|328:284,2,75,8|0|0,0:1|3:0|3:0,0:0:0:0:
254,245,123496,1,0,0:0:0:0:
305,180,123695,2,0,P|361:178|401:189,1,75,4|0,3:1|0:0,0:0:0:0:
448,226,124092,2,0,P|482:187|436:94,1,150,2|8,0:1|0:1,0:0:0:0:
377,67,124688,1,0,3:0:0:0:
300,35,124887,2,0,P|254:33|208:36,1,75,0|0,3:0|0:0,0:0:0:0:
169,95,125284,6,0,P|190:143|175:180,2,75,4|0|0,1:1|0:0|0:0,0:0:0:0:
43,177,126079,2,0,P|54:250|51:345,1,150,8|0,0:1|3:0,0:0:0:0:
124,368,126675,1,0,0:0:0:0:
190,317,126873,2,0,P|199:278|205:233,1,75,4|0,1:1|0:0,0:0:0:0:
284,224,127271,2,0,P|289:261|298:297,1,75,0|0,0:0|0:0,0:0:0:0:
373,330,127668,2,0,P|452:330|531:334,1,150,8|0,0:1|3:0,0:0:0:0:
418,225,128463,5,0,0:1:0:0:
