osu file format v14

[General]
AudioFilename: audio.mp3
AudioLeadIn: 0
PreviewTime: 26675
Countdown: 0
SampleSet: Soft
StackLeniency: 0.7
Mode: 0
LetterboxInBreaks: 0
WidescreenStoryboard: 0

[Editor]
Bookmarks: 1270,26700,52130,77561,102991,128422
DistanceSpacing: 1.9
BeatDivisor: 4
GridSize: 16
TimelineZoom: 1.4

[Metadata]
Title:WHEN AN ANGEL DIES
TitleUnicode:WHEN AN ANGEL DIES
Artist:LukHash
ArtistUnicode:LukHash
Creator:Namki
Version:Solitude
Source:osu!
Tags:featured artist dead pixels electronic dark Sieg
BeatmapID:1279784
BeatmapSetID:605726

[Difficulty]
HPDrainRate:6
CircleSize:4
OverallDifficulty:7
ApproachRate:8
SliderMultiplier:1.8
SliderTickRate:1

[Events]
//Background and Video events
0,0,"9k_jc5trEk0.jpg",0,0
//Break Periods
//Storyboard Layer 0 (Background)
//Storyboard Layer 1 (Fail)
//Storyboard Layer 2 (Pass)
//Storyboard Layer 3 (Foreground)
//Storyboard Sound Samples

[TimingPoints]
1311,397.350993377483,4,2,72,15,1,0
1311,-133.333333333333,4,2,72,15,0,0
14820,-133.333333333333,4,2,72,15,0,0
20383,-250,4,2,72,15,0,0
21575,-133.333333333333,4,2,72,15,0,0
24754,-133.333333333333,4,2,72,15,0,0
26741,-100,4,2,72,60,0,1
52171,-280,4,2,72,60,0,0
53363,-280,4,2,72,20,0,0
53761,-280,4,2,72,20,0,0
56542,-280,4,2,72,20,0,0
56940,-280,4,2,72,20,0,0
58132,-280,4,2,72,20,0,0
58529,-280,4,2,72,20,0,0
59721,-280,4,2,72,20,0,0
60118,-280,4,2,72,20,0,0
61310,-280,4,2,72,20,0,0
61708,-280,4,2,72,20,0,0
64489,-280,4,2,72,20,0,0
64887,-280,4,2,72,20,0,0
66079,-280,4,2,72,20,0,0
66476,-280,4,2,72,20,0,0
67668,-280,4,2,72,20,0,0
68065,-280,4,2,72,20,0,0
69258,-280,4,2,72,20,0,0
69655,-280,4,2,72,20,0,0
72436,-280,4,2,72,20,0,0
72834,-280,4,2,72,20,0,0
75615,-280,4,2,72,20,0,0
76012,-280,4,2,72,20,0,0
77602,-133.333333333333,4,2,72,20,0,0
102536,-133.333333333333,4,2,72,20,0,0
103032,-100,4,2,72,60,0,1
128463,-100,4,2,72,80,0,1
128562,-100,4,2,72,60,0,0

[Colours]
Combo1 : 153,0,0
Combo2 : 222,222,222
SliderBody : 222,222,222
SliderTrackOverride : 153,0,0

[HitObjects]
301,95,1311,6,0,P|275:130|319:103,1,135.000005149842,0|0,0:0|0:0,0:0:0:0:
121,205,2105,2,0,P|76:201|33:174,1,67.5000025749208,2|0,0:0|0:0,0:0:0:0:
207,279,2503,2,0,P|127:243|61:251,1,135.000005149842,0|0,0:0|0:0,0:0:0:0:
122,361,3297,1,2,0:0:0:0:
122,361,3695,1,0,0:0:0:0:
6,355,4092,2,0,B|-3:321|8:289|8:289|-1:255|-1:255|6:207,1,135.000005149842,4|0,0:0|0:0,0:0:0:0:
391,205,5284,6,0,P|436:201|479:174,1,67.5000025749208,2|0,0:0|0:0,0:0:0:0:
305,279,5682,2,0,P|384:243|451:251,1,135.000005149842,0|0,0:0|0:0,0:0:0:0:
390,361,6476,1,2,0:0:0:0:
390,361,6874,1,0,0:0:0:0:
506,355,7271,2,0,B|515:321|504:289|504:289|513:255|513:255|506:207,1,135.000005149842,0|0,0:0|0:0,0:0:0:0:
132,37,8463,6,0,P|146:77|138:129,1,67.5000025749208,2|0,0:0|0:0,0:0:0:0:
217,180,8861,2,0,P|200:219|204:168,1,135.000005149842,0|0,0:0|0:0,0:0:0:0:
229,50,9655,1,2,0:0:0:0:
229,50,10053,1,0,0:0:0:0:
106,148,10450,2,0,P|87:89|8:58,1,135.000005149842,4|0,0:0|0:0,0:0:0:0:
380,37,11642,6,0,P|366:77|374:129,1,67.5000025749208,2|0,0:0|0:0,0:0:0:0:
295,180,12040,2,0,P|312:219|308:168,1,135.000005149842,0|0,0:0|0:0,0:0:0:0:
283,50,12834,1,2,0:0:0:0:
283,50,13232,1,0,0:0:0:0:
406,148,13628,2,0,P|425:89|504:58,1,135.000005149842,0|0,0:0|0:0,0:0:0:0:
250,22,14820,6,0,L|245:103,1,67.5000025749208,2|0,0:0|0:0,0:0:0:0:
198,171,15218,2,0,P|205:237|195:317,1,135.000005149842,0|0,0:0|0:0,0:0:0:0:
445,322,16012,2,0,L|364:310,1,67.5000025749208,2|0,0:0|0:0,0:0:0:0:
286,358,16410,1,0,0:0:0:0:
136,252,16807,2,0,P|106:241|48:241,1,67.5000025749208,0|0,0:0|0:0,0:0:0:0:
24,361,17205,2,0,P|43:305|-3:231,1,135.000005149842,4|0,0:0|0:0,0:0:0:0:
96,69,17999,6,0,P|101:104|102:161,1,67.5000025749208,2|0,0:0|0:0,0:0:0:0:
191,70,18397,2,0,P|218:24|220:55,1,135.000005149842,0|0,0:0|0:0,0:0:0:0:
266,193,19191,2,0,P|261:228|262:264,1,67.5000025749208,2|0,0:0|0:0,0:0:0:0:
193,152,19589,1,0,0:0:0:0:
353,56,19986,2,0,P|348:91|349:127,1,67.5000025749208,0|0,0:0|0:0,0:0:0:0:
413,177,20383,6,0,P|393:256|459:338,1,180,4|0,0:0|0:0,0:0:0:0:
508,220,21575,1,2,0:0:0:0:
492,120,21774,1,2,0:0:0:0:
478,19,21973,1,2,0:0:0:0:
321,239,22370,6,0,P|312:274|318:325,1,67.5000025749208,0|0,0:0|0:0,0:0:0:0:
210,153,22767,2,0,P|214:189|201:237,1,67.5000025749208,0|0,0:0|0:0,0:0:0:0:
302,55,23165,2,0,P|298:87|305:136,1,67.5000025749208,0|0,0:0|0:0,0:0:0:0:
223,294,23562,2,0,B|190:301|166:287|142:277|133:244|124:223|141:186|141:186|92:252|58:233|15:241|-9:195,1,337.500012874604,4|0,0:0|0:0,0:0:0:0:
39,48,24754,5,2,0:0:0:0:
59,143,24953,1,0,0:0:0:0:
187,124,25152,1,2,0:0:0:0:
208,219,25350,1,0,0:0:0:0:
342,153,25549,2,0,P|380:147|420:146,2,67.5000025749208,2|0|0,0:0|0:0|0:0,0:0:0:0:
496,176,26344,1,0,0:0:0:0:
419,21,26741,5,4,1:1:0:0:
419,21,26940,2,0,P|471:20|506:7,2,90,0|0|0,0:0|0:0|0:0,0:0:0:0:
277,25,27536,1,8,0:1:0:0:
327,120,27734,1,0,3:0:0:0:
220,100,27933,1,0,3:0:0:0:
113,80,28132,1,0,0:0:0:0:
48,190,28330,1,4,3:1:0:0:
48,190,28529,2,0,B|31:245|61:287|61:287|46:324|46:324|56:380,1,180,0|0,0:0|0:0,0:0:0:0:
163,234,29125,1,8,0:1:0:0:
137,339,29324,1,0,3:0:0:0:
271,354,29522,2,0,P|306:329|360:330,1,90,0|0,3:0|0:0,0:0:0:0:
505,333,29920,6,0,P|466:336|491:357,1,90,4|0,1:1|0:0,0:0:0:0:
470,235,30317,2,0,L|485:134,1,90,0|0,0:0|0:0,0:0:0:0:
429,41,30714,1,8,0:1:0:0:
375,165,30913,1,0,3:0:0:0:
375,165,31112,2,0,B|364:229|364:229|382:274,1,90,0|0,3:0|0:0,0:0:0:0:
283,372,31509,1,4,3:1:0:0:
283,372,31708,2,0,B|266:317|296:275|296:275|281:238|281:238|291:182,1,180,0|0,0:0|0:0,0:0:0:0:
250,53,32304,1,8,0:1:0:0:
167,177,32503,1,0,3:0:0:0:
167,177,32701,2,0,L|175:279,1,90,0|0,3:0|0:0,0:0:0:0:
85,53,33099,5,4,1:1:0:0:
85,53,33297,2,0,B|90:125|90:125|78:157|78:157|84:238,1,180,0|0,0:0|0:0,0:0:0:0:
236,187,33893,2,0,L|337:151,1,90,8|0,0:1|3:0,0:0:0:0:
324,302,34291,2,0,B|264:323|264:323|234:318,1,90,4|0,3:1|0:0,0:0:0:0:
62,336,34688,1,4,1:1:0:0:
62,336,34887,2,0,P|27:370|48:308,1,180,0|0,0:0|0:0,0:0:0:0:
154,186,35483,2,0,L|161:77,1,90,8|0,0:1|3:0,0:0:0:0:
308,124,35880,2,0,P|307:73|296:30,1,90,4|0,3:2|0:0,0:0:0:0:
392,210,36277,6,0,P|400:258|397:303,1,90,4|0,1:1|0:0,0:0:0:0:
417,130,36675,2,0,P|470:128|514:112,1,90
308,203,37072,1,8,0:1:0:0:
242,272,37271,1,0,3:0:0:0:
277,363,37469,1,0,3:0:0:0:
374,380,37668,1,0,0:0:0:0:
414,267,37867,2,0,P|465:245|517:257,1,90,4|0,3:1|0:0,0:0:0:0:
328,287,38264,2,0,P|294:272|216:280,1,90,0|0,0:0|0:0,0:0:0:0:
212,126,38661,1,8,0:1:0:0:
173,316,38860,1,0,3:0:0:0:
145,153,39059,1,0,3:0:0:0:
145,153,39456,5,4,1:1:0:0:
145,153,39655,2,0,P|157:77|71:61,1,180,0|0,0:0|0:0,0:0:0:0:
14,166,40251,2,0,L|5:273,1,90,8|0,0:1|3:0,0:0:0:0:
63,364,40648,1,0,3:0:0:0:
169,347,40847,1,0,0:0:0:0:
266,228,41046,2,0,P|308:239|277:206,1,90,4|0,3:1|0:0,0:0:0:0:
412,260,41443,2,0,P|406:304|417:365,2,90,0|0|8,0:0|0:0|0:1,0:0:0:0:
376,135,42039,1,0,3:0:0:0:
376,135,42238,2,0,P|389:81|386:44,1,90,0|0,3:0|0:0,0:0:0:0:
238,86,42635,6,0,L|247:175,1,90,4|0,1:1|0:0,0:0:0:0:
199,291,43032,1,2,0:1:0:0:
51,315,43230,1,2,0:1:0:0:
131,340,43429,1,8,0:1:0:0:
27,233,43628,1,0,3:0:0:0:
63,62,43827,2,0,L|72:151,1,90,0|0,3:0|0:0,0:0:0:0:
237,190,44224,1,2,0:1:0:0:
144,138,44423,1,0,0:1:0:0:
175,287,44622,1,0,0:1:0:0:
395,232,45019,2,0,P|433:206|485:212,1,90,8|0,0:1|3:0,0:0:0:0:
301,213,45416,2,0,P|266:242|298:250,1,90,0|0,3:0|0:0,0:0:0:0:
407,373,45814,5,4,1:1:0:0:
407,373,46012,2,0,P|442:344|410:336,1,90,0|0,0:0|0:0,0:0:0:0:
505,42,46608,1,8,0:1:0:0:
477,174,46807,1,0,3:0:0:0:
477,174,47006,2,0,P|432:167|388:185,1,90,0|0,3:0|0:0,0:0:0:0:
263,118,47403,1,4,3:1:0:0:
263,118,47602,2,0,B|212:114|212:114|179:123|179:123|139:81|90:91,1,180,0|0,0:0|0:0,0:0:0:0:
132,268,48198,2,0,P|132:215|101:182,1,90,8|0,0:1|3:0,0:0:0:0:
18,105,48595,2,0,P|19:153|18:214,1,90,0|0,3:0|0:0,0:0:0:0:
72,345,48993,5,4,1:1:0:0:
212,258,49191,1,0,0:0:0:0:
187,111,49390,2,0,P|139:117|80:106,1,90,0|0,0:0|0:0,0:0:0:0:
123,254,49787,2,0,P|172:250|230:264,1,90,8|0,0:1|3:0,0:0:0:0:
357,242,50184,1,0,3:0:0:0:
223,334,50383,1,0,0:0:0:0:
396,313,50582,2,0,P|436:293|499:297,1,90,4|0,1:1|0:0,0:0:0:0:
263,183,50979,2,0,P|222:176|257:148,1,90,0|0,0:0|0:0,0:0:0:0:
413,63,51377,2,0,P|445:86|441:44,1,90,8|0,0:1|3:0,0:0:0:0:
188,50,51774,2,0,P|149:31|89:37,1,90,0|0,3:0|0:0,0:0:0:0:
76,211,52171,6,0,P|49:242|61:176,1,192.857142857143,4|0,0:1|0:0,0:0:0:0:
149,246,53761,2,0,B|135:254|121:278|114:315|134:349|171:375|229:368|256:312|256:312|282:258|339:251|376:277|397:311|390:348|375:372|369:376,1,450,2|0,0:1|0:0,0:0:0:0:
462,285,56940,6,0,B|472:136|472:136|451:93,1,192.857142857143,2|0,0:1|0:0,0:0:0:0:
336,95,58529,2,0,P|242:82|227:162,1,192.857142857143,0|0,0:0|0:0,0:0:0:0:
174,265,60118,6,0,P|256:311|220:384,1,192.857142857143
113,323,61708,2,0,B|74:273|110:198|110:198|157:182|157:182|98:183|71:154|35:118|51:52|77:13|130:3,1,450,2|0,0:1|0:0,0:0:0:0:
151,91,64887,6,0,P|242:148|234:234,1,192.857142857143,2|0,0:1|0:0,0:0:0:0:
327,303,66476,2,0,L|327:111,1,192.857142857143,0|0,0:0|0:0,0:0:0:0:
408,30,68065,6,0,B|408:53|408:72|408:90|408:108|408:126|408:181|474:189,1,192.857142857143
494,293,69655,2,0,B|480:335|437:369|388:378|326:364|296:299|296:299|279:354|238:371|181:398|126:347,1,450,2|0,0:1|0:0,0:0:0:0:
195,265,72834,6,0,B|236:259|267:185|240:134|168:120|168:120|125:175|67:177|0:128|11:65|32:31,1,450,2|0,0:1|0:0,0:0:0:0:
256,192,76012,12,4,77602,0:1:0:0:
198,301,78397,5,0,0:0:0:0:
201,298,78695,1,0,0:0:0:0:
204,295,78993,2,0,P|203:337|190:380,1,67.5000025749208
314,301,79986,1,0,0:0:0:0:
311,298,80284,1,0,0:0:0:0:
308,295,80582,2,0,P|309:337|322:380,1,67.5000025749208,0|0,0:0|3:0,0:0:0:0:
132,207,81575,5,0,0:0:0:0:
135,204,81873,1,0,0:0:0:0:
138,201,82171,2,0,P|127:242|124:286,1,67.5000025749208,0|0,0:0|0:0,0:0:0:0:
380,207,83165,1,0,0:0:0:0:
377,204,83463,1,0,0:0:0:0:
374,201,83761,2,0,P|385:242|388:286,1,67.5000025749208,0|0,0:0|3:0,0:0:0:0:
69,116,84754,5,0,0:0:0:0:
72,113,85052,1,0,0:0:0:0:
75,110,85350,2,0,P|73:157|61:195,1,67.5000025749208,0|0,0:0|0:0,0:0:0:0:
443,116,86344,1,0,0:0:0:0:
440,113,86642,1,0,0:0:0:0:
437,110,86940,2,0,P|439:157|451:195,1,67.5000025749208,0|0,0:0|3:0,0:0:0:0:
10,22,87933,5,0,0:0:0:0:
13,19,88231,1,0,0:0:0:0:
16,16,88529,2,0,P|3:54|2:101,1,67.5000025749208,0|0,0:0|0:0,0:0:0:0:
502,22,89522,1,0,0:0:0:0:
499,19,89820,1,0,0:0:0:0:
496,16,90118,2,0,P|509:54|510:101,1,67.5000025749208,0|0,0:0|3:0,0:0:0:0:
52,169,91112,6,0,P|56:223|92:257,1,101.250003862381,0|0,0:0|0:0,0:0:0:0:
109,288,91509,2,0,P|87:312|84:368,1,67.5000025749208,0|0,3:0|0:0,0:0:0:0:
123,190,91907,1,0,3:0:0:0:
460,215,92701,2,0,P|456:161|420:127,1,101.250003862381,0|0,0:0|0:0,0:0:0:0:
403,96,93099,2,0,P|425:72|428:16,1,67.5000025749208,0|0,3:0|0:0,0:0:0:0:
389,194,93496,1,0,3:0:0:0:
224,352,94291,5,0,0:0:0:0:
374,273,94589,1,0,0:0:0:0:
374,273,94688,2,0,P|398:295|454:298,1,67.5000025749208,0|0,3:0|0:0,0:0:0:0:
296,226,95085,6,0,P|241:209|161:240,1,135.000005149842,0|0,3:0|0:0,0:0:0:0:
288,32,95880,1,0,0:0:0:0:
138,111,96178,1,0,0:0:0:0:
138,111,96277,2,0,P|114:89|58:86,1,67.5000025749208,0|0,3:0|0:0,0:0:0:0:
236,118,96675,1,0,3:0:0:0:
234,327,97469,6,0,P|186:305|123:311,1,101.250003862381,0|0,0:0|0:0,0:0:0:0:
115,359,97867,2,0,P|116:324|94:279,1,67.5000025749208,0|0,3:0|0:0,0:0:0:0:
23,193,98264,6,0,P|55:211|150:178,1,135.000005149842,0|0,3:0|0:0,0:0:0:0:
304,353,99059,1,0,0:0:0:0:
447,277,99357,1,0,0:0:0:0:
447,277,99456,2,0,P|451:233|442:198,1,67.5000025749208,0|0,3:0|0:0,0:0:0:0:
342,285,99854,2,0,P|286:278|228:340,1,135.000005149842,0|0,3:0|0:0,0:0:0:0:
387,151,100648,5,0,0:0:0:0:
311,23,100946,1,0,0:0:0:0:
311,23,101045,2,0,L|319:106,1,67.5000025749208,0|0,3:0|0:0,0:0:0:0:
292,219,101443,1,0,3:0:0:0:
292,219,102238,1,0,0:0:0:0:
170,124,102536,1,0,0:0:0:0:
170,124,102635,2,0,L|178:41,1,67.5000025749208,0|0,0:0|0:0,0:0:0:0:
292,219,103033,5,4,1:1:0:0:
292,219,103231,1,0,0:0:0:0:
292,219,103827,1,8,0:1:0:0:
176,56,104025,1,0,3:0:0:0:
176,56,104224,2,0,L|71:39,1,90,0|0,3:0|0:0,0:0:0:0:
121,215,104622,2,0,L|226:232,1,90,4|0,3:1|0:0,0:0:0:0:
22,159,105019,2,0,B|72:165|100:118|100:118|134:146|188:130,1,180,0|8,0:0|0:1,0:0:0:0:
30,82,105615,1,0,3:0:0:0:
249,94,105814,2,0,P|259:137|246:179,1,90,0|0,3:0|0:0,0:0:0:0:
118,343,106211,5,4,1:1:0:0:
118,343,106410,2,0,P|138:375|127:318,1,180,0|0,0:0|0:0,0:0:0:0:
290,261,107005,1,8,0:1:0:0:
428,370,107204,1,0,3:0:0:0:
428,370,107403,2,0,B|364:359|364:359|319:377,1,90,0|0,3:0|0:0,0:0:0:0:
424,232,107801,2,0,L|522:249,1,90,4|0,3:1|0:0,0:0:0:0:
470,94,108198,2,0,B|415:77|373:107|373:107|336:92|336:92|280:102,1,180,0|8,0:0|0:1,0:0:0:0:
147,187,108794,1,0,3:0:0:0:
147,187,108992,2,0,P|147:138|126:90,1,90,0|0,3:0|0:0,0:0:0:0:
299,99,109390,5,4,1:1:0:0:
299,99,109589,2,0,P|299:50|320:2,1,90,0|0,0:0|0:0,0:0:0:0:
251,254,110185,1,8,0:1:0:0:
339,360,110383,1,0,3:0:0:0:
387,205,110582,1,0,3:0:0:0:
299,99,110780,1,0,0:0:0:0:
162,237,110979,2,0,P|205:247|274:255,1,90,4|0,3:1|0:0,0:0:0:0:
381,71,111377,2,0,P|329:20|231:46,1,180,0|8,0:0|0:1,0:0:0:0:
387,205,111972,1,0,3:0:0:0:
387,205,112171,2,0,P|390:261|385:302,1,90,0|0,3:0|0:0,0:0:0:0:
176,288,112569,5,4,1:1:0:0:
174,287,112767,2,0,B|132:249|132:249|39:270|39:270|65:294,1,180,0|0,0:0|0:0,0:0:0:0:
148,170,113363,1,8,0:1:0:0:
261,142,113562,1,0,3:0:0:0:
266,268,113761,2,0,L|164:297,1,90,4|0,3:1|0:0,0:0:0:0:
395,343,114158,2,0,L|293:372,1,90,4|0,1:1|0:0,0:0:0:0:
462,214,114556,2,0,L|360:243,1,90,0|0,0:0|0:0,0:0:0:0:
446,109,114952,1,12,0:1:0:0:
275,81,115151,1,0,3:0:0:0:
406,45,115350,1,0,3:0:0:0:
106,45,115748,5,4,1:1:0:0:
106,45,115946,2,0,P|41:25|95:71,1,180,0|0,0:0|0:0,0:0:0:0:
212,144,116543,1,8,0:1:0:0:
57,198,116741,1,0,3:0:0:0:
57,198,116940,2,0,B|66:270|66:270|98:300|51:303,1,90,0|0,3:0|0:0,0:0:0:0:
209,358,117337,2,0,P|208:308|200:265,1,90,4|0,3:1|0:0,0:0:0:0:
340,231,117734,2,0,P|334:181|329:117,1,90,0|0,0:0|0:0,0:0:0:0:
450,66,118132,2,0,P|470:36|429:30,1,90,8|0,0:1|3:0,0:0:0:0:
277,82,118530,2,0,P|252:128|268:187,1,90,0|0,3:0|0:0,0:0:0:0:
414,272,118926,5,4,1:1:0:0:
414,272,119125,2,0,P|442:245|419:300,1,180,0|0,0:0|0:0,0:0:0:0:
327,200,119721,1,8,0:1:0:0:
267,367,119920,1,0,3:0:0:0:
267,367,120119,2,0,B|256:303|256:303|274:258,1,90,0|0,3:0|0:0,0:0:0:0:
306,126,120516,2,0,P|256:127|213:135,1,90,4|0,3:1|0:0,0:0:0:0:
167,284,120913,2,0,P|165:233|146:170,1,90,0|0,0:0|0:0,0:0:0:0:
48,103,121310,2,0,P|98:104|162:124,1,90,8|0,0:1|0:0,0:0:0:0:
312,36,121708,2,0,L|304:140,1,90,0|0,3:0|0:0,0:0:0:0:
380,275,122105,5,4,1:1:0:0:
380,275,122304,2,0,B|397:95|397:95|446:113|444:172,1,270,0|8,0:0|0:1,0:0:0:0:
478,280,123098,1,0,3:0:0:0:
376,357,123297,1,0,3:0:0:0:
259,303,123496,1,0,0:0:0:0:
116,351,123695,2,0,P|68:339|1:333,1,90,4|0,3:1|0:0,0:0:0:0:
185,245,124092,2,0,P|132:247|86:242,1,90,2|0,0:1|0:0,0:0:0:0:
102,139,124489,2,0,P|52:141|0:153,1,90,8|0,0:1|3:0,0:0:0:0:
155,40,124887,2,0,P|104:39|61:28,1,90,0|0,3:0|0:0,0:0:0:0:
232,103,125284,5,4,1:1:0:0:
232,103,125483,2,0,P|272:64|389:68,1,180,0|0,0:0|0:0,0:0:0:0:
293,176,126079,2,0,B|277:246|277:246|281:273,1,90,8|0,0:1|3:0,0:0:0:0:
396,165,126476,1,0,3:0:0:0:
509,131,126675,1,0,0:0:0:0:
389,68,126873,1,4,1:1:0:0:
272,59,127072,1,0,0:0:0:0:
342,230,127271,1,0,0:0:0:0:
459,212,127470,1,0,0:0:0:0:
284,166,127668,2,0,P|262:208|265:273,1,90,8|0,0:1|3:0,0:0:0:0:
138,360,128065,2,0,P|178:331|242:340,1,90,0|0,3:0|0:0,0:0:0:0:
377,345,128463,5,0,0:1:0:0:
