osu file format v14

[General]
AudioFilename: audio.mp3
AudioLeadIn: 0
PreviewTime: 135650
Countdown: 0
SampleSet: Soft
StackLeniency: 0.7
Mode: 2
LetterboxInBreaks: 0
WidescreenStoryboard: 1

[Editor]
Bookmarks: 1068,28687,55552,56307,80475,108085,135704,159872,173692,201311,208268,222088,235909
DistanceSpacing: 0.9
BeatDivisor: 4
GridSize: 4
TimelineZoom: 1.6

[Metadata]
Title:SOCIAL PHOBIA
TitleUnicode:SOCIAL PHOBIA
Artist:LukHash
ArtistUnicode:LukHash
Creator:JBHyperion
Version:PARANOIA
Source:osu!
Tags:Dead Pixels electronica rock synth instrumental MBomb Magic Bomb Ascendance JBH Hyperion Featured Artist Mappers Guild Fruit Factory 地獄季節感 jigoku kisetsukan sense of the seasons atych stage 5 boss theme fear rejection Magic Bomb MBomb Ascendance JBH Hyperion
BeatmapID:2182437
BeatmapSetID:1040733

[Difficulty]
HPDrainRate:7
CircleSize:4.4
OverallDifficulty:8.6
ApproachRate:8.2
SliderMultiplier:2.4
SliderTickRate:2

[Events]
//Background and Video events
0,0,"girl-4206263.jpg",0,0
//Break Periods
//Storyboard Layer 0 (Background)
//Storyboard Layer 1 (Fail)
//Storyboard Layer 2 (Pass)
//Storyboard Layer 3 (Foreground)
//Storyboard Layer 4 (Overlay)
//Storyboard Sound Samples

[TimingPoints]
1068,431.561533481982,4,2,55,70,1,0
1068,-111.111111111111,4,2,55,70,0,0
1283,-111.111111111111,4,2,1,70,0,0
2039,-111.111111111111,4,2,1,30,0,0
2146,-111.111111111111,4,2,1,70,0,0
2794,-111.111111111111,4,2,55,70,0,0
3009,-111.111111111111,4,2,1,70,0,0
4520,-111.111111111111,4,2,55,70,0,0
4735,-111.111111111111,4,2,1,70,0,0
5491,-111.111111111111,4,2,1,30,0,0
5599,-111.111111111111,4,2,1,70,0,0
6246,-111.111111111111,4,2,55,70,0,0
6461,-111.111111111111,4,2,1,70,0,0
7757,-111.111111111111,4,2,77,70,0,0
7972,-111.111111111111,4,2,55,70,0,0
8404,-111.111111111111,4,2,1,70,0,0
9699,-111.111111111111,4,2,55,70,0,0
9914,-111.111111111111,4,2,1,70,0,0
11425,-111.111111111111,4,2,55,70,0,0
11640,-111.111111111111,4,2,1,70,0,0
13151,-111.111111111111,4,2,55,70,0,0
13366,-111.111111111111,4,2,1,70,0,0
14770,-111.111111111111,4,2,77,70,0,0
14877,-111.111111111111,4,2,1,70,0,0
15093,-111.111111111111,4,2,1,30,0,0
15309,-111.111111111111,4,2,1,70,0,0
16604,-111.111111111111,4,2,55,70,0,0
16819,-111.111111111111,4,2,1,70,0,0
18330,-111.111111111111,4,2,55,70,0,0
18545,-111.111111111111,4,2,1,70,0,0
20056,-111.111111111111,4,2,55,70,0,0
20271,-111.111111111111,4,2,1,70,0,0
21782,-111.111111111111,4,2,77,70,0,0
22214,-111.111111111111,4,2,1,50,0,0
27393,-111.111111111111,4,2,1,10,0,0
27609,-100,4,2,1,20,0,0
27825,-100,4,2,1,30,0,0
28040,-100,4,2,1,40,0,0
28256,-100,4,2,1,50,0,0
28472,-100,4,2,1,5,0,0
28687,-100,4,2,2,70,0,0
28903,-100,4,2,55,100,0,0
29119,-100,4,2,2,100,0,0
29335,-100,4,2,2,70,0,0
29551,-100,4,2,55,100,0,0
29767,-100,4,2,2,70,0,0
29982,-100,4,2,2,100,0,0
30090,-100,4,2,2,70,0,0
30845,-100,4,2,2,100,0,0
30953,-100,4,2,2,70,0,0
31277,-100,4,2,55,100,0,0
31493,-100,4,2,2,70,0,0
31708,-100,4,2,2,100,0,0
31816,-100,4,2,2,70,0,0
32356,-100,4,2,55,100,0,0
32572,-100,4,2,2,100,0,0
33003,-100,4,2,55,100,0,0
33219,-100,4,2,2,70,0,0
33435,-100,4,2,2,100,0,0
33543,-100,4,2,2,70,0,0
34298,-100,4,2,2,100,0,0
34406,-100,4,2,55,100,0,0
34730,-100,4,2,2,70,0,0
35161,-100,4,2,2,100,0,0
35377,-100,4,2,55,70,0,0
35593,-100,4,2,55,85,0,0
35700,-100,4,2,2,70,0,0
36024,-100,4,2,2,100,0,0
36240,-100,4,2,55,100,0,0
36456,-100,4,2,2,70,0,0
36887,-100,4,2,2,100,0,0
36995,-100,4,2,2,70,0,0
37750,-100,4,2,2,100,0,0
37858,-100,4,2,2,70,0,0
38182,-100,4,2,55,100,0,0
38398,-100,4,2,2,70,0,0
38613,-100,4,2,2,100,0,0
38721,-100,4,2,2,70,0,0
39476,-100,4,2,2,100,0,0
39584,-100,4,2,2,70,0,0
40340,-100,4,2,2,100,0,0
40448,-100,4,2,2,70,0,0
41203,-100,4,2,2,100,0,0
41526,-100,4,2,2,70,0,0
41742,-100,4,2,2,100,0,0
41850,-100,4,2,2,70,0,0
42066,-100,4,2,55,100,0,0
42282,-100,4,2,2,70,0,0
42497,-100,4,2,55,100,0,0
42713,-100,4,2,55,50,0,0
42929,-100,4,2,2,100,0,0
43145,-100,4,2,2,80,0,0
43792,-100,4,2,2,100,0,0
43900,-100,4,2,2,80,0,0
44655,-100,4,2,2,100,0,0
44763,-100,4,2,2,80,0,0
45518,-100,4,2,2,100,0,0
45626,-100,4,2,2,40,0,0
45950,-100,4,2,2,80,0,0
46381,-100,4,2,2,100,0,0
46489,-100,4,2,2,80,0,0
47245,-100,4,2,2,100,0,0
47353,-100,4,2,2,80,0,0
48108,-100,4,2,2,100,0,0
48431,-100,4,2,2,80,0,0
48647,-100,4,2,2,100,0,0
48755,-100,4,2,2,80,0,0
48971,-100,4,2,55,80,0,0
49079,-100,4,2,2,40,0,0
49402,-100,4,2,55,100,0,0
49510,-100,4,2,2,40,0,0
49834,-100,4,2,2,100,0,0
49942,-100,4,2,2,80,0,0
50697,-100,4,2,2,100,0,0
50805,-100,4,2,2,80,0,0
51560,-100,4,2,2,100,0,0
51668,-100,4,2,2,80,0,0
52423,-100,4,2,2,100,0,0
52531,-100,4,2,2,80,0,0
52963,-100,4,2,2,40,0,0
53286,-100,4,2,2,100,0,0
53394,-100,4,2,2,80,0,0
54150,-100,4,2,2,100,0,0
54258,-100,4,2,2,80,0,0
55013,-100,4,2,2,100,0,0
55336,-100,4,2,2,80,0,0
55552,-100,4,2,2,100,0,0
55660,-100,4,2,2,80,0,0
55876,-83.3333333333333,4,2,55,80,0,0
56092,-100,4,2,1,80,0,0
56307,-100,4,2,3,100,0,1
56739,-100,4,2,3,90,0,1
57170,-100,4,2,3,80,0,1
57602,-100,4,2,3,100,0,1
57818,-100,4,2,3,50,0,1
58034,-100,4,2,3,100,0,1
59328,-100,4,2,3,80,0,1
59760,-100,4,2,3,100,0,1
61270,-100,4,2,3,50,0,1
61486,-100,4,2,3,100,0,1
63428,-100,4,2,3,80,0,1
64075,-100,4,2,3,100,0,1
64723,-100,4,2,3,50,0,1
64939,-100,4,2,3,100,0,1
68175,-100,4,2,3,50,0,1
68391,-100,4,2,3,100,0,1
69902,-100,4,2,3,90,0,0
70117,-100,4,2,3,100,0,1
70549,-100,4,2,3,90,0,1
70980,-100,4,2,3,80,0,1
71412,-100,4,2,3,100,0,1
71628,-100,4,2,3,50,0,1
71844,-100,4,2,3,100,0,1
73138,-100,4,2,3,80,0,1
73570,-100,4,2,3,100,0,1
75080,-100,4,2,3,50,0,1
75296,-100,4,2,3,100,0,1
77238,-100,4,2,3,80,0,1
77885,-100,4,2,3,100,0,1
78533,-100,4,2,3,50,0,1
78749,-100,4,2,3,100,0,1
80043,-100,4,2,3,60,0,1
80475,-100,4,2,55,80,0,0
80691,-100,4,2,3,70,0,0
81985,-100,4,2,3,40,0,0
82201,-100,4,2,3,70,0,0
88890,-100,4,2,3,40,0,0
89106,-100,4,2,3,70,0,0
93422,-100,4,2,3,80,0,0
94177,-100,4,2,3,40,0,0
94285,-100,4,2,55,80,0,0
94393,-100,4,2,3,80,0,0
95795,-100,4,2,3,50,0,0
96011,-100,4,2,3,80,0,0
97737,-100,4,2,55,80,0,0
97845,-100,4,2,3,80,0,0
99248,-100,4,2,3,50,0,0
99464,-100,4,2,3,80,0,0
101190,-100,4,2,55,80,0,0
101298,-100,4,2,3,80,0,0
102700,-100,4,2,3,50,0,0
102916,-100,4,2,3,80,0,0
104642,-100,4,2,55,80,0,0
104750,-100,4,2,3,80,0,0
106153,-100,4,2,3,50,0,0
106369,-100,4,2,3,80,0,0
107987,-100,4,2,3,40,0,0
108085,431.561533481982,4,2,55,80,1,0
108192,-100,4,2,2,40,0,0
108516,-100,4,2,2,100,0,0
108732,-100,4,2,2,80,0,0
109379,-100,4,2,2,100,0,0
109595,-100,4,2,2,80,0,0
110242,-100,4,2,2,100,0,0
110458,-100,4,2,2,80,0,0
111105,-100,4,2,99,100,0,0
111321,-100,4,2,2,80,0,0
111969,-100,4,2,2,100,0,0
112184,-100,4,2,2,80,0,0
112832,-100,4,2,2,100,0,0
112940,-100,4,2,2,80,0,0
113695,-100,4,2,2,100,0,0
113911,-100,4,2,2,80,0,0
114558,-100,4,2,2,100,0,0
114774,-100,4,2,2,80,0,0
116284,-100,4,2,2,100,0,0
116392,-100,4,2,2,80,0,0
118010,-100,4,2,99,100,0,0
118226,-100,4,2,2,80,0,0
118874,-100,4,2,2,100,0,0
119089,-100,4,2,2,80,0,0
119737,-100,4,2,2,100,0,0
119845,-100,4,2,2,80,0,0
120600,-100,4,2,2,100,0,0
120816,-100,4,2,2,80,0,0
120870,-100,4,2,2,60,0,0
121139,-100,4,2,2,100,0,0
121247,-100,4,2,2,80,0,0
121463,-100,4,2,55,100,0,0
121679,-100,4,2,2,80,0,0
121894,-100,4,2,55,80,0,0
122002,-100,4,2,2,40,0,0
122326,-100,4,2,2,100,0,0
122434,-100,4,2,2,80,0,0
123189,-100,4,2,2,100,0,0
123297,-100,4,2,2,80,0,0
124053,-100,4,2,2,100,0,0
124269,-100,4,2,2,80,0,0
124915,-100,4,2,2,100,0,0
125131,-100,4,2,2,40,0,0
125347,-100,4,2,2,80,0,0
125779,-100,4,2,2,100,0,0
125994,-100,4,2,2,80,0,0
126642,-100,4,2,2,100,0,0
126750,-100,4,2,2,80,0,0
127505,-100,4,2,2,100,0,0
127828,-100,4,2,2,80,0,0
128044,-100,4,2,2,100,0,0
128152,-100,4,2,2,80,0,0
128368,-100,4,2,55,80,0,0
128584,-100,4,2,2,40,0,0
128799,-100,4,2,55,80,0,0
129015,-100,4,2,2,40,0,0
129231,-100,4,2,2,100,0,0
129447,-100,4,2,2,80,0,0
130094,-100,4,2,2,100,0,0
130202,-100,4,2,2,80,0,0
130957,-100,4,2,2,100,0,0
131173,-100,4,2,2,80,0,0
132036,-100,4,2,2,40,0,0
132252,-100,4,2,2,80,0,0
132468,-100,4,2,2,40,0,0
132684,-100,4,2,2,100,0,0
132899,-100,4,2,2,80,0,0
133547,-100,4,2,2,100,0,0
133655,-100,4,2,2,80,0,0
134410,-100,4,2,2,100,0,0
134733,-100,4,2,2,80,0,0
134949,-100,4,2,2,100,0,0
135057,-100,4,2,2,80,0,0
135273,-100,4,2,55,100,0,0
135489,-100,4,2,2,100,0,0
135704,-100,4,2,3,100,0,1
136136,-100,4,2,3,90,0,1
136568,-100,4,2,3,80,0,1
136999,-100,4,2,3,100,0,1
137215,-100,4,2,3,50,0,1
137431,-100,4,2,3,100,0,1
138725,-100,4,2,3,80,0,1
138941,-100,4,2,3,40,0,1
139157,-100,4,2,3,100,0,1
140667,-100,4,2,3,50,0,1
140883,-100,4,2,3,100,0,1
142825,-100,4,2,3,80,0,1
143473,-100,4,2,3,100,0,1
144120,-100,4,2,3,50,0,1
144336,-100,4,2,3,100,0,1
147572,-100,4,2,3,50,0,1
147788,-100,4,2,3,100,0,1
149299,-100,4,2,3,90,0,0
149514,-100,4,2,3,100,0,1
149946,-100,4,2,3,90,0,1
150378,-100,4,2,3,80,0,1
150809,-100,4,2,3,100,0,1
151025,-100,4,2,3,50,0,1
151241,-100,4,2,3,100,0,1
152535,-100,4,2,3,80,0,1
152967,-100,4,2,3,100,0,1
154477,-100,4,2,3,50,0,1
154693,-100,4,2,3,100,0,1
156635,-100,4,2,3,80,0,1
157283,-100,4,2,3,100,0,1
157930,-100,4,2,3,50,0,1
158146,-100,4,2,3,100,0,1
159440,-100,4,2,3,60,0,1
159872,-100,4,2,55,80,0,0
160088,-100,4,2,3,70,0,0
160411,-100,4,2,3,40,0,0
160735,-100,4,2,3,70,0,0
161382,-100,4,2,3,40,0,0
161598,-100,4,2,3,70,0,0
163972,-100,4,2,3,40,0,0
164187,-100,4,2,3,70,0,0
166237,-100,4,2,3,40,0,0
166345,-100,4,2,3,70,0,0
166885,-100,4,2,3,40,0,0
167208,-100,4,2,3,70,0,0
168287,-100,4,2,3,40,0,0
168503,-100,4,2,3,70,0,0
170769,-100,4,2,3,40,0,0
171092,-100,4,2,3,70,0,0
172819,-100,4,2,3,80,0,0
173035,438.27611395179,4,2,3,80,1,0
173254,-100,4,2,3,40,0,0
173692,431.561533481982,4,2,55,70,1,0
173799,-100,4,2,3,80,0,0
175202,-100,4,2,3,50,0,0
175418,-100,4,2,3,80,0,0
177144,-100,4,2,55,80,0,0
177252,-100,4,2,3,80,0,0
178654,-100,4,2,3,50,0,0
178870,-100,4,2,3,80,0,0
180596,-100,4,2,55,80,0,0
180704,-100,4,2,3,80,0,0
182107,-100,4,2,3,50,0,0
182323,-100,4,2,3,80,0,0
184049,-100,4,2,55,80,0,0
184157,-100,4,2,3,80,0,0
185559,-100,4,2,3,50,0,0
185775,-100,4,2,3,80,0,0
187501,-100,4,2,88,80,0,0
187609,-100,4,2,3,40,0,0
187933,-100,4,2,3,80,0,0
190954,-100,4,2,55,80,0,0
191062,-100,4,2,3,40,0,0
191386,-100,4,2,3,80,0,0
192464,-100,4,2,3,50,0,0
192680,-100,4,2,3,80,0,0
194191,-100,4,2,3,50,0,0
194406,-100,4,2,55,80,0,0
194514,-100,4,2,3,50,0,0
194838,-83.3333333333333,4,2,3,80,0,0
195054,-100,4,2,3,80,0,0
195917,-100,4,2,3,50,0,0
196133,-100,4,2,3,80,0,0
197859,-100,4,2,55,80,0,0
197967,-100,4,2,3,40,0,0
198291,-83.3333333333333,4,2,3,80,0,0
198506,-100,4,2,3,80,0,0
199369,-100,4,2,3,50,0,0
199585,-100,4,2,3,80,0,0
200880,-100,4,2,55,80,0,0
201096,-100,4,2,3,80,0,0
201311,434.782608695652,4,2,77,100,1,0
201745,-100,4,2,1,15,0,0
202180,-100,4,2,1,20,0,0
202615,-100,4,2,1,25,0,0
203050,-100,4,2,1,30,0,0
203484,-100,4,2,1,35,0,0
203919,-100,4,2,1,40,0,0
204354,-100,4,2,1,45,0,0
204789,-100,4,2,1,40,0,0
205224,-100,4,2,1,35,0,0
205658,-100,4,2,1,30,0,0
206093,-100,4,2,1,25,0,0
206528,-100,4,2,1,20,0,0
206963,-100,4,2,1,15,0,0
207397,-100,4,2,1,10,0,0
207832,-100,4,2,1,5,0,0
208268,431.903253671178,4,2,55,90,1,1
208268,-90.9090909090909,4,2,55,90,0,1
208483,-90.9090909090909,4,2,3,50,0,1
208699,-90.9090909090909,4,2,3,90,0,1
209995,-90.9090909090909,4,2,55,90,0,1
210211,-90.9090909090909,4,2,3,90,0,1
210859,-90.9090909090909,4,2,55,80,0,1
211075,-90.9090909090909,4,2,3,90,0,1
211291,-90.9090909090909,4,2,99,90,0,1
211723,-90.9090909090909,4,2,55,90,0,1
211831,-90.9090909090909,4,2,3,50,0,1
212155,-90.9090909090909,4,2,3,90,0,1
213234,-90.9090909090909,4,2,3,50,0,1
213450,-90.9090909090909,4,2,55,90,0,1
213666,-90.9090909090909,4,2,3,90,0,1
214314,-90.9090909090909,4,2,55,80,0,1
214530,-90.9090909090909,4,2,3,90,0,1
214746,-90.9090909090909,4,2,77,90,0,1
215178,-90.9090909090909,4,2,55,90,0,1
215394,-90.9090909090909,4,2,3,50,0,1
215610,-90.9090909090909,4,2,3,90,0,1
216690,-90.9090909090909,4,2,3,50,0,1
216905,-90.9090909090909,4,2,55,90,0,1
217121,-90.9090909090909,4,2,3,90,0,1
217769,-90.9090909090909,4,2,55,80,0,1
217985,-90.9090909090909,4,2,3,90,0,1
218201,-90.9090909090909,4,2,99,90,0,1
218633,-90.9090909090909,4,2,55,90,0,1
218741,-90.9090909090909,4,2,3,50,0,1
219065,-90.9090909090909,4,2,3,90,0,1
220144,-90.9090909090909,4,2,3,50,0,1
220360,-90.9090909090909,4,2,55,90,0,1
220576,-90.9090909090909,4,2,3,90,0,1
221224,-90.9090909090909,4,2,55,80,0,1
221440,-90.9090909090909,4,2,3,90,0,1
221656,-90.9090909090909,4,2,77,90,0,1
221872,-90.9090909090909,4,2,3,90,0,0
222088,-90.9090909090909,4,2,55,90,0,1
222304,-90.9090909090909,4,2,3,90,0,1
222952,-90.9090909090909,4,2,55,90,0,1
223168,-90.9090909090909,4,2,3,90,0,1
223384,-90.9090909090909,4,2,1,90,0,1
223600,-90.9090909090909,4,2,3,50,0,1
223816,-90.9090909090909,4,2,55,90,0,1
224032,-90.9090909090909,4,2,3,90,0,1
224680,-90.9090909090909,4,2,55,90,0,1
224896,-90.9090909090909,4,2,3,90,0,1
225112,-90.9090909090909,4,2,99,100,0,1
225544,-90.9090909090909,4,2,55,90,0,1
225652,-90.9090909090909,4,2,3,50,0,1
225976,-90.9090909090909,4,2,3,90,0,1
226407,-90.9090909090909,4,2,55,90,0,1
226623,-90.9090909090909,4,2,3,90,0,1
227055,-90.9090909090909,4,2,3,50,0,1
227271,-90.9090909090909,4,2,55,90,0,1
227487,-90.9090909090909,4,2,3,90,0,1
228135,-90.9090909090909,4,2,55,90,0,1
228351,-90.9090909090909,4,2,3,90,0,1
228567,-90.9090909090909,4,2,77,90,0,1
228783,-90.9090909090909,4,2,3,50,0,1
228999,-90.9090909090909,4,2,55,100,0,1
229215,-90.9090909090909,4,2,3,100,0,1
229863,-90.9090909090909,4,2,55,100,0,1
230079,-90.9090909090909,4,2,3,100,0,1
230295,-90.9090909090909,4,2,1,100,0,1
230511,-90.9090909090909,4,2,3,60,0,1
230726,-90.9090909090909,4,2,55,100,0,1
230942,-90.9090909090909,4,2,3,100,0,1
231590,-90.9090909090909,4,2,55,100,0,1
231806,-90.9090909090909,4,2,3,100,0,1
232022,-90.9090909090909,4,2,99,100,0,1
232454,-90.9090909090909,4,2,55,90,0,1
232562,-90.9090909090909,4,2,3,50,0,1
232886,-90.9090909090909,4,2,3,90,0,1
233318,-90.9090909090909,4,2,55,90,0,1
233534,-90.9090909090909,4,2,3,90,0,1
233966,-90.9090909090909,4,2,3,60,0,1
234182,-90.9090909090909,4,2,55,90,0,1
234398,-90.9090909090909,4,2,3,90,0,1
235046,-90.9090909090909,4,2,55,90,0,1
235261,-90.9090909090909,4,2,3,90,0,1
235477,-90.9090909090909,4,2,77,100,0,1
235693,-90.9090909090909,4,2,77,90,0,1
235909,434.782608695652,4,2,88,100,1,0
236343,-100,4,2,1,15,0,0
236778,-100,4,2,1,20,0,0
237213,-100,4,2,1,25,0,0
237648,-100,4,2,1,30,0,0
238082,-100,4,2,1,35,0,0
238517,-100,4,2,1,40,0,0
238952,-100,4,2,1,45,0,0
239387,-100,4,2,1,50,0,0
241561,-100,4,2,1,45,0,0
241996,-100,4,2,1,43,0,0
242431,-100,4,2,1,41,0,0
242866,-100,4,2,1,39,0,0
243300,-100,4,2,1,37,0,0
243735,-100,4,2,1,35,0,0
244170,-100,4,2,1,33,0,0
244605,-100,4,2,1,31,0,0
245039,-100,4,2,1,29,0,0
245474,-100,4,2,1,27,0,0
245909,-100,4,2,1,25,0,0
246344,-100,4,2,1,23,0,0
246779,-100,4,2,1,21,0,0
247213,-100,4,2,1,19,0,0
247648,-100,4,2,1,17,0,0
248083,-100,4,2,1,15,0,0
248518,-100,4,2,1,13,0,0
248952,-100,4,2,1,11,0,0
249387,-100,4,2,1,9,0,0
249822,432.432432432432,4,2,1,7,1,0

[Colours]
Combo1 : 180,90,20
Combo2 : 50,80,120
Combo3 : 100,100,100
Combo4 : 50,100,100

[HitObjects]
180,192,1068,6,0,L|396:192,1,215.999993408203,2|8,0:0|0:0,0:0:0:0:
234,192,1823,2,0,L|396:192,1,161.999995056153,2|2,0:0|0:0,0:0:0:0:
92,192,2362,2,0,L|92:136,1,53.9999983520508,8|0,0:0|0:0,0:0:0:0:
376,32,2794,6,0,L|160:32,1,215.999993408203,2|8,0:0|0:0,0:0:0:0:
322,32,3549,2,0,L|200:32,1,107.999996704102,2|0,0:0|0:0,0:0:0:0:
268,32,3873,2,0,L|326:66,1,53.9999983520508,2|0,0:0|0:0,0:0:0:0:
128,32,4088,1,8,0:0:0:0:
468,192,4520,6,0,B|360:192|360:192|360:84,1,215.999993408203,2|8,0:0|0:0,0:0:0:0:
172,84,5275,2,0,L|336:84,1,161.999995056153,2|2,0:0|0:0,0:0:0:0:
28,84,5815,2,0,L|24:160,1,53.9999983520508,8|0,0:0|0:0,0:0:0:0:
316,192,6246,6,0,P|384:232|316:316,1,215.999993408203,2|8,0:0|0:0,0:0:0:0:
112,316,7001,2,0,L|220:316,1,107.999996704102,2|0,0:0|0:0,0:0:0:0:
148,316,7325,2,0,L|92:316,1,53.9999983520508,2|0,0:0|0:0,0:0:0:0:
284,316,7541,1,8,0:0:0:0:
112,316,7757,1,8,0:0:0:0:
436,316,7972,6,0,B|436:208|436:208|328:192,1,215.999993408203,2|8,0:0|0:0,0:0:0:0:
132,192,8728,1,2,0:0:0:0:
208,192,8836,2,0,L|92:192,1,107.999996704102,0|2,0:0|0:0,0:0:0:0:
404,192,9267,2,0,L|408:132,1,53.9999983520508,8|0,0:0|0:0,0:0:0:0:
116,136,9699,6,0,L|332:136,1,215.999993408203,2|8,0:0|0:0,0:0:0:0:
136,136,10454,1,2,0:0:0:0:
212,136,10562,2,0,L|336:136,1,107.999996704102,0|2,0:0|0:0,0:0:0:0:
16,136,10993,1,8,0:0:0:0:
372,136,11425,6,0,B|372:248|372:248|264:248,1,215.999993408203,2|8,0:0|0:0,0:0:0:0:
464,248,12180,1,2,0:0:0:0:
388,248,12288,2,0,L|496:248,1,107.999996704102,0|2,0:0|0:0,0:0:0:0:
192,248,12720,2,0,L|188:192,1,53.9999983520508,8|0,0:0|0:0,0:0:0:0:
480,108,13151,6,0,B|372:108|372:108|372:216,1,215.999993408203,2|8,0:0|0:0,0:0:0:0:
176,216,13906,1,2,0:0:0:0:
252,216,14014,2,0,L|256:108,1,107.999996704102,0|2,0:0|0:0,0:0:0:0:
40,108,14446,1,8,0:0:0:0:
344,108,14662,1,8,0:0:0:0:
236,108,14770,1,8,0:0:0:0:
452,108,14877,6,0,P|500:168|452:224,1,161.999995056153,2|0,0:0|0:0,0:0:0:0:
268,224,15309,2,0,L|148:224,1,107.999996704102,8|2,0:0|0:0,0:0:0:0:
236,224,15633,2,0,L|116:224,1,107.999996704102,2|2,0:0|0:0,0:0:0:0:
64,224,15956,1,2,0:0:0:0:
368,224,16172,2,0,L|372:164,1,53.9999983520508,8|0,0:0|0:0,0:0:0:0:
88,64,16604,6,0,L|304:64,1,215.999993408203,2|8,0:0|0:0,0:0:0:0:
108,64,17359,2,0,L|216:64,1,107.999996704102,2|0,0:0|0:0,0:0:0:0:
276,64,17683,2,0,L|327:94,1,53.9999983520508,2|0,0:0|0:0,0:0:0:0:
140,64,17898,1,8,0:0:0:0:
484,192,18330,6,0,L|268:192,1,215.999993408203,2|8,0:0|0:0,0:0:0:0:
152,192,18977,1,2,0:0:0:0:
228,192,19085,2,0,L|112:192,1,107.999996704102,2|2,0:0|0:0,0:0:0:0:
196,192,19409,1,2,0:0:0:0:
496,192,19625,2,0,L|492:136,1,53.9999983520508,8|0,0:0|0:0,0:0:0:0:
200,136,20056,6,0,B|308:136|308:136|308:244,1,215.999993408203,2|8,0:0|0:0,0:0:0:0:
144,244,20811,1,2,0:0:0:0:
220,244,20919,2,0,L|328:244,1,107.999996704102,0|2,0:0|0:0,0:0:0:0:
24,248,21351,2,0,L|20:128,1,107.999996704102,8|0,0:0|0:0,0:0:0:0:
328,192,21782,6,0,P|396:136|328:56,1,215.999993408203,4|0,0:0|0:0,0:0:0:0:
220,88,22430,1,2,0:0:0:0:
232,55,22538,1,2,0:0:0:0:
340,160,22753,1,2,0:0:0:0:
352,192,22861,1,2,0:0:0:0:
128,304,23509,6,0,L|124:80,1,215.999993408203,2|0,0:0|0:0,0:0:0:0:
288,264,24264,2,0,L|296:96,1,161.999995056153,2|2,0:0|0:0,0:0:0:0:
72,104,25235,6,0,P|140:168|68:236,1,215.999993408203,2|0,0:0|0:0,0:0:0:0:
232,240,25990,2,0,L|388:192,1,161.999995056153,2|2,0:0|0:0,0:0:0:0:
176,192,26961,6,0,L|172:84,1,107.999996704102,2|0,0:0|0:0,0:0:0:0:
256,192,27393,12,0,28472,0:0:0:0:
412,192,28687,6,0,L|416:124,1,60,2|0,0:0|0:0,0:0:0:0:
344,132,28903,2,0,L|289:100,1,60
80,100,29119,2,0,L|76:220,1,120,8|0,0:0|0:0,0:0:0:0:
148,220,29443,1,2,0:0:0:0:
220,220,29551,2,0,L|92:220,1,120
436,220,29982,2,0,L|440:296,1,60,8|2,0:0|0:0,0:0:0:0:
320,280,30306,1,2,0:0:0:0:
188,280,30414,5,2,0:0:0:0:
296,192,30629,2,0,L|228:192,1,60,2|0,0:0|0:0,0:0:0:0:
24,192,30845,2,0,L|20:132,1,60,8|0,0:0|0:0,0:0:0:0:
124,191,31061,2,0,L|128:131,1,60,0|2,0:0|0:0,0:0:0:0:
24,192,31277,2,0,L|128:132,1,120,0|2,0:0|0:0,0:0:0:0:
476,132,31708,2,0,L|480:12,1,120,12|0,0:0|0:0,0:0:0:0:
252,12,32140,6,0,L|192:12,1,60,2|0,0:0|0:0,0:0:0:0:
248,80,32356,2,0,L|312:80,1,60
108,80,32571,2,0,L|244:80,1,120,8|0,0:0|0:0,0:0:0:0:
300,80,32895,1,2,0:0:0:0:
216,80,33003,2,0,L|208:200,1,120
496,200,33435,2,0,L|436:192,1,60,8|2,0:0|0:0,0:0:0:0:
316,192,33758,1,2,0:0:0:0:
448,192,33866,6,0,L|456:260,1,60,2|0,0:0|0:0,0:0:0:0:
388,288,34082,2,0,L|328:288,1,60,2|0,0:0|0:0,0:0:0:0:
116,288,34298,2,0,L|65:258,1,60,8|0,0:0|0:0,0:0:0:0:
152,224,34514,2,0,L|101:194,1,60
188,160,34729,2,0,L|312:160,1,120,2|2,0:0|0:0,0:0:0:0:
16,80,35161,2,0,L|76:80,1,60,12|0,0:0|0:0,0:0:0:0:
160,80,35377,2,0,L|100:80,1,60
304,80,35592,6,0,L|308:144,1,60,4|2,0:0|0:0,0:0:0:0:
168,192,35808,2,0,L|172:264,1,60,2|2,0:0|0:0,0:0:0:0:
372,252,36024,1,8,0:0:0:0:
368,192,36132,1,0,0:0:0:0:
324,152,36240,1,0,0:0:0:0:
264,152,36348,1,0,0:0:0:0:
336,152,36456,2,0,L|464:152,1,120,2|2,0:0|0:0,0:0:0:0:
156,152,36887,2,0,L|152:92,1,60,8|2,0:0|0:0,0:0:0:0:
284,92,37211,1,2,0:0:0:0:
152,92,37319,6,0,L|276:92,1,120,2|2,0:0|0:0,0:0:0:0:
344,92,37642,1,0,0:0:0:0:
140,24,37750,2,0,L|204:24,1,60,8|0,0:0|0:0,0:0:0:0:
116,92,37966,2,0,L|180:92,1,60,2|0,0:0|0:0,0:0:0:0:
256,92,38182,2,0,L|128:92,1,120,0|2,0:0|0:0,0:0:0:0:
448,92,38613,2,0,L|452:224,1,120,12|0,0:0|0:0,0:0:0:0:
164,212,39045,6,0,L|113:242,1,60,2|0,0:0|0:0,0:0:0:0:
224,192,39261,2,0,L|283:226,1,60,0|2,0:0|0:0,0:0:0:0:
80,192,39476,2,0,L|204:192,1,120,8|0,0:0|0:0,0:0:0:0:
272,192,39800,1,2,0:0:0:0:
192,192,39908,2,0,L|128:192,2,60,0|0|2,0:0|0:0|0:0,0:0:0:0:
492,192,40340,2,0,L|496:128,1,60,8|2,0:0|0:0,0:0:0:0:
376,132,40663,1,2,0:0:0:0:
244,132,40771,6,0,L|240:12,1,120,2|2,0:0|0:0,0:0:0:0:
312,12,41095,1,0,0:0:0:0:
104,8,41203,2,0,L|100:72,1,60,8|0,0:0|0:0,0:0:0:0:
304,132,41419,2,0,L|232:132,2,60,8|2|2,0:0|0:0|0:0,0:0:0:0:
88,132,41742,1,8,0:0:0:0:
148,132,41850,1,2,0:0:0:0:
208,132,41958,1,2,0:0:0:0:
424,132,42066,1,8,0:0:0:0:
316,212,42282,2,0,L|384:212,1,60,2|2,0:0|0:0,0:0:0:0:
136,212,42497,6,0,P|76:272|136:320,1,180,4|0,0:0|0:0,0:0:0:0:
340,320,42929,1,8,0:0:0:0:
244,248,43145,2,0,L|300:228,1,60,2|2,0:0|0:0,0:0:0:0:
420,208,43468,2,0,L|476:188,1,60,2|2,0:0|0:0,0:0:0:0:
176,192,43792,2,0,L|116:192,1,60,8|2,0:0|0:0,0:0:0:0:
236,192,44116,1,2,0:0:0:0:
104,192,44224,6,0,L|100:64,1,120,2|2,0:0|0:0,0:0:0:0:
400,72,44655,1,8,0:0:0:0:
472,94,44763,1,0,0:0:0:0:
473,168,44871,1,2,0:0:0:0:
402,192,44979,1,2,0:0:0:0:
316,192,45087,2,0,L|440:192,1,120,2|2,0:0|0:0,0:0:0:0:
136,192,45518,2,0,P|84:248|136:320,1,180,8|0,0:0|0:0,0:0:0:0:
348,320,45950,6,0,L|352:192,1,120,2|0,0:0|0:0,0:0:0:0:
52,192,46381,2,0,L|48:128,1,60,8|0,0:0|0:0,0:0:0:0:
120,132,46597,2,0,L|56:132,1,60,2|2,0:0|0:0,0:0:0:0:
192,132,46921,2,0,L|132:132,1,60,2|2,0:0|0:0,0:0:0:0:
432,132,47245,2,0,L|436:72,1,60,8|2,0:0|0:0,0:0:0:0:
316,72,47568,1,2,0:0:0:0:
448,72,47676,6,0,L|444:192,1,120,2|2,0:0|0:0,0:0:0:0:
144,192,48108,1,8,0:0:0:0:
444,191,48323,1,8,0:0:0:0:
354,192,48431,1,2,0:0:0:0:
264,192,48539,1,2,0:0:0:0:
456,192,48647,1,8,0:0:0:0:
366,192,48755,1,2,0:0:0:0:
276,192,48863,1,2,0:0:0:0:
72,192,48971,2,0,P|96:268|180:312,1,180,8|0,0:0|0:0,0:0:0:0:
400,312,49402,6,0,P|456:260|400:192,1,180,4|0,0:0|0:0,0:0:0:0:
188,192,49834,1,8,0:0:0:0:
320,192,50050,2,0,L|316:128,1,60,2|2,0:0|0:0,0:0:0:0:
448,132,50373,2,0,L|388:132,1,60,2|2,0:0|0:0,0:0:0:0:
84,192,50697,2,0,L|80:128,1,60,8|0,0:0|0:0,0:0:0:0:
212,132,51021,1,2,0:0:0:0:
344,132,51129,6,0,L|348:8,1,120,2|2,0:0|0:0,0:0:0:0:
48,12,51560,2,0,L|172:12,1,120,8|2,0:0|0:0,0:0:0:0:
236,12,51884,1,2,0:0:0:0:
156,12,51992,2,0,L|152:136,1,120,2|2,0:0|0:0,0:0:0:0:
452,132,52423,2,0,L|328:132,1,120,8|0,0:0|0:0,0:0:0:0:
28,132,52855,6,0,L|200:192,1,180,2|0,0:0|0:0,0:0:0:0:
408,192,53286,2,0,L|288:192,1,120,8|2,0:0|0:0,0:0:0:0:
368,192,53610,2,0,L|248:192,1,120,2|2,0:0|0:0,0:0:0:0:
176,192,53934,1,2,0:0:0:0:
476,192,54150,2,0,L|480:260,1,60,8|2,0:0|0:0,0:0:0:0:
360,252,54473,1,2,0:0:0:0:
148,252,54581,5,2,0:0:0:0:
147,311,54689,1,2,0:0:0:0:
146,371,54797,1,2,0:0:0:0:
448,372,55013,2,0,L|384:372,1,60,8|0,0:0|0:0,0:0:0:0:
184,252,55228,1,8,0:0:0:0:
244,252,55336,1,2,0:0:0:0:
304,252,55444,1,2,0:0:0:0:
104,192,55552,2,0,L|172:192,2,60,8|2|2,0:0|0:0|0:0,0:0:0:0:
336,192,55876,2,0,L|480:192,1,143.999995605469,8|0,0:0|0:0,0:0:0:0:
96,192,56307,6,0,L|96:68,1,120,6|0,0:0|0:0,0:0:0:0:
308,72,56739,2,0,L|308:192,1,120,6|0,0:0|0:0,0:0:0:0:
20,72,57170,2,0,L|20:192,1,120,12|0,0:0|0:0,0:0:0:0:
232,192,57602,2,0,L|352:192,1,120,2|8,0:0|0:0,0:0:0:0:
292,192,57926,1,8,0:0:0:0:
160,192,58034,5,2,0:0:0:0:
472,192,58249,2,0,L|352:192,2,120,8|0|2,0:0|0:0|0:0,0:0:0:0:
168,192,58897,2,0,L|44:192,1,120,8|0,0:0|0:0,0:0:0:0:
180,264,59328,2,0,L|56:264,1,120
352,264,59760,6,0,P|424:192|332:136,1,240,2|2,0:0|0:0,0:0:0:0:
200,136,60407,1,0,0:0:0:0:
496,136,60623,2,0,L|393:76,1,120,8|0,0:0|0:0,0:0:0:0:
180,76,61055,2,0,L|176:196,1,120,2|8,0:0|0:0,0:0:0:0:
242,196,61378,1,8,0:0:0:0:
472,196,61486,5,2,0:0:0:0:
160,196,61702,2,0,L|40:192,2,120,8|4|0,0:0|0:0|0:0,0:0:0:0:
472,196,62349,2,0,L|472:316,1,120,8|2,0:0|0:0,0:0:0:0:
184,316,62781,2,0,L|324:316,1,120,8|4,0:0|0:0,0:0:0:0:
16,316,63212,5,2,0:0:0:0:
160,316,63428,1,4,0:0:0:0:
304,316,63644,2,0,L|304:196,1,120,2|0,0:0|0:0,0:0:0:0:
16,196,64075,2,0,L|140:192,1,120,8|0,0:0|0:0,0:0:0:0:
348,192,64507,2,0,L|468:192,1,120,2|8,0:0|0:0,0:0:0:0:
408,192,64831,1,8,0:0:0:0:
200,192,64939,6,0,L|196:132,1,60,2|0,0:0|0:0,0:0:0:0:
400,132,65154,2,0,P|484:68|400:8,1,240,8|2,0:0|0:0,0:0:0:0:
112,8,65802,2,0,L|232:8,1,120,8|2,0:0|0:0,0:0:0:0:
424,8,66233,2,0,L|475:38,1,60
424,8,66449,2,0,L|373:38,1,60
160,8,66665,6,0,P|72:40|16:168,1,240,2|2,0:0|0:0,0:0:0:0:
136,192,67312,1,0,0:0:0:0:
424,192,67528,2,0,L|428:320,1,120,8|0,0:0|0:0,0:0:0:0:
308,312,67960,2,0,L|188:312,1,120,2|8,0:0|0:0,0:0:0:0:
256,312,68283,1,8,0:0:0:0:
124,312,68391,5,2,0:0:0:0:
428,312,68607,2,0,L|304:312,1,120,8|0,0:0|0:0,0:0:0:0:
440,312,69038,1,2,0:0:0:0:
152,312,69254,2,0,L|28:312,1,120,8|2,0:0|0:0,0:0:0:0:
344,192,69686,2,0,L|468:192,1,120,8|2,0:0|0:0,0:0:0:0:
132,192,70117,6,0,L|132:68,1,120,6|0,0:0|0:0,0:0:0:0:
344,192,70549,2,0,L|344:68,1,120,6|0,0:0|0:0,0:0:0:0:
44,192,70980,2,0,L|44:72,1,120,12|0,0:0|0:0,0:0:0:0:
256,192,71412,2,0,L|376:192,1,120,2|8,0:0|0:0,0:0:0:0:
316,192,71736,1,8,0:0:0:0:
184,192,71844,5,2,0:0:0:0:
496,192,72059,2,0,L|376:192,2,120,8|0|2,0:0|0:0|0:0,0:0:0:0:
208,192,72707,2,0,L|328:192,1,120,8|2,0:0|0:0,0:0:0:0:
196,120,73138,2,0,L|316:120,1,120,0|2,0:0|0:0,0:0:0:0:
20,120,73570,6,0,P|52:216|172:272,1,240,2|2,0:0|0:0,0:0:0:0:
292,272,74217,1,0,0:0:0:0:
16,264,74433,2,0,L|119:324,1,120,8|0,0:0|0:0,0:0:0:0:
332,324,74865,2,0,L|212:324,1,120,2|8,0:0|0:0,0:0:0:0:
152,324,75188,1,8,0:0:0:0:
36,188,75296,6,0,L|32:128,1,60,2|0,0:0|0:0,0:0:0:0:
256,128,75512,2,0,L|260:68,1,60,8|0,0:0|0:0,0:0:0:0:
136,68,75728,2,0,L|208:68,1,60,4|0,0:0|0:0,0:0:0:0:
396,128,75943,2,0,L|400:68,1,60,2|0,0:0|0:0,0:0:0:0:
156,188,76159,2,0,L|36:188,1,120,8|2,0:0|0:0,0:0:0:0:
324,188,76591,2,0,L|184:188,1,120,8|4,0:0|0:0,0:0:0:0:
492,188,77022,6,0,L|492:68,1,120,2|4,0:0|0:0,0:0:0:0:
280,68,77454,2,0,L|160:68,1,120,2|0,0:0|0:0,0:0:0:0:
452,68,77885,2,0,L|452:188,1,120,8|0,0:0|0:0,0:0:0:0:
240,188,78317,2,0,L|364:188,1,120,2|8,0:0|0:0,0:0:0:0:
292,188,78641,1,8,0:0:0:0:
160,188,78749,5,2,0:0:0:0:
448,188,78964,2,0,P|372:240|448:332,1,240,8|2,0:0|0:0,0:0:0:0:
160,328,79612,2,0,L|288:328,1,120,8|0,0:0|0:0,0:0:0:0:
112,328,80043,1,2,0:0:0:0:
68,289,80151,1,2,0:0:0:0:
68,231,80259,1,2,0:0:0:0:
111,192,80367,1,2,0:0:0:0:
344,192,80475,6,0,L|464:192,1,120,4|0,0:0|0:0,0:0:0:0:
464,192,80906,1,2,0:0:0:0:
44,192,81338,2,0,L|40:72,1,120,8|2,0:0|0:0,0:0:0:0:
172,72,81770,1,0,0:0:0:0:
304,72,81985,2,0,L|308:136,1,60,8|8,0:0|0:0,0:0:0:0:
176,192,82201,5,2,0:0:0:0:
464,192,82417,2,0,L|360:132,2,120,8|0|2,0:0|0:0|0:0,0:0:0:0:
176,192,83064,2,0,L|172:320,1,120,8|2,0:0|0:0,0:0:0:0:
384,312,83496,2,0,L|256:312,1,120,8|2,0:0|0:0,0:0:0:0:
204,312,83819,1,0,0:0:0:0:
336,312,83927,6,0,L|340:248,2,60,2|0|0,0:0|0:0|0:0,0:0:0:0:
124,312,84359,2,0,L|120:192,1,120,2|2,0:0|0:0,0:0:0:0:
408,192,84790,2,0,L|288:192,1,120,8|2,0:0|0:0,0:0:0:0:
168,192,85222,1,0,0:0:0:0:
300,192,85438,2,0,L|304:132,1,60
172,132,85654,6,0,L|120:102,1,60,2|0,0:0|0:0,0:0:0:0:
324,132,85869,2,0,L|328:12,1,120,8|0,0:0|0:0,0:0:0:0:
196,12,86301,1,2,0:0:0:0:
484,12,86517,2,0,L|488:140,1,120,8|2,0:0|0:0,0:0:0:0:
276,132,86948,2,0,L|396:132,1,120,8|2,0:0|0:0,0:0:0:0:
96,132,87380,5,2,0:0:0:0:
94,191,87488,1,0,0:0:0:0:
92,251,87596,1,0,0:0:0:0:
304,252,87811,1,2,0:0:0:0:
172,252,88027,1,0,0:0:0:0:
460,252,88243,2,0,L|328:252,1,120,8|2,0:0|0:0,0:0:0:0:
208,252,88674,2,0,L|200:192,3,60,0|0|8|8,0:0|0:0|0:0|0:0,0:0:0:0:
332,192,89106,6,0,L|340:256,1,60,2|0,0:0|0:0,0:0:0:0:
132,252,89322,2,0,L|252:252,1,120,8|0,0:0|0:0,0:0:0:0:
392,192,89753,2,0,L|320:192,1,60,2|0,0:0|0:0,0:0:0:0:
124,192,89969,2,0,L|120:72,1,120,8|0,0:0|0:0,0:0:0:0:
332,72,90401,2,0,L|212:72,1,120,8|0,0:0|0:0,0:0:0:0:
152,72,90724,1,0,0:0:0:0:
20,72,90832,6,0,L|16:148,2,60,2|0|0,0:0|0:0|0:0,0:0:0:0:
232,72,91264,2,0,L|236:192,1,120,2|0,0:0|0:0,0:0:0:0:
168,192,91588,1,0,0:0:0:0:
376,192,91695,2,0,L|380:312,1,120,8|2,0:0|0:0,0:0:0:0:
248,312,92127,1,0,0:0:0:0:
392,312,92343,1,2,0:0:0:0:
180,312,92559,6,0,L|176:248,1,60,2|0,0:0|0:0,0:0:0:0:
384,252,92774,2,0,L|280:192,1,120,8|0,0:0|0:0,0:0:0:0:
148,192,93206,1,2,0:0:0:0:
436,192,93422,1,8,0:0:0:0:
108,192,93637,2,0,P|8:96|108:24,1,300,8|0,0:0|0:0,0:0:0:0:
336,24,94285,6,0,B|336:144|336:144|216:144,1,240,4|2,0:0|0:0,0:0:0:0:
96,144,94932,1,0,0:0:0:0:
384,144,95148,2,0,L|388:264,1,120,8|0,0:0|0:0,0:0:0:0:
256,264,95579,1,2,0:0:0:0:
328,264,95687,1,2,0:0:0:0:
400,264,95795,1,8,0:0:0:0:
328,264,95903,1,8,0:0:0:0:
196,264,96011,6,0,L|192:340,1,60,2|0,0:0|0:0,0:0:0:0:
400,328,96227,2,0,L|280:328,1,120,8|0,0:0|0:0,0:0:0:0:
412,328,96658,1,2,0:0:0:0:
100,328,96874,2,0,L|96:208,1,120,8|2,0:0|0:0,0:0:0:0:
384,208,97306,2,0,L|504:208,1,120,8|0,0:0|0:0,0:0:0:0:
216,208,97737,6,0,B|216:88|216:88|336:88,1,240,4|2,0:0|0:0,0:0:0:0:
456,88,98385,1,0,0:0:0:0:
176,88,98600,2,0,L|172:208,1,120,8|0,0:0|0:0,0:0:0:0:
392,208,99032,2,0,L|332:192,1,60,2|2,0:0|0:0,0:0:0:0:
256,224,99248,2,0,L|196:208,1,60,8|8,0:0|0:0,0:0:0:0:
334,192,99464,5,2,0:0:0:0:
56,192,99679,2,0,L|296:192,1,240,8|2,0:0|0:0,0:0:0:0:
16,192,100327,2,0,L|12:72,1,120,8|2,0:0|0:0,0:0:0:0:
224,72,100758,2,0,L|88:72,1,120,8|0,0:0|0:0,0:0:0:0:
408,72,101190,6,0,P|444:112|408:156,1,120,4|0,0:0|0:0,0:0:0:0:
348,156,101513,1,0,0:0:0:0:
216,156,101621,1,2,0:0:0:0:
214,215,101729,1,0,0:0:0:0:
212,275,101837,1,0,0:0:0:0:
496,276,102053,2,0,L|376:276,1,120,8|0,0:0|0:0,0:0:0:0:
164,272,102484,2,0,L|160:340,1,60,2|2,0:0|0:0,0:0:0:0:
236,332,102700,2,0,L|176:332,1,60,8|8,0:0|0:0,0:0:0:0:
296,332,102916,5,2,0:0:0:0:
24,332,103132,2,0,L|144:332,2,120,8|0|2,0:0|0:0|0:0,0:0:0:0:
344,332,103779,2,0,L|472:332,1,120,8|2,0:0|0:0,0:0:0:0:
180,192,104211,2,0,L|312:192,1,120,8|0,0:0|0:0,0:0:0:0:
16,192,104642,6,0,B|16:72|16:72|136:72,1,240,4|2,0:0|0:0,0:0:0:0:
16,72,105290,1,0,0:0:0:0:
304,72,105505,2,0,L|308:192,1,120,8|0,0:0|0:0,0:0:0:0:
96,192,105937,2,0,L|160:192,1,60,2|2,0:0|0:0,0:0:0:0:
84,260,106153,2,0,L|144:260,1,60,8|8,0:0|0:0,0:0:0:0:
280,260,106369,6,0,L|284:332,1,60,2|0,0:0|0:0,0:0:0:0:
80,320,106584,2,0,L|200:320,1,120,8|0,0:0|0:0,0:0:0:0:
68,320,107016,1,2,0:0:0:0:
356,320,107232,2,0,L|360:200,1,120,8|2,0:0|0:0,0:0:0:0:
148,200,107663,2,0,P|128:116|156:28,1,180
368,28,108085,6,0,P|432:48|484:144,1,180,4|0,0:0|0:0,0:0:0:0:
288,144,108516,2,0,L|168:144,1,120,8|2,0:0|0:0,0:0:0:0:
248,144,108840,2,0,L|64:144,1,180,2|2,0:0|0:0,0:0:0:0:
368,144,109379,2,0,P|408:184|368:216,1,120,8|2,0:0|0:0,0:0:0:0:
296,216,109703,1,2,0:0:0:0:
164,216,109811,6,0,L|160:348,1,120,2|2,0:0|0:0,0:0:0:0:
460,336,110243,2,0,L|340:336,1,120,8|2,0:0|0:0,0:0:0:0:
268,336,110566,2,0,L|440:284,1,180,2|2,0:0|0:0,0:0:0:0:
40,216,111106,2,0,P|32:156|40:92,1,120,12|2,0:0|0:0,0:0:0:0:
104,64,111429,1,2,0:0:0:0:
308,64,111537,6,0,L|432:64,1,120,2|0,0:0|0:0,0:0:0:0:
128,144,111969,2,0,L|248:144,1,120,8|2,0:0|0:0,0:0:0:0:
320,144,112292,2,0,L|136:144,1,180,2|2,0:0|0:0,0:0:0:0:
440,144,112832,2,0,L|444:208,1,60,8|2,0:0|0:0,0:0:0:0:
300,204,113156,1,2,0:0:0:0:
432,204,113263,6,0,L|436:328,1,120,2|2,0:0|0:0,0:0:0:0:
144,320,113695,2,0,L|16:320,1,120,8|2,0:0|0:0,0:0:0:0:
96,320,114019,1,2,0:0:0:0:
168,320,114127,2,0,L|48:320,1,120,2|2,0:0|0:0,0:0:0:0:
344,320,114558,2,0,L|464:320,1,120,12|0,0:0|0:0,0:0:0:0:
248,320,114990,5,8,0:0:0:0:
312,276,115098,1,8,0:0:0:0:
312,200,115206,1,2,0:0:0:0:
247,168,115313,1,2,0:0:0:0:
452,168,115421,1,8,0:0:0:0:
332,168,115637,1,2,0:0:0:0:
264,168,115745,1,2,0:0:0:0:
336,168,115853,2,0,L|340:48,1,120,2|2,0:0|0:0,0:0:0:0:
40,48,116284,2,0,L|44:112,1,60,8|2,0:0|0:0,0:0:0:0:
176,104,116608,1,2,0:0:0:0:
308,104,116716,6,0,L|312:224,1,120,2|2,0:0|0:0,0:0:0:0:
20,224,117148,1,8,0:0:0:0:
86,224,117255,1,0,0:0:0:0:
152,224,117363,1,2,0:0:0:0:
80,224,117471,2,0,P|24:288|80:344,1,180,2|2,0:0|0:0,0:0:0:0:
380,344,118011,2,0,L|500:344,1,120,12|2,0:0|0:0,0:0:0:0:
432,344,118334,1,2,0:0:0:0:
228,344,118442,6,0,L|164:344,1,60,8|8,0:0|0:0,0:0:0:0:
240,272,118658,2,0,L|180:272,1,60,2|2,0:0|0:0,0:0:0:0:
16,272,118874,2,0,L|144:272,1,120,8|2,0:0|0:0,0:0:0:0:
208,272,119197,2,0,L|44:192,1,180,2|2,0:0|0:0,0:0:0:0:
384,160,119737,2,0,L|388:92,1,60,8|2,0:0|0:0,0:0:0:0:
256,100,120061,1,2,0:0:0:0:
388,100,120168,6,0,L|380:228,1,120,2|2,0:0|0:0,0:0:0:0:
80,164,120600,2,0,L|76:224,1,60,8|0,0:0|0:0,0:0:0:0:
212,224,120816,2,0,L|216:256,2,30,8|2|2,0:0|0:0|0:0,0:0:0:0:
140,224,121032,1,0,0:0:0:0:
344,224,121139,2,0,L|284:224,2,60,8|0|2,0:0|0:0|0:0,0:0:0:0:
140,224,121463,1,8,0:0:0:0:
24,136,121679,1,8,0:0:0:0:
116,136,121787,1,2,0:0:0:0:
320,136,121895,6,0,P|380:196|320:244,1,180,4|0,0:0|0:0,0:0:0:0:
116,244,122326,2,0,L|112:308,1,60,8|2,0:0|0:0,0:0:0:0:
204,304,122542,2,0,L|144:304,1,60,2|2,0:0|0:0,0:0:0:0:
276,304,122866,1,2,0:0:0:0:
186,304,122974,2,0,L|182:380,1,60,2|0,0:0|0:0,0:0:0:0:
390,364,123189,1,8,0:0:0:0:
476,364,123297,2,0,B|372:304,1,120,2|2,0:0|0:0,0:0:0:0:
236,304,123621,5,2,0:0:0:0:
164,304,123729,1,0,0:0:0:0:
164,232,123837,1,2,0:0:0:0:
452,192,124053,1,8,0:0:0:0:
320,192,124268,1,2,0:0:0:0:
252,192,124376,1,2,0:0:0:0:
380,192,124484,2,0,L|504:192,1,120,2|2,0:0|0:0,0:0:0:0:
176,192,124916,2,0,P|124:248|176:320,1,180,8|0,0:0|0:0,0:0:0:0:
388,320,125347,6,0,L|392:192,1,120,2|0,0:0|0:0,0:0:0:0:
52,192,125779,2,0,L|48:128,1,60,8|0,0:0|0:0,0:0:0:0:
120,132,125995,1,2,0:0:0:0:
48,132,126102,2,2,L|172:132,1,120,2|0,0:0|0:0,0:0:0:0:
236,132,126426,2,0,L|176:132,1,60,2|0,0:0|0:0,0:0:0:0:
388,132,126642,1,8,0:0:0:0:
316,132,126750,2,0,L|196:132,1,120,2|2,0:0|0:0,0:0:0:0:
324,132,127073,5,2,0:0:0:0:
322,191,127181,1,0,0:0:0:0:
320,251,127289,1,2,0:0:0:0:
20,252,127505,2,0,L|88:252,1,60,8|0,0:0|0:0,0:0:0:0:
292,252,127721,1,8,0:0:0:0:
220,252,127829,1,2,0:0:0:0:
148,252,127937,1,2,0:0:0:0:
376,252,128044,1,8,0:0:0:0:
292,252,128152,1,2,0:0:0:0:
376,252,128260,1,2,0:0:0:0:
148,252,128368,2,0,P|92:192|148:128,1,180,8|0,0:0|0:0,0:0:0:0:
352,128,128800,6,0,B|444:128|444:128|444:216,1,180,4|0,0:0|0:0,0:0:0:0:
240,216,129231,2,0,L|308:216,1,60,8|0,0:0|0:0,0:0:0:0:
216,216,129447,2,0,L|212:288,1,60,2|2,0:0|0:0,0:0:0:0:
288,216,129771,1,2,0:0:0:0:
204,216,129879,2,0,L|142:216,1,60,2|0,0:0|0:0,0:0:0:0:
348,216,130094,1,8,0:0:0:0:
258,216,130202,2,0,B|140:192,1,120,2|2,0:0|0:0,0:0:0:0:
276,144,130526,5,2,0:0:0:0:
348,144,130634,1,0,0:0:0:0:
420,144,130742,1,2,0:0:0:0:
128,144,130958,1,8,0:0:0:0:
260,144,131173,1,2,0:0:0:0:
192,144,131281,1,2,0:0:0:0:
60,144,131389,2,0,L|56:268,1,120,2|2,0:0|0:0,0:0:0:0:
356,264,131821,2,0,B|444:264|444:264|444:360,1,180,8|0,0:0|0:0,0:0:0:0:
235,263,132252,6,0,L|56:263,1,180,2|0,0:0|0:0,0:0:0:0:
260,192,132684,2,0,L|320:192,2,60,8|0|2,0:0|0:0|0:0,0:0:0:0:
328,192,133007,2,0,L|208:192,1,120,2|2,0:0|0:0,0:0:0:0:
140,192,133331,1,2,0:0:0:0:
452,192,133547,1,8,0:0:0:0:
380,192,133655,2,0,L|260:192,1,120,2|2,0:0|0:0,0:0:0:0:
392,100,133978,5,2,0:0:0:0:
464,100,134086,1,0,0:0:0:0:
464,28,134194,1,2,0:0:0:0:
172,100,134410,2,0,L|236:100,1,60,8|0,0:0|0:0,0:0:0:0:
32,100,134626,1,8,0:0:0:0:
98,100,134734,1,2,0:0:0:0:
164,100,134842,1,2,0:0:0:0:
356,100,134949,1,8,0:0:0:0:
284,100,135057,1,2,0:0:0:0:
356,100,135165,1,2,0:0:0:0:
128,100,135273,2,0,L|248:100,1,120,8|2,0:0|0:0,0:0:0:0:
320,100,135597,1,2,0:0:0:0:
104,192,135705,6,0,L|104:316,1,120,6|0,0:0|0:0,0:0:0:0:
400,312,136136,2,0,L|400:192,1,120,6|0,0:0|0:0,0:0:0:0:
60,312,136568,2,0,L|60:192,1,120,12|0,0:0|0:0,0:0:0:0:
272,192,136999,2,0,L|392:192,1,120,2|8,0:0|0:0,0:0:0:0:
320,192,137323,1,8,0:0:0:0:
140,192,137431,5,2,0:0:0:0:
452,192,137647,2,0,L|332:192,2,120,8|0|2,0:0|0:0|0:0,0:0:0:0:
152,192,138294,2,0,L|28:192,1,120,8|2,0:0|0:0,0:0:0:0:
236,120,138726,2,0,L|360:120,1,120,2|8,0:0|0:0,0:0:0:0:
288,120,139049,1,8,0:0:0:0:
84,120,139157,6,0,P|4:192|84:264,1,240,2|2,0:0|0:0,0:0:0:0:
212,264,139805,1,0,0:0:0:0:
496,264,140020,2,0,L|393:324,1,120,8|0,0:0|0:0,0:0:0:0:
180,324,140452,2,0,L|176:264,1,60,2|2,0:0|0:0,0:0:0:0:
300,264,140668,2,0,L|304:200,1,60,8|8,0:0|0:0,0:0:0:0:
96,192,140883,6,0,L|36:192,1,60,2|0,0:0|0:0,0:0:0:0:
248,192,141099,2,0,L|368:192,1,120,8|4,0:0|0:0,0:0:0:0:
156,192,141531,1,2,0:0:0:0:
456,192,141747,2,0,L|460:72,1,120,8|2,0:0|0:0,0:0:0:0:
172,72,142178,1,8,0:0:0:0:
364,72,142394,1,4,0:0:0:0:
64,72,142610,6,0,L|64:196,1,120,2|4,0:0|0:0,0:0:0:0:
376,72,143041,2,0,L|376:192,1,120,2|0,0:0|0:0,0:0:0:0:
64,192,143473,2,0,L|188:192,1,120,8|0,0:0|0:0,0:0:0:0:
400,192,143904,2,0,L|280:192,1,120,2|8,0:0|0:0,0:0:0:0:
212,192,144228,1,8,0:0:0:0:
420,192,144336,6,0,L|424:252,1,60,2|0,0:0|0:0,0:0:0:0:
220,256,144552,2,0,L|96:256,1,120,8|0,0:0|0:0,0:0:0:0:
312,256,144983,1,2,0:0:0:0:
16,256,145199,2,0,L|12:376,1,120,8|2,0:0|0:0,0:0:0:0:
204,312,145631,2,0,L|255:282,1,60
188,312,145846,2,0,L|137:282,1,60
340,280,146062,6,0,L|468:280,1,120,2|0,0:0|0:0,0:0:0:0:
256,192,146494,2,0,L|376:192,1,120,2|0,0:0|0:0,0:0:0:0:
76,192,146925,2,0,L|72:64,1,120,8|0,0:0|0:0,0:0:0:0:
192,72,147357,2,0,L|312:72,1,120,2|8,0:0|0:0,0:0:0:0:
244,72,147681,1,8,0:0:0:0:
372,72,147788,6,0,L|376:136,1,60,2|0,0:0|0:0,0:0:0:0:
168,72,148004,2,0,L|288:72,1,120,8|2,0:0|0:0,0:0:0:0:
84,72,148436,1,2,0:0:0:0:
396,72,148652,2,0,L|400:196,1,120,8|2,0:0|0:0,0:0:0:0:
84,192,149083,2,0,L|76:316,1,120,8|2,0:0|0:0,0:0:0:0:
376,192,149515,6,0,L|500:192,1,120,6|0,0:0|0:0,0:0:0:0:
184,192,149946,2,0,L|64:192,1,120,6|0,0:0|0:0,0:0:0:0:
376,192,150378,2,0,L|256:192,1,120,12|0,0:0|0:0,0:0:0:0:
44,192,150809,2,0,L|164:192,1,120,2|8,0:0|0:0,0:0:0:0:
232,192,151133,1,8,0:0:0:0:
32,192,151241,5,2,0:0:0:0:
332,192,151457,2,0,L|452:192,2,120,8|0|2,0:0|0:0|0:0,0:0:0:0:
44,192,152104,2,0,L|168:192,1,120,8|2,0:0|0:0,0:0:0:0:
376,100,152536,2,0,L|252:100,1,120
188,100,152859,1,0,0:0:0:0:
408,100,152967,6,0,B|408:220|408:220|288:220,1,240,2|2,0:0|0:0,0:0:0:0:
156,220,153615,1,0,0:0:0:0:
468,220,153830,2,0,L|365:280,1,120,8|0,0:0|0:0,0:0:0:0:
152,280,154262,2,0,L|197:241,1,60,2|2,0:0|0:0,0:0:0:0:
324,224,154478,2,0,L|373:182,1,60,8|8,0:0|0:0,0:0:0:0:
152,280,154693,6,0,L|148:216,1,60,2|2,0:0|0:0,0:0:0:0:
356,184,154909,1,8,0:0:0:0:
176,188,155125,2,0,L|172:116,1,60,4|0,0:0|0:0,0:0:0:0:
376,184,155341,2,0,L|380:108,1,60,2|2,0:0|0:0,0:0:0:0:
148,220,155557,2,0,L|24:220,1,120,8|2,0:0|0:0,0:0:0:0:
340,220,155988,1,8,0:0:0:0:
52,220,156204,1,6,0:0:0:0:
388,220,156420,6,0,L|388:100,1,120,2|4,0:0|0:0,0:0:0:0:
100,100,156851,2,0,L|100:220,1,120,2|0,0:0|0:0,0:0:0:0:
436,100,157283,2,0,L|436:220,1,120,8|0,0:0|0:0,0:0:0:0:
224,220,157714,2,0,L|100:220,1,120,2|8,0:0|0:0,0:0:0:0:
172,220,158038,1,8,0:0:0:0:
376,220,158146,6,0,L|380:148,1,60,2|2,0:0|0:0,0:0:0:0:
168,80,158362,2,0,P|244:132|168:224,1,240,8|2,0:0|0:0,0:0:0:0:
456,220,159009,2,0,L|461:93,1,120,8|2,0:0|0:0,0:0:0:0:
252,100,159441,1,2,0:0:0:0:
252,164,159548,1,2,0:0:0:0:
300,212,159656,1,2,0:0:0:0:
368,212,159764,1,2,0:0:0:0:
128,44,159872,6,0,L|124:164,1,120,4|0,0:0|0:0,0:0:0:0:
192,192,160196,1,0,0:0:0:0:
316,212,160304,2,0,L|376:212,1,60,2|0,0:0|0:0,0:0:0:0:
360,284,160519,2,0,L|296:284,1,60
96,284,160735,2,0,L|203:222,2,120,8|2|0,0:0|0:0|0:0,0:0:0:0:
216,284,161383,2,0,L|280:284,1,60,8|8,0:0|0:0,0:0:0:0:
144,284,161598,6,0,L|140:352,1,60,2|0,0:0|0:0,0:0:0:0:
356,344,161814,2,0,L|476:344,1,120,8|0,0:0|0:0,0:0:0:0:
344,344,162246,1,2,0:0:0:0:
132,344,162462,2,0,L|128:220,1,120,8|2,0:0|0:0,0:0:0:0:
260,224,162893,2,0,L|140:224,1,120,8|0,0:0|0:0,0:0:0:0:
208,224,163217,1,0,0:0:0:0:
400,224,163325,6,0,L|408:156,2,60,2|0|0,0:0|0:0|0:0,0:0:0:0:
208,224,163756,1,2,0:0:0:0:
265,208,163864,1,2,0:0:0:0:
323,192,163972,1,8,0:0:0:0:
40,192,164188,1,8,0:0:0:0:
160,192,164404,1,2,0:0:0:0:
280,192,164619,1,0,0:0:0:0:
212,192,164727,1,0,0:0:0:0:
144,192,164835,1,0,0:0:0:0:
344,192,165051,6,0,L|348:252,1,60,2|0,0:0|0:0,0:0:0:0:
148,256,165267,1,8,0:0:0:0:
216,256,165375,2,0,B|276:256|276:256|276:196,1,120
208,196,165698,2,0,L|276:196,1,60,2|0,0:0|0:0,0:0:0:0:
68,192,165914,2,0,L|64:60,1,120,8|2,0:0|0:0,0:0:0:0:
132,72,166238,1,0,0:0:0:0:
276,72,166346,1,8,0:0:0:0:
340,72,166453,1,0,0:0:0:0:
340,136,166561,1,2,0:0:0:0:
276,136,166669,1,0,0:0:0:0:
72,136,166777,6,0,L|68:208,1,60,2|0,0:0|0:0,0:0:0:0:
128,196,166993,2,0,L|192:196,1,60
324,196,167209,2,0,L|328:260,1,60,2|0,0:0|0:0,0:0:0:0:
248,256,167424,2,0,L|244:328,1,60,2|0,0:0|0:0,0:0:0:0:
444,316,167640,2,0,L|316:316,1,120,8|2,0:0|0:0,0:0:0:0:
192,316,168072,2,0,L|188:252,2,60
384,192,168503,6,0,L|388:124,1,60,2|0,0:0|0:0,0:0:0:0:
184,132,168719,1,8,0:0:0:0:
256,132,168827,2,0,B|316:132|316:132|252:132,1,120
184,132,169151,2,0,L|180:64,1,60,2|0,0:0|0:0,0:0:0:0:
392,72,169366,2,0,L|396:192,1,120,8|2,0:0|0:0,0:0:0:0:
324,192,169690,1,0,0:0:0:0:
444,192,169798,2,0,L|499:160,2,60,0|0|2,0:0|0:0|0:0,0:0:0:0:
144,192,170230,6,0,L|136:260,2,60,2|0|0,0:0|0:0|0:0,0:0:0:0:
212,192,170553,1,0,0:0:0:0:
336,192,170661,1,2,0:0:0:0:
394,207,170769,1,0,0:0:0:0:
336,192,170877,1,0,0:0:0:0:
40,120,171093,1,8,0:0:0:0:
160,120,171309,1,2,0:0:0:0:
228,120,171416,2,0,L|104:120,1,120
40,120,171740,1,2,0:0:0:0:
244,120,171956,6,0,L|308:120,1,60,2|0,0:0|0:0,0:0:0:0:
108,44,172172,1,8,0:0:0:0:
176,44,172280,2,0,L|56:44,1,120
122,44,172603,2,0,L|58:44,1,60,2|0,0:0|0:0,0:0:0:0:
268,44,172819,2,0,L|336:44,1,60,8|0,0:0|0:0,0:0:0:0:
116,44,173035,2,0,P|16:136|112:228,1,300,8|0,0:0|0:0,0:0:0:0:
364,72,173692,6,0,B|364:192|364:192|244:192,1,240,4|2,0:0|0:0,0:0:0:0:
124,192,174339,1,0,0:0:0:0:
412,192,174555,2,0,L|416:312,1,120,8|2,0:0|0:0,0:0:0:0:
284,312,174987,1,2,0:0:0:0:
356,312,175095,1,2,0:0:0:0:
284,312,175203,1,8,0:0:0:0:
212,312,175310,1,8,0:0:0:0:
404,312,175418,6,0,L|408:236,1,60,2|0,0:0|0:0,0:0:0:0:
212,248,175634,2,0,L|84:248,1,120,8|0,0:0|0:0,0:0:0:0:
304,248,176066,1,2,0:0:0:0:
16,248,176281,2,0,L|12:112,1,120,8|2,0:0|0:0,0:0:0:0:
304,128,176713,2,0,L|184:128,1,120,8|0,0:0|0:0,0:0:0:0:
484,128,177145,6,0,B|240:128,1,240,4|2,0:0|0:0,0:0:0:0:
124,128,177792,1,0,0:0:0:0:
404,128,178008,2,0,L|408:248,1,120,8|2,0:0|0:0,0:0:0:0:
196,248,178439,2,0,L|256:232,1,60,2|2,0:0|0:0,0:0:0:0:
324,308,178655,2,0,L|264:292,1,60,8|8,0:0|0:0,0:0:0:0:
72,292,178871,6,0,L|68:220,1,60,2|0,0:0|0:0,0:0:0:0:
266,292,179087,2,0,L|386:292,1,120,8|0,0:0|0:0,0:0:0:0:
176,292,179518,1,2,0:0:0:0:
476,292,179734,2,0,L|480:172,1,120,8|2,0:0|0:0,0:0:0:0:
268,172,180166,2,0,L|404:172,1,120,8|0,0:0|0:0,0:0:0:0:
88,172,180597,6,0,B|88:292|88:292|208:292,1,240,4|2,0:0|0:0,0:0:0:0:
328,292,181244,1,0,0:0:0:0:
40,292,181460,2,0,L|36:164,1,120,8|2,0:0|0:0,0:0:0:0:
228,292,181892,2,0,L|232:224,1,60,2|2,0:0|0:0,0:0:0:0:
104,232,182108,2,0,L|164:232,1,60,8|8,0:0|0:0,0:0:0:0:
292,232,182323,6,0,L|296:172,1,60,2|0,0:0|0:0,0:0:0:0:
96,172,182539,2,0,L|216:172,2,120,8|0|2,0:0|0:0|0:0,0:0:0:0:
432,172,183186,2,0,L|304:172,1,120,8|2,0:0|0:0,0:0:0:0:
16,172,183618,2,0,L|12:40,1,120,8|0,0:0|0:0,0:0:0:0:
348,172,184050,6,0,B|348:52|348:52|228:52,1,240,4|2,0:0|0:0,0:0:0:0:
360,52,184697,1,0,0:0:0:0:
60,52,184913,2,0,L|56:172,1,120,8|2,0:0|0:0,0:0:0:0:
268,172,185344,2,0,L|204:172,1,60,2|2,0:0|0:0,0:0:0:0:
280,240,185560,2,0,L|220:240,1,60,8|8,0:0|0:0,0:0:0:0:
24,240,185776,6,0,L|20:312,1,60,2|0,0:0|0:0,0:0:0:0:
216,336,185992,2,0,L|336:336,1,120,8|0,0:0|0:0,0:0:0:0:
132,336,186423,1,2,0:0:0:0:
444,336,186639,2,0,L|448:216,1,120,8|2,0:0|0:0,0:0:0:0:
156,216,187071,2,0,L|32:216,1,120,8|0,0:0|0:0,0:0:0:0:
372,216,187502,6,0,P|428:156|372:96,1,180,4|0,0:0|0:0,0:0:0:0:
172,96,187934,2,0,L|168:216,1,120,2|0,0:0|0:0,0:0:0:0:
456,216,188365,1,8,0:0:0:0:
324,216,188581,1,2,0:0:0:0:
112,216,188797,1,0,0:0:0:0:
172,216,188905,1,0,0:0:0:0:
232,216,189013,1,8,0:0:0:0:
20,216,189228,5,2,0:0:0:0:
332,216,189444,1,8,0:0:0:0:
140,216,189660,2,0,L|136:352,1,120,0|2,0:0|0:0,0:0:0:0:
436,336,190091,2,0,L|440:212,1,120,8|0,0:0|0:0,0:0:0:0:
152,216,190523,1,8,0:0:0:0:
344,216,190739,1,2,0:0:0:0:
56,216,190955,6,0,P|4:160|60:88,1,180,4|0,0:0|0:0,0:0:0:0:
264,88,191386,2,0,L|388:88,1,120,2|0,0:0|0:0,0:0:0:0:
96,88,191818,1,8,0:0:0:0:
228,88,192033,1,2,0:0:0:0:
24,88,192249,1,2,0:0:0:0:
20,148,192357,1,2,0:0:0:0:
60,200,192465,1,8,0:0:0:0:
128,208,192573,1,8,0:0:0:0:
324,208,192681,6,0,L|328:272,1,60,2|0,0:0|0:0,0:0:0:0:
128,208,192897,1,8,0:0:0:0:
328,268,193112,2,0,L|448:268,1,120,0|2,0:0|0:0,0:0:0:0:
112,328,193544,2,0,L|108:204,1,120,8|0,0:0|0:0,0:0:0:0:
396,208,193976,1,2,0:0:0:0:
296,208,194083,1,2,0:0:0:0:
108,208,194191,1,8,0:0:0:0:
208,208,194299,1,8,0:0:0:0:
440,208,194407,6,0,B|440:300|440:300|352:300,1,180,4|0,0:0|0:0,0:0:0:0:
156,300,194839,2,0,L|304:300,1,143.999995605469,2|0,0:0|0:0,0:0:0:0:
16,224,195270,1,8,0:0:0:0:
148,224,195486,1,2,0:0:0:0:
348,224,195702,1,2,0:0:0:0:
284,224,195810,1,2,0:0:0:0:
404,224,195918,2,0,L|456:192,1,60,8|8,0:0|0:0,0:0:0:0:
256,192,196133,6,0,L|244:132,1,60
448,132,196349,1,8,0:0:0:0:
256,132,196565,2,0,L|132:132,1,120,0|2,0:0|0:0,0:0:0:0:
432,132,196996,2,0,L|436:8,1,120,8|2,0:0|0:0,0:0:0:0:
148,12,197428,1,8,0:0:0:0:
340,12,197644,1,2,0:0:0:0:
52,12,197860,6,0,P|0:68|56:140,1,180,4|0,0:0|0:0,0:0:0:0:
260,140,198291,2,0,L|116:140,1,143.999995605469,2|0,0:0|0:0,0:0:0:0:
404,140,198723,1,8,0:0:0:0:
272,140,198938,1,2,0:0:0:0:
476,140,199154,2,0,L|412:140,1,60,2|2,0:0|0:0,0:0:0:0:
332,140,199370,2,0,L|264:140,1,60,8|8,0:0|0:0,0:0:0:0:
468,140,199586,6,0,L|472:204,1,60,2|0,0:0|0:0,0:0:0:0:
272,140,199802,1,8,0:0:0:0:
471,199,200017,2,0,L|351:199,1,120,0|2,0:0|0:0,0:0:0:0:
36,200,200449,2,0,L|156:200,1,120,8|2,0:0|0:0,0:0:0:0:
444,200,200880,2,0,L|452:344,1,120,8|2,0:0|0:0,0:0:0:0:
36,200,201312,5,4,0:0:0:0:
256,192,201529,12,0,208051,0:0:0:0:
376,192,208268,6,0,P|440:128|376:60,1,198.000006042481,4|0,0:0|0:0,0:0:0:0:
249,60,208699,2,0,L|381:60,1,132.00000402832,2|0,0:0|0:0,0:0:0:0:
88,60,209131,2,0,L|84:192,1,132.00000402832,8|0,0:0|0:0,0:0:0:0:
266,192,209563,2,0,L|192:192,1,66.0000020141602
332,192,209779,1,8,0:0:0:0:
184,192,209995,5,2,0:0:0:0:
476,192,210211,1,8,0:0:0:0:
264,192,210427,2,0,L|396:192,1,132.00000402832,0|2,0:0|0:0,0:0:0:0:
104,192,210859,2,0,L|100:60,1,132.00000402832,8|2,0:0|0:0,0:0:0:0:
392,60,211291,2,0,L|396:192,1,132.00000402832,4|0,0:0|0:0,0:0:0:0:
66,192,211723,6,0,L|266:192,1,198.000006042481,4|0,0:0|0:0,0:0:0:0:
132,192,212155,2,0,L|128:60,1,132.00000402832,2|0,0:0|0:0,0:0:0:0:
420,192,212587,2,0,L|284:192,1,132.00000402832,8|0,0:0|0:0,0:0:0:0:
48,192,213018,1,2,0:0:0:0:
52,260,213126,1,2,0:0:0:0:
96,312,213234,1,8,0:0:0:0:
161,327,213342,1,8,0:0:0:0:
308,328,213450,5,2,0:0:0:0:
16,192,213666,2,0,L|148:192,1,132.00000402832,8|0,0:0|0:0,0:0:0:0:
380,192,214098,1,2,0:0:0:0:
88,192,214314,2,0,L|84:56,1,132.00000402832,8|0,0:0|0:0,0:0:0:0:
316,60,214746,1,8,0:0:0:0:
244,60,214854,1,0,0:0:0:0:
172,60,214962,1,0,0:0:0:0:
464,60,215178,6,0,P|436:144|344:192,1,198.000006042481,4|0,0:0|0:0,0:0:0:0:
208,192,215610,2,0,L|204:328,1,132.00000402832,2|0,0:0|0:0,0:0:0:0:
496,324,216042,2,0,L|356:324,2,132.00000402832,8|2|0,0:0|0:0|0:0,0:0:0:0:
264,324,216690,2,0,L|260:256,1,66.0000020141602,8|8,0:0|0:0,0:0:0:0:
388,256,216906,5,2,0:0:0:0:
92,260,217122,2,0,L|224:260,2,132.00000402832,8|0|2,0:0|0:0|0:0,0:0:0:0:
384,256,217769,2,0,L|388:120,1,132.00000402832,8|0,0:0|0:0,0:0:0:0:
68,124,218201,2,0,L|200:124,1,132.00000402832,4|0,0:0|0:0,0:0:0:0:
492,124,218633,6,0,L|288:124,1,198.000006042481,4|0,0:0|0:0,0:0:0:0:
428,124,219065,2,0,L|436:256,1,132.00000402832,2|0,0:0|0:0,0:0:0:0:
144,252,219497,1,8,0:0:0:0:
288,252,219713,1,2,0:0:0:0:
48,252,219929,2,0,L|44:328,1,66.0000020141602,2|2,0:0|0:0,0:0:0:0:
164,316,220145,2,0,L|222:350,1,66.0000020141602,8|8,0:0|0:0,0:0:0:0:
72,316,220361,5,2,0:0:0:0:
365,349,220577,2,0,L|233:349,1,132.00000402832,8|0,0:0|0:0,0:0:0:0:
452,348,221009,1,2,0:0:0:0:
160,348,221225,2,0,L|152:216,1,132.00000402832,8|0,0:0|0:0,0:0:0:0:
396,216,221657,1,8,0:0:0:0:
397,150,221764,1,0,0:0:0:0:
399,84,221872,1,0,0:0:0:0:
108,84,222088,6,0,L|244:84,1,132.00000402832,4|0,0:0|0:0,0:0:0:0:
16,84,222520,1,2,0:0:0:0:
160,84,222736,1,0,0:0:0:0:
452,84,222952,2,0,L|456:220,1,132.00000402832,8|2,0:0|0:0,0:0:0:0:
224,216,223384,1,8,0:0:0:0:
344,216,223600,2,0,L|348:308,1,66.0000020141602,8|8,0:0|0:0,0:0:0:0:
200,284,223816,5,2,0:0:0:0:
492,284,224032,1,8,0:0:0:0:
268,284,224248,2,0,L|400:284,1,132.00000402832,0|2,0:0|0:0,0:0:0:0:
108,284,224680,2,0,L|104:152,1,132.00000402832,8|2,0:0|0:0,0:0:0:0:
436,152,225112,2,0,L|304:152,1,132.00000402832,4|0,0:0|0:0,0:0:0:0:
16,152,225544,6,0,P|28:76|128:16,1,198.000006042481,4|0,0:0|0:0,0:0:0:0:
269,16,225976,1,2,0:0:0:0:
136,16,226191,1,0,0:0:0:0:
432,20,226407,2,0,L|436:156,1,132.00000402832,8|2,0:0|0:0,0:0:0:0:
212,152,226839,2,0,L|280:152,1,66.0000020141602,2|2,0:0|0:0,0:0:0:0:
204,220,227055,2,0,L|272:220,1,66.0000020141602,8|8,0:0|0:0,0:0:0:0:
408,220,227271,5,2,0:0:0:0:
116,220,227487,1,8,0:0:0:0:
340,220,227703,1,0,0:0:0:0:
208,220,227919,1,2,0:0:0:0:
496,220,228135,2,0,L|500:352,1,132.00000402832,8|2,0:0|0:0,0:0:0:0:
268,352,228567,2,0,L|264:280,1,66.0000020141602,8|0,0:0|0:0,0:0:0:0:
396,288,228783,2,0,L|400:216,1,66.0000020141602,8|8,0:0|0:0,0:0:0:0:
168,224,228999,6,0,L|36:224,1,132.00000402832,4|0,0:0|0:0,0:0:0:0:
268,228,229431,1,2,0:0:0:0:
60,224,229647,1,0,0:0:0:0:
352,224,229863,2,0,L|480:192,1,132.00000402832,8|0,0:0|0:0,0:0:0:0:
248,192,230295,1,8,0:0:0:0:
372,192,230511,2,0,L|300:192,1,66.0000020141602,8|8,0:0|0:0,0:0:0:0:
168,192,230726,5,2,0:0:0:0:
460,192,230942,1,8,0:0:0:0:
248,192,231158,1,0,0:0:0:0:
392,192,231374,1,2,0:0:0:0:
100,192,231590,2,0,L|96:56,1,132.00000402832,8|0,0:0|0:0,0:0:0:0:
440,60,232022,2,0,L|308:60,1,132.00000402832,4|0,0:0|0:0,0:0:0:0:
16,60,232454,6,0,L|216:60,1,198.000006042481,4|0,0:0|0:0,0:0:0:0:
360,60,232886,2,0,L|364:192,1,132.00000402832,2|0,0:0|0:0,0:0:0:0:
72,192,233318,1,8,0:0:0:0:
216,192,233534,1,2,0:0:0:0:
440,192,233750,2,0,L|368:192,1,66.0000020141602,2|2,0:0|0:0,0:0:0:0:
248,264,233966,2,0,L|316:264,1,66.0000020141602,8|8,0:0|0:0,0:0:0:0:
200,264,234182,5,2,0:0:0:0:
480,264,234398,1,8,0:0:0:0:
264,264,234614,1,0,0:0:0:0:
336,264,234722,1,0,0:0:0:0:
264,264,234830,1,2,0:0:0:0:
192,264,234938,1,0,0:0:0:0:
420,264,235046,2,0,L|412:124,1,132.00000402832,8|2,0:0|0:0,0:0:0:0:
120,132,235477,2,0,L|116:52,1,66.0000020141602,8|0,0:0|0:0,0:0:0:0:
352,64,235693,2,0,L|410:30,1,66.0000020141602
48,28,235909,5,4,0:0:0:0:
256,192,236126,12,0,249822,0:0:0:0:
