osu file format v14

[General]
AudioFilename: audio.mp3
AudioLeadIn: 0
PreviewTime: 135650
Countdown: 0
SampleSet: Soft
StackLeniency: 0.7
Mode: 2
LetterboxInBreaks: 0
WidescreenStoryboard: 0

[Editor]
Bookmarks: 1068,21782,28687,42497,56307,80475,94285,108085,135704,159872,173692,201312,208268,235909
DistanceSpacing: 1
BeatDivisor: 8
GridSize: 4
TimelineZoom: 3.599998

[Metadata]
Title:SOCIAL PHOBIA
TitleUnicode:SOCIAL PHOBIA
Artist:LukHash
ArtistUnicode:LukHash
Creator:JBHyperion
Version:CUP
Source:osu!
Tags:Dead Pixels electronica rock synth instrumental MBomb Magic Bomb Ascendance JBH Hyperion Featured Artist Mappers Guild Fruit Factory 地獄季節感 jigoku kisetsukan sense of the seasons atych stage 5 boss theme fear rejection Magic Bomb MBomb Ascendance JBH Hyperion
BeatmapID:2175038
BeatmapSetID:1040733

[Difficulty]
HPDrainRate:3
CircleSize:2.8
OverallDifficulty:6
ApproachRate:6
SliderMultiplier:1.6
SliderTickRate:1

[Events]
//Background and Video events
0,0,"girl-4206263.jpg",0,0
//Break Periods
2,21982,27393
2,160745,169179
//Storyboard Layer 0 (Background)
//Storyboard Layer 1 (Fail)
//Storyboard Layer 2 (Pass)
//Storyboard Layer 3 (Foreground)
//Storyboard Layer 4 (Overlay)
//Storyboard Sound Samples

[TimingPoints]
1068,431.561533481982,4,2,55,70,1,0
1283,-100,4,2,1,70,0,0
2794,-100,4,2,55,70,0,0
3009,-100,4,2,1,70,0,0
4520,-100,4,2,55,70,0,0
4735,-100,4,2,1,70,0,0
6246,-100,4,2,55,70,0,0
6461,-100,4,2,1,70,0,0
7757,-100,4,2,77,70,0,0
7972,-100,4,2,55,70,0,0
8404,-100,4,2,1,70,0,0
9699,-100,4,2,55,70,0,0
9914,-100,4,2,1,70,0,0
11425,-100,4,2,55,70,0,0
11640,-100,4,2,1,70,0,0
13151,-100,4,2,55,70,0,0
13366,-100,4,2,1,70,0,0
15093,-100,4,2,1,30,0,0
15309,-100,4,2,1,70,0,0
16604,-100,4,2,55,70,0,0
16819,-100,4,2,1,70,0,0
18330,-100,4,2,55,70,0,0
18545,-100,4,2,1,70,0,0
20056,-100,4,2,55,70,0,0
20271,-100,4,2,1,70,0,0
21782,-100,4,2,77,70,0,0
28687,-100,4,2,2,70,0,0
29119,-100,4,2,2,100,0,0
29551,-100,4,2,55,100,0,0
29767,-100,4,2,2,70,0,0
29982,-100,4,2,2,100,0,0
30090,-100,4,2,2,70,0,0
30845,-100,4,2,2,100,0,0
31277,-100,4,2,55,100,0,0
31708,-100,4,2,2,100,0,0
31816,-100,4,2,2,70,0,0
32356,-100,4,2,55,100,0,0
32572,-100,4,2,2,100,0,0
33003,-100,4,2,55,100,0,0
33219,-100,4,2,2,70,0,0
33435,-100,4,2,2,100,0,0
33543,-100,4,2,2,70,0,0
34298,-100,4,2,2,100,0,0
34406,-100,4,2,55,100,0,0
34730,-100,4,2,2,70,0,0
35161,-100,4,2,2,100,0,0
35377,-100,4,2,55,70,0,0
35593,-100,4,2,55,85,0,0
35700,-100,4,2,2,70,0,0
36024,-100,4,2,2,100,0,0
36456,-100,4,2,2,70,0,0
36887,-100,4,2,2,100,0,0
36995,-100,4,2,2,70,0,0
37750,-100,4,2,2,100,0,0
37858,-100,4,2,2,70,0,0
38613,-100,4,2,2,100,0,0
38721,-100,4,2,2,70,0,0
39476,-100,4,2,2,100,0,0
39584,-100,4,2,2,70,0,0
40340,-100,4,2,2,100,0,0
40448,-100,4,2,2,70,0,0
41203,-100,4,2,2,100,0,0
41850,-100,4,2,2,70,0,0
42066,-100,4,2,55,100,0,0
42282,-100,4,2,2,70,0,0
42497,-100,4,2,55,100,0,0
42929,-100,4,2,2,100,0,0
43145,-100,4,2,2,80,0,0
43792,-100,4,2,2,100,0,0
43900,-100,4,2,2,80,0,0
44655,-100,4,2,2,100,0,0
44763,-100,4,2,2,80,0,0
45518,-100,4,2,2,100,0,0
45626,-100,4,2,2,40,0,0
45950,-100,4,2,2,80,0,0
46381,-100,4,2,2,100,0,0
46489,-100,4,2,2,80,0,0
47245,-100,4,2,2,100,0,0
47353,-100,4,2,2,80,0,0
48108,-100,4,2,2,100,0,0
48971,-100,4,2,55,80,0,0
49079,-100,4,2,2,40,0,0
49402,-100,4,2,55,100,0,0
49510,-100,4,2,2,40,0,0
49834,-100,4,2,2,100,0,0
49942,-100,4,2,2,80,0,0
50697,-100,4,2,2,100,0,0
50805,-100,4,2,2,80,0,0
51560,-100,4,2,2,100,0,0
51668,-100,4,2,2,80,0,0
52423,-100,4,2,2,100,0,0
52531,-100,4,2,2,80,0,0
52963,-100,4,2,2,40,0,0
53286,-100,4,2,2,100,0,0
53394,-100,4,2,2,80,0,0
54150,-100,4,2,2,100,0,0
54258,-100,4,2,2,80,0,0
55013,-100,4,2,2,100,0,0
55876,-100,4,2,55,80,0,0
56092,-100,4,2,1,80,0,0
56307,-100,4,2,3,100,0,1
56739,-100,4,2,3,90,0,1
57170,-100,4,2,3,80,0,1
57602,-100,4,2,3,100,0,1
59328,-100,4,2,3,80,0,1
59760,-100,4,2,3,100,0,1
63428,-100,4,2,3,80,0,1
64075,-100,4,2,3,100,0,1
69902,-100,4,2,3,90,0,0
70117,-100,4,2,3,100,0,1
70549,-100,4,2,3,90,0,1
70980,-100,4,2,3,80,0,1
71412,-100,4,2,3,100,0,1
77238,-100,4,2,3,80,0,1
77885,-100,4,2,3,100,0,1
80475,-100,4,2,55,80,0,0
80691,-100,4,2,3,70,0,0
93422,-100,4,2,3,80,0,0
94285,-100,4,2,55,80,0,0
94393,-100,4,2,3,80,0,0
97737,-100,4,2,55,80,0,0
97845,-100,4,2,3,80,0,0
101190,-100,4,2,55,80,0,0
101298,-100,4,2,3,80,0,0
104642,-100,4,2,55,80,0,0
104750,-100,4,2,3,80,0,0
108085,431.561533481982,4,2,55,80,1,0
108193,-100,4,2,2,40,0,0
108516,-100,4,2,2,100,0,0
108732,-100,4,2,2,80,0,0
109379,-100,4,2,2,100,0,0
109595,-100,4,2,2,80,0,0
110243,-100,4,2,2,100,0,0
110459,-100,4,2,2,80,0,0
111106,-100,4,2,99,100,0,0
111322,-100,4,2,2,80,0,0
111969,-100,4,2,2,100,0,0
112185,-100,4,2,2,80,0,0
112832,-100,4,2,2,100,0,0
112940,-100,4,2,2,80,0,0
113695,-100,4,2,2,100,0,0
113911,-100,4,2,2,80,0,0
114558,-100,4,2,2,100,0,0
114774,-100,4,2,2,80,0,0
116284,-100,4,2,2,100,0,0
116392,-100,4,2,2,80,0,0
118011,-100,4,2,99,100,0,0
118227,-100,4,2,2,80,0,0
118874,-100,4,2,2,100,0,0
119090,-100,4,2,2,80,0,0
119737,-100,4,2,2,100,0,0
119845,-100,4,2,2,80,0,0
120600,-100,4,2,2,100,0,0
120816,-100,4,2,2,80,0,0
121139,-100,4,2,2,100,0,0
121463,-100,4,2,55,100,0,0
121679,-100,4,2,2,80,0,0
121895,-100,4,2,55,80,0,0
122326,-100,4,2,2,100,0,0
122434,-100,4,2,2,80,0,0
123189,-100,4,2,2,100,0,0
123297,-100,4,2,2,80,0,0
124053,-100,4,2,2,100,0,0
124269,-100,4,2,2,80,0,0
124916,-100,4,2,2,100,0,0
125347,-100,4,2,2,80,0,0
125779,-100,4,2,2,100,0,0
125995,-100,4,2,2,80,0,0
126642,-100,4,2,2,100,0,0
126750,-100,4,2,2,80,0,0
127505,-100,4,2,2,100,0,0
128368,-100,4,2,55,80,0,0
129231,-100,4,2,2,100,0,0
129447,-100,4,2,2,80,0,0
130094,-100,4,2,2,100,0,0
130202,-100,4,2,2,80,0,0
130958,-100,4,2,2,100,0,0
131174,-100,4,2,2,80,0,0
132684,-100,4,2,2,100,0,0
132900,-100,4,2,2,80,0,0
133547,-100,4,2,2,100,0,0
133655,-100,4,2,2,80,0,0
134410,-100,4,2,2,100,0,0
135273,-100,4,2,55,100,0,0
135489,-100,4,2,2,100,0,0
135704,-100,4,2,3,100,0,1
136136,-100,4,2,3,90,0,1
136568,-100,4,2,3,80,0,1
136999,-100,4,2,3,100,0,1
138726,-100,4,2,3,80,0,1
139157,-100,4,2,3,100,0,1
142825,-100,4,2,3,80,0,1
143473,-100,4,2,3,100,0,1
149299,-100,4,2,3,90,0,0
149514,-100,4,2,3,100,0,1
149947,-100,4,2,3,90,0,1
150378,-100,4,2,3,80,0,1
150810,-100,4,2,3,100,0,1
151026,-100,4,2,3,50,0,1
151242,-100,4,2,3,100,0,1
152536,-100,4,2,3,80,0,1
152968,-100,4,2,3,100,0,1
156636,-100,4,2,3,80,0,1
157283,-100,4,2,3,100,0,1
159441,-100,4,2,3,60,0,1
159872,-100,4,2,55,80,0,0
170230,-100,4,2,1,20,0,0
171093,-100,4,2,1,30,0,0
171956,-100,4,2,1,40,0,0
172819,-100,4,2,1,50,0,0
173035,438.27611395179,4,2,3,80,1,0
173254,-100,4,2,3,5,0,0
173692,431.561533481982,4,2,55,70,1,0
173692,-100,4,2,55,80,0,0
174124,-100,4,2,3,80,0,0
177145,-100,4,2,55,80,0,0
177252,-100,4,2,3,80,0,0
180597,-100,4,2,55,80,0,0
180705,-100,4,2,3,80,0,0
184050,-100,4,2,55,80,0,0
184157,-100,4,2,3,80,0,0
187502,-100,4,2,88,80,0,0
187934,-100,4,2,3,80,0,0
190955,-100,4,2,55,80,0,0
191386,-100,4,2,3,80,0,0
194407,-100,4,2,55,80,0,0
194839,-100,4,2,3,80,0,0
197860,-100,4,2,55,80,0,0
198291,-100,4,2,3,80,0,0
200880,-100,4,2,55,80,0,0
201311,434.782608695652,4,2,77,100,1,0
201746,-100,4,2,1,15,0,0
202181,-100,4,2,1,20,0,0
202616,-100,4,2,1,25,0,0
203051,-100,4,2,1,30,0,0
203485,-100,4,2,1,35,0,0
203920,-100,4,2,1,40,0,0
204355,-100,4,2,1,45,0,0
204790,-100,4,2,1,40,0,0
205225,-100,4,2,1,35,0,0
205660,-100,4,2,1,30,0,0
206094,-100,4,2,1,25,0,0
206529,-100,4,2,1,20,0,0
206964,-100,4,2,1,15,0,0
207399,-100,4,2,1,10,0,0
207833,-100,4,2,1,5,0,0
208268,431.903253671178,4,2,55,90,1,1
208699,-100,4,2,3,90,0,1
209995,-100,4,2,55,90,0,1
210211,-100,4,2,3,90,0,1
210859,-100,4,2,55,80,0,1
211291,-100,4,2,99,90,0,1
211723,-100,4,2,55,90,0,1
212155,-100,4,2,3,90,0,1
213450,-100,4,2,55,90,0,1
213666,-100,4,2,3,90,0,1
214314,-100,4,2,55,80,0,1
214530,-100,4,2,3,90,0,1
214746,-100,4,2,77,90,0,1
215178,-100,4,2,55,90,0,1
215610,-100,4,2,3,90,0,1
216690,-100,4,2,3,50,0,1
216905,-100,4,2,55,90,0,1
217121,-100,4,2,3,90,0,1
217769,-100,4,2,55,80,0,1
217985,-100,4,2,3,90,0,1
218201,-100,4,2,99,90,0,1
218633,-100,4,2,55,90,0,1
219065,-100,4,2,3,90,0,1
220360,-100,4,2,55,90,0,1
220576,-100,4,2,3,90,0,1
221224,-100,4,2,55,80,0,1
221656,-100,4,2,77,90,0,1
221872,-100,4,2,77,90,0,0
222088,-100,4,2,55,90,0,1
222304,-100,4,2,3,90,0,1
222952,-100,4,2,55,90,0,1
223168,-100,4,2,3,90,0,1
223384,-100,4,2,1,90,0,1
223816,-100,4,2,55,90,0,1
224032,-100,4,2,3,90,0,1
224680,-100,4,2,55,90,0,1
225112,-100,4,2,99,100,0,1
225544,-100,4,2,55,90,0,1
225976,-100,4,2,3,90,0,1
226407,-100,4,2,55,90,0,1
226623,-100,4,2,3,90,0,1
227271,-100,4,2,55,90,0,1
227487,-100,4,2,3,90,0,1
228135,-100,4,2,55,90,0,1
228567,-100,4,2,77,90,0,1
228783,-100,4,2,3,50,0,1
228999,-100,4,2,55,100,0,1
229215,-100,4,2,3,100,0,1
229863,-100,4,2,55,100,0,1
230079,-100,4,2,3,100,0,1
230295,-100,4,2,1,100,0,1
230726,-100,4,2,55,100,0,1
230942,-100,4,2,3,100,0,1
231590,-100,4,2,55,100,0,1
232022,-100,4,2,99,100,0,1
232454,-100,4,2,55,90,0,1
232886,-100,4,2,3,90,0,1
233318,-100,4,2,55,90,0,1
233534,-100,4,2,3,90,0,1
234182,-100,4,2,55,90,0,1
234398,-100,4,2,3,90,0,1
235046,-100,4,2,55,90,0,1
235477,-100,4,2,77,100,0,1
235909,434.782608695652,4,2,88,100,1,0
236343,-100,4,2,1,15,0,0
236778,-100,4,2,1,20,0,0
237213,-100,4,2,1,25,0,0
237648,-100,4,2,1,30,0,0
238082,-100,4,2,1,35,0,0
238517,-100,4,2,1,40,0,0
238952,-100,4,2,1,45,0,0
239387,-100,4,2,1,50,0,0
241561,-100,4,2,1,45,0,0
241996,-100,4,2,1,43,0,0
242431,-100,4,2,1,41,0,0
242866,-100,4,2,1,39,0,0
243300,-100,4,2,1,37,0,0
243735,-100,4,2,1,35,0,0
244170,-100,4,2,1,33,0,0
244605,-100,4,2,1,31,0,0
245039,-100,4,2,1,29,0,0
245474,-100,4,2,1,27,0,0
245909,-100,4,2,1,25,0,0
246344,-100,4,2,1,23,0,0
246779,-100,4,2,1,21,0,0
247213,-100,4,2,1,19,0,0
247648,-100,4,2,1,17,0,0
248083,-100,4,2,1,15,0,0
248518,-100,4,2,1,13,0,0
248952,-100,4,2,1,11,0,0
249387,-100,4,2,1,9,0,0
249822,432.432432432432,4,2,1,7,1,0

[Colours]
Combo1 : 180,90,20
Combo2 : 50,80,120
Combo3 : 100,100,100
Combo4 : 50,100,100

[HitObjects]
140,352,1068,6,0,L|136:192,1,160,2|8,0:0|0:0,0:0:0:0:
256,192,1823,1,2,0:0:0:0:
112,192,2146,2,0,L|108:108,1,80,2|8,0:0|0:0,0:0:0:0:
244,272,2794,6,0,L|248:112,1,160,2|8,0:0|0:0,0:0:0:0:
128,112,3549,1,2,0:0:0:0:
272,112,3873,2,0,L|188:112,1,80,2|8,0:0|0:0,0:0:0:0:
328,112,4520,6,0,L|332:272,1,160,2|8,0:0|0:0,0:0:0:0:
212,272,5275,1,2,0:0:0:0:
356,272,5599,2,0,L|360:356,1,80,2|8,0:0|0:0,0:0:0:0:
224,352,6246,6,0,L|220:192,1,160,2|8,0:0|0:0,0:0:0:0:
340,192,7001,1,2,0:0:0:0:
244,192,7325,1,2,0:0:0:0:
148,192,7541,2,0,L|228:192,1,80,8|8,0:0|0:0,0:0:0:0:
308,192,7972,6,0,L|144:192,1,160,2|8,0:0|0:0,0:0:0:0:
28,192,8728,1,2,0:0:0:0:
172,192,9051,2,0,L|176:112,1,80,2|8,0:0|0:0,0:0:0:0:
312,112,9699,6,0,L|316:272,1,160,2|8,0:0|0:0,0:0:0:0:
196,272,10454,1,2,0:0:0:0:
340,272,10778,2,0,L|244:272,1,80,2|8,0:0|0:0,0:0:0:0:
124,272,11425,6,0,L|120:112,1,160,2|8,0:0|0:0,0:0:0:0:
240,112,12180,1,2,0:0:0:0:
360,112,12504,2,0,L|364:28,1,80,2|8,0:0|0:0,0:0:0:0:
228,32,13151,6,0,L|224:192,1,160,2|8,0:0|0:0,0:0:0:0:
344,192,13906,1,2,0:0:0:0:
248,192,14230,1,2,0:0:0:0:
152,192,14446,1,8,0:0:0:0:
248,192,14662,1,8,0:0:0:0:
136,192,14877,6,0,P|80:236|136:272,1,160,2|8,0:0|0:0,0:0:0:0:
268,272,15633,1,2,0:0:0:0:
148,272,15956,1,2,0:0:0:0:
244,272,16172,1,8,0:0:0:0:
404,272,16604,6,0,B|404:192|404:192|320:192,1,160,2|8,0:0|0:0,0:0:0:0:
204,192,17359,2,0,L|324:192,1,120,2|2,0:0|0:0,0:0:0:0:
420,192,17898,1,8,0:0:0:0:
276,192,18330,6,0,B|196:192|196:192|196:112,1,160,2|8,0:0|0:0,0:0:0:0:
328,112,19085,1,2,0:0:0:0:
208,112,19409,1,2,0:0:0:0:
112,112,19625,1,8,0:0:0:0:
256,112,20056,6,0,B|256:192|256:192|172:192,1,160,2|8,0:0|0:0,0:0:0:0:
56,192,20811,2,0,L|176:192,1,120,2|2,0:0|0:0,0:0:0:0:
272,192,21351,2,0,L|276:280,1,80,8|0,0:0|0:0,0:0:0:0:
172,273,21782,5,4,0:0:0:0:
360,188,28687,6,0,P|404:120|360:68,1,160,2|8,0:0|0:0,0:0:0:0:
200,68,29551,2,0,L|136:120,2,80,0|0|8,0:0|0:0|0:0,0:0:0:0:
360,68,30414,5,2,0:0:0:0:
296,68,30629,1,2,0:0:0:0:
232,68,30845,1,8,0:0:0:0:
360,68,31277,1,0,0:0:0:0:
216,152,31708,2,0,L|212:244,1,80,12|0,0:0|0:0,0:0:0:0:
308,232,32140,6,0,L|464:192,1,160,2|8,0:0|0:0,0:0:0:0:
304,192,33003,2,0,L|232:156,2,80,0|0|8,0:0|0:0|0:0,0:0:0:0:
160,192,33866,5,2,0:0:0:0:
96,192,34082,1,2,0:0:0:0:
32,192,34298,1,8,0:0:0:0:
160,192,34729,1,2,0:0:0:0:
16,360,35161,2,0,L|12:272,1,80,12|0,0:0|0:0,0:0:0:0:
108,272,35592,5,4,0:0:0:0:
196,272,35808,1,2,0:0:0:0:
108,272,36024,1,8,0:0:0:0:
268,272,36456,2,0,L|272:192,1,80,2|2,0:0|0:0,0:0:0:0:
176,192,36887,1,8,0:0:0:0:
16,88,37319,6,0,L|180:88,2,160,2|8|0,0:0|0:0|0:0,0:0:0:0:
160,244,38613,2,0,L|240:244,1,80,12|0,0:0|0:0,0:0:0:0:
144,244,39045,6,0,L|84:192,2,80,2|0|8,0:0|0:0|0:0,0:0:0:0:
304,244,39908,2,0,L|208:244,1,80,0|2,0:0|0:0,0:0:0:0:
128,244,40340,1,8,0:0:0:0:
288,244,40771,6,0,L|440:192,1,160,2|8,0:0|0:0,0:0:0:0:
376,192,41419,1,8,0:0:0:0:
256,192,41742,1,8,0:0:0:0:
400,192,42066,2,0,L|480:192,1,80,8|2,0:0|0:0,0:0:0:0:
384,192,42497,6,0,B|304:192|304:192|304:108,1,160,4|8,0:0|0:0,0:0:0:0:
400,112,43145,2,0,B|480:112|480:112|480:192,1,160,2|2,0:0|0:0,0:0:0:0:
384,192,43792,1,8,0:0:0:0:
224,192,44224,6,0,L|220:32,1,160,2|8,0:0|0:0,0:0:0:0:
300,32,44871,1,2,0:0:0:0:
380,32,45087,2,0,B|380:112|380:112|288:112,1,160,2|8,0:0|0:0,0:0:0:0:
108,112,45950,6,0,L|248:192,1,160,2|8,0:0|0:0,0:0:0:0:
344,192,46597,2,0,L|205:112,1,160,2|2,0:0|0:0,0:0:0:0:
108,112,47245,1,8,0:0:0:0:
260,112,47676,5,2,0:0:0:0:
92,192,48108,2,0,L|88:284,1,80,8|8,0:0|0:0,0:0:0:0:
232,272,48647,1,8,0:0:0:0:
88,271,48971,1,8,0:0:0:0:
260,272,49402,6,0,B|260:192|260:192|172:192,1,160,4|8,0:0|0:0,0:0:0:0:
84,192,50050,2,0,L|244:192,1,160,2|2,0:0|0:0,0:0:0:0:
340,192,50697,1,8,0:0:0:0:
180,192,51129,6,0,L|108:152,2,80,2|2|8,0:0|0:0|0:0,0:0:0:0:
340,192,51992,1,2,0:0:0:0:
260,192,52208,1,2,0:0:0:0:
180,192,52423,1,8,0:0:0:0:
20,192,52855,6,0,B|20:112|20:112|100:112,1,160,2|8,0:0|0:0,0:0:0:0:
196,112,53502,2,0,L|32:112,1,160,2|2,0:0|0:0,0:0:0:0:
132,112,54150,1,8,0:0:0:0:
292,112,54581,5,2,0:0:0:0:
140,192,55013,2,0,L|60:192,1,80,8|8,0:0|0:0,0:0:0:0:
204,192,55552,1,8,0:0:0:0:
348,192,55876,2,0,L|352:272,1,80,8|0,0:0|0:0,0:0:0:0:
244,272,56307,6,0,L|80:272,2,160,6|6|12,0:0|0:0|0:0,0:0:0:0:
404,272,57602,1,2,0:0:0:0:
244,272,58034,6,0,L|328:272,1,80,2|8,0:0|0:0,0:0:0:0:
460,272,58681,1,2,0:0:0:0:
372,272,58897,2,0,L|366:191,2,80,8|0|0,0:0|0:0|0:0,0:0:0:0:
176,192,59760,6,0,L|344:192,2,160,2|2|8,0:0|0:0|0:0,0:0:0:0:
32,192,61055,1,2,0:0:0:0:
192,192,61486,6,0,L|104:192,1,80,2|8,0:0|0:0,0:0:0:0:
240,192,62133,1,0,0:0:0:0:
336,192,62349,1,8,0:0:0:0:
176,116,62781,1,8,0:0:0:0:
352,32,63212,6,0,L|512:32,2,160,2|2|8,0:0|0:0|0:0,0:0:0:0:
192,32,64507,1,2,0:0:0:0:
368,32,64939,6,0,L|372:128,1,80,2|8,0:0|0:0,0:0:0:0:
212,112,65586,1,2,0:0:0:0:
124,112,65802,2,0,L|40:112,1,80,8|2,0:0|0:0,0:0:0:0:
284,192,66665,6,0,L|144:112,2,160,2|2|8,0:0|0:0|0:0,0:0:0:0:
284,192,67744,1,0,0:0:0:0:
220,192,67960,1,0,0:0:0:0:
76,192,68391,5,2,0:0:0:0:
164,192,68607,1,8,0:0:0:0:
324,192,69038,1,2,0:0:0:0:
236,192,69254,2,0,L|148:192,2,80,8|2|8,0:0|0:0|0:0,0:0:0:0:
428,288,70117,6,0,L|264:288,2,160,6|6|12,0:0|0:0|0:0,0:0:0:0:
268,288,71412,1,2,0:0:0:0:
76,288,71844,6,0,L|160:288,1,80,2|8,0:0|0:0,0:0:0:0:
316,288,72491,1,2,0:0:0:0:
228,288,72707,2,0,L|224:200,2,80,8|2|0,0:0|0:0|0:0,0:0:0:0:
440,208,73570,5,2,0:0:0:0:
280,208,74001,1,2,0:0:0:0:
120,208,74433,1,8,0:0:0:0:
264,208,74865,1,2,0:0:0:0:
88,208,75296,6,0,L|176:208,1,80,2|8,0:0|0:0,0:0:0:0:
312,208,75943,1,2,0:0:0:0:
216,208,76159,1,8,0:0:0:0:
384,128,76591,1,8,0:0:0:0:
208,48,77022,6,0,L|48:48,2,160,2|2|8,0:0|0:0|0:0,0:0:0:0:
368,48,78317,1,2,0:0:0:0:
192,48,78749,6,0,L|188:132,1,80,2|8,0:0|0:0,0:0:0:0:
332,128,79396,1,2,0:0:0:0:
236,128,79612,2,0,L|320:128,1,80,8|0,0:0|0:0,0:0:0:0:
483,128,80475,6,0,L|488:296,1,160,4|2,0:0|0:0,0:0:0:0:
328,288,81338,2,0,L|324:200,1,80,8|2,0:0|0:0,0:0:0:0:
132,204,82201,6,0,L|216:204,1,80,2|8,0:0|0:0,0:0:0:0:
340,204,82848,1,2,0:0:0:0:
260,204,83064,1,8,0:0:0:0:
420,204,83496,1,8,0:0:0:0:
260,204,83927,6,0,L|252:40,1,160,2|2,0:0|0:0,0:0:0:0:
92,44,84790,2,0,L|88:140,1,80,8|2,0:0|0:0,0:0:0:0:
280,124,85654,5,2,0:0:0:0:
200,124,85869,1,8,0:0:0:0:
328,216,86301,1,2,0:0:0:0:
248,216,86517,1,8,0:0:0:0:
88,216,86948,1,8,0:0:0:0:
236,376,87380,6,0,L|228:208,1,160,2|2,0:0|0:0,0:0:0:0:
68,216,88243,2,0,L|60:300,1,80,8|2,0:0|0:0,0:0:0:0:
252,296,89106,6,0,L|168:296,1,80,2|8,0:0|0:0,0:0:0:0:
44,296,89753,1,2,0:0:0:0:
124,296,89969,1,8,0:0:0:0:
284,296,90401,1,8,0:0:0:0:
124,296,90832,6,0,L|116:132,1,160,2|2,0:0|0:0,0:0:0:0:
276,136,91695,2,0,L|280:232,1,80,8|2,0:0|0:0,0:0:0:0:
88,124,92343,1,2,0:0:0:0:
168,124,92559,5,2,0:0:0:0:
88,124,92774,1,8,0:0:0:0:
216,24,93206,1,2,0:0:0:0:
136,24,93422,2,0,L|132:108,1,80,8|8,0:0|0:0,0:0:0:0:
324,104,94285,6,0,P|380:152|324:192,1,160,4|2,0:0|0:0,0:0:0:0:
184,192,95148,2,0,L|344:156,1,160,8|2,0:0|0:0,0:0:0:0:
484,156,96011,6,0,L|396:156,1,80,2|8,0:0|0:0,0:0:0:0:
260,156,96658,1,2,0:0:0:0:
340,156,96874,1,8,0:0:0:0:
180,156,97306,1,8,0:0:0:0:
356,160,97737,6,0,B|436:160|436:160|436:80,1,160,4|2,0:0|0:0,0:0:0:0:
276,80,98600,1,8,0:0:0:0:
420,80,99032,1,2,0:0:0:0:
260,80,99464,6,0,L|168:80,1,80,2|8,0:0|0:0,0:0:0:0:
324,80,100111,1,2,0:0:0:0:
236,80,100327,1,8,0:0:0:0:
76,80,100758,1,8,0:0:0:0:
252,0,101190,6,0,B|252:80|252:80|172:80,1,160,4|2,0:0|0:0,0:0:0:0:
28,80,102053,2,0,L|196:80,1,160,8|2,0:0|0:0,0:0:0:0:
332,80,102916,6,0,L|236:80,1,80,2|8,0:0|0:0,0:0:0:0:
108,80,103563,1,2,0:0:0:0:
188,80,103779,1,8,0:0:0:0:
348,80,104211,1,8,0:0:0:0:
172,80,104642,6,0,L|12:80,1,160,4|2,0:0|0:0,0:0:0:0:
172,80,105505,2,0,L|176:240,1,160,8|2,0:0|0:0,0:0:0:0:
16,240,106369,6,0,L|100:240,1,80,2|8,0:0|0:0,0:0:0:0:
224,240,107016,1,2,0:0:0:0:
128,240,107232,1,8,0:0:0:0:
216,240,107447,1,2,0:0:0:0:
360,192,108085,6,0,L|364:24,1,160,4|8,0:0|0:0,0:0:0:0:
204,32,108948,2,0,L|196:112,2,80,0|2|8,0:0|0:0|0:0,0:0:0:0:
364,32,109811,6,0,L|200:32,1,160,2|8,0:0|0:0,0:0:0:0:
60,36,110674,2,0,L|52:124,1,80,0|2,0:0|0:0,0:0:0:0:
148,116,111105,1,12,0:0:0:0:
308,116,111537,6,0,L|304:284,1,160,2|8,0:0|0:0,0:0:0:0:
144,276,112400,1,0,0:0:0:0:
138,196,112616,1,2,0:0:0:0:
132,116,112832,1,8,0:0:0:0:
292,116,113263,6,0,L|128:116,2,160,2|8|2,0:0|0:0|0:0,0:0:0:0:
452,116,114558,2,0,L|360:116,1,80,12|0,0:0|0:0,0:0:0:0:
276,116,114989,5,8,0:0:0:0:
220,192,115205,1,2,0:0:0:0:
284,264,115421,1,8,0:0:0:0:
444,264,115853,2,0,L|448:100,1,160,0|8,0:0|0:0,0:0:0:0:
288,108,116716,6,0,L|280:20,2,80,2|2|8,0:0|0:0|0:0,0:0:0:0:
128,108,117579,1,0,0:0:0:0:
304,108,118010,1,12,0:0:0:0:
144,108,118442,5,8,0:0:0:0:
216,108,118658,1,2,0:0:0:0:
288,108,118874,1,8,0:0:0:0:
448,108,119305,2,0,L|452:272,1,160,0|8,0:0|0:0,0:0:0:0:
292,268,120168,6,0,L|220:224,2,80,2|2|8,0:0|0:0|0:0,0:0:0:0:
292,268,120816,1,8,0:0:0:0:
172,268,121139,1,8,0:0:0:0:
52,268,121463,2,0,L|44:188,1,80,8|8,0:0|0:0,0:0:0:0:
140,188,121894,6,0,B|220:188|220:188|220:104,1,160,4|8,0:0|0:0,0:0:0:0:
124,108,122542,2,0,B|44:108|44:108|44:188,1,160,2|2,0:0|0:0,0:0:0:0:
140,188,123189,1,8,0:0:0:0:
300,188,123621,6,0,L|304:28,1,160,2|8,0:0|0:0,0:0:0:0:
224,28,124268,1,2,0:0:0:0:
144,28,124484,2,0,B|144:108|144:108|236:108,1,160,2|8,0:0|0:0,0:0:0:0:
416,108,125347,6,0,L|276:188,1,160,2|8,0:0|0:0,0:0:0:0:
180,188,125994,2,2,L|319:108,1,160,2|2,0:0|0:0,0:0:0:0:
416,108,126642,1,8,0:0:0:0:
264,108,127073,6,0,L|260:200,1,80,2|2,0:0|0:0,0:0:0:0:
352,267,127505,2,0,L|432:267,1,80,8|8,0:0|0:0,0:0:0:0:
288,267,128044,1,8,0:0:0:0:
432,267,128368,1,8,0:0:0:0:
260,267,128799,6,0,B|260:187|260:187|348:187,1,160,4|8,0:0|0:0,0:0:0:0:
436,187,129447,2,0,L|276:187,1,160,2|2,0:0|0:0,0:0:0:0:
180,187,130094,1,8,0:0:0:0:
340,187,130526,5,2,0:0:0:0:
260,187,130741,1,2,0:0:0:0:
180,187,130957,1,8,0:0:0:0:
20,187,131389,1,2,0:0:0:0:
100,187,131605,1,2,0:0:0:0:
180,187,131820,1,8,0:0:0:0:
340,187,132252,6,0,B|340:107|340:107|260:107,1,160,2|8,0:0|0:0,0:0:0:0:
164,107,132899,2,0,L|328:107,1,160,2|2,0:0|0:0,0:0:0:0:
420,108,133547,1,8,0:0:0:0:
260,108,133978,6,0,L|340:108,1,80,2|2,0:0|0:0,0:0:0:0:
428,24,134410,2,0,L|348:24,1,80,8|8,0:0|0:0,0:0:0:0:
228,24,134949,1,8,0:0:0:0:
372,24,135273,2,0,L|376:104,1,80,8|2,0:0|0:0,0:0:0:0:
280,104,135704,6,0,L|116:104,2,160,6|6|12,0:0|0:0|0:0,0:0:0:0:
440,104,136999,1,2,0:0:0:0:
280,104,137431,5,2,0:0:0:0:
200,104,137646,2,0,B|200:184|200:184|281:184,1,160,8|2,0:0|0:0,0:0:0:0:
372,184,138294,1,8,0:0:0:0:
420,232,138510,1,0,0:0:0:0:
372,284,138725,1,2,0:0:0:0:
196,280,139157,5,2,0:0:0:0:
340,280,139588,1,2,0:0:0:0:
484,280,140020,2,0,B|484:200|484:200|404:192,1,160,8|2,0:0|0:0,0:0:0:0:
260,192,140883,6,0,L|256:104,1,80,2|8,0:0|0:0,0:0:0:0:
96,112,141531,1,2,0:0:0:0:
192,112,141746,2,0,L|276:112,2,80,8|2|8,0:0|0:0|0:0,0:0:0:0:
16,112,142609,6,0,L|176:112,2,160,2|2|8,0:0|0:0|0:0,0:0:0:0:
176,112,143904,1,2,0:0:0:0:
336,112,144336,6,0,L|340:208,1,80,2|8,0:0|0:0,0:0:0:0:
180,192,144983,1,2,0:0:0:0:
92,192,145199,2,0,L|8:192,1,80,8|2,0:0|0:0,0:0:0:0:
252,192,146062,6,0,L|256:32,1,160,2|2,0:0|0:0,0:0:0:0:
96,32,146925,1,8,0:0:0:0:
176,32,147141,1,0,0:0:0:0:
256,32,147357,1,2,0:0:0:0:
400,120,147788,5,2,0:0:0:0:
312,120,148004,1,8,0:0:0:0:
168,120,148436,1,2,0:0:0:0:
264,120,148651,2,0,L|352:120,2,80,8|2|8,0:0|0:0|0:0,0:0:0:0:
72,120,149514,6,0,L|236:120,2,160,6|6|12,0:0|0:0|0:0,0:0:0:0:
232,120,150809,2,0,L|236:208,1,80,2|8,0:0|0:0,0:0:0:0:
148,200,151241,6,0,L|64:200,1,80,2|8,0:0|0:0,0:0:0:0:
228,200,151888,1,2,0:0:0:0:
140,200,152104,2,0,L|60:200,2,80,8|2|0,0:0|0:0|0:0,0:0:0:0:
316,200,152967,5,2,0:0:0:0:
172,200,153398,1,2,0:0:0:0:
28,200,153830,1,8,0:0:0:0:
188,200,154262,1,2,0:0:0:0:
12,200,154693,5,2,0:0:0:0:
100,200,154909,1,8,0:0:0:0:
188,200,155125,1,4,0:0:0:0:
28,200,155556,1,8,0:0:0:0:
188,280,155988,1,8,0:0:0:0:
348,360,156419,6,0,L|508:360,2,160,2|2|8,0:0|0:0|0:0,0:0:0:0:
188,360,157714,1,2,0:0:0:0:
364,360,158146,6,0,L|368:276,1,80,2|8,0:0|0:0,0:0:0:0:
224,280,158793,1,2,0:0:0:0:
320,280,159009,1,8,0:0:0:0:
224,280,159225,2,0,P|156:252|224:144,1,240,2|4,0:0|0:0,0:0:0:0:
256,192,170229,12,0,173254,0:0:0:0:
288,192,173692,6,0,L|296:32,1,160,4|2,0:0|0:0,0:0:0:0:
152,32,174555,1,8,0:0:0:0:
312,32,174986,1,2,0:0:0:0:
168,32,175418,6,0,L|264:32,1,80,2|8,0:0|0:0,0:0:0:0:
392,32,176065,1,2,0:0:0:0:
312,32,176281,2,0,L|472:32,1,160,8|8,0:0|0:0,0:0:0:0:
312,32,177144,6,0,L|308:196,1,160,4|2,0:0|0:0,0:0:0:0:
148,192,178007,2,0,L|76:236,2,80,8|2|2,0:0|0:0|0:0,0:0:0:0:
292,192,178870,6,0,L|192:192,1,80,2|8,0:0|0:0,0:0:0:0:
356,192,179518,1,2,0:0:0:0:
444,192,179733,1,8,0:0:0:0:
284,192,180165,1,8,0:0:0:0:
460,192,180596,6,0,L|464:364,1,160,4|2,0:0|0:0,0:0:0:0:
320,352,181460,1,8,0:0:0:0:
176,352,181891,1,2,0:0:0:0:
320,272,182323,6,0,L|240:272,1,80,2|8,0:0|0:0,0:0:0:0:
368,192,182970,1,2,0:0:0:0:
280,192,183186,1,8,0:0:0:0:
120,192,183617,1,8,0:0:0:0:
296,192,184049,6,0,L|300:28,1,160,4|2,0:0|0:0,0:0:0:0:
460,32,184912,2,0,L|464:120,2,80,8|2|2,0:0|0:0|0:0,0:0:0:0:
316,32,185775,6,0,L|236:32,1,80,2|8,0:0|0:0,0:0:0:0:
108,32,186423,1,2,0:0:0:0:
196,32,186638,2,0,L|276:32,2,80,8|2|8,0:0|0:0|0:0,0:0:0:0:
20,32,187501,6,0,L|12:192,1,160,4|2,0:0|0:0,0:0:0:0:
172,192,188365,1,8,0:0:0:0:
236,192,188580,1,2,0:0:0:0:
300,192,188796,1,0,0:0:0:0:
140,192,189228,6,0,L|136:280,1,80,2|8,0:0|0:0,0:0:0:0:
264,272,189875,1,2,0:0:0:0:
176,272,190091,1,8,0:0:0:0:
336,272,190522,1,8,0:0:0:0:
160,272,190954,6,0,L|20:192,1,160,4|2,0:0|0:0,0:0:0:0:
180,192,191817,2,0,L|192:112,2,80,8|2|2,0:0|0:0|0:0,0:0:0:0:
340,192,192680,6,0,L|260:192,1,80,2|8,0:0|0:0,0:0:0:0:
132,192,193328,1,2,0:0:0:0:
210,192,193543,1,8,0:0:0:0:
288,192,193759,1,0,0:0:0:0:
366,192,193975,1,2,0:0:0:0:
204,88,194406,6,0,L|368:88,1,160,4|2,0:0|0:0,0:0:0:0:
204,88,195270,1,8,0:0:0:0:
348,88,195701,1,2,0:0:0:0:
492,88,196133,6,0,L|400:88,1,80,0|8,0:0|0:0,0:0:0:0:
284,88,196780,1,2,0:0:0:0:
372,88,196996,1,8,0:0:0:0:
228,88,197427,2,0,L|144:88,1,80,8|2,0:0|0:0,0:0:0:0:
68,88,197859,6,0,L|64:256,1,160,4|2,0:0|0:0,0:0:0:0:
224,248,198722,1,8,0:0:0:0:
152,248,198938,1,2,0:0:0:0:
80,248,199154,1,2,0:0:0:0:
240,248,199585,6,0,L|312:208,2,80,2|8|0,0:0|0:0|0:0,0:0:0:0:
64,248,200448,1,8,0:0:0:0:
208,248,200880,1,8,0:0:0:0:
16,248,201311,5,4,0:0:0:0:
256,192,201745,12,0,207832,0:0:0:0:
296,192,208268,6,0,B|376:192|376:192|376:112,1,160,4|2,0:0|0:0,0:0:0:0:
216,112,209131,2,0,L|184:32,2,80,8|0|0,0:0|0:0|0:0,0:0:0:0:
360,112,209995,6,0,L|364:200,1,80,2|8,0:0|0:0,0:0:0:0:
220,192,210643,1,0,0:0:0:0:
132,192,210859,1,8,0:0:0:0:
308,192,211291,1,4,0:0:0:0:
108,192,211723,6,0,L|104:352,1,160,4|2,0:0|0:0,0:0:0:0:
264,352,212587,2,0,L|280:272,2,80,8|0|2,0:0|0:0|0:0,0:0:0:0:
424,352,213450,6,0,L|340:352,1,80,2|8,0:0|0:0,0:0:0:0:
200,352,214098,1,0,0:0:0:0:
280,352,214314,1,8,0:0:0:0:
200,352,214530,1,0,0:0:0:0:
120,352,214746,1,8,0:0:0:0:
280,240,215178,6,0,L|432:192,1,160,4|2,0:0|0:0,0:0:0:0:
264,192,216042,2,0,L|256:112,1,80,8|0,0:0|0:0,0:0:0:0:
384,112,216690,1,8,0:0:0:0:
296,112,216906,6,0,L|216:112,1,80,2|8,0:0|0:0,0:0:0:0:
88,112,217553,1,0,0:0:0:0:
176,112,217769,2,0,L|256:112,2,80,8|0|4,0:0|0:0|0:0,0:0:0:0:
16,112,218633,6,0,B|16:192|16:192|96:192,1,160,4|2,0:0|0:0,0:0:0:0:
256,192,219497,1,8,0:0:0:0:
184,192,219713,1,0,0:0:0:0:
112,192,219929,1,2,0:0:0:0:
256,192,220361,6,0,L|336:192,1,80,2|8,0:0|0:0,0:0:0:0:
208,192,221009,1,2,0:0:0:0:
296,192,221225,1,8,0:0:0:0:
136,192,221657,1,8,0:0:0:0:
328,192,222088,6,0,P|372:248|328:312,1,160,4|2,0:0|0:0,0:0:0:0:
168,312,222952,2,0,L|164:228,1,80,8|2,0:0|0:0,0:0:0:0:
248,192,223384,1,8,0:0:0:0:
408,192,223816,6,0,L|492:192,2,80,2|8|0,0:0|0:0|0:0,0:0:0:0:
232,192,224680,1,8,0:0:0:0:
392,192,225112,2,0,L|396:112,1,80,4|0,0:0|0:0,0:0:0:0:
292,112,225544,6,0,P|236:68|292:24,1,160,4|2,0:0|0:0,0:0:0:0:
464,24,226407,2,0,L|472:112,2,80,8|2|2,0:0|0:0|0:0,0:0:0:0:
304,24,227271,6,0,L|384:24,1,80,2|8,0:0|0:0,0:0:0:0:
256,24,227919,1,2,0:0:0:0:
168,24,228135,1,8,0:0:0:0:
40,24,228567,2,0,L|36:112,1,80,8|8,0:0|0:0,0:0:0:0:
124,104,228999,6,0,B|204:104|204:104|204:188,1,160,4|2,0:0|0:0,0:0:0:0:
44,184,229863,1,8,0:0:0:0:
124,184,230079,1,0,0:0:0:0:
204,184,230295,1,8,0:0:0:0:
348,184,230726,6,0,L|436:184,2,80,2|8|0,0:0|0:0|0:0,0:0:0:0:
172,184,231590,1,8,0:0:0:0:
332,184,232022,2,0,L|336:272,1,80,4|0,0:0|0:0,0:0:0:0:
240,264,232454,6,0,L|96:192,1,160,4|2,0:0|0:0,0:0:0:0:
288,192,233318,1,8,0:0:0:0:
296,112,233534,1,2,0:0:0:0:
304,32,233750,1,2,0:0:0:0:
144,32,234182,5,2,0:0:0:0:
224,32,234398,1,8,0:0:0:0:
264,32,234614,1,0,0:0:0:0:
224,32,234830,1,2,0:0:0:0:
144,32,235046,1,8,0:0:0:0:
304,32,235477,1,8,0:0:0:0:
80,32,235909,5,4,0:0:0:0:
256,192,236343,12,0,249822,0:0:0:0:
