osu file format v14

[General]
AudioFilename: audio.mp3
AudioLeadIn: 0
PreviewTime: 26834
Countdown: 0
SampleSet: Normal
StackLeniency: 0.7
Mode: 1
LetterboxInBreaks: 0
WidescreenStoryboard: 1

[Editor]
Bookmarks: 8372,23141,26834,56372,71141,85911,115449,130218,144988,159757,168988
DistanceSpacing: 0.8
BeatDivisor: 4
GridSize: 16
TimelineZoom: 1.2

[Metadata]
Title:ROOM 12
TitleUnicode:ROOM 12
Artist:LukHash
ArtistUnicode:LukHash
Creator:[R]
Version:Futsuu
Source:osu!
Tags:poii falling apart 8 bit featured artist chiptune electronic
BeatmapID:2022846
BeatmapSetID:966407

[Difficulty]
HPDrainRate:6
CircleSize:5
OverallDifficulty:4
ApproachRate:5
SliderMultiplier:1.4
SliderTickRate:1

[Events]
//Background and Video events
0,0,"BG.jpg",0,-30
//Break Periods
//Storyboard Layer 0 (Background)
//Storyboard Layer 1 (Fail)
//Storyboard Layer 2 (Pass)
//Storyboard Layer 3 (Foreground)
//Storyboard Sound Samples

[TimingPoints]
988,461.538461538462,4,1,0,80,1,0
26834,-100,4,1,0,90,0,1
56372,-100,4,1,0,80,0,0
71257,-100,4,1,0,70,0,0
85911,-100,4,1,0,90,0,1
115449,-100,4,1,0,80,0,0
130218,-100,4,1,0,70,0,0
133911,-100,4,1,0,60,0,0
137603,-100,4,1,0,50,0,0
141295,-100,4,1,0,40,0,0
144988,-100,4,1,0,30,0,0

[HitObjects]
256,192,8372,5,4,0:0:0:0:
256,192,8603,1,8,0:0:0:0:
256,192,9064,1,8,0:0:0:0:
256,192,9526,1,8,0:0:0:0:
256,192,9757,1,0,0:0:0:0:
256,192,9988,1,8,0:0:0:0:
256,192,10680,1,0,0:0:0:0:
256,192,10911,1,8,0:0:0:0:
256,192,11372,1,8,0:0:0:0:
256,192,11834,1,8,0:0:0:0:
256,192,12064,1,0,0:0:0:0:
256,192,12526,1,0,0:0:0:0:
256,192,12988,1,0,0:0:0:0:
256,192,13218,1,8,0:0:0:0:
256,192,13680,1,8,0:0:0:0:
256,192,14372,1,0,0:0:0:0:
256,192,14603,1,8,0:0:0:0:
256,192,14834,1,0,0:0:0:0:
256,192,15295,1,12,0:0:0:0:
256,192,15757,1,0,0:0:0:0:
256,192,15988,1,8,0:0:0:0:
256,192,16449,1,8,0:0:0:0:
256,192,16911,1,8,0:0:0:0:
256,192,17142,1,0,0:0:0:0:
256,192,17373,1,8,0:0:0:0:
256,192,18065,1,0,0:0:0:0:
256,192,18296,1,8,0:0:0:0:
256,192,18757,1,8,0:0:0:0:
256,192,19219,1,8,0:0:0:0:
256,192,19449,1,0,0:0:0:0:
256,192,19911,1,0,0:0:0:0:
256,192,20373,1,0,0:0:0:0:
256,192,20603,1,8,0:0:0:0:
256,192,21065,1,8,0:0:0:0:
256,192,21757,1,0,0:0:0:0:
256,192,21988,1,8,0:0:0:0:
256,192,22219,1,0,0:0:0:0:
256,192,22680,1,8,0:0:0:0:
256,192,23142,1,0,0:0:0:0:
256,192,26834,1,4,0:0:0:0:
256,192,27295,1,8,0:0:0:0:
256,192,27526,1,0,0:0:0:0:
256,192,27757,1,8,0:0:0:0:
256,192,28218,1,8,0:0:0:0:
256,192,28911,1,8,0:0:0:0:
256,192,29372,1,0,0:0:0:0:
256,192,29603,1,8,0:0:0:0:
256,192,30064,1,8,0:0:0:0:
256,192,30526,1,0,0:0:0:0:
256,192,31449,1,8,0:0:0:0:
256,192,31680,1,8,0:0:0:0:
256,192,31911,1,0,0:0:0:0:
256,192,32141,1,8,0:0:0:0:
256,192,32603,1,8,0:0:0:0:
256,192,33064,1,8,0:0:0:0:
256,192,33295,1,0,0:0:0:0:
256,192,33757,1,8,0:0:0:0:
256,192,34218,1,0,0:0:0:0:
256,192,34680,1,8,0:0:0:0:
256,192,34911,1,0,0:0:0:0:
256,192,35142,1,8,0:0:0:0:
256,192,35603,1,8,0:0:0:0:
256,192,36296,1,8,0:0:0:0:
256,192,36757,1,0,0:0:0:0:
256,192,36988,1,8,0:0:0:0:
256,192,37449,1,8,0:0:0:0:
256,192,38372,1,0,0:0:0:0:
256,192,38834,1,8,0:0:0:0:
256,192,39065,1,8,0:0:0:0:
256,192,39296,1,0,0:0:0:0:
256,192,39526,1,8,0:0:0:0:
256,192,39988,1,8,0:0:0:0:
256,192,40449,1,8,0:0:0:0:
256,192,40680,1,0,0:0:0:0:
256,192,41141,1,0,0:0:0:0:
256,192,41372,1,8,0:0:0:0:
256,192,41603,1,4,0:0:0:0:
256,192,42064,1,8,0:0:0:0:
256,192,42295,1,0,0:0:0:0:
256,192,42526,1,8,0:0:0:0:
256,192,42987,1,8,0:0:0:0:
256,192,43680,1,8,0:0:0:0:
256,192,44141,1,0,0:0:0:0:
256,192,44372,1,8,0:0:0:0:
256,192,44833,1,8,0:0:0:0:
256,192,45295,1,0,0:0:0:0:
256,192,46218,1,8,0:0:0:0:
256,192,46449,1,8,0:0:0:0:
256,192,46680,1,0,0:0:0:0:
256,192,46910,1,8,0:0:0:0:
256,192,47372,1,8,0:0:0:0:
256,192,47833,1,8,0:0:0:0:
256,192,48064,1,0,0:0:0:0:
256,192,48526,1,8,0:0:0:0:
256,192,48987,1,0,0:0:0:0:
256,192,49449,1,8,0:0:0:0:
256,192,49680,1,0,0:0:0:0:
256,192,49911,1,8,0:0:0:0:
256,192,50372,1,8,0:0:0:0:
256,192,51065,1,8,0:0:0:0:
256,192,51526,1,0,0:0:0:0:
256,192,51757,1,8,0:0:0:0:
256,192,52218,1,8,0:0:0:0:
256,192,53141,1,0,0:0:0:0:
256,192,53603,1,8,0:0:0:0:
256,192,53834,1,8,0:0:0:0:
256,192,54065,1,0,0:0:0:0:
256,192,54295,1,8,0:0:0:0:
256,192,54757,1,8,0:0:0:0:
256,192,55218,1,8,0:0:0:0:
256,192,55449,1,0,0:0:0:0:
256,192,55910,1,0,0:0:0:0:
256,192,56141,1,8,0:0:0:0:
256,192,56372,1,4,0:0:0:0:
256,192,57064,1,8,0:0:0:0:
256,192,57526,1,8,0:0:0:0:
256,192,57757,1,0,0:0:0:0:
256,192,57988,1,8,0:0:0:0:
256,192,58680,1,0,0:0:0:0:
256,192,58911,1,8,0:0:0:0:
256,192,59372,1,8,0:0:0:0:
256,192,59834,1,8,0:0:0:0:
256,192,60064,1,0,0:0:0:0:
256,192,60526,1,0,0:0:0:0:
256,192,60988,1,0,0:0:0:0:
256,192,61218,1,8,0:0:0:0:
256,192,61680,1,8,0:0:0:0:
256,192,62372,1,0,0:0:0:0:
256,192,62603,1,8,0:0:0:0:
256,192,62834,1,0,0:0:0:0:
256,192,63295,1,8,0:0:0:0:
256,192,63757,1,0,0:0:0:0:
256,192,63988,1,8,0:0:0:0:
256,192,64449,1,8,0:0:0:0:
256,192,64911,1,8,0:0:0:0:
256,192,65142,1,0,0:0:0:0:
256,192,65373,1,8,0:0:0:0:
256,192,66065,1,0,0:0:0:0:
256,192,66296,1,8,0:0:0:0:
256,192,66757,1,8,0:0:0:0:
256,192,67219,1,8,0:0:0:0:
256,192,67449,1,0,0:0:0:0:
256,192,67911,1,0,0:0:0:0:
256,192,68373,1,0,0:0:0:0:
256,192,68603,1,8,0:0:0:0:
256,192,69065,1,8,0:0:0:0:
256,192,69757,1,0,0:0:0:0:
256,192,69988,1,8,0:0:0:0:
256,192,70219,1,0,0:0:0:0:
256,192,70680,1,8,0:0:0:0:
256,192,71142,1,0,0:0:0:0:
256,192,72988,1,0,0:0:0:0:
256,192,73911,1,0,0:0:0:0:
256,192,74834,1,8,0:0:0:0:
256,192,76680,1,8,0:0:0:0:
256,192,77603,1,8,0:0:0:0:
256,192,78526,1,0,0:0:0:0:
256,192,79911,1,0,0:0:0:0:
256,192,80372,1,8,0:0:0:0:
256,192,81295,1,0,0:0:0:0:
256,192,82218,1,8,0:0:0:0:
256,192,84064,1,0,0:0:0:0:
256,192,84988,1,8,0:0:0:0:
256,192,85911,1,4,0:0:0:0:
256,192,86372,1,8,0:0:0:0:
256,192,86603,1,0,0:0:0:0:
256,192,86834,1,8,0:0:0:0:
256,192,87295,1,8,0:0:0:0:
256,192,87988,1,8,0:0:0:0:
256,192,88449,1,0,0:0:0:0:
256,192,88680,1,8,0:0:0:0:
256,192,89141,1,8,0:0:0:0:
256,192,89603,1,0,0:0:0:0:
256,192,90526,1,8,0:0:0:0:
256,192,90757,1,8,0:0:0:0:
256,192,90988,1,0,0:0:0:0:
256,192,91218,1,8,0:0:0:0:
256,192,91680,1,8,0:0:0:0:
256,192,92141,1,8,0:0:0:0:
256,192,92372,1,0,0:0:0:0:
256,192,92834,1,8,0:0:0:0:
256,192,93295,1,0,0:0:0:0:
256,192,93757,1,8,0:0:0:0:
256,192,93988,1,0,0:0:0:0:
256,192,94219,1,8,0:0:0:0:
256,192,94680,1,8,0:0:0:0:
256,192,95373,1,8,0:0:0:0:
256,192,95834,1,0,0:0:0:0:
256,192,96065,1,8,0:0:0:0:
256,192,96526,1,8,0:0:0:0:
256,192,97449,1,0,0:0:0:0:
256,192,97911,1,8,0:0:0:0:
256,192,98142,1,8,0:0:0:0:
256,192,98373,1,0,0:0:0:0:
256,192,98603,1,8,0:0:0:0:
256,192,99065,1,8,0:0:0:0:
256,192,99526,1,8,0:0:0:0:
256,192,99757,1,0,0:0:0:0:
256,192,100218,1,0,0:0:0:0:
256,192,100449,1,8,0:0:0:0:
256,192,100680,1,4,0:0:0:0:
256,192,101141,1,8,0:0:0:0:
256,192,101372,1,0,0:0:0:0:
256,192,101603,1,8,0:0:0:0:
256,192,102064,1,8,0:0:0:0:
256,192,102757,1,8,0:0:0:0:
256,192,103218,1,0,0:0:0:0:
256,192,103449,1,8,0:0:0:0:
256,192,103910,1,8,0:0:0:0:
256,192,104372,1,0,0:0:0:0:
256,192,105295,1,8,0:0:0:0:
256,192,105526,1,8,0:0:0:0:
256,192,105757,1,0,0:0:0:0:
256,192,105987,1,8,0:0:0:0:
256,192,106449,1,8,0:0:0:0:
256,192,106910,1,8,0:0:0:0:
256,192,107141,1,0,0:0:0:0:
256,192,107603,1,8,0:0:0:0:
256,192,108064,1,0,0:0:0:0:
256,192,108526,1,8,0:0:0:0:
256,192,108757,1,0,0:0:0:0:
256,192,108988,1,8,0:0:0:0:
256,192,109449,1,8,0:0:0:0:
256,192,110142,1,8,0:0:0:0:
256,192,110603,1,0,0:0:0:0:
256,192,110834,1,8,0:0:0:0:
256,192,111295,1,8,0:0:0:0:
256,192,112218,1,0,0:0:0:0:
256,192,112680,1,8,0:0:0:0:
256,192,112911,1,8,0:0:0:0:
256,192,113142,1,0,0:0:0:0:
256,192,113372,1,8,0:0:0:0:
256,192,113834,1,8,0:0:0:0:
256,192,114295,1,8,0:0:0:0:
256,192,114526,1,0,0:0:0:0:
256,192,114987,1,0,0:0:0:0:
256,192,115218,1,8,0:0:0:0:
256,192,115449,1,4,0:0:0:0:
256,192,116372,1,0,0:0:0:0:
256,192,116834,1,0,0:0:0:0:
256,192,117295,1,0,0:0:0:0:
256,192,118218,1,8,0:0:0:0:
256,192,118449,1,0,0:0:0:0:
256,192,118680,1,8,0:0:0:0:
256,192,119141,1,0,0:0:0:0:
256,192,119603,1,8,0:0:0:0:
256,192,120526,1,8,0:0:0:0:
256,192,120988,1,0,0:0:0:0:
256,192,121449,1,8,0:0:0:0:
256,192,121911,1,8,0:0:0:0:
256,192,122141,1,0,0:0:0:0:
256,192,122372,1,8,0:0:0:0:
256,192,122603,1,8,0:0:0:0:
256,192,122834,1,0,0:0:0:0:
256,192,123756,1,0,0:0:0:0:
256,192,124218,1,0,0:0:0:0:
256,192,124679,1,0,0:0:0:0:
256,192,125602,1,8,0:0:0:0:
256,192,125833,1,0,0:0:0:0:
256,192,126064,1,8,0:0:0:0:
256,192,126525,1,0,0:0:0:0:
256,192,126987,1,8,0:0:0:0:
256,192,127910,1,8,0:0:0:0:
256,192,128372,1,0,0:0:0:0:
256,192,128833,1,8,0:0:0:0:
256,192,129295,1,8,0:0:0:0:
256,192,129526,1,0,0:0:0:0:
256,192,129756,1,8,0:0:0:0:
256,192,130218,1,4,0:0:0:0:
256,192,130680,1,8,0:0:0:0:
256,192,131603,1,8,0:0:0:0:
256,192,132064,1,0,0:0:0:0:
256,192,132526,1,0,0:0:0:0:
256,192,132757,1,8,0:0:0:0:
256,192,133218,1,8,0:0:0:0:
256,192,133449,1,0,0:0:0:0:
256,192,133910,1,0,0:0:0:0:
256,192,134834,1,0,0:0:0:0:
256,192,135295,1,0,0:0:0:0:
256,192,135757,1,8,0:0:0:0:
256,192,136218,1,0,0:0:0:0:
256,192,136449,1,8,0:0:0:0:
256,192,136680,1,0,0:0:0:0:
256,192,137603,1,0,0:0:0:0:
256,192,138064,1,8,0:0:0:0:
256,192,138987,1,8,0:0:0:0:
256,192,139448,1,0,0:0:0:0:
256,192,139910,1,0,0:0:0:0:
256,192,140141,1,8,0:0:0:0:
256,192,140602,1,8,0:0:0:0:
256,192,140833,1,0,0:0:0:0:
256,192,141294,1,0,0:0:0:0:
256,192,142218,1,0,0:0:0:0:
256,192,142679,1,0,0:0:0:0:
256,192,143141,1,8,0:0:0:0:
256,192,143603,1,0,0:0:0:0:
256,192,143834,1,8,0:0:0:0:
256,192,144064,1,0,0:0:0:0:
256,192,144987,1,0,0:0:0:0:
