osu file format v14

[General]
AudioFilename: audio.mp3
AudioLeadIn: 0
PreviewTime: -1
Countdown: 1
SampleSet: Soft
StackLeniency: 0.7
Mode: 0
LetterboxInBreaks: 0
WidescreenStoryboard: 0

[Editor]
DistanceSpacing: 0.8
BeatDivisor: 4
GridSize: 16
TimelineZoom: 1.4

[Metadata]
Title:INSIDE OF ME
TitleUnicode:INSIDE OF ME
Artist:LukHash
ArtistUnicode:LukHash
Creator:TESKAB
Version:poop
Source:
Tags:dead pixels
BeatmapID:1627904
BeatmapSetID:774546

[Difficulty]
HPDrainRate:4
CircleSize:3
OverallDifficulty:3
ApproachRate:7
SliderMultiplier:1.4
SliderTickRate:1

[Events]
//Background and Video events
0,0,"9339.PNG",0,0
//Break Periods
2,37805,46240
//Storyboard Layer 0 (Background)
//Storyboard Layer 1 (Fail)
//Storyboard Layer 2 (Pass)
//Storyboard Layer 3 (Foreground)
//Storyboard Sound Samples

[TimingPoints]
951,578.313253012048,4,2,0,100,1,0
18734,468.75,4,2,0,100,1,0
19671,578.536303153023,4,2,0,100,1,0
177032,551.470588235294,4,2,0,100,1,0
179237,578.313253012048,4,2,0,100,1,0

[Colours]
Combo1 : 0,0,0
Combo2 : 0,0,128
Combo3 : 0,0,64
Combo4 : 128,0,128
Combo5 : 64,0,64

[HitObjects]
43,129,19671,6,0,B|114:102|114:102|182:145|182:144,1,140
256,249,20828,2,0,B|354:295|354:295|409:269|408:269,1,140
432,138,21985,6,0,B|367:69|367:69|288:69|293:69,1,140
195,72,23142,2,0,B|101:74|101:74|85:126,1,140
74,211,24299,6,0,P|72:266|97:274,1,70
205,278,24877,1,0,0:0:0:0:
327,240,25167,1,0,0:0:0:0:
406,155,25456,6,0,B|379:60|379:60|305:61,1,140
72,106,26613,6,0,B|180:249|221:230|235:153,2,210
60,63,28927,2,0,B|174:63|174:63|172:160|172:160|59:162|59:162|60:64,1,420
226,48,31241,2,0,B|356:133|261:211|94:177|94:177|93:288|139:288,1,420
64,58,33555,1,0,0:0:0:0:
219,55,33845,1,0,0:0:0:0:
330,59,34134,1,0,0:0:0:0:
437,59,34423,1,0,0:0:0:0:
117,211,34712,6,0,L|401:209,1,280
453,242,36448,1,0,0:0:0:0:
223,315,37027,1,0,0:0:0:0:
55,235,37605,1,0,0:0:0:0:
39,46,47440,6,0,L|111:48,1,70
201,51,47874,1,0,0:0:0:0:
244,115,48019,1,0,0:0:0:0:
278,184,48163,1,0,0:0:0:0:
357,288,48742,2,0,P|301:288|300:288,1,35
246,288,49031,2,0,L|211:288,1,35
80,73,49754,5,0,0:0:0:0:
190,122,50044,1,0,0:0:0:0:
347,100,50188,1,0,0:0:0:0:
240,224,50333,1,0,0:0:0:0:
176,208,50767,2,0,B|64:48|80:64,1,175
78,63,51490,2,0,L|224:64,1,140
48,176,52358,5,0,0:0:0:0:
160,128,52647,1,0,0:0:0:0:
272,64,52936,1,0,0:0:0:0:
384,272,53226,5,0,0:0:0:0:
288,272,53515,1,0,0:0:0:0:
96,272,53804,1,0,0:0:0:0:
192,272,54093,1,0,0:0:0:0:
368,88,54383,5,0,0:0:0:0:
238,186,54672,1,0,0:0:0:0:
54,181,54961,1,0,0:0:0:0:
145,80,55250,1,0,0:0:0:0:
256,192,55540,12,0,56697,0:0:0:0:
61,52,56986,6,0,B|154:51|154:51|154:171|154:171|290:177,1,350
430,204,59011,2,0,B|423:50|423:50|276:49|276:49|276:195,1,420
50,170,61325,2,0,B|170:303|250:295|250:295|298:260|298:260|223:150,1,420
192,80,63639,5,0,0:0:0:0:
352,112,63929,1,0,0:0:0:0:
224,192,64218,1,0,0:0:0:0:
400,192,64507,1,0,0:0:0:0:
96,272,64796,1,0,0:0:0:0:
320,80,65230,1,0,0:0:0:0:
320,80,65375,1,0,0:0:0:0:
352,160,65520,2,0,B|352:208|352:208|288:208,1,105
