osu file format v14

[General]
AudioFilename: audio.mp3
AudioLeadIn: 0
PreviewTime: 24765
Countdown: 0
SampleSet: Soft
StackLeniency: 0.7
Mode: 2
LetterboxInBreaks: 0
EpilepsyWarning: 1
WidescreenStoryboard: 1

[Editor]
Bookmarks: 8494,32901,41036,73579,89850,106121,122392,154935,187477,220020,252562
DistanceSpacing: 1.5
BeatDivisor: 16
GridSize: 4
TimelineZoom: 4.199998

[Metadata]
Title:H8 U 2
TitleUnicode:H8 U 2
Artist:LukHash
ArtistUnicode:LukHash
Creator:JBHyperion
Version:Malice
Source:osu!
Tags:Falling Apart electro rock 8bit hate you two 地獄季節感 Jigoku Kisetsukan Sense of the Seasons Thanatos stage 5 boss theme Tenshi fear of death featured artist
BeatmapID:1395784
BeatmapSetID:659010

[Difficulty]
HPDrainRate:6
CircleSize:5.2
OverallDifficulty:9
ApproachRate:9
SliderMultiplier:1.8
SliderTickRate:1

[Events]
//Background and Video events
0,0,"apocalypse.jpg",0,0
//Break Periods
2,110389,116291
//Storyboard Layer 0 (Background)
//Storyboard Layer 1 (Fail)
//Storyboard Layer 2 (Pass)
//Storyboard Layer 3 (Foreground)
//Storyboard Sound Samples

[TimingPoints]
359,508.474576271186,4,2,1,30,1,0
16121,-100,4,2,1,40,0,0
16630,-100,4,2,1,30,0,0
24257,-80,4,2,1,40,0,0
24765,-66.6666666666667,4,2,1,30,0,0
24861,-100,4,2,1,30,0,0
32392,-100,4,2,1,40,0,0
32901,-100,4,2,2,40,0,0
36969,-66.6666666666667,4,2,2,40,0,0
37986,-57.1428571428571,4,2,2,50,0,0
39003,-100,4,2,2,60,0,0
41036,-80,4,3,1,60,0,1
41164,-66.6666666666667,4,3,1,60,0,1
41545,-80,4,3,1,60,0,1
44214,-50,4,3,1,60,0,1
44469,-80,4,3,1,60,0,1
46630,-66.6666666666667,4,3,1,60,0,1
46884,-80,4,3,1,60,0,1
49681,-66.6666666666667,4,3,1,60,0,1
49935,-80,4,3,1,60,0,1
52858,-80,4,3,1,30,0,1
52986,-80,4,3,1,60,0,1
56926,-80,4,3,1,30,0,1
57054,-80,4,3,1,60,0,1
57181,-100,4,3,1,60,0,1
57308,-66.6666666666667,4,3,1,60,0,1
57562,-80,4,3,1,60,0,1
60486,-50,4,3,1,60,0,1
60740,-80,4,3,1,60,0,1
62901,-66.6666666666667,4,3,1,60,0,1
63155,-80,4,3,1,60,0,1
65952,-66.6666666666667,4,3,1,60,0,1
66206,-80,4,3,1,60,0,1
69130,-80,4,3,1,30,0,1
69258,-80,4,3,1,60,0,1
70147,-80,4,3,1,30,0,1
70275,-80,4,3,1,60,0,1
73197,-80,4,3,1,30,0,1
73325,-80,4,3,1,60,0,1
73579,-100,4,3,2,50,0,0
75104,-66.6666666666667,4,3,2,50,0,0
75358,-100,4,3,2,50,0,0
77265,-66.6666666666667,4,2,77,60,0,0
77520,-100,4,3,2,50,0,0
79172,-66.6666666666667,4,3,2,50,0,0
79426,-100,4,3,2,50,0,0
85401,-66.6666666666667,4,2,77,50,0,0
85655,-100,4,3,2,50,0,0
87308,-66.6666666666667,4,3,2,50,0,0
87562,-100,4,3,2,50,0,0
89850,-100,4,3,1,60,0,1
106121,-100,4,3,1,60,0,0
106375,-100,4,2,0,50,0,0
106630,-100,4,2,0,48,0,0
106884,-100,4,2,0,46,0,0
107138,-100,4,2,0,44,0,0
107392,-100,4,2,0,42,0,0
107647,-100,4,2,0,40,0,0
107901,-100,4,2,0,38,0,0
108155,-100,4,2,0,36,0,0
108409,-100,4,2,0,34,0,0
108664,-100,4,2,0,32,0,0
108918,-100,4,2,0,30,0,0
109172,-100,4,2,0,25,0,0
109426,-100,4,2,0,20,0,0
109681,-100,4,2,0,15,0,0
109935,-100,4,2,0,10,0,0
110189,-100,4,2,0,5,0,0
118325,-100,4,2,0,20,0,0
118579,-100,4,2,0,22,0,0
118833,-100,4,2,0,25,0,0
119087,-100,4,2,0,27,0,0
119342,-100,4,2,0,30,0,0
119596,-100,4,2,0,32,0,0
119850,-100,4,2,0,35,0,0
120104,-100,4,2,0,37,0,0
120358,-100,4,2,0,40,0,0
120613,-100,4,2,0,42,0,0
120867,-100,4,2,0,45,0,0
121121,-100,4,2,0,47,0,0
121375,-100,4,2,0,50,0,0
121630,-100,4,2,0,52,0,0
121884,-100,4,2,0,55,0,0
122138,-100,4,2,0,5,0,0
122392,-100,4,2,3,50,0,0
130020,-100,4,2,77,40,0,0
130401,-100,4,2,3,50,0,0
130528,-50,4,2,3,50,0,0
130782,-100,4,2,3,50,0,0
131545,-50,4,2,3,50,0,0
131799,-100,4,2,3,50,0,0
134723,-66.6666666666667,4,2,3,50,0,0
134977,-100,4,2,3,50,0,0
136630,-50,4,2,3,50,0,0
136884,-100,4,2,3,50,0,0
137392,-100,4,2,77,40,0,0
137647,-100,4,2,3,50,0,0
138409,-100,4,2,77,40,0,0
138664,-100,4,2,3,50,0,0
146291,-100,4,2,77,40,0,0
146672,-100,4,2,3,50,0,0
146799,-50,4,2,3,50,0,0
147053,-100,4,2,3,50,0,0
147816,-50,4,2,3,50,0,0
148070,-100,4,2,3,50,0,0
150994,-66.6666666666667,4,2,3,50,0,0
151248,-100,4,2,3,50,0,0
152901,-50,4,2,3,50,0,0
153155,-100,4,2,3,50,0,0
153664,-100,4,2,77,40,0,0
153919,-100,4,2,3,50,0,0
154681,-100,4,2,77,40,0,0
154936,-100,4,2,3,60,0,0
155189,-80,4,2,3,60,0,0
155952,-100,4,2,3,60,0,0
157986,-100,4,2,77,50,0,0
158113,-100,4,2,3,60,0,0
158494,-100,4,2,77,50,0,0
158621,-100,4,2,3,60,0,0
159003,-80,4,2,3,60,0,0
160528,-100,4,2,3,60,0,0
162562,-100,4,2,77,50,0,0
163070,-100,4,2,3,60,0,0
163706,-80,4,2,3,60,0,0
164087,-100,4,2,3,60,0,0
164469,-80,4,2,3,60,0,0
164850,-100,4,2,3,60,0,0
165231,-80,4,2,3,60,0,0
165612,-100,4,2,3,60,0,0
166121,-80,4,2,77,50,0,0
166248,-100,4,2,3,60,0,0
166502,-100,4,2,3,60,0,0
166629,-100,4,2,77,50,0,0
166756,-100,4,2,3,60,0,0
167138,-80,4,2,3,60,0,0
168664,-100,4,2,3,60,0,0
170697,-100,4,2,77,50,0,0
171206,-100,4,2,3,60,0,0
172223,-80,4,2,3,60,0,0
172986,-100,4,2,3,60,0,0
173367,-80,4,2,3,60,0,0
173748,-100,4,2,3,60,0,0
174257,-100,4,2,77,50,0,0
174384,-100,4,2,3,60,0,0
174765,-100,4,2,77,50,0,0
174892,-100,4,2,3,60,0,0
175274,-80,4,2,3,60,0,0
176036,-100,4,2,3,60,0,0
176799,-80,4,2,3,60,0,0
177053,-100,4,2,3,60,0,0
178833,-100,4,2,77,50,0,0
179342,-100,4,2,3,60,0,0
179977,-80,4,2,3,60,0,0
180358,-100,4,2,3,60,0,0
180740,-80,4,2,3,60,0,0
181121,-100,4,2,3,60,0,0
181502,-80,4,2,3,60,0,0
181883,-100,4,2,3,60,0,0
182392,-80,4,2,77,50,0,0
182520,-80,4,2,3,60,0,0
182773,-100,4,2,3,60,0,0
182901,-100,4,2,77,50,0,0
183028,-100,4,2,3,60,0,0
183791,-80,4,2,3,60,0,0
184172,-100,4,2,3,60,0,0
185697,-80,4,2,3,60,0,0
186460,-100,4,2,3,50,0,0
187986,-80,4,2,3,50,0,0
188240,-100,4,2,3,50,0,0
195104,-100,4,2,77,40,0,0
195485,-100,4,2,3,50,0,0
201842,-100,4,2,77,40,0,0
202477,-100,4,2,3,50,0,0
207943,-66.6666666666667,4,2,3,50,0,0
208197,-100,4,2,3,50,0,0
209850,-50,4,2,3,50,0,0
210104,-100,4,2,3,50,0,0
210994,-80,4,2,3,50,0,0
211248,-100,4,2,3,50,0,0
211375,-100,4,2,77,40,0,0
211756,-100,4,2,3,50,0,0
214045,-66.6666666666667,4,2,3,50,0,0
214426,-100,4,2,3,50,0,0
216206,-100,4,2,1,30,0,0
216460,-100,4,2,1,32,0,0
216714,-100,4,2,1,34,0,0
216969,-100,4,2,1,36,0,0
217223,-100,4,2,1,38,0,0
217477,-100,4,2,1,40,0,0
217731,-100,4,2,1,42,0,0
217986,-100,4,2,1,44,0,0
218240,-100,4,2,1,46,0,0
218494,-100,4,2,1,48,0,0
218748,-100,4,2,1,50,0,0
219003,-100,4,2,1,55,0,0
219257,-100,4,2,1,60,0,0
219511,-100,4,2,1,65,0,0
219765,-100,4,2,1,5,0,0
220020,-66.6666666666667,4,3,1,60,0,1
223197,-66.6666666666667,4,2,77,60,0,1
223325,-66.6666666666667,4,3,1,60,0,1
223579,-66.6666666666667,4,2,77,60,0,1
223707,-66.6666666666667,4,3,1,60,0,1
231333,-66.6666666666667,4,2,77,60,0,1
231461,-66.6666666666667,4,3,1,60,0,1
231715,-66.6666666666667,4,2,77,60,0,1
231843,-66.6666666666667,4,3,1,60,0,1
236164,-66.6666666666667,4,3,1,60,0,0
236291,-66.6666666666667,4,3,1,60,0,1
239469,-66.6666666666667,4,2,77,60,0,1
239597,-66.6666666666667,4,3,1,60,0,1
239851,-66.6666666666667,4,2,77,60,0,1
239979,-66.6666666666667,4,3,1,60,0,1
240867,-50,4,3,1,60,0,1
241121,-66.6666666666667,4,3,1,60,0,1
247604,-66.6666666666667,4,2,77,60,0,1
247732,-66.6666666666667,4,3,1,60,0,1
247986,-66.6666666666667,4,2,77,60,0,1
248114,-66.6666666666667,4,3,1,60,0,1
252562,-100,4,2,99,90,0,0
253070,-100,4,2,1,35,0,0
253325,-100,4,2,1,34,0,0
253579,-100,4,2,1,33,0,0
253833,-100,4,2,1,32,0,0
254087,-100,4,2,1,31,0,0
254342,-100,4,2,1,30,0,0
254596,-100,4,2,1,29,0,0
254850,-100,4,2,1,28,0,0
255104,-100,4,2,1,27,0,0
255358,-100,4,2,1,26,0,0
255613,-100,4,2,1,25,0,0
255867,-100,4,2,1,24,0,0
256121,-100,4,2,1,23,0,0
256375,-100,4,2,1,22,0,0
256630,-100,4,2,1,21,0,0
256884,-100,4,2,1,20,0,0
257138,-100,4,2,1,19,0,0
257392,-100,4,2,1,18,0,0
257647,-100,4,2,1,17,0,0
257901,-100,4,2,1,16,0,0
258155,-100,4,2,1,15,0,0
258409,-100,4,2,1,14,0,0
258664,-100,4,2,1,13,0,0
258918,-100,4,2,1,12,0,0
259172,-100,4,2,1,11,0,0
259426,-100,4,2,1,10,0,0
259681,-100,4,2,1,9,0,0
259808,-100,4,2,1,8,0,0
259935,-100,4,2,1,7,0,0
260062,-100,4,2,1,6,0,0
260189,-100,4,2,1,5,0,0

[Colours]
Combo1 : 255,200,80
Combo2 : 255,120,55
Combo3 : 235,200,30
Combo4 : 195,80,10

[HitObjects]
152,192,8494,6,0,L|144:160,1,33.75,4|0,0:0|0:0,0:0:0:0:
356,192,9003,2,0,L|360:156,1,33.75
180,192,9511,2,0,L|180:152,1,33.75,8|0,0:0|0:0,0:0:0:0:
332,196,10020,2,0,L|332:160,1,33.75
108,192,10274,6,0,L|72:192,1,33.75,4|0,0:0|0:0,0:0:0:0:
268,192,10782,2,0,L|276:160,1,33.75
112,192,11291,2,0,L|124:156,1,33.75,2|0,0:0|0:0,0:0:0:0:
264,160,11545,1,0,0:0:0:0:
291,193,11799,2,0,L|279:157,1,33.75,2|0,0:0|0:0,0:0:0:0:
124,192,12053,1,0,0:0:0:0:
108,192,12308,2,0,L|116:152,1,33.75,2|0,0:0|0:0,0:0:0:0:
356,192,12562,6,0,L|392:192,1,33.75,4|0,0:0|0:0,0:0:0:0:
192,192,13071,2,0,L|188:156,1,33.75
368,192,13579,2,0,L|368:152,1,33.75,8|0,0:0|0:0,0:0:0:0:
216,192,14088,2,0,L|216:156,1,33.75
444,192,14342,6,0,L|480:192,1,33.75,4|0,0:0|0:0,0:0:0:0:
284,192,14850,2,0,L|276:160,1,33.75
440,192,15359,2,0,L|432:156,1,33.75
340,164,15613,1,8,0:0:0:0:
224,164,15867,2,0,L|184:164,1,33.75,2|0,0:0|0:0,0:0:0:0:
420,88,16121,2,0,L|449:62,1,33.75,8|0,0:0|0:0,0:0:0:0:
196,88,16375,2,0,L|166:62,1,33.75,2|0,0:0|0:0,0:0:0:0:
440,88,16630,6,0,L|476:88,1,33.75,4|0,0:0|0:0,0:0:0:0:
280,88,17139,2,0,L|276:52,1,33.75
96,88,17647,2,0,L|96:48,1,33.75,8|0,0:0|0:0,0:0:0:0:
266,86,18156,2,0,L|276:52,1,33.75
48,88,18409,6,0,L|12:88,1,33.75,4|0,0:0|0:0,0:0:0:0:
208,88,18918,2,0,L|216:120,1,33.75
52,88,19427,2,0,L|60:124,1,33.75,2|0,0:0|0:0,0:0:0:0:
232,88,19681,1,0,0:0:0:0:
232,88,19935,2,0,L|240:124,1,33.75,2|0,0:0|0:0,0:0:0:0:
412,88,20189,1,0,0:0:0:0:
412,88,20443,2,0,L|420:124,1,33.75,2|0,0:0|0:0,0:0:0:0:
192,192,20697,6,0,L|156:192,1,33.75,4|0,0:0|0:0,0:0:0:0:
352,192,21206,2,0,L|356:228,1,33.75
176,192,21714,2,0,L|176:232,1,33.75,8|0,0:0|0:0,0:0:0:0:
328,192,22223,2,0,L|328:228,1,33.75
100,192,22477,6,0,L|64:192,1,33.75,4|0,0:0|0:0,0:0:0:0:
260,192,22985,2,0,L|268:224,1,33.75
432,192,23494,2,0,L|420:228,1,33.75
332,224,23748,1,8,0:0:0:0:
448,224,24002,2,0,L|488:224,1,33.75,2|0,0:0|0:0,0:0:0:0:
248,224,24257,2,0,L|196:224,1,42.1875,8|0,0:0|0:0,0:0:0:0:
420,340,24512,2,0,L|420:296,1,42.1875,2|0,0:0|0:0,0:0:0:0:
196,324,24765,6,0,L|132:324,1,50.6250019311906,4|0,0:0|0:0,0:0:0:0:
408,328,25274,2,0,L|420:296,1,33.75
196,324,25782,2,0,L|196:284,1,33.75,8|0,0:0|0:0,0:0:0:0:
360,328,26291,2,0,L|344:296,1,33.75
116,328,26545,6,0,L|80:328,1,33.75,4|0,0:0|0:0,0:0:0:0:
320,328,27053,2,0,L|328:296,1,33.75
112,328,27562,2,0,L|120:292,1,33.75,2|0,0:0|0:0,0:0:0:0:
289,267,27816,1,0,0:0:0:0:
300,300,28070,2,0,L|288:264,1,33.75,2|0,0:0|0:0,0:0:0:0:
445,267,28325,1,0,0:0:0:0:
456,300,28579,2,0,L|444:264,1,33.75,2|0,0:0|0:0,0:0:0:0:
220,272,28833,6,0,L|184:272,1,33.75,4|0,0:0|0:0,0:0:0:0:
428,272,29342,2,0,L|408:236,1,33.75
186,272,29850,2,0,L|200:236,1,33.75,8|0,0:0|0:0,0:0:0:0:
376,244,30359,2,0,L|376:208,1,33.75
148,212,30613,6,0,L|112:212,1,33.75,4|0,0:0|0:0,0:0:0:0:
352,212,31121,2,0,L|360:180,1,33.75
148,212,31630,2,0,L|156:176,1,33.75
252,180,31884,1,8,0:0:0:0:
124,180,32138,2,0,L|84:180,1,33.75,2|0,0:0|0:0,0:0:0:0:
324,108,32392,2,0,L|299:82,1,33.75,8|0,0:0|0:0,0:0:0:0:
48,112,32646,2,0,L|20:84,1,33.75,2|0,0:0|0:0,0:0:0:0:
308,108,32901,6,0,L|400:108,1,90,12|0,0:0|0:0,0:0:0:0:
196,192,33409,2,0,L|120:144,1,90,8|0,0:0|0:0,0:0:0:0:
300,192,33918,2,0,L|312:88,1,90,8|0,0:0|0:0,0:0:0:0:
128,100,34426,1,8,0:0:0:0:
468,104,34681,2,0,L|460:71,1,33.75,4|0,0:0|0:0,0:0:0:0:
316,72,34935,5,8,0:0:0:0:
424,148,35189,1,0,0:0:0:0:
224,148,35443,1,8,0:0:0:0:
108,192,35697,1,0,0:0:0:0:
342,248,35952,2,0,L|434:248,1,90,8|0,0:0|0:0,0:0:0:0:
252,248,36460,2,0,L|348:248,1,90,8|0,0:0|0:0,0:0:0:0:
16,192,36969,6,0,L|132:108,3,135.000005149842,8|8|8|8,0:0|0:0|0:0|0:0,0:0:0:0:
308,112,37986,2,0,L|148:112,3,157.500001502037,8|8|8|8,0:0|0:0|0:0|0:0,0:0:0:0:
468,148,39003,6,0,L|480:84,1,45,8|8,0:0|0:0,0:0:0:0:
356,148,39257,2,0,L|312:148,1,45,8|8,0:0|0:0,0:0:0:0:
432,84,39511,2,0,L|444:20,1,45,8|8,0:0|0:0,0:0:0:0:
320,84,39765,2,0,L|365:84,1,45,8|8,0:0|0:0,0:0:0:0:
72,84,40020,5,8,0:0:0:0:
36,100,40083,1,8,0:0:0:0:
16,136,40147,1,8,0:0:0:0:
12,176,40210,1,8,0:0:0:0:
20,212,40274,1,8,0:0:0:0:
40,244,40337,1,8,0:0:0:0:
72,268,40401,1,8,0:0:0:0:
108,273,40464,1,8,0:0:0:0:
256,272,40528,5,8,0:0:0:0:
280,235,40592,1,8,0:0:0:0:
268,194,40655,1,8,0:0:0:0:
229,176,40719,1,8,0:0:0:0:
192,176,40782,1,8,0:0:0:0:
153,158,40846,1,8,0:0:0:0:
141,117,40909,1,8,0:0:0:0:
166,80,40973,1,8,0:0:0:0:
320,76,41036,5,6,0:0:0:0:
412,76,41164,2,0,P|472:96|496:160,1,135
304,160,41545,2,0,L|296:104,1,56.25,8|2,0:0|0:0,0:0:0:0:
396,160,41799,2,0,L|452:160,1,56.25,2|0,0:0|0:0,0:0:0:0:
316,280,42053,2,0,L|304:224,1,56.25,2|0,0:0|0:0,0:0:0:0:
400,280,42308,2,0,L|388:220,1,56.25
208,224,42562,2,0,L|96:224,1,112.5,8|0,0:0|0:0,0:0:0:0:
48,292,42943,1,0,0:0:0:0:
240,292,43070,6,0,L|296:292,2,56.25,2|2|2,0:0|0:0|0:0,0:0:0:0:
172,292,43452,1,2,0:0:0:0:
408,224,43579,2,0,L|471:223,2,56.25,8|0|0,0:0|0:0|0:0,0:0:0:0:
339,223,43960,1,2,0:0:0:0:
475,223,44087,1,2,0:0:0:0:
408,224,44214,2,0,P|351:167|411:115,1,180,0|2,0:0|0:0,0:0:0:0:
228,192,44596,2,0,L|116:192,1,112.5,8|0,0:0|0:0,0:0:0:0:
268,192,44977,1,2,0:0:0:0:
60,192,45104,6,0,L|12:164,1,56.25,2|0,0:0|0:0,0:0:0:0:
228,192,45358,2,0,L|236:136,1,56.25
116,136,45613,2,0,L|56:136,2,56.25,8|2|2,0:0|0:0|0:0,0:0:0:0:
184,136,45994,1,0,0:0:0:0:
324,136,46121,2,0,L|396:136,1,56.25,2|0,0:0|0:0,0:0:0:0:
184,136,46375,2,0,L|176:192,1,56.25,0|2,0:0|0:0,0:0:0:0:
376,196,46630,2,0,P|420:240|380:284,1,135.000005149842,8|0,0:0|0:0,0:0:0:0:
312,284,47011,1,0,0:0:0:0:
188,284,47138,6,0,L|136:260,1,56.25,2|2,0:0|0:0,0:0:0:0:
228,216,47392,2,0,L|280:192,1,56.25,2|2,0:0|0:0,0:0:0:0:
96,192,47647,1,8,0:0:0:0:
192,128,47774,2,0,L|304:128,1,112.5,2|2,0:0|0:0,0:0:0:0:
192,128,48155,2,0,L|188:72,1,56.25,2|0,0:0|0:0,0:0:0:0:
384,72,48409,2,0,L|440:72,1,56.25,8|0,0:0|0:0,0:0:0:0:
236,72,48664,1,8,0:0:0:0:
440,192,48918,1,8,0:0:0:0:
252,192,49045,1,8,0:0:0:0:
64,192,49172,6,0,L|0:192,1,56.25,6|0,0:0|0:0,0:0:0:0:
240,276,49426,2,0,L|248:220,1,56.25,0|2,0:0|0:0,0:0:0:0:
24,272,49681,2,0,P|36:216|104:192,1,135.000005149842,8|0,0:0|0:0,0:0:0:0:
172,192,50062,1,2,0:0:0:0:
308,196,50189,2,0,L|364:192,2,56.25,2|0|2,0:0|0:0|0:0,0:0:0:0:
240,196,50570,1,2,0:0:0:0:
424,196,50697,2,0,P|452:148|444:92,1,112.5,8|2,0:0|0:0,0:0:0:0:
196,96,51206,6,0,L|188:40,1,56.25,2|0,0:0|0:0,0:0:0:0:
404,96,51460,2,0,L|348:96,1,56.25,2|0,0:0|0:0,0:0:0:0:
160,96,51714,1,8,0:0:0:0:
109,115,51841,1,2,0:0:0:0:
98,168,51968,1,2,0:0:0:0:
135,207,52095,1,0,0:0:0:0:
264,208,52223,2,0,L|316:188,1,56.25,2|0,0:0|0:0,0:0:0:0:
188,208,52477,2,0,L|176:152,1,56.25,2|0,0:0|0:0,0:0:0:0:
360,96,52731,5,8,0:0:0:0:
176,96,52858,1,8,0:0:0:0:
376,96,52986,1,8,0:0:0:0:
192,96,53113,1,8,0:0:0:0:
303,96,53240,6,0,L|367:96,1,56.25,2|0,0:0|0:0,0:0:0:0:
112,180,53494,2,0,L|119:124,1,56.25,0|2,0:0|0:0,0:0:0:0:
304,180,53748,1,8,0:0:0:0:
333,246,53875,1,0,0:0:0:0:
305,314,54002,1,0,0:0:0:0:
236,340,54129,1,0,0:0:0:0:
424,340,54257,2,0,L|492:340,2,56.25,2|0|2,0:0|0:0|0:0,0:0:0:0:
356,340,54638,1,2,0:0:0:0:
164,340,54765,2,0,L|144:284,1,56.25,8|0,0:0|0:0,0:0:0:0:
352,244,55020,2,0,L|372:188,1,56.25,8|0,0:0|0:0,0:0:0:0:
260,192,55274,6,0,L|316:192,1,56.25,2|0,0:0|0:0,0:0:0:0:
200,192,55528,2,0,L|192:136,1,56.25,8|0,0:0|0:0,0:0:0:0:
380,120,55782,2,0,L|444:120,1,56.25,4|0,0:0|0:0,0:0:0:0:
312,124,56036,2,0,L|264:96,1,56.25,8|0,0:0|0:0,0:0:0:0:
452,52,56291,1,8,0:0:0:0:
504,100,56418,1,0,0:0:0:0:
489,169,56545,1,2,0:0:0:0:
420,190,56672,1,0,0:0:0:0:
216,192,56799,5,8,0:0:0:0:
120,192,56926,1,8,0:0:0:0:
316,260,57053,1,8,0:0:0:0:
412,260,57180,1,8,0:0:0:0:
140,260,57308,6,0,L|64:260,1,67.5000025749208,6|2,0:0|0:0,0:0:0:0:
212,260,57562,2,0,L|224:204,1,56.25,0|2,0:0|0:0,0:0:0:0:
40,204,57816,1,8,0:0:0:0:
18,134,57943,1,0,0:0:0:0:
53,70,58070,1,2,0:0:0:0:
123,51,58197,1,0,0:0:0:0:
268,52,58325,2,0,L|280:108,1,56.25,2|0,0:0|0:0,0:0:0:0:
184,52,58580,2,0,L|196:112,1,56.25,0|2,0:0|0:0,0:0:0:0:
380,108,58834,2,0,L|492:108,1,112.5,8|0,0:0|0:0,0:0:0:0:
436,176,59215,1,2,0:0:0:0:
296,176,59342,6,0,L|288:240,1,56.25,2|2,0:0|0:0,0:0:0:0:
480,300,59596,2,0,L|424:300,1,56.25,2|2,0:0|0:0,0:0:0:0:
228,300,59851,2,0,L|165:301,2,56.25,8|2|0,0:0|0:0|0:0,0:0:0:0:
297,301,60232,1,2,0:0:0:0:
104,300,60359,1,2,0:0:0:0:
312,300,60486,2,0,P|369:243|309:191,1,180,0|2,0:0|0:0,0:0:0:0:
492,192,60868,2,0,L|408:268,1,112.5,8|0,0:0|0:0,0:0:0:0:
328,268,61249,1,2,0:0:0:0:
124,208,61376,6,0,L|76:180,1,56.25,2|2,0:0|0:0,0:0:0:0:
292,208,61630,2,0,L|232:208,1,56.25,0|2,0:0|0:0,0:0:0:0:
352,152,61885,2,0,L|412:152,2,56.25,8|2|2,0:0|0:0|0:0,0:0:0:0:
284,152,62266,1,0,0:0:0:0:
144,152,62393,2,0,L|72:152,1,56.25,2|0,0:0|0:0,0:0:0:0:
284,152,62647,2,0,L|292:208,1,56.25,0|2,0:0|0:0,0:0:0:0:
72,208,62902,2,0,P|28:252|68:296,1,135.000005149842,8|0,0:0|0:0,0:0:0:0:
136,296,63283,1,2,0:0:0:0:
320,296,63410,6,0,L|268:272,1,56.25,2|2,0:0|0:0,0:0:0:0:
360,228,63664,2,0,L|412:204,1,56.25,2|2,0:0|0:0,0:0:0:0:
228,204,63919,1,8,0:0:0:0:
144,200,64046,2,0,B|88:200|88:200|144:200,1,112.5,0|2,0:0|0:0,0:0:0:0:
268,204,64427,2,0,L|272:148,1,56.25,2|2,0:0|0:0,0:0:0:0:
76,148,64681,2,0,L|20:148,1,56.25,8|0,0:0|0:0,0:0:0:0:
224,148,64935,1,8,0:0:0:0:
20,268,65190,1,8,0:0:0:0:
208,268,65317,1,8,0:0:0:0:
404,268,65443,6,0,L|468:268,1,56.25,6|2,0:0|0:0,0:0:0:0:
228,352,65697,2,0,L|220:296,1,56.25,0|2,0:0|0:0,0:0:0:0:
444,348,65952,2,0,P|432:292|364:268,1,135.000005149842,8|2,0:0|0:0,0:0:0:0:
296,268,66333,1,0,0:0:0:0:
160,272,66460,2,0,L|104:268,2,56.25,2|0|2,0:0|0:0|0:0,0:0:0:0:
228,272,66841,1,2,0:0:0:0:
412,192,66968,2,0,B|468:192|468:192|468:136,1,112.5,8|2,0:0|0:0,0:0:0:0:
220,136,67477,6,0,L|212:80,1,56.25,2|2,0:0|0:0,0:0:0:0:
428,136,67731,2,0,L|484:136,1,56.25,0|2,0:0|0:0,0:0:0:0:
287,137,67985,1,8,0:0:0:0:
250,176,68112,1,2,0:0:0:0:
261,229,68239,1,2,0:0:0:0:
312,248,68366,1,0,0:0:0:0:
185,229,68494,2,0,L|133:209,1,56.25,2|0,0:0|0:0,0:0:0:0:
316,304,68748,2,0,L|328:248,1,56.25
116,304,69002,5,8,0:0:0:0:
300,304,69129,1,8,0:0:0:0:
100,304,69257,1,8,0:0:0:0:
284,304,69384,1,8,0:0:0:0:
88,96,69511,6,0,L|80:152,1,56.25,2|0,0:0|0:0,0:0:0:0:
288,152,69765,2,0,L|227:152,1,56.25,2|0,0:0|0:0,0:0:0:0:
416,152,70019,1,8,0:0:0:0:
445,218,70146,1,8,0:0:0:0:
417,286,70273,1,8,0:0:0:0:
348,312,70400,1,8,0:0:0:0:
160,312,70528,2,0,L|92:312,2,56.25,2|2|0,0:0|0:0|0:0,0:0:0:0:
228,312,70909,1,2,0:0:0:0:
420,312,71036,2,0,L|440:256,1,56.25,8|0,0:0|0:0,0:0:0:0:
232,216,71291,2,0,L|212:160,1,56.25,4|0,0:0|0:0,0:0:0:0:
324,164,71545,6,0,L|268:164,1,56.25,2|0,0:0|0:0,0:0:0:0:
84,164,71799,2,0,L|76:108,1,56.25,8|0,0:0|0:0,0:0:0:0:
276,92,72053,2,0,L|340:92,1,56.25,4|0,0:0|0:0,0:0:0:0:
148,92,72307,2,0,L|100:64,1,56.25,8|0,0:0|0:0,0:0:0:0:
348,48,72562,1,8,0:0:0:0:
296,88,72689,1,0,0:0:0:0:
296,152,72816,1,2,0:0:0:0:
348,192,72943,1,0,0:0:0:0:
152,192,73070,5,8,0:0:0:0:
336,192,73197,1,8,0:0:0:0:
112,192,73324,1,8,0:0:0:0:
336,192,73451,1,8,0:0:0:0:
72,192,73579,5,2,0:0:0:0:
20,244,73706,1,2,0:0:0:0:
44,316,73833,1,0,0:0:0:0:
136,316,73960,1,2,0:0:0:0:
324,316,74087,2,0,L|372:316,1,45,8|0,0:0|0:0,0:0:0:0:
268,316,74342,1,2,0:0:0:0:
432,316,74596,1,2,0:0:0:0:
476,260,74723,1,4,0:0:0:0:
388,256,74850,1,2,0:0:0:0:
432,200,74977,1,4,0:0:0:0:
212,184,75104,2,0,L|76:184,1,135.000005149842,8|0,0:0|0:0,0:0:0:0:
32,252,75486,1,2,0:0:0:0:
140,252,75613,6,0,L|184:252,2,45,2|2|2,0:0|0:0|0:0,0:0:0:0:
40,252,75994,1,2,0:0:0:0:
228,252,76121,2,0,L|280:252,1,45,8|0,0:0|0:0,0:0:0:0:
184,252,76375,2,0,L|180:316,1,45,2|2,0:0|0:0,0:0:0:0:
252,300,76630,2,0,L|248:364,1,45,2|0,0:0|0:0,0:0:0:0:
152,344,76884,2,0,L|108:344,1,45,2|0,0:0|0:0,0:0:0:0:
296,300,77138,1,8,0:0:0:0:
96,344,77265,2,0,P|56:300|104:260,1,135.000005149842,4|8,0:0|0:0,0:0:0:0:
324,300,77647,5,2,0:0:0:0:
356,240,77774,1,2,0:0:0:0:
320,180,77901,1,0,0:0:0:0:
252,180,78028,1,2,0:0:0:0:
440,112,78155,2,0,L|392:112,1,45,8|0,0:0|0:0,0:0:0:0:
300,112,78409,1,2,0:0:0:0:
128,112,78664,1,2,0:0:0:0:
172,168,78791,1,4,0:0:0:0:
84,172,78918,1,2,0:0:0:0:
128,228,79045,1,4,0:0:0:0:
348,228,79172,2,0,L|484:228,1,135.000005149842,8|0,0:0|0:0,0:0:0:0:
436,300,79554,1,2,0:0:0:0:
328,300,79681,6,0,L|284:300,2,45,2|2|2,0:0|0:0|0:0,0:0:0:0:
436,300,80062,1,2,0:0:0:0:
248,300,80189,2,0,L|196:300,1,45,8|0,0:0|0:0,0:0:0:0:
296,300,80443,1,2,0:0:0:0:
332,248,80570,1,2,0:0:0:0:
296,192,80697,1,2,0:0:0:0:
188,192,80825,1,8,0:0:0:0:
304,192,80952,2,0,L|312:144,1,45,8|0,0:0|0:0,0:0:0:0:
120,148,81206,1,8,0:0:0:0:
280,72,81460,1,8,0:0:0:0:
168,72,81587,1,8,0:0:0:0:
356,72,81714,6,0,L|404:72,2,45,2|2|0,0:0|0:0|0:0,0:0:0:0:
280,72,82096,1,0,0:0:0:0:
468,72,82223,2,0,L|472:124,1,45,8|2,0:0|0:0,0:0:0:0:
364,156,82477,2,0,L|268:156,1,90,2|2,0:0|0:0,0:0:0:0:
336,164,82858,1,2,0:0:0:0:
396,200,82985,1,2,0:0:0:0:
388,268,83112,1,2,0:0:0:0:
200,268,83240,2,0,B|156:268|156:268|208:268,1,90,8|0,0:0|0:0,0:0:0:0:
264,268,83621,1,2,0:0:0:0:
152,268,83748,5,2,0:0:0:0:
100,217,83875,1,2,0:0:0:0:
107,144,84002,1,2,0:0:0:0:
167,104,84129,1,2,0:0:0:0:
356,104,84257,2,0,L|400:104,1,45,8|0,0:0|0:0,0:0:0:0:
312,104,84511,2,0,L|308:164,1,45,2|2,0:0|0:0,0:0:0:0:
380,192,84765,1,2,0:0:0:0:
272,192,84892,2,0,L|180:192,1,90,0|2,0:0|0:0,0:0:0:0:
372,192,85274,1,8,0:0:0:0:
148,192,85401,2,0,P|104:236|148:272,1,135.000005149842,4|0,0:0|0:0,0:0:0:0:
260,272,85782,5,2,0:0:0:0:
300,212,85909,1,2,0:0:0:0:
256,152,86036,1,0,0:0:0:0:
364,152,86163,1,2,0:0:0:0:
176,84,86290,2,0,L|224:84,1,45,8|2,0:0|0:0,0:0:0:0:
304,84,86545,1,2,0:0:0:0:
136,84,86799,1,2,0:0:0:0:
92,144,86926,1,4,0:0:0:0:
180,140,87053,1,2,0:0:0:0:
136,200,87180,1,4,0:0:0:0:
344,200,87308,2,0,P|324:264|264:288,1,135.000005149842,8|0,0:0|0:0,0:0:0:0:
196,288,87689,1,2,0:0:0:0:
304,288,87816,6,0,L|348:288,2,45,2|2|2,0:0|0:0|0:0,0:0:0:0:
196,288,88197,1,2,0:0:0:0:
384,288,88324,2,0,L|436:288,1,45,8|2,0:0|0:0,0:0:0:0:
336,288,88579,2,0,L|284:288,2,45,2|0|2,0:0|0:0|0:0,0:0:0:0:
220,288,88960,1,8,0:0:0:0:
336,288,89087,2,0,L|288:288,1,45,8|0,0:0|0:0,0:0:0:0:
472,192,89341,1,8,0:0:0:0:
328,116,89595,1,8,0:0:0:0:
448,116,89722,1,8,0:0:0:0:
232,116,89850,6,0,L|140:116,1,90,6|2,0:0|0:0,0:0:0:0:
208,116,90231,1,0,0:0:0:0:
328,116,90358,1,8,0:0:0:0:
20,116,90613,2,0,P|8:164|96:252,1,180,2|2,0:0|0:0,0:0:0:0:
304,252,91375,2,0,L|396:252,1,90,8|2,0:0|0:0,0:0:0:0:
340,252,91757,1,2,0:0:0:0:
152,252,91884,6,0,L|56:252,1,90,2|2,0:0|0:0,0:0:0:0:
116,252,92265,1,0,0:0:0:0:
296,328,92392,1,8,0:0:0:0:
152,328,92647,1,2,0:0:0:0:
332,328,92901,2,0,L|376:328,2,45,2|8|2,0:0|0:0|0:0,0:0:0:0:
284,328,93282,1,2,0:0:0:0:
464,328,93409,2,0,L|468:232,1,90,8|2,0:0|0:0,0:0:0:0:
144,240,93918,5,2,0:0:0:0:
189,240,94045,1,0,0:0:0:0:
216,240,94172,1,2,0:0:0:0:
189,240,94299,1,0,0:0:0:0:
144,240,94426,1,8,0:0:0:0:
467,238,94681,2,0,P|479:190|391:102,1,180,2|2,0:0|0:0,0:0:0:0:
344,104,95316,1,2,0:0:0:0:
177,102,95443,2,0,L|85:102,1,90,8|2,0:0|0:0,0:0:0:0:
155,102,95825,1,2,0:0:0:0:
335,102,95952,5,2,0:0:0:0:
385,131,96079,1,0,0:0:0:0:
393,188,96206,1,2,0:0:0:0:
353,231,96333,1,0,0:0:0:0:
172,232,96460,2,0,L|168:280,1,45,8|8,0:0|0:0,0:0:0:0:
353,231,96714,2,0,L|357:279,1,45,8|8,0:0|0:0,0:0:0:0:
258,276,96969,2,0,L|158:276,1,90,2|2,0:0|0:0,0:0:0:0:
484,192,97477,2,0,L|428:192,1,45,8|8,0:0|0:0,0:0:0:0:
248,192,97731,2,0,L|188:192,1,45,8|8,0:0|0:0,0:0:0:0:
400,192,97986,5,2,0:0:0:0:
464,192,98113,2,0,L|356:192,1,90,2|2,0:0|0:0,0:0:0:0:
192,192,98494,2,0,L|188:236,1,45,8|2,0:0|0:0,0:0:0:0:
376,236,98748,2,0,P|432:256|456:324,1,135,2|2,0:0|0:0,0:0:0:0:
384,324,99257,1,2,0:0:0:0:
456,324,99384,1,2,0:0:0:0:
276,324,99511,2,0,L|168:324,1,90,8|0,0:0|0:0,0:0:0:0:
132,324,99892,1,2,0:0:0:0:
240,256,100020,5,2,0:0:0:0:
272,212,100147,1,2,0:0:0:0:
260,160,100274,1,2,0:0:0:0:
212,132,100401,1,2,0:0:0:0:
32,132,100528,2,0,L|84:132,1,45,8|2,0:0|0:0,0:0:0:0:
172,192,100782,2,0,L|112:192,1,45,2|2,0:0|0:0,0:0:0:0:
72,264,101036,2,0,L|180:264,1,90,2|0,0:0|0:0,0:0:0:0:
216,264,101418,1,2,0:0:0:0:
404,264,101545,2,0,L|292:264,1,90,8|0,0:0|0:0,0:0:0:0:
260,264,101926,1,2,0:0:0:0:
80,264,102053,5,2,0:0:0:0:
16,264,102180,2,0,L|124:264,1,90,2|2,0:0|0:0,0:0:0:0:
288,264,102561,2,0,L|292:220,1,45,8|0,0:0|0:0,0:0:0:0:
104,220,102815,2,0,P|48:200|24:132,1,135,2|2,0:0|0:0,0:0:0:0:
88,132,103324,1,2,0:0:0:0:
152,132,103451,1,2,0:0:0:0:
336,132,103579,2,0,L|384:132,1,45,8|0,0:0|0:0,0:0:0:0:
200,196,103833,2,0,L|256:196,1,45,0|2,0:0|0:0,0:0:0:0:
144,196,104087,5,2,0:0:0:0:
86,210,104214,1,2,0:0:0:0:
45,252,104341,1,2,0:0:0:0:
31,310,104468,1,2,0:0:0:0:
216,312,104596,2,0,L|264:312,2,45,8|2|2,0:0|0:0|0:0,0:0:0:0:
168,312,104977,1,2,0:0:0:0:
261,312,105104,1,2,0:0:0:0:
44,312,105358,2,0,L|40:240,1,45,8|0,0:0|0:0,0:0:0:0:
336,240,105613,1,8,0:0:0:0:
208,240,105867,2,0,L|268:240,1,45,8|8,0:0|0:0,0:0:0:0:
24,192,106121,5,4,0:0:0:0:
256,192,106375,12,0,110189,0:0:0:0:
256,192,118325,12,0,122138,0:0:0:0:
160,192,122392,6,0,L|56:192,1,90,6|0,0:0|0:0,0:0:0:0:
124,192,122774,1,0,0:0:0:0:
312,192,122901,2,0,L|316:96,1,90,8|0,0:0|0:0,0:0:0:0:
100,100,123409,1,2,0:0:0:0:
107,158,123536,1,0,0:0:0:0:
144,204,123663,1,0,0:0:0:0:
200,224,123790,1,0,0:0:0:0:
392,224,123918,2,0,L|288:224,1,90,8|0,0:0|0:0,0:0:0:0:
252,224,124299,1,0,0:0:0:0:
456,224,124426,5,2,0:0:0:0:
472,167,124553,1,0,0:0:0:0:
456,110,124680,1,0,0:0:0:0:
413,70,124807,1,0,0:0:0:0:
212,72,124935,1,8,0:0:0:0:
392,72,125189,2,0,L|344:72,1,45
144,72,125443,1,2,0:0:0:0:
80,72,125570,2,0,P|40:96|28:136,1,90
256,192,125952,1,8,0:0:0:0:
56,192,126206,2,0,L|104:192,1,45,2|2,0:0|0:0,0:0:0:0:
304,192,126460,5,2,0:0:0:0:
338,256,126587,1,0,0:0:0:0:
321,328,126714,1,0,0:0:0:0:
261,370,126841,1,0,0:0:0:0:
68,372,126969,1,8,0:0:0:0:
204,372,127223,2,0,L|172:336,1,45
264,336,127477,1,2,0:0:0:0:
328,328,127604,1,0,0:0:0:0:
372,280,127731,1,0,0:0:0:0:
376,218,127858,1,0,0:0:0:0:
184,216,127986,1,8,0:0:0:0:
336,216,128240,1,0,0:0:0:0:
24,216,128494,6,0,L|20:164,1,45,2|0,0:0|0:0,0:0:0:0:
156,172,128875,1,0,0:0:0:0:
348,172,129003,2,0,L|252:172,1,90,8|0,0:0|0:0,0:0:0:0:
212,128,129384,1,0,0:0:0:0:
304,76,129511,2,0,L|360:76,2,45,2|0|0,0:0|0:0|0:0,0:0:0:0:
256,76,129892,1,0,0:0:0:0:
448,76,130020,1,4,0:0:0:0:
140,76,130274,2,0,L|128:120,1,45,4|2,0:0|0:0,0:0:0:0:
392,144,130528,6,0,P|436:164|424:284,1,180,2|0,0:0|0:0,0:0:0:0:
368,280,130909,1,0,0:0:0:0:
176,280,131036,2,0,L|168:232,1,45,8|0,0:0|0:0,0:0:0:0:
304,192,131291,2,0,L|260:192,1,45
156,192,131545,2,0,P|100:232|108:336,1,180,2|0,0:0|0:0,0:0:0:0:
168,336,131926,1,0,0:0:0:0:
360,336,132053,2,0,L|464:336,1,90,8|0,0:0|0:0,0:0:0:0:
252,252,132562,6,0,L|200:252,2,45,2|0|0,0:0|0:0|0:0,0:0:0:0:
304,252,132943,1,0,0:0:0:0:
112,252,133070,1,8,0:0:0:0:
276,212,133325,2,0,L|280:160,1,45
188,168,133579,1,2,0:0:0:0:
157,117,133706,1,2,0:0:0:0:
170,60,133833,1,0,0:0:0:0:
219,28,133960,1,2,0:0:0:0:
408,28,134087,2,0,L|348:28,1,45,8|0,0:0|0:0,0:0:0:0:
170,60,134342,2,0,L|110:60,1,45,2|0,0:0|0:0,0:0:0:0:
372,112,134596,5,2,0:0:0:0:
432,112,134723,2,0,P|480:140|496:224,1,135,2|2,0:0|0:0,0:0:0:0:
308,216,135104,1,8,0:0:0:0:
444,216,135358,2,0,L|396:216,1,45
308,216,135613,1,2,0:0:0:0:
244,216,135740,2,0,L|152:192,1,90,2|2,0:0|0:0,0:0:0:0:
348,112,136121,1,8,0:0:0:0:
212,112,136375,2,0,L|260:112,1,45
64,112,136630,6,0,P|32:156|56:276,1,180,2|0,0:0|0:0,0:0:0:0:
116,272,137011,1,0,0:0:0:0:
216,272,137138,1,2,0:0:0:0:
84,328,137392,1,4,0:0:0:0:
264,328,137647,1,2,0:0:0:0:
288,274,137774,1,0,0:0:0:0:
266,220,137901,1,0,0:0:0:0:
211,199,138028,1,0,0:0:0:0:
268,200,138155,1,2,0:0:0:0:
152,200,138409,1,4,0:0:0:0:
460,200,138664,5,2,0:0:0:0:
480,145,138791,1,0,0:0:0:0:
459,90,138918,1,0,0:0:0:0:
406,64,139045,1,0,0:0:0:0:
216,64,139172,1,8,0:0:0:0:
432,64,139426,1,0,0:0:0:0:
364,64,139553,1,0,0:0:0:0:
296,64,139681,2,0,P|276:100|296:144,1,90,2|0,0:0|0:0,0:0:0:0:
360,144,140062,1,0,0:0:0:0:
144,144,140189,2,0,B|100:144|100:144|148:144,1,90,8|0,0:0|0:0,0:0:0:0:
328,144,140697,6,0,P|372:164|384:220,1,90,2|0,0:0|0:0,0:0:0:0:
324,208,141079,1,0,0:0:0:0:
132,244,141206,2,0,L|224:244,1,90,8|0,0:0|0:0,0:0:0:0:
284,244,141587,1,0,0:0:0:0:
192,244,141714,1,2,0:0:0:0:
167,296,141841,1,0,0:0:0:0:
187,351,141968,1,0,0:0:0:0:
240,376,142095,1,0,0:0:0:0:
432,376,142223,1,8,0:0:0:0:
124,352,142477,2,0,L|172:352,1,45,2|2,0:0|0:0,0:0:0:0:
268,296,142731,6,0,L|312:296,2,45,2|0|0,0:0|0:0|0:0,0:0:0:0:
212,296,143113,1,0,0:0:0:0:
404,296,143240,1,8,0:0:0:0:
268,296,143494,2,0,L|284:244,1,45
376,228,143748,1,2,0:0:0:0:
381,169,143875,1,0,0:0:0:0:
349,119,144002,1,0,0:0:0:0:
293,101,144129,1,0,0:0:0:0:
100,104,144257,2,0,L|80:160,1,45,8|0,0:0|0:0,0:0:0:0:
176,104,144511,2,0,L|160:146,1,45
60,148,144765,5,2,0:0:0:0:
17,187,144892,1,0,0:0:0:0:
23,245,145019,1,0,0:0:0:0:
72,275,145146,1,0,0:0:0:0:
264,276,145274,1,8,0:0:0:0:
116,276,145528,2,0,L|136:328,1,45
232,276,145782,2,0,L|184:276,1,45
260,344,146036,2,0,L|216:344,1,45
24,344,146291,1,4,0:0:0:0:
332,344,146545,2,0,L|344:300,1,45,4|2,0:0|0:0,0:0:0:0:
112,228,146799,6,0,P|68:208|80:88,1,180,2|0,0:0|0:0,0:0:0:0:
136,92,147180,1,0,0:0:0:0:
328,92,147307,2,0,L|336:140,1,45,8|0,0:0|0:0,0:0:0:0:
144,184,147562,2,0,L|136:232,1,45
236,228,147816,2,0,P|292:188|284:84,1,180,2|0,0:0|0:0,0:0:0:0:
224,84,148197,1,0,0:0:0:0:
32,84,148324,2,0,L|122:84,1,90,8|0,0:0|0:0,0:0:0:0:
176,84,148706,1,0,0:0:0:0:
368,84,148833,6,0,L|420:84,2,45,2|0|0,0:0|0:0|0:0,0:0:0:0:
316,84,149214,1,0,0:0:0:0:
122,84,149341,1,8,0:0:0:0:
286,124,149596,2,0,L|290:176,1,45
198,168,149850,1,2,0:0:0:0:
167,219,149977,1,2,0:0:0:0:
180,276,150104,1,0,0:0:0:0:
229,308,150231,1,2,0:0:0:0:
418,308,150358,2,0,L|436:264,1,45,8|0,0:0|0:0,0:0:0:0:
212,219,150613,2,0,L|152:219,1,45,2|0,0:0|0:0,0:0:0:0:
368,52,150867,5,2,0:0:0:0:
428,52,150994,2,0,P|476:80|492:164,1,135,2|2,0:0|0:0,0:0:0:0:
304,156,151375,1,8,0:0:0:0:
192,220,151629,2,0,L|240:220,1,45
332,220,151884,1,2,0:0:0:0:
264,220,152011,2,0,L|172:196,1,90,2|2,0:0|0:0,0:0:0:0:
368,116,152392,1,8,0:0:0:0:
232,116,152646,2,0,L|280:116,1,45
73,109,152901,6,0,P|41:153|65:273,1,180,2|0,0:0|0:0,0:0:0:0:
125,269,153282,1,2,0:0:0:0:
225,269,153409,1,8,0:0:0:0:
93,325,153663,1,4,0:0:0:0:
273,325,153918,1,2,0:0:0:0:
297,271,154045,1,0,0:0:0:0:
275,217,154172,1,0,0:0:0:0:
220,196,154299,1,0,0:0:0:0:
412,200,154426,1,8,0:0:0:0:
104,196,154680,1,4,0:0:0:0:
268,196,154935,6,0,L|276:144,1,45,2|0,0:0|0:0,0:0:0:0:
144,104,155189,2,0,L|88:104,2,56.25,0|0|8,0:0|0:0|0:0,0:0:0:0:
276,40,155570,2,0,L|336:40,2,56.25
144,104,155952,1,2,0:0:0:0:
208,104,156079,1,0,0:0:0:0:
272,104,156206,1,0,0:0:0:0:
140,188,156333,1,0,0:0:0:0:
204,188,156460,1,8,0:0:0:0:
268,188,156587,1,0,0:0:0:0:
136,280,156714,2,0,L|80:280,1,45
288,280,156969,5,2,0:0:0:0:
64,280,157096,1,0,0:0:0:0:
61,193,157223,1,0,0:0:0:0:
130,140,157350,1,0,0:0:0:0:
344,140,157477,2,0,L|392:112,2,45,8|0|0,0:0|0:0|0:0,0:0:0:0:
280,140,157858,1,0,0:0:0:0:
472,140,157986,1,4,0:0:0:0:
487,212,158113,1,0,0:0:0:0:
455,278,158240,1,0,0:0:0:0:
389,310,158367,1,0,0:0:0:0:
140,312,158494,2,0,L|195:280,1,45,12|0,0:0|0:0,0:0:0:0:
421,139,158748,2,0,L|365:107,1,45,2|2,0:0|0:0,0:0:0:0:
184,116,159003,6,0,L|128:116,2,56.25,2|0|0,0:0|0:0|0:0,0:0:0:0:
308,40,159384,2,0,L|252:40,2,56.25,0|8|0,0:0|0:0|0:0,0:0:0:0:
184,116,159765,2,0,L|240:116,2,56.25,0|0|2,0:0|0:0|0:0,0:0:0:0:
308,192,160147,2,0,L|364:192,2,56.25
180,192,160528,1,8,0:0:0:0:
164,268,160655,1,0,0:0:0:0:
212,328,160782,1,0,0:0:0:0:
288,340,160909,1,0,0:0:0:0:
80,328,161036,5,2,0:0:0:0:
46,279,161163,1,0,0:0:0:0:
52,221,161290,1,0,0:0:0:0:
94,179,161417,1,0,0:0:0:0:
196,180,161545,2,0,L|236:152,1,45,8|0,0:0|0:0,0:0:0:0:
144,124,161799,2,0,L|184:96,1,45
372,100,162053,1,2,0:0:0:0:
128,52,162181,1,0,0:0:0:0:
76,104,162308,1,0,0:0:0:0:
96,176,162435,1,0,0:0:0:0:
284,176,162562,1,4,0:0:0:0:
192,176,162689,1,0,0:0:0:0:
376,176,162816,1,12,0:0:0:0:
284,176,162943,1,8,0:0:0:0:
96,256,163070,6,0,L|40:256,1,45,2|0,0:0|0:0,0:0:0:0:
184,256,163325,1,0,0:0:0:0:
248,256,163452,1,0,0:0:0:0:
312,256,163579,1,8,0:0:0:0:
180,336,163706,2,0,L|124:336,2,56.25
312,336,164087,1,2,0:0:0:0:
248,336,164214,1,0,0:0:0:0:
184,336,164341,1,0,0:0:0:0:
316,256,164469,2,0,L|372:256,2,56.25,0|8|0,0:0|0:0|0:0,0:0:0:0:
184,256,164850,2,0,L|236:256,1,45
40,256,165104,5,2,0:0:0:0:
248,172,165231,2,0,L|332:172,2,56.25
440,172,165613,1,8,0:0:0:0:
473,107,165740,1,0,0:0:0:0:
445,40,165867,1,0,0:0:0:0:
375,19,165994,1,0,0:0:0:0:
168,20,166121,2,2,L|236:20,2,56.25,6|2|0,0:0|0:0|0:0,0:0:0:0:
112,20,166503,1,2,0:0:0:0:
304,112,166630,1,12,0:0:0:0:
112,112,166757,1,0,0:0:0:0:
348,112,166884,2,0,L|404:112,1,45,2|2,0:0|0:0,0:0:0:0:
156,188,167138,6,0,L|212:188,2,56.25,2|0|0,0:0|0:0|0:0,0:0:0:0:
280,112,167520,2,0,L|336:112,2,56.25,0|8|0,0:0|0:0|0:0,0:0:0:0:
156,188,167901,2,0,L|100:188,2,56.25,0|0|2,0:0|0:0|0:0,0:0:0:0:
280,264,168282,2,0,L|224:264,2,56.25
120,264,168664,1,8,0:0:0:0:
99,188,168790,1,0,0:0:0:0:
147,128,168917,1,2,0:0:0:0:
223,116,169044,1,0,0:0:0:0:
412,116,169172,6,0,L|375:90,1,45,2|0,0:0|0:0,0:0:0:0:
244,116,169426,1,0,0:0:0:0:
180,176,169554,1,0,0:0:0:0:
212,256,169681,1,8,0:0:0:0:
344,120,169808,1,0,0:0:0:0:
408,180,169936,1,0,0:0:0:0:
376,260,170063,1,0,0:0:0:0:
264,256,170189,1,2,0:0:0:0:
234,205,170316,1,2,0:0:0:0:
247,148,170443,1,2,0:0:0:0:
296,115,170570,1,2,0:0:0:0:
200,116,170697,2,0,L|192:60,1,45,4|0,0:0|0:0,0:0:0:0:
296,115,170952,2,0,L|330:70,1,45,12|0,0:0|0:0,0:0:0:0:
120,68,171206,5,2,0:0:0:0:
64,88,171333,1,0,0:0:0:0:
28,135,171460,1,0,0:0:0:0:
22,194,171587,1,0,0:0:0:0:
156,196,171714,1,8,0:0:0:0:
89,196,171842,1,0,0:0:0:0:
22,194,171969,1,0,0:0:0:0:
89,196,172096,1,0,0:0:0:0:
220,280,172223,2,0,L|144:280,2,56.25,2|0|0,0:0|0:0|0:0,0:0:0:0:
352,352,172604,2,0,L|276:352,2,56.25,0|8|0,0:0|0:0|0:0,0:0:0:0:
484,352,172986,2,0,L|488:300,1,45
284,272,173240,5,2,0:0:0:0:
472,192,173367,2,0,L|404:192,2,56.25
280,192,173748,1,8,0:0:0:0:
236,144,173875,1,0,0:0:0:0:
240,80,174002,1,0,0:0:0:0:
300,56,174129,1,0,0:0:0:0:
201,57,174257,2,0,L|249:84,1,45,6|0,0:0|0:0,0:0:0:0:
48,80,174511,2,0,L|20:128,1,45
252,192,174765,1,12,0:0:0:0:
36,192,174892,1,0,0:0:0:0:
132,192,175020,1,2,0:0:0:0:
44,192,175147,1,2,0:0:0:0:
288,280,175274,6,0,L|364:280,2,56.25,2|0|0,0:0|0:0|0:0,0:0:0:0:
156,344,175655,2,0,L|80:344,2,56.25,0|8|0,0:0|0:0|0:0,0:0:0:0:
236,344,176036,2,0,L|256:296,1,45
120,272,176291,1,2,0:0:0:0:
113,213,176418,1,0,0:0:0:0:
143,162,176545,1,0,0:0:0:0:
197,140,176672,1,0,0:0:0:0:
332,140,176799,2,0,L|388:140,2,56.25,8|0|0,0:0|0:0|0:0,0:0:0:0:
276,140,177181,1,0,0:0:0:0:
468,140,177308,6,0,L|484:84,1,45,2|0,0:0|0:0,0:0:0:0:
348,52,177562,1,0,0:0:0:0:
284,52,177689,1,0,0:0:0:0:
220,52,177816,1,2,0:0:0:0:
352,120,177943,1,0,0:0:0:0:
288,120,178070,1,0,0:0:0:0:
224,120,178197,1,0,0:0:0:0:
32,120,178325,1,2,0:0:0:0:
20,178,178452,1,0,0:0:0:0:
37,234,178579,1,0,0:0:0:0:
80,276,178706,1,0,0:0:0:0:
192,276,178833,2,0,L|176:328,1,45,4|0,0:0|0:0,0:0:0:0:
64,352,179087,2,0,L|116:368,1,45,12|0,0:0|0:0,0:0:0:0:
323,285,179342,6,0,L|379:285,1,45,2|0,0:0|0:0,0:0:0:0:
235,285,179597,1,0,0:0:0:0:
171,285,179724,1,0,0:0:0:0:
107,285,179851,1,8,0:0:0:0:
240,364,179977,2,0,L|180:364,2,56.25
107,285,180358,1,2,0:0:0:0:
171,285,180485,1,0,0:0:0:0:
235,285,180612,1,0,0:0:0:0:
100,208,180740,2,0,L|156:208,2,56.25,0|8|0,0:0|0:0|0:0,0:0:0:0:
232,136,181121,2,0,L|180:136,1,45
376,136,181375,5,2,0:0:0:0:
168,52,181502,2,0,L|84:52,2,56.25
376,64,181884,1,8,0:0:0:0:
440,100,182011,1,0,0:0:0:0:
440,172,182138,1,0,0:0:0:0:
380,208,182265,1,0,0:0:0:0:
144,208,182392,2,0,L|212:208,2,56.25,6|0|0,0:0|0:0|0:0,0:0:0:0:
80,208,182774,1,0,0:0:0:0:
272,116,182901,1,12,0:0:0:0:
80,116,183028,1,0,0:0:0:0:
292,44,183155,2,0,L|244:44,1,45,2|2,0:0|0:0,0:0:0:0:
460,192,183409,5,2,0:0:0:0:
400,192,183536,1,0,0:0:0:0:
336,192,183664,1,0,0:0:0:0:
468,268,183791,2,0,L|412:268,2,56.25,0|8|0,0:0|0:0|0:0,0:0:0:0:
392,268,184172,2,0,L|344:240,1,45,2|0,0:0|0:0,0:0:0:0:
220,272,184426,2,0,L|268:272,1,45,2|0,0:0|0:0,0:0:0:0:
132,272,184681,2,0,L|86:226,1,45
224,232,184934,1,8,0:0:0:0:
245,156,185061,1,0,0:0:0:0:
197,96,185188,1,2,0:0:0:0:
121,84,185315,1,2,0:0:0:0:
312,156,185443,6,0,L|349:130,1,45,2|0,0:0|0:0,0:0:0:0:
216,24,185697,2,0,L|148:24,2,56.25,0|0|8,0:0|0:0|0:0,0:0:0:0:
84,24,186079,2,0,L|16:24,2,56.25
188,72,186460,1,2,0:0:0:0:
218,123,186587,1,2,0:0:0:0:
205,180,186714,1,2,0:0:0:0:
156,213,186841,1,2,0:0:0:0:
60,216,186968,2,0,L|68:272,1,45,8|0,0:0|0:0,0:0:0:0:
164,288,187223,2,0,L|172:344,1,45,2|0,0:0|0:0,0:0:0:0:
360,332,187477,5,2,0:0:0:0:
432,320,187604,1,0,0:0:0:0:
481,266,187731,1,0,0:0:0:0:
484,192,187858,1,0,0:0:0:0:
300,192,187986,2,0,L|184:192,1,112.5,8|0,0:0|0:0,0:0:0:0:
244,128,188367,1,0,0:0:0:0:
56,80,188494,1,2,0:0:0:0:
12,124,188621,1,0,0:0:0:0:
12,184,188748,1,0,0:0:0:0:
52,228,188875,1,0,0:0:0:0:
244,128,189003,2,0,L|252:172,1,45,8|0,0:0|0:0,0:0:0:0:
440,72,189257,2,0,L|448:28,1,45
212,20,189511,6,0,L|120:20,1,90,2|0,0:0|0:0,0:0:0:0:
176,20,189892,1,2,0:0:0:0:
368,48,190020,1,8,0:0:0:0:
224,96,190274,2,0,L|292:96,1,45,0|2,0:0|0:0,0:0:0:0:
180,96,190528,1,2,0:0:0:0:
164,148,190655,1,0,0:0:0:0:
184,200,190782,1,2,0:0:0:0:
232,220,190909,1,0,0:0:0:0:
44,220,191036,1,8,0:0:0:0:
188,268,191290,2,0,L|120:268,1,45,2|2,0:0|0:0,0:0:0:0:
344,268,191545,6,0,L|444:268,1,90,2|0,0:0|0:0,0:0:0:0:
480,324,191926,1,0,0:0:0:0:
288,324,192053,2,0,L|388:324,1,90,8|0,0:0|0:0,0:0:0:0:
184,324,192562,2,0,L|172:272,1,45,2|0,0:0|0:0,0:0:0:0:
252,284,192816,2,0,L|264:232,1,45
72,240,193070,2,0,L|168:240,1,90,8|0,0:0|0:0,0:0:0:0:
472,240,193579,5,2,0:0:0:0:
505,192,193706,1,2,0:0:0:0:
492,135,193833,1,0,0:0:0:0:
441,108,193960,1,2,0:0:0:0:
340,108,194087,2,0,L|392:108,1,45,8|0,0:0|0:0,0:0:0:0:
476,192,194342,2,0,L|424:192,1,45,2|0,0:0|0:0,0:0:0:0:
320,192,194596,2,0,L|412:192,1,90,2|2,0:0|0:0,0:0:0:0:
355,192,194977,1,2,0:0:0:0:
243,192,195104,1,12,0:0:0:0:
444,192,195358,1,4,0:0:0:0:
124,192,195613,5,2,0:0:0:0:
64,192,195740,2,0,L|8:192,2,45
256,192,196121,2,0,L|368:192,1,90,8|2,0:0|0:0,0:0:0:0:
156,192,196503,2,0,L|248:192,1,90
300,284,196884,2,0,L|255:284,1,45,2|0,0:0|0:0,0:0:0:0:
64,284,197138,2,0,L|96:244,1,45,8|0,0:0|0:0,0:0:0:0:
284,352,197392,2,0,L|332:352,1,45,2|0,0:0|0:0,0:0:0:0:
136,352,197647,5,2,0:0:0:0:
80,332,197774,2,0,P|88:280|128:252,1,90,0|2,0:0|0:0,0:0:0:0:
304,256,198155,2,0,L|256:256,1,45,8|0,0:0|0:0,0:0:0:0:
352,192,198409,2,0,L|308:192,1,45,2|0,0:0|0:0,0:0:0:0:
212,192,198664,1,2,0:0:0:0:
152,192,198791,2,0,L|100:192,2,45,0|0|2,0:0|0:0|0:0,0:0:0:0:
340,112,199172,1,8,0:0:0:0:
32,112,199426,2,0,L|24:60,1,45,2|2,0:0|0:0,0:0:0:0:
220,68,199681,5,2,0:0:0:0:
240,128,199808,1,0,0:0:0:0:
212,184,199935,1,0,0:0:0:0:
152,192,200062,1,0,0:0:0:0:
344,192,200189,2,0,L|388:192,1,45,8|0,0:0|0:0,0:0:0:0:
276,192,200443,2,0,L|272:248,1,45,2|0,0:0|0:0,0:0:0:0:
369,192,200697,1,2,0:0:0:0:
425,210,200824,1,0,0:0:0:0:
461,256,200951,1,0,0:0:0:0:
466,315,201078,1,2,0:0:0:0:
276,316,201206,2,0,L|216:316,1,45,8|0,0:0|0:0,0:0:0:0:
328,252,201460,2,0,L|268:252,1,45
92,252,201714,6,0,L|148:252,1,45,2|4,0:0|0:0,0:0:0:0:
20,252,202096,1,2,0:0:0:0:
244,252,202223,1,12,0:0:0:0:
352,192,202477,2,0,L|300:192,1,45,2|2,0:0|0:0,0:0:0:0:
496,192,202731,1,2,0:0:0:0:
482,134,202858,1,0,0:0:0:0:
440,92,202985,1,0,0:0:0:0:
383,80,203112,1,0,0:0:0:0:
192,80,203240,2,0,L|244:80,1,45,8|0,0:0|0:0,0:0:0:0:
148,144,203494,2,0,L|200:144,1,45
392,144,203748,6,0,L|496:144,1,90,2|0,0:0|0:0,0:0:0:0:
428,144,204130,1,0,0:0:0:0:
240,144,204257,2,0,L|236:240,1,90,8|0,0:0|0:0,0:0:0:0:
452,236,204765,1,2,0:0:0:0:
388,236,204892,2,0,L|304:192,1,90
116,192,205274,1,8,0:0:0:0:
260,192,205528,2,0,L|308:218,1,45
104,192,205782,5,2,0:0:0:0:
88,249,205909,1,2,0:0:0:0:
104,306,206036,1,0,0:0:0:0:
147,346,206163,1,2,0:0:0:0:
348,344,206291,2,0,L|300:344,1,45,8|0,0:0|0:0,0:0:0:0:
404,272,206545,2,0,L|452:272,1,45
244,344,206799,2,0,P|204:320|192:280,1,90,2|0,0:0|0:0,0:0:0:0:
220,224,207181,1,2,0:0:0:0:
424,192,207308,1,8,0:0:0:0:
300,192,207562,2,0,L|252:192,1,45,2|0,0:0|0:0,0:0:0:0:
68,192,207816,5,2,0:0:0:0:
4,192,207943,2,0,P|24:144|116:148,1,135
292,136,208324,1,8,0:0:0:0:
156,136,208579,2,0,L|128:96,1,45,2|0,0:0|0:0,0:0:0:0:
232,136,208833,1,2,0:0:0:0:
280,105,208960,1,0,0:0:0:0:
280,48,209087,1,0,0:0:0:0:
230,19,209214,1,0,0:0:0:0:
40,16,209342,1,8,0:0:0:0:
344,48,209595,2,0,L|392:48,1,45
116,96,209850,6,0,P|84:140|108:260,1,180,2|0,0:0|0:0,0:0:0:0:
168,256,210231,1,2,0:0:0:0:
276,256,210358,1,8,0:0:0:0:
136,312,210612,1,2,0:0:0:0:
324,312,210867,1,2,0:0:0:0:
348,258,210994,2,0,P|332:208|252:188,1,112.5,2|2,0:0|0:0,0:0:0:0:
468,184,211375,1,12,0:0:0:0:
160,184,211630,2,0,L|152:132,1,45,4|0,0:0|0:0,0:0:0:0:
344,120,211884,6,0,L|352:76,1,45,2|0,0:0|0:0,0:0:0:0:
260,120,212138,2,0,L|204:120,1,45
420,120,212392,2,0,L|428:168,1,45,8|0,0:0|0:0,0:0:0:0:
215,120,212647,2,0,L|207:168,1,45,0|2,0:0|0:0,0:0:0:0:
396,236,212901,1,2,0:0:0:0:
332,236,213028,1,0,0:0:0:0:
268,236,213155,1,2,0:0:0:0:
400,304,213282,1,0,0:0:0:0:
336,304,213409,1,8,0:0:0:0:
272,304,213536,1,0,0:0:0:0:
140,304,213664,2,0,L|84:304,1,45
320,192,213918,5,2,0:0:0:0:
120,192,214045,2,0,P|84:136|132:96,1,135.000005149842,2|2,0:0|0:0,0:0:0:0:
316,96,214426,1,8,0:0:0:0:
172,96,214681,2,0,L|160:148,1,45
352,152,214935,1,2,0:0:0:0:
381,102,215062,1,2,0:0:0:0:
361,48,215189,1,0,0:0:0:0:
306,30,215316,1,2,0:0:0:0:
124,32,215443,1,8,0:0:0:0:
216,32,215570,1,0,0:0:0:0:
36,32,215697,1,2,0:0:0:0:
124,32,215825,1,0,0:0:0:0:
376,32,215952,5,2,0:0:0:0:
256,192,216206,12,0,219765,0:0:0:0:
292,192,220020,5,6,0:0:0:0:
76,192,220147,2,0,P|40:148|88:104,1,135,2|2,0:0|0:0,0:0:0:0:
220,104,220528,2,0,L|152:104,1,67.5000025749208,8|2,0:0|0:0,0:0:0:0:
356,104,220782,1,0,0:0:0:0:
168,104,220909,1,0,0:0:0:0:
288,104,221036,1,2,0:0:0:0:
333,151,221163,1,2,0:0:0:0:
330,217,221290,1,0,0:0:0:0:
281,261,221417,1,2,0:0:0:0:
72,264,221545,2,0,L|64:192,1,67.5000025749208,8|0,0:0|0:0,0:0:0:0:
168,264,221799,2,0,L|232:232,1,67.5000025749208
432,232,222053,5,2,0:0:0:0:
474,181,222180,1,2,0:0:0:0:
466,116,222308,1,2,0:0:0:0:
413,77,222434,1,2,0:0:0:0:
184,80,222562,2,0,L|252:80,1,67.5000025749208,8|0,0:0|0:0,0:0:0:0:
388,144,222816,2,0,L|308:144,1,67.5000025749208,2|0,0:0|0:0,0:0:0:0:
128,144,223070,2,0,L|200:144,2,67.5000025749208,2|4|2,0:0|0:0|0:0,0:0:0:0:
368,144,223452,1,2,0:0:0:0:
112,56,223579,2,0,L|248:56,1,135.000005149842,12|0,0:0|0:0,0:0:0:0:
328,56,223960,1,0,0:0:0:0:
92,56,224087,5,2,0:0:0:0:
100,136,224214,1,0,0:0:0:0:
168,192,224341,1,2,0:0:0:0:
256,192,224469,1,2,0:0:0:0:
44,288,224596,2,0,L|38:221,1,67.5000025749208,8|0,0:0|0:0,0:0:0:0:
308,176,224850,2,0,L|312:244,1,67.5000025749208,2|0,0:0|0:0,0:0:0:0:
172,176,225104,1,2,0:0:0:0:
280,96,225231,2,0,L|352:96,2,67.5000025749208,2|0|2,0:0|0:0|0:0,0:0:0:0:
88,96,225613,2,0,L|72:24,1,67.5000025749208,8|0,0:0|0:0,0:0:0:0:
168,96,225867,2,0,L|152:24,1,67.5000025749208
356,28,226121,5,2,0:0:0:0:
292,48,226248,1,2,0:0:0:0:
249,99,226375,1,2,0:0:0:0:
238,165,226502,1,2,0:0:0:0:
444,164,226630,2,0,L|376:164,1,67.5000025749208,8|2,0:0|0:0,0:0:0:0:
292,236,226884,2,0,L|364:236,1,67.5000025749208,2|0,0:0|0:0,0:0:0:0:
244,236,227138,1,2,0:0:0:0:
448,236,227265,1,8,0:0:0:0:
168,236,227392,2,0,L|100:236,1,67.5000025749208,8|0,0:0|0:0,0:0:0:0:
408,300,227647,1,8,0:0:0:0:
232,340,227901,1,8,0:0:0:0:
452,340,228028,1,8,0:0:0:0:
168,340,228155,5,2,0:0:0:0:
102,331,228282,1,2,0:0:0:0:
53,285,228409,1,0,0:0:0:0:
39,221,228536,1,2,0:0:0:0:
244,220,228664,2,0,L|320:220,2,67.5000025749208,8|2|2,0:0|0:0|0:0,0:0:0:0:
176,220,229045,1,0,0:0:0:0:
380,112,229172,2,0,L|316:88,2,67.5000025749208,2|0|2,0:0|0:0|0:0,0:0:0:0:
244,112,229553,2,0,L|180:88,2,67.5000025749208,0|8|0,0:0|0:0|0:0,0:0:0:0:
108,112,229935,2,0,L|44:88,1,67.5000025749208
276,192,230189,6,0,L|352:192,3,67.5000025749208,2|2|2|2,0:0|0:0|0:0|0:0,0:0:0:0:
140,192,230697,1,8,0:0:0:0:
96,241,230824,1,2,0:0:0:0:
95,307,230951,1,2,0:0:0:0:
138,358,231078,1,2,0:0:0:0:
344,356,231206,2,0,L|352:284,1,67.5000025749208,2|4,0:0|0:0,0:0:0:0:
96,241,231460,2,0,L|52:192,1,67.5000025749208,2|2,0:0|0:0,0:0:0:0:
304,192,231714,1,12,0:0:0:0:
380,192,231842,1,0,0:0:0:0:
456,192,231969,1,2,0:0:0:0:
228,192,232096,1,2,0:0:0:0:
456,192,232223,5,2,0:0:0:0:
487,134,232350,1,2,0:0:0:0:
469,71,232477,1,2,0:0:0:0:
411,40,232604,1,0,0:0:0:0:
208,40,232731,2,0,L|136:40,1,67.5000025749208,8|0,0:0|0:0,0:0:0:0:
360,40,232986,1,0,0:0:0:0:
252,40,233113,1,0,0:0:0:0:
432,40,233240,2,0,L|423:108,1,67.5000025749208,2|0,0:0|0:0,0:0:0:0:
328,108,233494,2,0,L|256:108,1,67.5000025749208,0|2,0:0|0:0,0:0:0:0:
56,108,233748,2,0,L|128:108,1,67.5000025749208,8|0,0:0|0:0,0:0:0:0:
192,176,234003,2,0,L|120:176,1,67.5000025749208,0|2,0:0|0:0,0:0:0:0:
328,176,234257,6,0,L|400:176,2,67.5000025749208,2|0|2,0:0|0:0|0:0,0:0:0:0:
260,176,234638,1,0,0:0:0:0:
464,176,234765,2,0,L|476:248,1,67.5000025749208,8|2,0:0|0:0,0:0:0:0:
336,244,235020,2,0,L|324:316,1,67.5000025749208,0|2,0:0|0:0,0:0:0:0:
420,312,235274,1,2,0:0:0:0:
216,312,235401,1,8,0:0:0:0:
468,309,235528,2,0,L|474:241,1,67.5000025749208,8|0,0:0|0:0,0:0:0:0:
216,312,235783,1,8,0:0:0:0:
392,240,236037,1,8,0:0:0:0:
208,240,236164,1,8,0:0:0:0:
24,240,236291,6,0,L|8:172,1,67.5000025749208,2|0,0:0|0:0,0:0:0:0:
144,308,236545,2,0,L|160:240,1,67.5000025749208,2|0,0:0|0:0,0:0:0:0:
380,172,236799,1,8,0:0:0:0:
256,172,236926,1,0,0:0:0:0:
196,96,237053,1,0,0:0:0:0:
252,20,237180,1,0,0:0:0:0:
388,20,237308,2,0,L|316:20,2,67.5000025749208,2|0|2,0:0|0:0|0:0,0:0:0:0:
456,20,237689,1,0,0:0:0:0:
248,100,237816,2,0,L|108:100,1,135.000005149842,8|2,0:0|0:0,0:0:0:0:
72,152,238197,1,2,0:0:0:0:
296,152,238325,6,0,B|368:152|368:152|420:192,1,135.000005149842,2|2,0:0|0:0,0:0:0:0:
336,220,238706,1,0,0:0:0:0:
80,220,238833,2,0,L|48:284,1,67.5000025749208,8|0,0:0|0:0,0:0:0:0:
240,228,239087,2,0,L|240:300,1,67.5000025749208,2|0,0:0|0:0,0:0:0:0:
432,280,239342,2,0,L|499:280,1,67.5000025749208,2|4,0:0|0:0,0:0:0:0:
153,280,239596,2,0,L|85:280,1,67.5000025749208,2|0,0:0|0:0,0:0:0:0:
356,280,239850,1,12,0:0:0:0:
392,184,239977,1,0,0:0:0:0:
320,112,240104,1,2,0:0:0:0:
200,112,240231,1,0,0:0:0:0:
404,112,240358,6,0,L|472:112,2,67.5000025749208,2|2|0,0:0|0:0|0:0,0:0:0:0:
336,112,240740,1,2,0:0:0:0:
132,112,240867,2,0,P|88:176|156:232,1,180,8|2,0:0|0:0,0:0:0:0:
224,232,241248,1,0,0:0:0:0:
20,232,241375,2,0,L|76:192,1,67.5000025749208,2|0,0:0|0:0,0:0:0:0:
212,265,241630,2,0,L|153:232,1,67.5000025749208,2|2,0:0|0:0,0:0:0:0:
360,232,241884,1,8,0:0:0:0:
417,198,242011,1,0,0:0:0:0:
447,139,242138,1,2,0:0:0:0:
440,73,242265,1,0,0:0:0:0:
236,72,242392,5,2,0:0:0:0:
160,132,242519,1,0,0:0:0:0:
155,232,242646,1,2,0:0:0:0:
276,232,242774,1,0,0:0:0:0:
60,232,242901,2,0,L|56:304,1,67.5000025749208,8|0,0:0|0:0,0:0:0:0:
368,232,243155,2,0,L|372:304,1,67.5000025749208,8|0,0:0|0:0,0:0:0:0:
169,300,243409,2,0,P|211:249|276:232,1,135.000005149842,2|2,0:0|0:0,0:0:0:0:
208,232,243791,1,0,0:0:0:0:
424,232,243918,1,8,0:0:0:0:
208,232,244045,1,2,0:0:0:0:
436,232,244172,1,8,0:0:0:0:
180,232,244299,1,2,0:0:0:0:
400,160,244426,6,0,L|468:160,1,67.5000025749208,2|2,0:0|0:0,0:0:0:0:
208,124,244681,1,0,0:0:0:0:
128,124,244808,1,2,0:0:0:0:
416,36,244935,1,8,0:0:0:0:
336,36,245062,1,2,0:0:0:0:
256,36,245189,1,2,0:0:0:0:
336,36,245316,1,0,0:0:0:0:
112,36,245443,1,2,0:0:0:0:
184,36,245570,1,0,0:0:0:0:
256,36,245697,1,2,0:0:0:0:
184,36,245825,1,0,0:0:0:0:
412,36,245952,2,0,L|424:108,1,67.5000025749208,8|0,0:0|0:0,0:0:0:0:
292,104,246206,2,0,L|216:104,1,67.5000025749208
460,104,246460,5,2,0:0:0:0:
490,187,246587,1,2,0:0:0:0:
470,273,246714,1,2,0:0:0:0:
405,335,246841,1,2,0:0:0:0:
200,336,246969,1,8,0:0:0:0:
112,336,247096,1,2,0:0:0:0:
200,336,247223,1,2,0:0:0:0:
112,336,247350,1,0,0:0:0:0:
316,336,247477,2,0,L|324:264,1,67.5000025749208,2|4,0:0|0:0,0:0:0:0:
88,272,247731,2,0,L|8:272,1,67.5000025749208
344,192,247986,2,0,B|412:192|412:192|412:124,1,135.000005149842,12|2,0:0|0:0,0:0:0:0:
192,192,248367,1,2,0:0:0:0:
464,192,248494,5,2,0:0:0:0:
492,100,248621,1,2,0:0:0:0:
418,40,248748,1,2,0:0:0:0:
180,40,248875,1,2,0:0:0:0:
260,40,249003,1,8,0:0:0:0:
180,40,249130,1,2,0:0:0:0:
384,40,249257,2,0,L|416:100,1,67.5000025749208,2|0,0:0|0:0,0:0:0:0:
148,104,249511,2,0,L|100:160,1,67.5000025749208,2|0,0:0|0:0,0:0:0:0:
248,152,249765,2,0,L|267:223,1,67.5000025749208,2|0,0:0|0:0,0:0:0:0:
32,224,250020,1,8,0:0:0:0:
13,137,250147,1,0,0:0:0:0:
56,61,250274,1,0,0:0:0:0:
139,32,250401,1,0,0:0:0:0:
360,32,250528,6,0,L|272:32,1,67.5000025749208,2|2,0:0|0:0,0:0:0:0:
168,108,250782,2,0,L|256:108,1,67.5000025749208,2|2,0:0|0:0,0:0:0:0:
448,108,251036,1,8,0:0:0:0:
368,108,251164,1,2,0:0:0:0:
448,108,251291,2,0,L|436:180,1,67.5000025749208,2|2,0:0|0:0,0:0:0:0:
228,172,251545,2,0,L|292:192,1,67.5000025749208,2|0,0:0|0:0,0:0:0:0:
88,172,251799,2,0,L|21:172,1,67.5000025749208,8|0,0:0|0:0,0:0:0:0:
369,174,252053,2,0,L|436:174,1,67.5000025749208,8|0,0:0|0:0,0:0:0:0:
200,174,252308,2,0,L|192:250,1,67.5000025749208,8|0,0:0|0:0,0:0:0:0:
488,244,252562,5,4,0:0:0:0:
256,192,252816,12,0,260189,0:0:0:0:
