osu file format v14

[General]
AudioFilename: audio.mp3
AudioLeadIn: 0
PreviewTime: 8326
Countdown: 0
SampleSet: Soft
StackLeniency: 0.7
Mode: 0
LetterboxInBreaks: 0
WidescreenStoryboard: 0

[Editor]
Bookmarks: 8575,24846,32982,49253,65524,81795,98067,114338
DistanceSpacing: 1.4
BeatDivisor: 8
GridSize: 4
TimelineZoom: 2.799999

[Metadata]
Title:H8 U
TitleUnicode:H8 U
Artist:LukHash
ArtistUnicode:LukHash
Creator:Sieg
Version:Hard
Source:
Tags:featured artist hate you dead pixels 8bit electronic chiptune rock
BeatmapID:1251130
BeatmapSetID:590949

[Difficulty]
HPDrainRate:5.5
CircleSize:4
OverallDifficulty:6.6
ApproachRate:6.9
SliderMultiplier:1.8
SliderTickRate:1

[Events]
//Background and Video events
0,0,"enchantress_by_kawacy-dazn2ix.jpg",0,0
//Break Periods
//Storyboard Layer 0 (Background)
//Storyboard Layer 1 (Fail)
//Storyboard Layer 2 (Pass)
//Storyboard Layer 3 (Foreground)
//Storyboard Sound Samples

[TimingPoints]
445,508.474576271186,4,2,72,100,1,0
8580,-133.333333333333,4,2,72,40,0,0
24851,-133.333333333333,4,2,72,60,0,0
30953,-100,4,2,72,50,0,0
32987,-100,4,2,72,90,0,1
33495,-100,4,2,72,70,0,1
47447,-100,4,2,72,70,0,0
47478,-100,4,2,72,70,0,1
49226,-100,4,2,72,70,0,0
49258,-100,4,2,72,70,0,1
63718,-100,4,2,72,70,0,0
63750,-100,4,2,72,70,0,1
65529,-100,4,2,72,70,0,0
81800,-76.9230769230769,4,2,72,70,0,1
98040,-76.9230769230769,4,2,72,70,0,0
98072,-76.9230769230769,4,2,72,70,0,1
98103,-76.9230769230769,4,2,72,70,0,0
98834,-100,4,2,72,60,0,0
106589,-100,4,2,72,40,0,0
107478,-100,4,2,72,35,0,0
108241,-100,4,2,72,30,0,0
108622,-100,4,2,72,25,0,0
109004,-100,4,2,72,20,0,0
109639,-100,4,2,72,15,0,0
110275,-100,4,2,72,10,0,0
110656,-100,4,2,72,9,0,0
111038,-100,4,2,72,8,0,0
111546,-100,4,2,72,7,0,0
112309,-100,4,2,72,6,0,0
113326,-100,4,2,72,5,0,0

[Colours]
Combo1 : 78,50,80
Combo2 : 80,96,122
Combo3 : 90,61,65
Combo4 : 60,69,77

[HitObjects]
144,41,8580,6,0,P|185:31|228:34,1,67.5000025749208,2|0,0:0|0:0,0:0:0:0:
262,92,9089,2,0,P|311:96|344:117,1,67.5000025749208
395,147,9597,1,0,0:0:0:0:
157,246,10106,1,2,0:0:0:0:
84,259,10360,1,0,0:0:0:0:
351,225,10868,6,0,P|362:259|399:281,1,67.5000025749208,2|0,0:0|0:0,0:0:0:0:
415,360,11377,2,0,P|379:352|341:373,1,67.5000025749208,0|0,0:0|0:0,0:0:0:0:
265,346,11885,2,0,P|289:318|289:275,1,67.5000025749208,0|0,0:0|0:0,0:0:0:0:
267,204,12394,1,0,0:0:0:0:
385,142,12648,6,0,P|356:140|304:131,1,67.5000025749208,2|0,0:0|0:0,0:0:0:0:
256,71,13157,2,0,P|218:71|176:67,1,67.5000025749208,0|0,0:0|0:0,0:0:0:0:
111,26,13665,1,0,0:0:0:0:
377,62,14174,1,2,0:0:0:0:
451,41,14428,1,0,0:0:0:0:
239,200,14936,6,0,P|239:234|236:277,1,67.5000025749208,2|0,0:0|0:0,0:0:0:0:
150,254,15444,2,0,P|147:291|147:331,1,67.5000025749208,0|0,0:0|0:0,0:0:0:0:
62,347,15953,1,2,0:0:0:0:
9,276,16207,1,0,0:0:0:0:
46,196,16461,1,2,0:0:0:0:
128,89,16716,6,0,P|126:126|127:166,1,67.5000025749208,2|0,0:0|0:0,0:0:0:0:
210,181,17224,2,0,P|208:217|209:258,1,67.5000025749208,0|0,0:0|0:0,0:0:0:0:
288,284,17733,1,0,0:0:0:0:
128,89,18241,1,2,0:0:0:0:
56,102,18495,1,0,0:0:0:0:
196,331,19004,6,0,P|241:352|261:379,1,67.5000025749208,2|0,0:0|0:0,0:0:0:0:
288,284,19512,2,0,P|326:315|338:347,1,67.5000025749208,0|0,0:0|0:0,0:0:0:0:
388,263,20021,2,0,P|416:304|420:337,1,67.5000025749208,0|0,0:0|0:0,0:0:0:0:
491,268,20529,1,0,0:0:0:0:
443,142,20783,6,0,P|408:134|370:132,1,67.5000025749208,2|0,0:0|0:0,0:0:0:0:
337,53,21292,2,0,P|301:45|264:43,1,67.5000025749208,0|0,0:0|0:0,0:0:0:0:
200,95,21800,1,0,0:0:0:0:
78,335,22309,1,2,0:0:0:0:
8,315,22563,1,0,0:0:0:0:
270,312,23072,6,0,P|304:319|344:330,1,67.5000025749208,2|0,0:0|0:0,0:0:0:0:
318,241,23580,2,0,P|353:251|392:259,1,67.5000025749208,0|0,0:0|0:0,0:0:0:0:
370,170,24089,1,2,0:0:0:0:
301,115,24343,1,0,0:0:0:0:
219,148,24597,1,2,0:0:0:0:
134,44,24852,6,0,P|96:58|71:86,1,67.5000025749208,0|0,1:0|0:0,0:0:0:0:
104,167,25360,2,0,P|70:188|51:221,1,67.5000025749208,0|0,3:0|0:0,0:0:0:0:
70,306,25868,2,0,P|41:334|30:370,1,67.5000025749208,0|0,3:0|0:0,0:0:0:0:
157,309,26377,1,0,3:0:0:0:
227,360,26631,2,0,P|260:352|308:349,1,67.5000025749208,2|0,0:0|3:0,0:0:0:0:
368,304,27139,6,0,P|407:312|447:313,1,67.5000025749208,2|0,0:0|3:0,0:0:0:0:
435,225,27648,2,0,P|478:223|514:216,1,67.5000025749208,2|0,0:0|3:0,0:0:0:0:
465,139,28156,1,0,0:0:0:0:
378,120,28411,1,0,0:0:0:0:
292,102,28665,1,0,0:0:0:0:
203,75,28919,5,0,3:0:0:0:
279,136,29173,1,0,3:0:0:0:
295,231,29427,1,0,3:0:0:0:
246,314,29681,1,0,3:0:0:0:
154,344,29935,1,0,3:0:0:0:
65,308,30190,1,0,3:0:0:0:
21,221,30444,1,0,3:0:0:0:
43,127,30699,1,0,3:0:0:0:
162,36,30953,6,0,L|214:50,3,45,0|0|0|0,1:0|1:0|1:0|1:0,0:0:0:0:
241,84,31461,2,0,L|293:98,3,45,0|0|0|0,1:0|1:0|1:0|1:0,0:0:0:0:
320,132,31970,1,0,1:0:0:0:
256,192,32033,12,4,32987,1:2:0:0:
80,269,33495,6,0,P|109:271|140:279,1,45,8|0,0:1|0:0,0:0:0:0:
195,243,33750,1,0,0:0:0:0:
369,150,34004,2,0,P|327:144|269:152,1,90,12|0,0:3|0:0,0:0:0:0:
426,283,34512,2,0,P|386:284|327:277,1,90,2|0,0:3|0:0,0:0:0:0:
152,348,35021,6,0,L|90:365,2,45,12|0|0,0:3|0:0|0:0,0:0:0:0:
80,166,35529,2,0,P|28:165|-11:123,1,90,4|0,0:2|0:0,0:0:0:0:
148,24,36038,2,0,P|173:15|206:20,1,45,12|0,0:3|0:0,0:0:0:0:
246,83,36292,2,0,P|266:73|292:74,1,45
382,29,36546,2,0,P|429:52|528:39,1,135,12|0,0:3|0:0,0:0:0:0:
484,134,37055,6,0,P|493:183|501:234,1,90,4|0,1:1|0:0,0:0:0:0:
364,130,37563,2,0,P|373:179|381:230,1,90,8|0,0:1|0:0,0:0:0:0:
454,359,38072,2,0,P|479:350|508:356,2,45,12|0|0,0:3|0:0|0:0,0:0:0:0:
285,312,38580,2,0,P|234:305|184:304,1,90,2|0,0:3|0:0,0:0:0:0:
311,161,39089,6,0,P|273:169|209:174,1,90,12|0,0:3|0:0,0:0:0:0:
81,114,39597,2,0,L|88:174,1,45,4|0,0:2|0:0,0:0:0:0:
21,198,39851,2,0,L|28:258,1,45,0|0,0:0|0:0,0:0:0:0:
39,318,40106,1,4,0:1:0:0:
214,352,40360,1,8,0:1:0:0:
378,279,40614,1,8,0:1:0:0:
204,274,40868,1,8,0:1:0:0:
204,274,40995,1,8,0:1:0:0:
204,274,41122,6,0,P|254:251|308:258,1,90,4|0,1:1|0:0,0:0:0:0:
430,360,41631,2,0,P|492:334|500:260,1,135,8|0,0:1|0:0,0:0:0:0:
459,211,42139,2,0,P|436:224|398:224,2,45,12|0|0,0:3|0:0|0:0,0:0:0:0:
492,36,42648,2,0,L|448:32,1,45,2|0,0:3|0:0,0:0:0:0:
371,23,42902,1,0,0:0:0:0:
229,115,43156,5,12,0:3:0:0:
229,115,43283,1,0,0:0:0:0:
229,115,43411,2,0,P|220:142|222:173,1,45,0|0,0:0|0:0,0:0:0:0:
260,226,43665,2,0,P|260:272|270:324,1,90,4|0,0:2|0:0,0:0:0:0:
143,191,44173,2,0,P|143:160|123:91,1,90,12|0,0:3|0:0,0:0:0:0:
19,254,44682,2,0,L|28:306,3,45,12|8|8|8,0:3|0:1|0:1|0:1,0:0:0:0:
76,352,45190,6,0,P|123:331|169:339,1,90,4|0,1:1|0:0,0:0:0:0:
345,354,45699,2,0,P|388:328|441:332,1,90,8|0,0:1|0:0,0:0:0:0:
444,145,46207,2,0,L|457:44,1,90,12|0,0:3|0:0,0:0:0:0:
219,33,46716,2,0,L|212:90,1,45,2|0,0:3|0:0,0:0:0:0:
279,115,46970,2,0,L|272:172,1,45,8|0,0:1|0:0,0:0:0:0:
339,197,47224,2,0,L|332:254,1,45
380,302,47478,6,0,P|334:320|282:298,1,90,12|0,0:1|0:0,0:0:0:0:
132,357,47987,2,0,L|142:307,1,45,8|0,0:1|0:0,0:0:0:0:
201,273,48241,2,0,P|167:245|111:246,1,90,4|0,0:1|0:0,0:0:0:0:
19,94,48750,2,0,L|12:22,1,45,8|8,0:1|0:1,0:0:0:0:
96,121,49004,2,0,L|106:62,1,45,8|8,0:1|0:1,0:0:0:0:
206,39,49258,6,0,P|279:42|333:7,1,135,4|0,1:2|0:0,0:0:0:0:
402,37,49767,2,0,P|431:39|458:51,2,45,8|0|0,0:1|0:0|0:0,0:0:0:0:
399,212,50276,2,0,P|445:198|502:192,1,90,12|0,0:3|0:0,0:0:0:0:
307,160,50784,2,0,P|263:149|214:148,1,90,2|0,0:3|0:0,0:0:0:0:
335,285,51293,6,0,L|346:346,2,45,12|0|0,0:3|0:0|0:0,0:0:0:0:
185,225,51801,2,0,P|178:276|177:327,1,90,4|0,0:2|0:0,0:0:0:0:
193,141,52310,2,0,P|166:140|139:152,1,45,12|0,0:3|0:0,0:0:0:0:
100,86,52564,2,0,P|73:90|46:107,1,45,0|0,0:0|0:0,0:0:0:0:
33,170,52818,2,0,P|33:241|23:316,1,135,12|0,0:3|0:0,0:0:0:0:
113,371,53327,6,0,L|122:280,1,90,4|0,1:1|0:0,0:0:0:0:
271,202,53835,2,0,P|318:214|371:208,1,90,8|0,0:1|0:0,0:0:0:0:
496,317,54344,2,0,P|502:340|503:374,2,45,12|0|0,0:3|0:0|0:0,0:0:0:0:
485,241,54725,1,0,0:0:0:0:
496,165,54852,2,0,P|485:113|481:48,1,90,2|0,0:3|0:0,0:0:0:0:
359,211,55360,6,0,P|361:262|374:328,1,90,12|0,0:3|0:0,0:0:0:0:
392,126,55869,2,0,L|388:61,1,45,4|0,0:2|0:0,0:0:0:0:
313,80,56122,2,0,L|309:15,1,45,0|0,0:0|0:0,0:0:0:0:
234,18,56378,1,4,0:1:0:0:
287,183,56632,1,8,0:1:0:0:
167,51,56886,1,8,0:1:0:0:
215,228,57140,1,8,0:1:0:0:
215,228,57267,1,8,0:1:0:0:
215,228,57394,6,0,P|162:205|113:204,1,90,4|0,1:1|0:0,0:0:0:0:
106,375,57903,2,0,P|39:376|-2:312,1,135,8|0,0:1|0:0,0:0:0:0:
71,307,58411,2,0,P|98:299|131:304,2,45,12|0|0,0:3|0:0|0:0,0:0:0:0:
5,139,58920,2,0,L|10:87,1,45,2|0,0:3|0:0,0:0:0:0:
19,19,59173,1,0,0:0:0:0:
182,100,59428,5,12,0:3:0:0:
182,100,59555,1,0,0:0:0:0:
182,100,59683,2,0,L|232:89,1,45,0|0,0:0|0:0,0:0:0:0:
270,27,59937,2,0,P|322:17|381:16,1,90,4|0,0:2|0:0,0:0:0:0:
385,192,60445,2,0,L|459:180,1,45,12|0,0:3|0:0,0:0:0:0:
504,172,60699,1,0,0:0:0:0:
348,265,60953,2,0,L|274:277,3,45,12|8|8|8,0:3|0:1|0:1|0:1,0:0:0:0:
220,330,61462,6,0,P|192:321|124:328,1,90,4|0,1:1|0:0,0:0:0:0:
302,370,61971,2,0,P|360:369|405:384,1,90,8|0,0:1|0:0,0:0:0:0:
393,174,62478,2,0,L|382:79,1,90,12|0,0:3|0:0,0:0:0:0:
162,68,62987,2,0,L|169:125,1,45,2|0,0:3|0:0,0:0:0:0:
102,150,63241,2,0,L|109:207,1,45,8|0,0:1|0:0,0:0:0:0:
42,232,63495,2,0,L|49:289,1,45
1,337,63749,6,0,P|47:355|99:333,1,90,12|0,0:1|0:0,0:0:0:0:
241,269,64259,2,0,L|310:268,1,45,8|0,0:1|0:0,0:0:0:0:
354,301,64513,2,0,P|403:276|449:268,1,90,4|0,0:1|0:0,0:0:0:0:
499,97,65021,2,0,L|506:25,1,45,8|8,0:1|0:1,0:0:0:0:
426,130,65275,2,0,L|416:71,1,45,8|8,0:1|0:1,0:0:0:0:
318,40,65529,6,0,P|245:43|210:19,2,90,4|0|8,0:1|0:0|0:1,0:0:0:0:
172,112,66292,1,4,0:3:0:0:
47,45,66546,2,0,P|67:33|112:26,2,45,4|0|0,0:3|0:0|0:0,0:0:0:0:
5,202,67055,1,8,0:1:0:0:
119,316,67309,5,2,0:0:0:0:
119,316,67436,1,0,0:0:0:0:
119,316,67563,2,0,L|116:374,1,45,4|0,0:3|0:0,0:0:0:0:
207,213,67944,2,0,P|209:187|203:156,2,45,2|8|0,0:0|0:1|0:0,0:0:0:0:
194,293,68326,1,4,0:3:0:0:
329,204,68580,2,0,L|392:192,1,45,2|0,0:0|0:0,0:0:0:0:
315,338,68961,1,2,0:0:0:0:
394,357,69089,2,0,L|457:345,1,45,8|0,0:1|0:0,0:0:0:0:
489,111,69597,6,0,P|493:62|470:20,2,90,4|0|8,0:1|0:0|0:1,0:0:0:0:
450,268,70360,1,4,0:3:0:0:
378,95,70614,2,0,P|398:83|440:87,2,45,4|0|0,0:3|0:0|0:0,0:0:0:0:
285,228,71123,1,8,0:1:0:0:
197,91,71377,5,2,0:0:0:0:
197,91,71504,1,0,0:0:0:0:
197,91,71631,2,0,L|191:31,1,45,4|0,0:3|0:0,0:0:0:0:
33,78,72012,2,0,L|27:18,2,45,2|8|0,0:0|0:1|0:0,0:0:0:0:
46,158,72394,1,4,0:3:0:0:
151,280,72648,1,2,0:0:0:0:
151,280,72775,1,8,0:1:0:0:
151,280,72902,1,4,0:3:0:0:
136,113,73157,2,0,L|190:105,1,45,8|0,0:1|0:0,0:0:0:0:
252,52,73411,1,8,0:1:0:0:
252,52,73538,1,8,0:1:0:0:
252,52,73665,6,0,P|302:48|350:81,2,90,4|0|8,0:1|0:0|0:1,0:0:0:0:
173,196,74428,1,4,0:3:0:0:
39,96,74682,2,0,P|38:64|28:35,2,45,4|0|0,0:3|0:0|0:0,0:0:0:0:
16,256,75191,1,8,0:1:0:0:
153,341,75445,5,2,0:0:0:0:
153,341,75572,1,0,0:0:0:0:
153,341,75699,2,0,L|221:327,1,45,4|0,0:3|0:0,0:0:0:0:
267,193,76080,2,0,P|299:191|338:194,2,45,2|8|0,0:0|0:1|0:0,0:0:0:0:
185,197,76462,1,4,0:3:0:0:
221,39,76716,2,0,P|189:41|150:38,2,45,2|0|4,0:0|0:0|0:3,0:0:0:0:
295,69,77097,1,2,0:0:0:0:
374,51,77225,2,0,P|416:49|489:37,1,90,8|0,0:1|0:0,0:0:0:0:
504,198,77733,6,0,P|455:206|400:206,1,90,4|0,0:1|0:0,0:0:0:0:
341,241,78115,2,0,L|283:232,1,45,2|8,0:0|0:1,0:0:0:0:
459,279,78496,1,4,0:3:0:0:
310,343,78750,2,0,P|285:346|249:358,2,45,4|0|0,0:3|0:0|0:0,0:0:0:0:
471,362,79259,1,8,0:1:0:0:
414,206,79513,5,2,0:0:0:0:
414,206,79639,1,0,0:0:0:0:
414,206,79767,2,0,L|404:154,2,45,4|0|0,0:3|0:0|0:0,0:0:0:0:
297,93,80275,2,0,L|279:24,2,45,8|0|4,0:1|0:0|0:3,0:0:0:0:
318,254,80784,5,2,0:0:0:0:
318,254,80911,1,8,0:1:0:0:
318,254,81038,1,4,0:3:0:0:
206,136,81292,2,0,L|210:82,1,45,8|0,0:1|0:0,0:0:0:0:
152,40,81546,1,8,0:1:0:0:
152,40,81673,1,8,0:1:0:0:
152,40,81800,6,0,P|100:36|40:78,2,116.999994644165,4|0|8,1:0|0:0|0:1,0:0:0:0:
157,209,82563,1,2,0:0:0:0:
38,330,82817,2,0,P|15:283|78:316,1,175.499991966248,0|0,0:0|0:0,0:0:0:0:
160,349,83326,2,0,P|193:346|225:368,1,58.4999973220826,2|0,0:3|0:0,0:0:0:0:
224,94,83834,6,0,P|238:158|234:219,1,116.999994644165,4|0,0:0|0:0,0:0:0:0:
325,360,84343,2,0,P|310:299|315:227,1,116.999994644165,8|2,0:1|0:0,0:0:0:0:
386,86,84851,2,0,L|458:60,1,58.4999973220826,0|8,0:0|0:1,0:0:0:0:
498,232,85233,2,0,L|426:258,1,58.4999973220826,0|8,0:0|0:1,0:0:0:0:
287,171,85614,2,0,L|359:145,1,58.4999973220826,2|0,0:0|0:0,0:0:0:0:
334,238,85868,6,0,P|280:254|220:216,1,116.999994644165,4|0,1:0|0:0,0:0:0:0:
158,66,86377,2,0,L|148:140,1,58.4999973220826,8|0,0:1|0:0,0:0:0:0:
138,210,86631,1,2,0:0:0:0:
305,157,86885,1,0,0:0:0:0:
178,277,87139,1,0,0:0:0:0:
178,277,87267,1,0,0:0:0:0:
178,277,87394,2,0,P|142:285|72:237,1,116.999994644165,2|4,0:3|0:3,0:0:0:0:
204,126,87902,6,0,P|239:117|309:165,1,116.999994644165,4|0,0:0|0:0,0:0:0:0:
441,267,88411,1,8,0:1:0:0:
441,267,88538,1,8,0:1:0:0:
441,267,88665,2,0,L|514:257,2,58.4999973220826,8|8|8,0:1|0:1|0:1,0:0:0:0:
287,350,89173,1,0,0:0:0:0:
118,298,89428,1,8,0:1:0:0:
118,298,89555,1,8,0:1:0:0:
118,298,89682,2,0,L|45:301,2,58.4999973220826,8|8|4,0:1|0:1|1:0,0:0:0:0:
394,86,90444,6,0,L|467:83,2,58.4999973220826,8|0|2,0:1|0:0|0:0,0:0:0:0:
220,113,90952,2,0,P|225:45|164:89,1,175.499991966248,0|0,0:0|0:0,0:0:0:0:
77,67,91461,2,0,P|43:59|-4:63,1,58.4999973220826,2|0,0:3|0:0,0:0:0:0:
242,198,91969,6,0,P|276:193|323:181,2,58.4999973220826,4|0|0,0:0|0:0|0:0,0:0:0:0:
68,168,92478,2,0,P|71:212|65:287,1,116.999994644165,8|2,0:1|0:0,0:0:0:0:
233,338,92987,2,0,L|312:329,1,58.4999973220826,0|8,0:0|0:1,0:0:0:0:
453,264,93368,2,0,L|384:260,1,58.4999973220826,0|8,0:0|0:1,0:0:0:0:
262,145,93749,2,0,L|323:157,1,58.4999973220826,2|0,0:0|0:0,0:0:0:0:
373,87,94003,6,0,P|438:82|495:120,1,116.999994644165,4|0,1:0|0:0,0:0:0:0:
300,38,94512,2,0,P|238:15|173:36,1,116.999994644165,8|2,0:1|0:0,0:0:0:0:
81,164,95021,2,0,P|50:156|6:154,1,58.4999973220826,0|0,0:0|0:0,0:0:0:0:
195,118,95402,1,0,0:0:0:0:
195,118,95529,2,0,P|231:109|281:110,1,58.4999973220826,2|0,0:3|0:0,0:0:0:0:
300,180,95783,2,0,P|344:168|380:166,1,58.4999973220826,4|0,0:3|0:0,0:0:0:0:
417,229,96037,6,0,P|446:218|480:214,2,58.4999973220826,4|0|0,0:0|0:0|0:0,0:0:0:0:
285,345,96546,1,8,0:1:0:0:
285,345,96673,1,8,0:1:0:0:
285,345,96800,2,0,P|260:353|222:360,2,58.4999973220826,8|8|8,0:1|0:1|0:1,0:0:0:0:
463,330,97309,2,0,P|423:362|337:366,1,116.999994644165,8|8,0:1|0:1,0:0:0:0:
239,244,97816,1,8,0:1:0:0:
239,244,97943,1,8,0:1:0:0:
239,244,98072,6,0,P|201:226|217:287,1,116.999994644165,8|0,0:1|0:0,0:0:0:0:
279,342,98580,1,8,0:1:0:0:
151,353,98834,2,0,P|89:368|22:269,1,180,2|0,0:0|0:0,0:0:0:0:
58,170,99597,1,8,0:1:0:0:
104,284,99851,1,0,0:0:0:0:
153,155,100106,6,0,B|146:82,1,45,0|8,0:0|0:1,0:0:0:0:
30,67,100487,2,0,B|23:-6,1,45,0|4,0:0|0:3,0:0:0:0:
151,28,100868,2,0,P|209:27|234:202,1,270,2|8,0:0|0:1,0:0:0:0:
148,110,101885,1,0,0:0:0:0:
173,233,102139,6,0,P|176:253|175:286,1,45,8|0,0:1|0:0,0:0:0:0:
276,354,102521,2,0,P|276:326|286:299,1,45,0|8,0:0|0:1,0:0:0:0:
365,217,102902,2,0,P|397:271|506:244,1,180,2|0,0:0|0:0,0:0:0:0:
394,324,103665,1,8,0:1:0:0:
440,208,103919,1,0,0:0:0:0:
416,84,104173,5,2,0:0:0:0:
416,84,104300,1,0,0:0:0:0:
311,159,104555,1,0,0:0:0:0:
311,159,104682,1,4,0:3:0:0:
260,43,104936,2,0,P|216:37|160:35,1,90,2|4,0:0|0:3,0:0:0:0:
44,33,105444,1,4,0:3:0:0:
147,105,105699,1,4,0:3:0:0:
21,109,105953,1,0,0:0:0:0:
124,181,106207,5,4,0:1:0:0:
16,336,106589,2,0,P|5:351|-1:386,1,45,0|4,0:0|0:3,0:0:0:0:
116,332,106970,2,0,P|186:354|273:300,1,180,2|0,0:0|0:0,0:0:0:0:
314,244,107606,2,0,P|317:221|310:177,1,45,0|4,0:0|0:3,0:0:0:0:
229,107,107987,1,0,0:0:0:0:
140,196,108241,6,0,P|135:218|139:249,1,45,2|0,0:0|0:0,0:0:0:0:
272,301,108622,2,0,L|279:358,1,45,0|4,0:0|0:3,0:0:0:0:
404,272,109004,2,0,P|442:250|500:255,1,90,2|0,0:0|0:0,0:0:0:0:
325,152,109639,2,0,P|293:146|264:154,1,45,0|4,0:0|0:3,0:0:0:0:
398,101,110021,1,0,0:0:0:0:
305,15,110275,6,0,L|252:21,1,45,4|0,0:3|0:0,0:0:0:0:
145,72,110657,2,0,L|92:64,1,45,0|4,0:0|0:3,0:0:0:0:
135,186,111038,2,0,P|102:240|-6:213,1,180,2|0,0:0|0:0,0:0:0:0:
106,293,111801,1,4,0:3:0:0:
60,177,112055,1,0,0:0:0:0:
187,261,112309,6,0,P|220:253|250:251,1,45,2|0,0:0|0:0,0:0:0:0:
265,132,112690,2,0,P|298:132|334:138,1,45,0|4,0:0|0:3,0:0:0:0:
368,244,113072,2,0,P|396:249|416:250,1,45,2|0,0:0|0:0,0:0:0:0:
501,203,113326,1,4,0:1:0:0:
256,192,113389,12,4,114343,0:2:0:0:
