osu file format v14

[General]
AudioFilename: audio.mp3
AudioLeadIn: 0
PreviewTime: 8326
Countdown: 0
SampleSet: Soft
StackLeniency: 0.7
Mode: 0
LetterboxInBreaks: 0
WidescreenStoryboard: 0

[Editor]
Bookmarks: 8575,24846,32982,49253,65524,81795,98067,114338
DistanceSpacing: 1.5
BeatDivisor: 4
GridSize: 4
TimelineZoom: 2.799999

[Metadata]
Title:H8 U
TitleUnicode:H8 U
Artist:LukHash
ArtistUnicode:LukHash
Creator:Sieg
Version:Insane
Source:
Tags:featured artist hate you dead pixels 8bit electronic chiptune rock
BeatmapID:1250704
BeatmapSetID:590949

[Difficulty]
HPDrainRate:6.4
CircleSize:4.7
OverallDifficulty:8
ApproachRate:8
SliderMultiplier:1.8
SliderTickRate:1

[Events]
//Background and Video events
0,0,"enchantress_by_kawacy-dazn2ix.jpg",0,0
//Break Periods
//Storyboard Layer 0 (Background)
//Storyboard Layer 1 (Fail)
//Storyboard Layer 2 (Pass)
//Storyboard Layer 3 (Foreground)
//Storyboard Sound Samples

[TimingPoints]
445,508.474576271186,4,2,72,100,1,0
8580,-133.333333333333,4,2,72,40,0,0
24851,-133.333333333333,4,2,72,60,0,0
30953,-100,4,2,72,50,0,0
32987,-100,4,2,72,90,0,1
33495,-100,4,2,72,70,0,1
47447,-100,4,2,72,70,0,0
47478,-100,4,2,72,70,0,1
49226,-100,4,2,72,70,0,0
49258,-100,4,2,72,70,0,1
63718,-100,4,2,72,70,0,0
63750,-100,4,2,72,70,0,1
65529,-100,4,2,72,70,0,0
81800,-76.9230769230769,4,2,72,70,0,1
98040,-76.9230769230769,4,2,72,70,0,0
98072,-76.9230769230769,4,2,72,70,0,1
98103,-76.9230769230769,4,2,72,70,0,0
98834,-100,4,2,72,60,0,0
106589,-100,4,2,72,40,0,0
107478,-100,4,2,72,35,0,0
108241,-100,4,2,72,30,0,0
108622,-100,4,2,72,25,0,0
109004,-100,4,2,72,20,0,0
109639,-100,4,2,72,15,0,0
110275,-100,4,2,72,10,0,0
110656,-100,4,2,72,9,0,0
111038,-100,4,2,72,8,0,0
111546,-100,4,2,72,7,0,0
112309,-100,4,2,72,6,0,0
113326,-100,4,2,72,5,0,0

[Colours]
Combo1 : 78,50,80
Combo2 : 80,96,122
Combo3 : 90,61,65
Combo4 : 60,69,77

[HitObjects]
100,43,8580,6,0,P|141:33|184:36,1,67.5000025749208,2|0,0:0|0:0,0:0:0:0:
277,92,9089,2,0,P|228:96|195:117,1,67.5000025749208,0|0,0:0|0:0,0:0:0:0:
342,37,9597,1,0,0:0:0:0:
102,263,10106,1,2,0:0:0:0:
172,285,10360,1,0,0:0:0:0:
300,201,10868,6,0,P|311:235|348:257,1,67.5000025749208,2|0,0:0|0:0,0:0:0:0:
375,349,11377,2,0,P|339:341|301:362,1,67.5000025749208,0|0,0:0|0:0,0:0:0:0:
209,340,11885,2,0,P|233:312|233:269,1,67.5000025749208,0|0,0:0|0:0,0:0:0:0:
160,192,12394,1,0,0:0:0:0:
383,166,12648,6,0,P|354:164|302:155,1,67.5000025749208,2|0,0:0|0:0,0:0:0:0:
406,87,13157,2,0,P|444:87|486:83,1,67.5000025749208,0|0,0:0|0:0,0:0:0:0:
343,25,13665,1,0,0:0:0:0:
448,205,14174,1,2,0:0:0:0:
432,277,14428,1,0,0:0:0:0:
343,25,14936,6,0,P|343:59|340:102,1,67.5000025749208,2|0,0:0|0:0,0:0:0:0:
244,70,15444,2,0,P|241:107|241:147,1,67.5000025749208,0|0,0:0|0:0,0:0:0:0:
145,115,15953,1,2,0:0:0:0:
204,209,16207,1,0,0:0:0:0:
173,49,16461,1,2,0:0:0:0:
26,144,16716,6,0,P|24:181|25:221,1,67.5000025749208,2|0,0:0|0:0,0:0:0:0:
130,248,17224,2,0,P|128:284|129:325,1,67.5000025749208,0|0,0:0|0:0,0:0:0:0:
234,352,17733,1,0,0:0:0:0:
440,328,18241,1,2,0:0:0:0:
512,341,18495,1,0,0:0:0:0:
342,214,19004,6,0,P|294:228|270:252,1,67.5000025749208,2|0,0:0|0:0,0:0:0:0:
258,154,19512,2,0,P|215:179|198:209,1,67.5000025749208
162,117,20021,2,0,P|127:153|118:185,1,67.5000025749208,0|0,0:0|0:0,0:0:0:0:
60,106,20529,1,0,0:0:0:0:
276,66,20783,6,0,P|311:58|349:56,1,67.5000025749208,2|0,0:0|0:0,0:0:0:0:
207,28,21292,2,0,P|171:20|134:18,1,67.5000025749208,0|0,0:0|0:0,0:0:0:0:
245,144,21800,1,0,0:0:0:0:
77,303,22309,1,2,0:0:0:0:
7,283,22563,1,0,0:0:0:0:
245,144,23072,6,0,P|279:151|319:162,1,67.5000025749208,2|0,0:0|0:0,0:0:0:0:
268,250,23580,2,0,P|303:260|342:268,1,67.5000025749208
442,319,24089,1,2,0:0:0:0:
280,334,24343,1,0,0:0:0:0:
406,382,24597,1,2,0:0:0:0:
467,246,24852,6,0,P|467:206|450:173,1,67.5000025749208,0|0,1:0|0:0,0:0:0:0:
362,174,25360,2,0,P|354:135|330:106,1,67.5000025749208,0|0,3:0|0:0,0:0:0:0:
244,93,25868,2,0,P|228:56|198:33,1,67.5000025749208,0|0,3:0|0:0,0:0:0:0:
228,188,26377,1,0,3:0:0:0:
227,333,26631,2,0,L|146:344,1,67.5000025749208,2|0,0:0|3:0,0:0:0:0:
90,230,27139,6,0,P|51:238|11:239,1,67.5000025749208,2|0,0:0|3:0,0:0:0:0:
201,100,27648,2,0,P|158:102|122:109,1,67.5000025749208,2|0,0:0|3:0,0:0:0:0:
23,239,28156,1,0,0:0:0:0:
124,331,28411,1,0,3:0:0:0:
260,265,28665,1,0,0:0:0:0:
136,184,28919,5,0,3:0:0:0:
157,255,29174,1,0,3:0:0:0:
209,317,29428,1,0,3:0:0:0:
289,353,29682,1,0,3:0:0:0:
383,344,29936,1,0,3:0:0:0:
467,287,30190,1,0,3:0:0:0:
506,187,30444,1,0,3:0:0:0:
481,75,30699,1,0,3:0:0:0:
330,52,30953,5,0,1:0:0:0:
319,67,31080,1,0,1:0:0:0:
315,84,31207,1,0,1:0:0:0:
314,102,31334,1,0,1:0:0:0:
320,119,31461,1,0,1:0:0:0:
329,135,31588,1,0,1:0:0:0:
343,146,31715,1,0,1:0:0:0:
360,152,31842,1,0,1:0:0:0:
378,151,31970,1,0,1:0:0:0:
256,192,32033,12,4,32987,1:2:0:0:
44,276,33495,6,0,P|73:278|104:286,1,45,8|0,0:1|0:0,0:0:0:0:
151,236,33750,1,0,0:0:0:0:
377,184,34004,2,0,P|356:189|316:194,1,45,12|0,0:3|0:0,0:0:0:0:
448,238,34258,2,0,P|474:231|518:227,1,45,0|0,0:0|0:0,0:0:0:0:
395,327,34512,2,0,P|353:315|296:321,1,90,2|0,0:3|0:0,0:0:0:0:
239,355,34894,1,0,0:0:0:0:
169,323,35021,6,0,L|107:340,2,45,12|0|0,0:3|0:0|0:0,0:0:0:0:
211,259,35402,1,0,0:0:0:0:
102,188,35529,2,0,P|50:189|4:160,1,90,4|0,0:2|0:0,0:0:0:0:
70,117,35911,1,0,0:0:0:0:
136,36,36038,2,0,P|109:35|79:46,1,45,12|0,0:3|0:0,0:0:0:0:
180,124,36292,2,0,P|200:114|222:112,1,45
320,33,36546,2,0,P|367:56|466:43,1,135,12|0,0:3|0:0,0:0:0:0:
507,203,37055,6,0,L|446:199,1,45,4|0,1:1|0:0,0:0:0:0:
422,134,37309,2,0,L|361:130,1,45,0|0,0:0|0:0,0:0:0:0:
267,223,37563,2,0,P|312:204|367:217,1,90,8|0,0:1|0:0,0:0:0:0:
419,270,37944,1,0,0:0:0:0:
468,351,38072,2,0,P|493:342|522:341,2,45,12|0|0,0:3|0:0|0:0,0:0:0:0:
396,376,38453,1,0,0:0:0:0:
285,318,38580,2,0,P|243:305|189:312,1,90,2|0,0:3|0:0,0:0:0:0:
374,123,39089,6,0,P|332:135|278:129,1,90,12|0,0:3|0:0,0:0:0:0:
223,88,39470,1,0,0:0:0:0:
114,134,39597,2,0,P|87:123|46:121,1,45,4|0,0:2|0:0,0:0:0:0:
159,199,39851,2,0,P|180:186|214:184,1,45,0|0,0:0|0:0,0:0:0:0:
293,207,40106,1,4,0:1:0:0:
37,279,40360,1,8,0:1:0:0:
241,349,40614,1,8,0:1:0:0:
50,200,40868,1,8,0:1:0:0:
50,200,40995,1,8,0:1:0:0:
50,200,41122,6,0,L|111:182,1,45,4|0,1:1|0:0,0:0:0:0:
160,225,41377,2,0,L|221:207,1,45,0|0,0:0|0:0,0:0:0:0:
241,349,41631,2,0,P|174:350|120:293,1,135,8|0,0:1|0:0,0:0:0:0:
58,346,42139,2,0,P|35:359|-3:359,2,45,12|0|0,0:3|0:0|0:0,0:0:0:0:
11,284,42521,1,0,0:0:0:0:
57,184,42648,2,0,P|62:159|61:140,1,45,2|0,0:3|0:0,0:0:0:0:
9,70,42902,2,0,P|5:43|13:15,1,45,0|0,0:0|0:0,0:0:0:0:
125,52,43156,5,12,0:3:0:0:
125,52,43283,1,0,0:0:0:0:
125,52,43411,2,0,L|186:43,1,45,0|0,0:0|0:0,0:0:0:0:
274,96,43665,2,0,P|233:100|182:144,1,90,4|0,0:2|0:0,0:0:0:0:
479,35,44173,2,0,L|408:49,1,45,12|0,0:3|0:0,0:0:0:0:
444,136,44428,2,0,L|374:139,1,45,0|0,0:0|0:0,0:0:0:0:
316,210,44682,1,12,0:3:0:0:
317,262,44809,1,8,0:1:0:0:
354,301,44936,1,8,0:1:0:0:
406,306,45063,1,8,0:1:0:0:
462,254,45190,6,0,L|513:238,1,45,4|0,1:1|0:0,0:0:0:0:
479,365,45444,2,0,L|428:381,1,45,0|0,0:0|0:0,0:0:0:0:
296,354,45699,2,0,P|253:328|200:332,1,90,8|0,0:1|0:0,0:0:0:0:
304,48,46207,2,0,L|298:106,1,45,12|0,0:3|0:0,0:0:0:0:
352,196,46461,1,0,0:0:0:0:
60,335,46716,2,0,P|59:306|50:274,1,45,2|0,0:3|0:0,0:0:0:0:
197,260,46970,2,0,P|198:233|204:202,1,45,8|0,0:1|0:0,0:0:0:0:
89,127,47224,2,0,P|89:100|78:64,1,45
153,311,47478,6,0,P|183:327|246:305,1,90,12|0,0:1|0:0,0:0:0:0:
341,131,47987,2,0,P|314:139|277:140,1,45,8|0,0:1|0:0,0:0:0:0:
474,224,48241,2,0,P|447:225|410:241,1,45,4|0,0:1|0:0,0:0:0:0:
309,334,48495,1,0,0:0:0:0:
74,249,48750,1,8,0:1:0:0:
28,221,48877,1,8,0:1:0:0:
6,173,49004,1,8,0:1:0:0:
16,121,49131,1,8,0:1:0:0:
67,64,49258,6,0,P|140:67|194:32,1,135,4|0,1:2|0:0,0:0:0:0:
262,92,49767,2,0,P|291:94|318:106,2,45,8|0|0,0:1|0:0|0:0,0:0:0:0:
469,52,50276,2,0,P|497:41|536:44,1,45,12|0,0:3|0:0,0:0:0:0:
422,133,50530,2,0,P|425:162|421:188,1,45,0|0,0:0|0:0,0:0:0:0:
477,277,50784,2,0,P|438:258|384:265,1,90,2|0,0:3|0:0,0:0:0:0:
329,306,51166,1,0,0:0:0:0:
255,326,51293,6,0,P|240:346|208:360,2,45,12|0|0,0:3|0:0|0:0,0:0:0:0:
232,252,51674,1,0,0:0:0:0:
283,140,51801,2,0,P|287:94|277:39,1,90,4|0,0:2|0:0,0:0:0:0:
205,32,52183,1,0,0:0:0:0:
161,120,52310,2,0,P|160:147|171:177,1,45,12|0,0:3|0:0,0:0:0:0:
89,73,52564,2,0,P|85:46|68:19,1,45
24,159,52818,2,0,P|1:206|14:305,1,135,12|0,0:3|0:0,0:0:0:0:
109,355,53327,6,0,L|48:351,1,45,4|0,1:1|0:0,0:0:0:0:
145,280,53581,2,0,L|206:284,1,45,0|0,0:0|0:0,0:0:0:0:
259,190,53835,2,0,P|304:209|359:196,1,90,8|0,0:1|0:0,0:0:0:0:
411,167,54216,1,0,0:0:0:0:
449,233,54344,2,0,P|446:259|456:290,2,45,12|0|0,0:3|0:0|0:0,0:0:0:0:
505,181,54725,1,0,0:0:0:0:
436,73,54852,2,0,P|394:60|340:67,1,90,2|0,0:3|0:0,0:0:0:0:
201,168,55360,6,0,P|163:144|109:137,1,90,12|0,0:3|0:0,0:0:0:0:
44,155,55742,1,0,0:0:0:0:
115,269,55869,2,0,L|111:204,1,45,4|0,0:2|0:0,0:0:0:0:
199,307,56122,2,0,L|203:372,1,45,0|0,0:0|0:0,0:0:0:0:
256,241,56378,1,4,0:1:0:0:
210,48,56632,1,8,0:1:0:0:
331,281,56886,1,8,0:1:0:0:
144,92,57140,1,8,0:1:0:0:
144,92,57267,1,8,0:1:0:0:
144,92,57394,6,0,L|83:110,1,45,4|0,1:1|0:0,0:0:0:0:
260,155,57649,2,0,L|199:173,1,45,0|0,0:0|0:0,0:0:0:0:
242,47,57903,2,0,P|309:46|363:103,1,135,8|0,0:1|0:0,0:0:0:0:
433,45,58411,2,0,P|456:32|494:32,2,45,12|0|0,0:3|0:0|0:0,0:0:0:0:
486,117,58793,1,0,0:0:0:0:
459,203,58920,2,0,L|470:254,1,45,2|0,0:3|0:0,0:0:0:0:
360,177,59173,2,0,L|371:228,1,45,0|0,0:0|0:0,0:0:0:0:
379,327,59428,5,12,0:3:0:0:
379,327,59555,1,0,0:0:0:0:
379,327,59683,2,0,P|355:323|318:336,1,45,0|0,0:0|0:0,0:0:0:0:
223,331,59937,2,0,L|112:342,1,90,4|0,0:2|0:0,0:0:0:0:
317,208,60445,2,0,P|345:206|388:190,1,45,12|0,0:3|0:0,0:0:0:0:
236,174,60700,2,0,P|207:171|167:173,1,45,0|0,0:0|0:0,0:0:0:0:
138,226,60954,1,12,0:3:0:0:
118,177,61081,1,8,0:1:0:0:
69,154,61208,1,8,0:1:0:0:
19,168,61335,1,8,0:1:0:0:
5,240,61462,6,0,L|11:299,1,45,4|0,1:1|0:0,0:0:0:0:
132,352,61716,2,0,L|126:293,1,45,0|0,0:0|0:0,0:0:0:0:
213,191,61971,2,0,P|212:133|227:88,1,90,8|0,0:1|0:0,0:0:0:0:
335,382,62479,2,0,L|344:324,1,45,12|0,0:3|0:0,0:0:0:0:
275,262,62733,1,0,0:0:0:0:
452,49,62988,2,0,P|453:78|462:110,1,45,2|0,0:3|0:0,0:0:0:0:
315,124,63242,2,0,P|314:151|308:182,1,45,8|0,0:1|0:0,0:0:0:0:
423,257,63496,2,0,P|423:284|434:320,1,45
359,73,63750,6,0,P|329:57|266:79,1,90,12|0,0:1|0:0,0:0:0:0:
171,253,64259,2,0,P|198:245|235:244,1,45,8|0,0:1|0:0,0:0:0:0:
38,160,64513,2,0,P|65:159|102:143,1,45,4|0,0:1|0:0,0:0:0:0:
203,50,64767,1,0,0:0:0:0:
438,135,65022,1,8,0:1:0:0:
484,163,65149,1,8,0:1:0:0:
509,210,65276,1,8,0:1:0:0:
508,263,65403,1,8,0:1:0:0:
478,306,65529,5,4,0:1:0:0:
289,315,65783,1,0,0:0:0:0:
289,315,65911,1,2,0:0:0:0:
225,350,66038,2,0,L|167:341,1,45,8|0,0:1|0:0,0:0:0:0:
60,323,66292,1,4,0:3:0:0:
254,171,66546,2,0,P|274:159|319:152,2,45,4|0|0,0:3|0:0|0:0,0:0:0:0:
116,365,67055,1,8,0:1:0:0:
350,289,67309,5,0,0:0:0:0:
350,289,67436,1,0,0:0:0:0:
350,289,67563,2,0,P|374:274|410:269,1,45,4|0,0:3|0:0,0:0:0:0:
299,235,67817,1,0,0:0:0:0:
226,260,67944,2,0,P|193:262|158:246,2,45,2|8|0,0:0|0:1|0:0,0:0:0:0:
299,235,68326,1,4,0:3:0:0:
396,48,68580,2,0,P|418:36|459:36,1,45
231,48,68961,1,2,0:0:0:0:
130,102,69089,2,0,P|152:90|193:90,1,45,8|0,0:1|0:0,0:0:0:0:
61,315,69470,5,8,0:1:0:0:
93,240,69597,2,0,P|44:236|2:259,1,90,4|0,0:1|0:0,0:0:0:0:
191,316,69979,2,0,P|166:305|133:307,1,45,2|8,0:0|0:1,0:0:0:0:
304,242,70360,1,4,0:3:0:0:
446,196,70614,2,0,P|466:184|508:188,2,45,4|0|0,0:3|0:0|0:0,0:0:0:0:
275,324,71123,1,8,0:1:0:0:
131,159,71377,5,0,0:0:0:0:
78,103,71504,2,0,P|69:73|72:43,2,45,0|4|0,0:0|0:3|0:0,0:0:0:0:
173,219,71885,2,0,P|184:241|185:273,1,45,0|2,0:0|0:0,0:0:0:0:
184,105,72139,2,0,L|177:52,2,45,8|0|4,0:1|0:0|0:3,0:0:0:0:
411,62,72648,1,2,0:0:0:0:
408,65,72775,1,8,0:1:0:0:
405,68,72902,2,0,L|412:121,1,45,4|0,0:3|0:0,0:0:0:0:
496,197,73157,2,0,L|503:250,1,45,8|0,0:1|0:0,0:0:0:0:
429,337,73411,1,8,0:1:0:0:
429,337,73538,1,8,0:1:0:0:
368,288,73665,6,0,P|318:284|270:317,1,90,4|0,0:1|0:0,0:0:0:0:
215,337,74047,2,0,L|157:328,1,45,2|8,0:0|0:1,0:0:0:0:
8,312,74428,1,4,0:3:0:0:
107,112,74682,2,0,P|106:80|96:51,2,45,4|0|0,0:3|0:0|0:0,0:0:0:0:
100,367,75191,1,8,0:1:0:0:
35,100,75445,5,0,0:0:0:0:
87,181,75572,2,0,P|120:183|155:167,2,45,0|4|0,0:0|0:3|0:0,0:0:0:0:
160,61,75953,1,0,0:0:0:0:
199,165,76080,2,0,P|201:198|185:233,2,45,2|8|0,0:0|0:1|0:0,0:0:0:0:
226,94,76462,1,4,0:3:0:0:
438,30,76716,2,0,L|377:44,2,45,0|0|4,0:0|0:0|0:3,0:0:0:0:
442,135,77097,1,2,0:0:0:0:
489,193,77225,2,0,P|500:221|478:309,1,90,8|0,0:1|0:0,0:0:0:0:
375,273,77606,5,8,0:1:0:0:
323,210,77733,2,0,L|315:106,1,90,4|0,0:1|0:0,0:0:0:0:
196,71,78115,2,0,P|171:60|138:62,1,45,2|8,0:0|0:1,0:0:0:0:
245,290,78496,1,4,0:3:0:0:
377,73,78750,2,0,P|397:61|439:65,2,45,4|0|0,0:3|0:0|0:0,0:0:0:0:
169,325,79259,1,8,0:1:0:0:
438,212,79513,5,0,0:0:0:0:
343,238,79640,2,0,L|284:223,2,45,0|4|0,0:0|0:3|0:0,0:0:0:0:
394,344,80021,1,0,0:0:0:0:
394,344,80148,1,2,0:0:0:0:
394,344,80275,2,0,L|325:358,2,45,8|0|4,0:1|0:0|0:3,0:0:0:0:
319,136,80784,5,2,0:0:0:0:
263,147,80911,1,8,0:1:0:0:
208,160,81038,2,0,P|184:162|146:174,1,45,4|0,0:3|0:0,0:0:0:0:
16,168,81292,2,0,P|40:163|78:154,1,45,8|0,0:1|0:0,0:0:0:0:
168,248,81546,1,8,0:1:0:0:
168,248,81673,1,8,0:1:0:0:
128,308,81800,6,0,P|80:320|112:360,1,116.999994644165,4|0,1:0|0:0,0:0:0:0:
260,352,82182,1,2,0:0:0:0:
260,352,82309,2,0,L|324:338,1,58.4999973220826,8|0,0:1|0:0,0:0:0:0:
404,351,82563,1,2,0:0:0:0:
296,109,82817,2,0,B|311:92|311:92|332:103|332:103|366:35|466:63,1,175.499991966248,0|0,0:0|0:0,0:0:0:0:
495,161,83326,2,0,P|461:165|430:180,1,58.4999973220826,2|0,0:3|0:0,0:0:0:0:
389,272,83580,2,0,P|363:265|321:266,1,58.4999973220826,4|0,0:3|0:0,0:0:0:0:
233,157,83834,6,0,P|222:100|257:41,1,116.999994644165,4|0,0:0|0:0,0:0:0:0:
150,158,84216,1,2,0:0:0:0:
150,158,84343,2,0,L|154:230,1,58.4999973220826,8|0,0:1|0:0,0:0:0:0:
136,312,84597,1,2,0:0:0:0:
389,272,84851,1,0,0:0:0:0:
459,242,84978,1,8,0:1:0:0:
211,329,85233,1,0,0:0:0:0:
136,312,85360,1,8,0:1:0:0:
262,126,85614,2,0,P|261:89|274:65,1,58.4999973220826,2|0,0:0|0:0,0:0:0:0:
138,38,85868,6,0,P|85:42|24:16,1,116.999994644165,4|0,1:0|0:0,0:0:0:0:
25,132,86250,1,2,0:0:0:0:
25,132,86377,2,0,P|35:169|28:207,1,58.4999973220826,8|0,0:1|0:0,0:0:0:0:
109,286,86631,1,2,0:0:0:0:
302,111,86885,1,0,0:0:0:0:
178,343,87139,1,0,0:0:0:0:
178,343,87267,1,0,0:0:0:0:
178,343,87394,2,0,P|144:355|93:365,1,58.4999973220826,2|0,0:3|0:0,0:0:0:0:
272,363,87648,2,0,P|301:351|357:341,1,58.4999973220826,4|0,0:3|0:0,0:0:0:0:
221,244,87902,6,0,P|197:195|221:117,1,116.999994644165,4|0,0:0|0:0,0:0:0:0:
268,58,88283,1,2,0:0:0:0:
225,37,88410,1,8,0:1:0:0:
179,33,88537,1,8,0:1:0:0:
134,45,88664,1,8,0:1:0:0:
96,71,88791,1,8,0:1:0:0:
73,112,88918,1,8,0:1:0:0:
344,164,89300,5,2,0:0:0:0:
389,171,89427,1,8,0:1:0:0:
435,164,89554,1,8,0:1:0:0:
471,135,89681,1,8,0:1:0:0:
494,94,89808,1,8,0:1:0:0:
491,47,89935,1,4,1:0:0:0:
271,199,90317,5,2,0:0:0:0:
271,199,90444,2,0,P|272:234|268:266,1,58.4999973220826,8|0,0:1|0:0,0:0:0:0:
303,337,90698,1,2,0:0:0:0:
216,109,90952,2,0,B|201:92|201:92|180:103|180:103|146:35|46:63,1,175.499991966248,0|0,0:0|0:0,0:0:0:0:
42,174,91461,2,0,P|38:205|41:244,1,58.4999973220826,2|0,0:3|0:0,0:0:0:0:
158,290,91715,2,0,P|158:317|152:358,1,58.4999973220826,4|0,0:3|0:0,0:0:0:0:
288,235,91969,6,0,P|281:200|284:150,2,58.4999973220826,4|0|0,0:0|0:0|0:0,0:0:0:0:
381,320,92351,1,2,0:0:0:0:
381,320,92478,2,0,L|385:392,1,58.4999973220826,8|0,0:1|0:0,0:0:0:0:
479,220,92733,2,0,L|483:284,1,58.4999973220826,2|0,0:0|0:0,0:0:0:0:
418,182,92987,1,0,0:0:0:0:
488,151,93114,1,8,0:1:0:0:
304,293,93368,1,0,0:0:0:0:
229,276,93495,1,8,0:1:0:0:
91,127,93749,2,0,P|59:113|30:115,1,58.4999973220826,2|0,0:0|0:0,0:0:0:0:
156,43,94003,6,0,P|221:38|278:76,1,116.999994644165,4|0,1:0|0:0,0:0:0:0:
380,97,94385,1,0,0:0:0:0:
380,97,94512,2,0,P|417:87|455:94,1,58.4999973220826,8|0,0:1|0:0,0:0:0:0:
419,171,94766,1,2,0:0:0:0:
122,201,95021,1,0,0:0:0:0:
47,184,95148,1,0,0:0:0:0:
343,227,95402,1,2,0:0:0:0:
343,227,95529,2,0,P|377:215|428:205,1,58.4999973220826,2|0,0:3|0:0,0:0:0:0:
248,226,95783,2,0,P|219:238|163:248,1,58.4999973220826,4|0,0:3|0:0,0:0:0:0:
295,291,96037,6,0,P|303:316|310:354,2,58.4999973220826,4|0|0,0:0|0:0|0:0,0:0:0:0:
297,166,96419,1,2,0:0:0:0:
284,108,96546,1,8,0:1:0:0:
303,54,96673,1,8,0:1:0:0:
347,16,96800,1,8,0:1:0:0:
404,8,96927,1,8,0:1:0:0:
457,29,97054,1,8,0:1:0:0:
134,21,97309,2,0,P|100:12|68:9,1,58.4999973220826,8|8,0:1|0:1,0:0:0:0:
56,123,97563,2,0,P|22:133|-16:136,1,58.4999973220826,8|0,0:1|0:0,0:0:0:0:
120,92,97816,1,8,0:1:0:0:
144,140,97943,1,8,0:1:0:0:
145,189,98072,6,0,P|145:256|156:317,1,116.999994644165,8|0,0:1|0:0,0:0:0:0:
203,369,98453,1,0,0:0:0:0:
203,369,98580,1,8,0:1:0:0:
7,357,98834,2,0,P|-8:295|89:238,1,180,2|0,0:0|0:0,0:0:0:0:
64,310,99470,1,0,0:0:0:0:
64,310,99597,1,8,0:1:0:0:
256,342,99851,1,0,0:0:0:0:
374,198,100106,5,0,0:0:0:0:
309,217,100233,1,8,0:1:0:0:
239,98,100487,1,0,0:0:0:0:
182,135,100614,1,4,0:3:0:0:
392,29,100868,2,0,P|444:33|367:56,1,270,2|8,0:0|0:1,0:0:0:0:
259,149,101885,1,0,0:0:0:0:
355,243,102139,6,0,P|355:263|366:295,1,45,8|0,0:1|0:0,0:0:0:0:
295,83,102521,2,0,P|295:63|284:31,1,45,0|8,0:0|0:1,0:0:0:0:
261,236,102902,2,0,P|258:299|149:327,1,180,2|0,0:0|0:0,0:0:0:0:
193,265,103538,1,0,0:0:0:0:
193,265,103665,1,8,0:1:0:0:
124,83,103918,1,0,0:0:0:0:
79,261,104173,5,2,0:0:0:0:
70,327,104300,1,0,0:0:0:0:
29,156,104555,1,0,0:0:0:0:
38,90,104682,1,4,0:3:0:0:
200,72,104936,2,0,P|216:62|245:58,1,45,2|0,0:0|0:0,0:0:0:0:
240,135,105190,1,4,0:3:0:0:
371,225,105444,1,4,0:3:0:0:
484,97,105699,1,4,0:3:0:0:
325,86,105953,1,0,0:0:0:0:
440,274,106207,5,4,0:1:0:0:
291,353,106589,2,0,P|276:342|241:336,1,45,0|4,0:0|0:3,0:0:0:0:
234,205,106970,2,0,P|129:230|36:222,1,180,2|0,0:0|0:0,0:0:0:0:
33,132,107606,2,0,P|36:109|29:65,1,45,0|4,0:0|0:3,0:0:0:0:
2,309,107987,1,0,0:0:0:0:
200,285,108241,6,0,P|224:269|250:265,1,45,2|0,0:0|0:0,0:0:0:0:
388,321,108622,2,0,P|412:305|438:301,1,45,0|4,0:0|0:3,0:0:0:0:
332,169,109004,2,0,P|356:153|382:149,1,45,2|0,0:0|0:0,0:0:0:0:
270,113,109258,2,0,P|248:118|206:110,1,45,0|4,0:0|0:3,0:0:0:0:
95,79,109639,1,0,0:0:0:0:
28,65,109767,1,4,0:3:0:0:
208,19,110021,1,0,0:0:0:0:
418,85,110275,6,0,P|438:85|470:74,1,45,4|0,0:3|0:0,0:0:0:0:
260,96,110657,2,0,P|240:96|208:107,1,45,0|4,0:0|0:3,0:0:0:0:
413,182,111038,2,0,P|387:240|275:227,1,180,2|0,0:0|0:0,0:0:0:0:
339,184,111674,1,0,0:0:0:0:
339,184,111801,1,4,0:3:0:0:
252,339,112054,1,0,0:0:0:0:
423,298,112309,5,2,0:0:0:0:
489,307,112436,1,0,0:0:0:0:
318,348,112691,1,0,0:0:0:0:
252,339,112818,1,4,0:3:0:0:
71,264,113072,2,0,L|119:270,1,45,2|0,0:0|0:0,0:0:0:0:
179,239,113326,1,4,0:1:0:0:
182,236,113453,1,0,3:0:0:0:
185,233,113580,1,0,3:0:0:0:
188,230,113707,1,0,3:0:0:0:
191,227,113835,1,0,3:0:0:0:
194,224,113961,1,0,3:0:0:0:
197,221,114089,1,0,3:0:0:0:
200,218,114216,1,0,3:0:0:0:
203,215,114343,1,4,0:2:0:0:
