osu file format v14

[General]
AudioFilename: audio.mp3
AudioLeadIn: 0
PreviewTime: 8326
Countdown: 0
SampleSet: Soft
StackLeniency: 0.7
Mode: 0
LetterboxInBreaks: 0
WidescreenStoryboard: 0

[Editor]
Bookmarks: 8575,24846,32982,49253,65524,81795,98067,114338
DistanceSpacing: 1
BeatDivisor: 4
GridSize: 4
TimelineZoom: 2.799999

[Metadata]
Title:H8 U
TitleUnicode:H8 U
Artist:LukHash
ArtistUnicode:LukHash
Creator:Sieg
Version:Easy
Source:
Tags:featured artist hate you dead pixels 8bit electronic chiptune rock
BeatmapID:1252430
BeatmapSetID:590949

[Difficulty]
HPDrainRate:2.8
CircleSize:2.5
OverallDifficulty:2.7
ApproachRate:3
SliderMultiplier:1.2
SliderTickRate:1

[Events]
//Background and Video events
0,0,"enchantress_by_kawacy-dazn2ix.jpg",0,0
//Break Periods
//Storyboard Layer 0 (Background)
//Storyboard Layer 1 (Fail)
//Storyboard Layer 2 (Pass)
//Storyboard Layer 3 (Foreground)
//Storyboard Sound Samples

[TimingPoints]
445,508.474576271186,4,2,72,100,1,0
8580,-100,4,2,72,40,0,0
24851,-100,4,2,72,60,0,0
30953,-100,4,2,72,50,0,0
32987,-100,4,2,72,90,0,1
33495,-100,4,2,72,70,0,1
47447,-100,4,2,72,70,0,0
47478,-100,4,2,72,70,0,1
49226,-100,4,2,72,70,0,0
49258,-100,4,2,72,70,0,1
63718,-100,4,2,72,70,0,0
63750,-100,4,2,72,70,0,1
65529,-100,4,2,72,70,0,0
81800,-100,4,2,72,70,0,1
98040,-100,4,2,72,70,0,0
98072,-100,4,2,72,70,0,1
98103,-100,4,2,72,70,0,0
98834,-100,4,2,72,60,0,0
106589,-100,4,2,72,40,0,0
107478,-100,4,2,72,35,0,0
108241,-100,4,2,72,30,0,0
108622,-100,4,2,72,25,0,0
109004,-100,4,2,72,20,0,0
109639,-100,4,2,72,15,0,0
110275,-100,4,2,72,10,0,0
110656,-100,4,2,72,9,0,0
111038,-100,4,2,72,8,0,0
111546,-100,4,2,72,7,0,0
112309,-100,4,2,72,6,0,0
113326,-100,4,2,72,5,0,0

[Colours]
Combo1 : 78,50,80
Combo2 : 80,96,122
Combo3 : 90,61,65
Combo4 : 60,69,77

[HitObjects]
48,58,8580,6,0,P|93:46|166:62,1,120,2|0,0:0|0:0,0:0:0:0:
257,136,9597,1,0,0:0:0:0:
351,62,10106,2,0,L|420:58,1,60,2|0,0:0|0:0,0:0:0:0:
471,161,10868,2,0,P|481:228|484:300,1,120,2|0,0:0|0:0,0:0:0:0:
387,350,11885,2,0,P|377:278|380:218,1,120,0|0,0:0|0:0,0:0:0:0:
319,220,12648,6,0,P|270:214|235:146,1,120,2|0,0:0|0:0,0:0:0:0:
220,38,13665,1,0,0:0:0:0:
114,95,14173,2,0,L|37:106,1,60,2|0,0:0|0:0,0:0:0:0:
12,216,14936,2,0,L|138:229,1,120,2|0,0:0|0:0,0:0:0:0:
251,232,15953,2,0,P|223:296|245:353,1,120,2|2,0:0|0:0,0:0:0:0:
296,339,16716,6,0,P|365:348|421:340,1,120,2|0,0:0|0:0,0:0:0:0:
498,255,17733,1,0,0:0:0:0:
396,191,18241,2,0,P|396:160|392:119,1,60,2|0,0:0|0:0,0:0:0:0:
283,84,19004,2,0,L|272:219,1,120,2|0,0:0|0:0,0:0:0:0:
250,321,20021,2,0,P|190:345|119:337,1,120,0|0,0:0|0:0,0:0:0:0:
88,305,20783,6,0,P|43:312|1:246,1,120,2|0,0:0|0:0,0:0:0:0:
14,139,21800,1,0,0:0:0:0:
58,27,22309,2,0,P|90:18|134:12,1,60,2|0,0:0|0:0,0:0:0:0:
159,125,23072,2,0,P|225:124|289:108,1,120,2|0,0:0|0:0,0:0:0:0:
385,59,24089,2,0,P|396:95|374:186,1,120,2|2,0:0|0:0,0:0:0:0:
342,220,24851,6,0,L|206:229,1,120,0|0,1:0|3:0,0:0:0:0:
176,338,25868,2,0,L|40:347,2,120,0|0|0,3:0|3:0|3:0,0:0:0:0:
296,330,27394,1,0,3:0:0:0:
414,346,27902,2,0,P|457:358|465:288,1,120,0|0,3:0|3:0,0:0:0:0:
458,176,28919,6,0,P|458:108|490:41,2,120,0|0|0,3:0|3:0|3:0,0:0:0:0:
376,263,30444,1,0,3:0:0:0:
256,192,30953,12,4,32987,1:2:0:0:
248,348,34004,6,0,L|393:328,1,120,12|2,0:3|0:3,0:0:0:0:
460,256,35021,1,12,0:3:0:0:
496,141,35529,2,0,P|484:90|414:46,1,120,4|12,0:2|0:3,0:0:0:0:
312,43,36546,1,12,0:3:0:0:
237,136,37055,6,0,L|247:273,1,120,4|8,1:1|0:1,0:0:0:0:
187,360,38072,1,12,0:3:0:0:
187,360,38580,1,2,0:3:0:0:
77,310,39089,2,0,L|61:170,1,120,12|4,0:3|0:2,0:0:0:0:
14,81,40106,2,0,P|77:76|133:53,1,120,4|8,0:1|0:1,0:0:0:0:
247,37,41122,6,0,L|259:106,1,60,4|0,1:1|0:0,0:0:0:0:
272,154,41631,2,0,P|210:155|142:180,1,120,8|12,0:1|0:3,0:0:0:0:
56,241,42648,1,2,0:3:0:0:
45,360,43156,2,0,L|180:341,1,120,12|4,0:3|0:2,0:0:0:0:
280,370,44173,2,0,L|422:349,1,120,12|12,0:3|0:3,0:0:0:0:
480,264,45190,6,0,P|446:230|362:230,1,120,4|8,1:1|0:1,0:0:0:0:
264,264,46207,1,12,0:3:0:0:
203,160,46716,2,0,L|200:90,2,60,2|8|0,0:3|0:1|0:0,0:0:0:0:
161,203,47478,2,0,P|83:220|37:129,1,180,12|4,0:1|0:1,0:0:0:0:
13,26,48750,2,0,L|85:18,1,60,8|8,0:1|0:1,0:0:0:0:
122,52,49258,6,0,P|182:41|260:32,1,120,4|8,1:2|0:1,0:0:0:0:
269,150,50275,2,0,P|329:139|407:130,1,120,12|2,0:3|0:3,0:0:0:0:
479,54,51292,1,12,0:3:0:0:
502,171,51800,2,0,P|498:232|509:310,1,120,4|12,0:2|0:3,0:0:0:0:
408,362,52817,1,12,0:3:0:0:
303,302,53326,6,0,P|305:243|297:160,1,120,4|8,1:1|0:1,0:0:0:0:
260,68,54343,1,12,0:3:0:0:
260,68,54851,1,2,0:3:0:0:
142,41,55360,6,0,P|75:36|8:52,1,120,12|4,0:3|0:2,0:0:0:0:
76,154,56377,2,0,P|87:202|72:285,1,120,4|8,0:1|0:1,0:0:0:0:
20,376,57393,2,0,L|89:364,1,60,4|0,1:1|0:0,0:0:0:0:
137,351,57902,2,0,P|193:361|265:347,1,120,8|12,0:1|0:3,0:0:0:0:
353,283,58919,1,2,0:3:0:0:
376,165,59427,6,0,P|371:138|445:140,1,120,12|4,0:3|0:2,0:0:0:0:
501,231,60444,2,0,P|508:284|512:364,1,120,12|12,0:3|0:3,0:0:0:0:
393,371,61461,2,0,P|385:318|382:238,1,120,4|8,1:1|0:1,0:0:0:0:
421,138,62478,1,12,0:3:0:0:
452,22,62987,6,0,L|520:9,2,60,2|8|0,0:3|0:1|0:0,0:0:0:0:
397,46,63749,2,0,P|341:37|273:125,1,180,12|4,0:1|0:1,0:0:0:0:
155,97,65021,2,0,L|83:105,1,60,8|8,0:1|0:1,0:0:0:0:
53,146,65529,6,0,P|35:186|40:286,2,120,4|8|4,0:1|0:1|0:3,0:0:0:0:
160,199,67055,2,0,L|232:191,2,60,8|2|4,0:1|0:0|0:3,0:0:0:0:
118,311,68072,2,0,L|264:320,1,120,8|2,0:1|0:0,0:0:0:0:
357,322,69089,1,8,0:1:0:0:
458,258,69597,6,0,P|458:220|400:133,2,120,4|8|4,0:1|0:1|0:3,0:0:0:0:
357,322,71123,2,0,P|365:349|366:382,2,60,8|2|4,0:1|0:0|0:3,0:0:0:0:
289,222,72139,1,8,0:1:0:0:
312,104,72648,2,0,L|307:37,2,60,2|4|8,0:0|0:3|0:1,0:0:0:0:
216,176,73665,6,0,P|204:236|240:293,2,120,4|8|4,0:1|0:1|0:3,0:0:0:0:
155,71,75191,2,0,P|154:40|147:9,2,60,8|2|4,0:1|0:0|0:3,0:0:0:0:
78,163,76208,2,0,P|68:221|71:295,1,120,8|2,0:1|0:0,0:0:0:0:
150,370,77224,1,8,0:1:0:0:
207,264,77733,6,0,P|218:229|304:198,2,120,4|8|4,0:1|0:1|0:3,0:0:0:0:
292,349,79259,2,0,L|355:359,2,60,8|2|4,0:1|0:0|0:3,0:0:0:0:
173,367,80275,1,8,0:1:0:0:
77,294,80783,2,0,L|14:284,2,60,2|4|8,0:0|0:3|0:1,0:0:0:0:
180,233,81800,6,0,P|182:188|162:101,1,120,4|8,1:0|0:1,0:0:0:0:
267,48,82818,2,0,L|288:178,1,120,0|2,0:0|0:3,0:0:0:0:
266,284,83834,1,4,0:0:0:0:
363,354,84343,2,0,P|425:348|495:336,1,120,8|0,0:1|0:0,0:0:0:0:
453,221,85360,2,0,L|442:152,1,60,8|2,0:1|0:0,0:0:0:0:
452,102,85869,6,0,P|389:109|321:90,1,120,4|8,1:0|0:1,0:0:0:0:
221,54,86885,1,0,0:0:0:0:
247,171,87394,2,0,P|259:230|247:311,1,120,2|4,0:3|0:0,0:0:0:0:
146,342,88411,2,0,L|27:354,1,120,8|8,0:1|0:1,0:0:0:0:
46,235,89428,2,0,L|121:229,1,60,8|8,0:1|0:1,0:0:0:0:
157,200,89936,6,0,P|158:154|128:87,1,120,4|8,1:0|0:1,0:0:0:0:
235,32,90953,2,0,P|237:105|266:168,1,120,0|2,0:0|0:3,0:0:0:0:
304,256,91970,1,4,0:0:0:0:
266,370,92479,2,0,L|399:353,1,120,8|0,0:1|0:0,0:0:0:0:
504,340,93495,1,8,0:1:0:0:
420,253,94005,6,0,P|405:192|410:121,1,120,4|8,1:0|0:1,0:0:0:0:
459,27,95021,1,0,0:0:0:0:
339,36,95530,2,0,P|276:22|217:27,1,120,2|4,0:3|0:0,0:0:0:0:
113,78,96547,2,0,P|80:71|43:70,1,60,8|8,0:1|0:1,0:0:0:0:
66,188,97309,2,0,P|36:197|-2:199,2,60,8|8|8,0:1|0:1|0:1,0:0:0:0:
121,165,98072,6,0,P|169:150|232:180,1,120,8|8,0:1|0:1,0:0:0:0:
233,298,99090,2,0,P|269:350|309:327,1,120,0|8,0:0|0:1,0:0:0:0:
388,238,100106,2,0,P|433:277|427:351,2,120,0|4|0,0:0|0:3|0:0,0:0:0:0:
269,221,101631,1,8,0:1:0:0:
171,151,102139,6,0,P|113:177|36:176,1,120,8|8,0:1|0:1,0:0:0:0:
90,64,103157,1,0,0:0:0:0:
207,38,103666,2,0,P|272:23|335:33,2,120,8|2|4,0:1|0:0|0:3,0:0:0:0:
171,151,105191,2,0,L|161:278,1,120,4|4,0:3|0:3,0:0:0:0:
244,357,106208,6,0,P|289:359|360:308,1,120,4|4,0:1|0:3,0:0:0:0:
460,271,107225,2,0,P|466:212|520:176,1,120,0|4,0:0|0:3,0:0:0:0:
439,81,108242,1,2,0:0:0:0:
347,158,108750,2,0,P|341:99|287:63,1,120,4|0,0:3|0:0,0:0:0:0:
175,57,109767,1,4,0:3:0:0:
85,136,110275,6,0,L|68:275,2,120,4|4|0,0:3|0:3|0:0,0:0:0:0:
187,198,111800,2,0,P|204:253|198:315,1,120,4|2,0:3|0:0,0:0:0:0:
307,364,112817,2,0,L|320:290,1,60,4|2,0:3|0:0,0:0:0:0:
366,270,113326,2,0,P|438:258|414:114,1,240,4|4,0:1|0:0,0:0:0:0:
