osu file format v14

[General]
AudioFilename: audio.mp3
AudioLeadIn: 0
PreviewTime: 8463
Countdown: 0
SampleSet: Normal
StackLeniency: 0.7
Mode: 2
LetterboxInBreaks: 0
WidescreenStoryboard: 1

[Editor]
DistanceSpacing: 0.8
BeatDivisor: 4
GridSize: 16
TimelineZoom: 2

[Metadata]
Title:H8 U
TitleUnicode:H8 U
Artist:LukHash
ArtistUnicode:LukHash
Creator:Bunnrei
Version:CUP
Source:osu!
Tags:dead pixels featured artist mbomb magic bomb plus osu_gangster chara ster electro synth rock 8bit chiptune hate you mapper's guild
BeatmapID:2158280
BeatmapSetID:1032103

[Difficulty]
HPDrainRate:4
CircleSize:3
OverallDifficulty:5.5
ApproachRate:5.5
SliderMultiplier:2.39999990463257
SliderTickRate:1

[Events]
//Background and Video events
0,0,"wt.jpg",0,0
//Break Periods
//Storyboard Layer 0 (Background)
//Storyboard Layer 1 (Fail)
//Storyboard Layer 2 (Pass)
//Storyboard Layer 3 (Foreground)
//Storyboard Layer 4 (Overlay)
//Storyboard Sound Samples

[TimingPoints]
381,508.474576271186,4,2,99,30,1,0
8516,-142.857142857143,4,2,99,30,0,0
32923,-125,4,2,90,40,0,0
36991,-125,4,1,90,40,0,0
40042,-100,4,1,90,40,0,0
41058,-125,4,1,1,65,0,1
73601,-125,4,1,1,65,0,0
89872,-125,4,1,1,65,0,1
93431,-125,4,1,2,65,0,1
93558,-125,4,1,1,65,0,1
93940,-125,4,1,1,65,0,1
106143,-125,4,1,1,50,0,0
108177,-125,4,1,1,45,0,0
110211,-125,4,1,1,40,0,0
112245,-125,4,1,1,35,0,0
114279,-125,4,1,1,30,0,0
116313,-125,4,1,1,25,0,0
118347,-125,4,1,1,20,0,0
120380,-125,4,1,1,15,0,0
122414,-125,4,1,1,10,0,0
124448,-125,4,1,1,5,0,0
126482,-125,4,2,69,5,0,0

[Colours]
Combo1 : 0,128,192
Combo2 : 255,0,128
Combo3 : 255,0,0
Combo4 : 0,64,128

[HitObjects]
224,259,8516,6,0,L|33:247,2,167.999988197327,4|2|2,0:0|0:0|0:0,0:0:0:0:
400,270,10042,1,2,0:0:0:0:
314,175,10296,6,0,L|123:163,1,167.999988197327,2|2,0:0|0:0,0:0:0:0:
329,92,11313,2,2,L|492:-9,1,167.999988197327
292,23,12330,1,2,0:0:0:0:
190,75,12584,6,2,L|395:92,2,167.999988197327,4|2|2,0:0|0:0|0:0,0:0:0:0:
21,56,14109,1,2,0:0:0:0:
108,122,14364,6,2,L|281:145,2,167.999988197327
325,130,15889,1,2,0:0:0:0:
233,123,16143,1,2,0:0:0:0:
325,130,16397,1,2,0:0:0:0:
415,134,16652,6,0,L|247:144,2,167.999988197327,4|2|2,0:0|0:0|0:0,0:0:0:0:
288,230,18178,1,2,0:0:0:0:
198,175,18432,6,0,L|389:163,1,167.999988197327,2|2,0:0|0:0,0:0:0:0:
183,92,19449,2,2,L|20:-9,1,167.999988197327
220,23,20466,1,2,0:0:0:0:
322,75,20720,6,2,L|117:92,2,167.999988197327,4|2|2,0:0|0:0|0:0,0:0:0:0:
491,56,22245,1,2,0:0:0:0:
404,122,22500,6,2,L|231:145,2,167.999988197327
187,130,24025,1,2,0:0:0:0:
271,125,24279,1,2,0:0:0:0:
356,107,24533,1,2,0:0:0:0:
230,255,24787,6,2,L|51:241,1,167.999988197327,4|2,0:0|0:0,0:0:0:0:
244,165,25804,2,2,L|396:72,1,167.999988197327
293,318,26567,6,2,L|114:304,1,167.999988197327
307,228,27584,2,2,L|459:135,1,167.999988197327
255,71,28601,1,2,0:0:0:0:
165,169,28855,6,0,L|354:170,1,167.999988197327,4|2,0:0|0:0,0:0:0:0:
128,288,29872,2,2,L|88:105,1,167.999988197327
183,150,30635,6,0,L|372:151,1,167.999988197327,2|2,0:0|0:0,0:0:0:0:
146,269,31652,2,2,L|106:86,1,167.999988197327
215,109,32414,2,2,L|226:25,1,83.9999940986636
92,24,32923,6,0,P|55:71|116:178,1,191.999992370606,4|2,1:2|1:2,0:0:0:0:
303,194,33940,2,0,L|90:176,1,191.999992370606,2|2,1:2|1:2,0:0:0:0:
209,264,34703,6,0,P|246:215|169:119,1,191.999992370606,2|2,0:0|0:0,0:0:0:0:
15,85,35719,2,0,L|192:-64,2,191.999992370606,2|2|2,0:0|0:0|0:0,0:0:0:0:
132,244,36991,6,0,P|167:179|89:93,1,191.999992370606,0|0,0:0|0:0,0:0:0:0:
32,104,37753,1,0,0:0:0:0:
145,52,38008,2,0,L|379:36,1,191.999992370606,0|0,0:0|0:0,0:0:0:0:
446,33,38770,1,0,0:0:0:0:
256,192,39025,12,0,40804,0:0:0:0:
363,269,41058,6,0,P|406:208|331:126,1,191.999992370606,4|8,0:0|0:0,0:0:0:0:
132,142,42075,2,0,L|25:136,2,95.9999961853028,0|2|8,0:0|0:0|0:0,0:0:0:0:
324,154,43092,2,0,L|120:141,1,191.999992370606,0|8,0:0|0:0,0:0:0:0:
324,154,44109,1,0,0:0:0:0:
408,95,44364,1,2,0:0:0:0:
336,34,44618,1,8,0:0:0:0:
117,42,45126,6,0,P|105:142|187:178,1,191.999992370606,0|8,0:0|0:0,0:0:0:0:
372,246,46143,2,0,L|454:184,2,95.9999961853028,0|2|8,0:0|0:0|0:0,0:0:0:0:
180,260,47160,6,0,P|217:185|319:141,1,191.999992370606,0|8,0:0|0:0,0:0:0:0:
117,116,48177,1,0,0:0:0:0:
218,338,48431,1,10,0:0:0:0:
315,104,48686,1,8,0:0:0:0:
218,338,48940,1,8,0:0:0:0:
346,73,49194,6,0,L|425:254,1,191.999992370606,4|10,0:0|0:3,0:0:0:0:
230,343,50211,2,0,L|139:280,2,95.9999961853028,2|2|10,0:3|0:0|0:3,0:0:0:0:
441,254,51228,6,0,P|476:190|385:112,1,191.999992370606,6|10,0:3|0:3,0:0:0:0:
209,185,52245,2,0,L|201:61,1,95.9999961853028,2|2,0:3|0:0,0:0:0:0:
302,93,52753,2,0,L|426:85,1,95.9999961853028,10|8,0:3|0:0,0:0:0:0:
263,31,53262,6,0,L|72:28,1,191.999992370606,6|10,0:3|0:3,0:0:0:0:
284,217,54279,2,0,P|352:179|305:86,1,191.999992370606,8|8,0:0|0:3,0:0:0:0:
218,65,55042,1,8,0:0:0:0:
105,71,55296,6,0,L|1:66,2,95.9999961853028,0|10|2,0:0|0:0|0:0,0:0:0:0:
229,54,56058,2,0,L|333:49,2,95.9999961853028,8|10|2,0:0|0:0|0:0,0:0:0:0:
116,58,56821,2,0,L|99:179,1,95.9999961853028,10|10,0:0|0:0,0:0:0:0:
242,74,57330,6,0,P|231:157|137:218,1,191.999992370606,4|8,0:0|0:0,0:0:0:0:
363,348,58347,1,0,0:0:0:0:
377,259,58601,1,2,0:0:0:0:
296,223,58855,1,8,0:0:0:0:
104,232,59364,6,0,L|297:223,1,191.999992370606,0|8,0:0|0:0,0:0:0:0:
494,175,60380,1,0,0:0:0:0:
399,171,60635,1,2,0:0:0:0:
303,167,60889,1,8,0:0:0:0:
102,164,61397,6,0,P|76:86|160:34,1,191.999992370606,0|8,0:0|0:0,0:0:0:0:
380,44,62414,2,0,L|508:39,2,95.9999961853028,0|2|8,0:0|0:0|0:0,0:0:0:0:
158,54,63431,6,0,P|166:152|267:188,1,191.999992370606,0|8,0:0|0:0,0:0:0:0:
428,284,64448,2,0,L|436:186,1,95.9999961853028,0|10,0:0|0:0,0:0:0:0:
330,146,64957,2,0,L|322:48,1,95.9999961853028,8|8,0:0|0:0,0:0:0:0:
467,194,65465,6,0,P|481:265|390:323,1,191.999992370606,4|10,0:0|0:3,0:0:0:0:
199,322,66482,2,0,L|98:319,2,95.9999961853028,2|2|10,0:3|0:0|0:3,0:0:0:0:
391,329,67499,6,0,L|188:321,1,191.999992370606,6|10,0:3|0:3,0:0:0:0:
15,314,68516,1,2,0:3:0:0:
40,222,68770,1,2,0:0:0:0:
112,160,69025,1,10,0:3:0:0:
206,149,69279,1,8,0:0:0:0:
342,152,69533,6,0,P|358:91|259:35,1,191.999992370606,6|10,0:3|0:3,0:0:0:0:
90,225,70550,2,0,P|41:171|124:115,1,191.999992370606,8|8,0:0|0:3,0:0:0:0:
224,125,71313,1,8,0:0:0:0:
350,167,71567,5,0,0:0:0:0:
357,262,71821,1,10,0:0:0:0:
364,358,72075,1,2,0:0:0:0:
210,130,72330,1,8,0:0:0:0:
204,225,72584,1,10,0:0:0:0:
197,321,72838,1,2,0:0:0:0:
319,365,73092,2,0,L|420:359,2,95.9999961853028,10|10|2,0:0|0:0|0:0,0:0:0:0:
129,225,74109,6,0,L|28:219,2,95.9999961853028,10|2|2,0:0|0:0|0:0,0:0:0:0:
329,235,75126,2,0,P|350:187|311:157,1,95.9999961853028,10|2,0:0|0:0,0:0:0:0:
201,117,75635,6,2,L|45:98,2,143.999994277954,2|2|2,0:2|0:2|0:2,0:2:0:0:
322,136,76652,1,2,0:0:0:0:
126,160,77160,2,0,L|147:107,1,47.9999980926514,10|2,0:1|0:0,0:0:0:0:
347,195,77669,6,0,P|421:246|376:322,1,191.999992370606,2|10,0:0|0:0,0:0:0:0:
275,307,78431,1,2,0:0:0:0:
379,321,78686,1,2,0:0:0:0:
187,349,79194,2,0,L|78:349,1,95.9999961853028,10|2,0:0|0:0,0:0:0:0:
215,260,79703,6,0,P|318:223|340:184,2,143.999994277954,2|2|2,0:0|0:0|0:0,0:0:0:0:
90,254,80719,2,0,L|82:138,1,95.9999961853028,2|8,0:0|0:0,0:0:0:0:
199,107,81228,2,2,L|321:99,1,95.9999961853028,10|10,0:0|0:0,0:0:0:0:
409,188,81736,6,0,P|434:111|345:44,1,191.999992370606,2|10,0:0|0:0,0:0:0:0:
256,35,82499,1,2,0:0:0:0:
160,29,82753,1,2,0:0:0:0:
353,254,83262,2,0,L|358:159,1,95.9999961853028,10|2,0:0|0:0,0:0:0:0:
231,111,83770,6,0,L|75:92,2,143.999994277954,2|2|2,0:2|0:2|0:2,0:2:0:0:
352,130,84787,1,2,0:0:0:0:
156,154,85295,2,0,L|146:102,1,47.9999980926514,10|2,0:1|0:0,0:0:0:0:
375,233,85804,6,0,P|437:286|389:367,1,191.999992370606,2|10,0:0|0:0,0:0:0:0:
292,363,86567,1,2,0:0:0:0:
196,359,86821,1,2,0:0:0:0:
15,276,87330,2,0,L|119:270,1,95.9999961853028,10|2,0:0|0:0,0:0:0:0:
232,162,87838,6,0,L|59:150,2,143.999994277954,2|2|2,0:0|0:0|0:0,0:0:0:0:
354,189,88855,2,0,L|361:87,1,95.9999961853028,2|8,0:0|0:0,0:0:0:0:
264,92,89364,2,0,L|376:93,1,95.9999961853028,10|2,0:0|0:0,0:0:0:0:
482,40,89872,5,4,0:0:0:0:
272,206,90380,1,10,0:0:0:0:
389,194,90635,2,0,P|445:164|345:14,1,287.999988555908,2|8,0:0|0:0,0:0:0:0:
263,19,91652,1,0,0:0:0:0:
162,19,91906,1,2,0:0:0:0:
365,90,92414,6,0,L|477:71,2,95.9999961853028,10|2|2,0:0|0:0|0:0,0:0:0:0:
163,116,93431,2,0,L|51:97,1,95.9999961853028,14|2,0:3|0:0,0:0:0:0:
188,31,93940,5,4,0:3:0:0:
369,34,94448,1,10,0:0:0:0:
266,32,94703,2,0,P|190:53|138:251,1,287.999988555908,2|10,0:0|0:0,0:0:0:0:
231,248,95719,1,2,0:0:0:0:
332,258,95974,1,4,0:3:0:0:
130,234,96482,6,0,L|24:219,2,95.9999961853028,10|10|4,0:0|0:0|0:3,0:0:0:0:
338,111,97499,2,0,L|444:96,1,95.9999961853028,10|10,0:0|0:0,0:0:0:0:
314,26,98008,5,4,0:0:0:0:
114,88,98516,1,10,0:0:0:0:
32,229,98770,2,0,P|123:277|290:366,1,287.999988555908,2|10,0:0|0:0,0:0:0:0:
384,326,99787,1,2,0:0:0:0:
487,264,100042,5,2,0:0:0:0:
233,96,100550,2,0,L|120:90,2,95.9999961853028,10|2|2,0:0|0:0|0:0,0:0:0:0:
428,243,101567,2,0,L|527:158,2,95.9999961853028,10|2|2,0:0|0:0|0:0,0:0:0:0:
223,289,102584,5,10,0:0:0:0:
332,201,102838,2,0,P|358:162|208:34,1,287.999988555908,2|10,0:0|0:0,0:0:0:0:
121,40,103855,1,2,0:0:0:0:
222,28,104109,1,4,0:3:0:0:
434,35,104618,6,0,L|425:158,1,95.9999961853028,10|2,0:0|0:0,0:0:0:0:
324,194,105126,2,0,L|333:317,1,95.9999961853028,4|8,0:3|0:0,0:0:0:0:
464,32,105635,2,0,L|455:155,1,95.9999961853028,10|8,0:0|0:0,0:0:0:0:
324,194,106143,5,4,0:0:0:0:
131,197,106652,2,0,L|121:98,1,95.9999961853028,10|2,0:0|0:0,0:0:0:0:
223,76,107160,1,2,0:0:0:0:
428,129,107669,2,0,L|438:30,1,95.9999961853028,10|2,0:0|0:0,0:0:0:0:
336,8,108177,5,2,0:0:0:0:
153,162,108686,2,0,L|33:165,2,95.9999961853028,10|2|2,0:0|0:0|0:0,0:0:0:0:
359,162,109703,2,0,L|479:165,2,95.9999961853028,10|2|2,0:0|0:0|0:0,0:0:0:0:
191,288,110719,6,0,L|178:163,1,95.9999961853028,2|2,0:0|0:0,0:0:0:0:
274,170,111228,1,2,0:0:0:0:
93,154,111736,2,0,L|80:29,1,95.9999961853028,10|2,0:0|0:0,0:0:0:0:
176,36,112245,5,2,0:0:0:0:
367,35,112753,2,0,L|376:158,1,95.9999961853028,10|2,0:0|0:0,0:0:0:0:
278,222,113262,1,8,0:0:0:0:
218,152,113516,1,8,0:0:0:0:
245,64,113770,1,10,0:0:0:0:
333,40,114025,1,2,0:0:0:0:
463,51,114279,5,2,0:0:0:0:
236,198,114787,2,0,L|214:91,2,95.9999961853028,10|2|2,0:0|0:0|0:0,0:0:0:0:
400,298,115804,2,0,L|422:191,2,95.9999961853028,10|2|2,0:0|0:0|0:0,0:0:0:0:
211,265,116821,5,10,0:0:0:0:
192,176,117075,1,2,0:0:0:0:
267,125,117330,1,2,0:0:0:0:
436,191,117838,1,10,0:0:0:0:
426,119,118092,1,2,0:0:0:0:
416,48,118347,5,2,0:0:0:0:
252,35,118855,2,0,L|238:154,1,95.9999961853028,10|2,0:0|0:0,0:0:0:0:
296,176,119364,1,2,0:0:0:0:
137,208,119872,2,0,L|123:327,1,95.9999961853028,10|2,0:0|0:0,0:0:0:0:
181,349,120380,5,2,0:0:0:0:
335,347,120889,2,0,L|341:240,1,95.9999961853028,10|2,0:0|0:0,0:0:0:0:
265,225,121397,1,2,0:2:0:0:
253,133,121651,1,8,0:1:0:0:
328,122,121906,1,10,0:1:0:0:
253,133,122159,1,2,0:2:0:0:
177,143,122414,1,2,0:2:0:0:
256,192,122669,12,0,130550,0:0:0:0:
