osu file format v14

[General]
AudioFilename: audio.mp3
AudioLeadIn: 0
PreviewTime: 45492
Countdown: 1
SampleSet: Normal
StackLeniency: 0.7
Mode: 1
LetterboxInBreaks: 0
WidescreenStoryboard: 0

[Editor]
Bookmarks: 22265,45594,67523,89465,111408,133351,155294,178608
DistanceSpacing: 0.8
BeatDivisor: 8
GridSize: 8
TimelineZoom: 2

[Metadata]
Title:Ghosts
TitleUnicode:Ghosts
Artist:LukHash
ArtistUnicode:LukHash
Creator:Nepuri
Version:Phantasm
Source:osu!
Tags:featured artist fa drum circle Nwolf Nardoxyribonucleic Nardo Electronic and bass dnb melodic
BeatmapID:1918740
BeatmapSetID:918903

[Difficulty]
HPDrainRate:6.5
CircleSize:7
OverallDifficulty:6.5
ApproachRate:10
SliderMultiplier:1.4
SliderTickRate:1

[Events]
//Background and Video events
0,0,"pexels-photo-1292115.jpg",0,0
//Break Periods
//Storyboard Layer 0 (Background)
//Storyboard Layer 1 (Fail)
//Storyboard Layer 2 (Pass)
//Storyboard Layer 3 (Foreground)
//Storyboard Layer 4 (Overlay)
//Storyboard Sound Samples

[TimingPoints]
321,342.857142857143,4,1,0,45,1,0
321,-125,4,1,0,45,0,0
22092,-111.111111111111,4,1,0,55,0,0
45578,342.857142857143,4,1,0,77,1,1
45578,-86.9565217391304,4,1,0,77,0,1
66320,-90.9090909090909,4,1,0,77,0,1
66492,-95.2380952380952,4,1,0,77,0,1
66663,-100,4,1,0,77,0,1
66835,-105.263157894737,4,1,0,77,0,0
66920,-108.108108108108,4,1,0,77,0,0
67005,-111.111111111111,4,1,0,77,0,0
67091,-114.285714285714,4,1,0,77,0,0
67177,-117.647058823529,4,1,0,77,0,0
67262,-121.212121212121,4,1,0,77,0,0
67348,-125,4,1,0,77,0,0
67520,-133.333333333333,4,1,0,77,0,1
89463,-111.111111111111,4,1,0,55,0,0
100435,-99.9999999999999,4,1,0,55,0,0
106090,-101.010101010101,4,1,0,54,0,0
106261,-102.040816326531,4,1,0,53,0,0
106433,-103.092783505155,4,1,0,52,0,0
106604,-104.166666666667,4,1,0,51,0,0
106776,-105.263157894737,4,1,0,50,0,0
106947,-106.382978723404,4,1,0,49,0,0
107120,-107.52688172043,4,1,0,48,0,0
107290,-108.695652173913,4,1,0,47,0,0
107461,-109.89010989011,4,1,0,46,0,0
107633,-111.111111111111,4,1,0,45,0,0
107804,-112.359550561798,4,1,0,44,0,0
107976,-113.636363636364,4,1,0,43,0,0
108147,-114.942528735632,4,1,0,42,0,0
108319,-116.279069767442,4,1,0,41,0,0
108490,-117.647058823529,4,1,0,40,0,0
108661,-119.047619047619,4,1,0,39,0,0
108747,-119.760479041916,4,1,0,38,0,0
108833,-120.481927710843,4,1,0,37,0,0
109004,-121.951219512195,4,1,0,36,0,0
109090,-122.699386503067,4,1,0,36,0,0
109176,-123.456790123457,4,1,0,35,0,0
109347,-125,4,1,0,34,0,0
109519,-126.582278481013,4,1,0,33,0,0
109690,-128.205128205128,4,1,0,32,0,0
110033,-131.578947368421,4,1,0,30,0,0
111406,-86.9565217391304,4,1,0,77,0,1
132149,-90.9090909090909,4,1,0,77,0,1
132320,-95.2380952380952,4,1,0,77,0,1
132491,-100,4,1,0,77,0,1
132663,-105.263157894737,4,1,0,77,0,0
132749,-108.108108108108,4,1,0,77,0,0
132834,-111.111111111111,4,1,0,77,0,0
132920,-114.285714285714,4,1,0,77,0,0
133006,-117.647058823529,4,1,0,77,0,0
133091,-121.212121212121,4,1,0,77,0,0
133177,-125,4,1,0,77,0,0
133349,-133.333333333333,4,1,0,77,0,1
155292,-200,4,1,0,77,0,0
156663,342.857142857143,4,1,0,77,1,1
156663,-133.333333333334,4,1,0,77,0,1
177920,-138.888888888889,4,1,0,77,0,1
178092,-144.927536231884,4,1,0,77,0,1
178263,-151.515151515152,4,1,0,77,0,1
178434,-158.730158730159,4,1,0,77,0,1
178605,-166.666666666667,4,1,0,77,0,0

[HitObjects]
351,96,321,5,8,0:0:0:0:
159,96,663,1,0,0:0:0:0:
159,96,1006,1,0,0:0:0:0:
351,96,1349,1,8,0:0:0:0:
351,96,3063,1,8,0:0:0:0:
351,96,3406,1,8,0:0:0:0:
159,96,3749,1,0,0:0:0:0:
351,96,4092,1,8,0:0:0:0:
351,96,5806,1,8,0:0:0:0:
159,96,6149,1,0,0:0:0:0:
159,96,6492,1,0,0:0:0:0:
351,96,6835,1,8,0:0:0:0:
351,104,8549,1,8,0:0:0:0:
159,104,8892,1,0,0:0:0:0:
351,112,9235,1,8,0:0:0:0:
351,96,9578,1,8,0:0:0:0:
351,120,11292,1,8,0:0:0:0:
159,112,11635,1,0,0:0:0:0:
351,136,11978,1,8,0:0:0:0:
351,96,12321,1,8,0:0:0:0:
351,96,12835,1,8,0:0:0:0:
159,120,13349,1,0,0:0:0:0:
159,128,13692,1,0,0:0:0:0:
351,160,13863,1,8,0:0:0:0:
159,160,14035,1,0,0:0:0:0:
159,144,14378,1,0,0:0:0:0:
351,120,14721,1,8,0:0:0:0:
351,128,15063,1,8,0:0:0:0:
159,104,15235,1,0,0:0:0:0:
159,152,15406,1,0,0:0:0:0:
351,104,16778,1,8,0:0:0:0:
159,144,17121,1,0,0:0:0:0:
351,152,17463,1,8,0:0:0:0:
351,160,17806,1,8,0:0:0:0:
351,96,19521,1,8,0:0:0:0:
159,136,19863,1,0,0:0:0:0:
351,144,20206,1,8,0:0:0:0:
351,96,20549,1,8,0:0:0:0:
159,96,22263,1,0,0:0:0:0:
287,96,22606,1,8,0:0:0:0:
159,96,22949,1,0,0:0:0:0:
287,104,23292,1,8,0:0:0:0:
159,96,23635,1,0,0:0:0:0:
287,112,23806,1,8,0:0:0:0:
159,96,23978,1,0,0:0:0:0:
287,120,24321,1,8,0:0:0:0:
287,120,24663,1,8,0:0:0:0:
287,128,24835,1,8,0:0:0:0:
159,96,25006,1,0,0:0:0:0:
287,136,25349,1,8,0:0:0:0:
159,96,25692,1,0,0:0:0:0:
159,96,25863,1,0,0:0:0:0:
287,144,26035,1,8,0:0:0:0:
159,96,26378,1,0,0:0:0:0:
287,152,26549,1,8,0:0:0:0:
159,288,26892,1,0,0:0:0:0:
287,160,27063,1,8,0:0:0:0:
351,96,27406,1,8,0:0:0:0:
351,96,27578,1,8,0:0:0:0:
159,280,27749,1,0,0:0:0:0:
351,96,28092,1,8,0:0:0:0:
159,272,28435,1,0,0:0:0:0:
159,264,28606,1,0,0:0:0:0:
351,96,28778,1,8,0:0:0:0:
159,256,29121,1,0,0:0:0:0:
351,96,29292,1,8,0:0:0:0:
159,248,29635,1,0,0:0:0:0:
351,96,29806,1,8,0:0:0:0:
159,240,30149,1,0,0:0:0:0:
351,96,30321,1,8,0:0:0:0:
159,232,30492,1,0,0:0:0:0:
351,96,30835,1,8,0:0:0:0:
159,224,31178,1,0,0:0:0:0:
223,224,31349,1,0,0:0:0:0:
351,96,31521,1,8,0:0:0:0:
223,232,31863,1,0,0:0:0:0:
351,96,32035,1,8,0:0:0:0:
223,240,32206,1,0,0:0:0:0:
223,248,32378,1,0,0:0:0:0:
351,96,32549,1,8,0:0:0:0:
223,256,32721,1,0,0:0:0:0:
351,96,32892,1,8,0:0:0:0:
223,264,33063,1,0,0:0:0:0:
223,272,33235,1,0,0:0:0:0:
351,96,33578,1,8,0:0:0:0:
223,280,33921,1,0,0:0:0:0:
223,288,34092,1,0,0:0:0:0:
351,96,34263,1,8,0:0:0:0:
159,96,34606,1,0,0:0:0:0:
287,224,34778,1,8,0:0:0:0:
159,96,34949,1,0,0:0:0:0:
287,232,35292,1,8,0:0:0:0:
287,240,35635,1,8,0:0:0:0:
287,248,35806,1,8,0:0:0:0:
159,96,35978,1,0,0:0:0:0:
159,96,36321,1,0,0:0:0:0:
159,96,36492,1,0,0:0:0:0:
287,256,36663,1,8,0:0:0:0:
159,96,36835,1,0,0:0:0:0:
287,264,37006,1,8,0:0:0:0:
159,96,37349,1,0,0:0:0:0:
287,272,37521,1,8,0:0:0:0:
159,96,37692,1,0,0:0:0:0:
287,280,38035,1,8,0:0:0:0:
287,288,38206,1,8,0:0:0:0:
159,96,38378,1,0,0:0:0:0:
351,288,38549,1,8,0:0:0:0:
159,96,38721,1,0,0:0:0:0:
159,96,39063,1,0,0:0:0:0:
159,96,39235,1,0,0:0:0:0:
359,288,39406,1,8,0:0:0:0:
159,96,39578,1,0,0:0:0:0:
367,288,39749,1,8,0:0:0:0:
159,96,39921,1,0,0:0:0:0:
159,96,40092,1,0,0:0:0:0:
375,288,40263,1,8,0:0:0:0:
159,96,40606,1,0,0:0:0:0:
383,288,40778,1,8,0:0:0:0:
391,288,40863,1,8,0:0:0:0:
159,96,40949,1,0,0:0:0:0:
399,288,41121,1,8,0:0:0:0:
159,96,41292,1,0,0:0:0:0:
159,96,41463,1,0,0:0:0:0:
407,288,41806,1,8,0:0:0:0:
159,96,41978,1,0,0:0:0:0:
159,96,42149,1,0,0:0:0:0:
159,96,42235,1,0,0:0:0:0:
159,96,42321,1,0,0:0:0:0:
351,96,42492,1,8,0:0:0:0:
159,96,42835,1,0,0:0:0:0:
351,96,43006,1,8,0:0:0:0:
159,96,43178,1,0,0:0:0:0:
159,96,43349,1,0,0:0:0:0:
351,96,43521,1,8,0:0:0:0:
159,96,43692,1,0,0:0:0:0:
351,96,43863,1,8,0:0:0:0:
351,96,44035,1,8,0:0:0:0:
159,288,44206,5,4,0:0:0:0:
159,288,45578,5,4,0:0:0:0:
159,96,45749,1,0,0:0:0:0:
159,96,45835,1,0,0:0:0:0:
351,96,45920,1,8,0:0:0:0:
351,96,46092,1,8,0:0:0:0:
159,96,46263,1,0,0:0:0:0:
351,96,46349,1,8,0:0:0:0:
159,96,46435,1,0,0:0:0:0:
159,96,46520,1,0,0:0:0:0:
351,96,46606,1,8,0:0:0:0:
351,96,46778,1,8,0:0:0:0:
159,96,46949,1,0,0:0:0:0:
159,96,47120,1,0,0:0:0:0:
159,96,47206,1,0,0:0:0:0:
351,96,47292,1,8,0:0:0:0:
351,96,47463,1,8,0:0:0:0:
159,96,47549,1,0,0:0:0:0:
351,96,47720,1,8,0:0:0:0:
159,96,47806,1,0,0:0:0:0:
159,96,47892,1,0,0:0:0:0:
351,96,47978,1,8,0:0:0:0:
351,96,48149,1,8,0:0:0:0:
351,96,48235,1,8,0:0:0:0:
159,96,48320,1,0,0:0:0:0:
159,96,48492,1,0,0:0:0:0:
159,96,48578,1,0,0:0:0:0:
351,96,48663,1,8,0:0:0:0:
351,96,48835,1,8,0:0:0:0:
159,96,48920,1,0,0:0:0:0:
351,96,49092,1,8,0:0:0:0:
159,96,49178,1,0,0:0:0:0:
159,96,49263,1,0,0:0:0:0:
351,96,49349,1,8,0:0:0:0:
159,96,49435,1,0,0:0:0:0:
351,96,49520,1,8,0:0:0:0:
351,96,49606,1,8,0:0:0:0:
159,96,49692,1,0,0:0:0:0:
159,96,49863,1,0,0:0:0:0:
351,96,49949,1,8,0:0:0:0:
351,96,50035,1,8,0:0:0:0:
159,96,50206,1,0,0:0:0:0:
351,96,50292,1,8,0:0:0:0:
351,96,50463,1,8,0:0:0:0:
351,96,50549,1,8,0:0:0:0:
159,96,50635,1,0,0:0:0:0:
351,96,50720,1,8,0:0:0:0:
159,96,50892,1,0,0:0:0:0:
351,96,50978,1,8,0:0:0:0:
159,96,51063,1,0,0:0:0:0:
159,96,51235,1,0,0:0:0:0:
159,96,51320,1,0,0:0:0:0:
351,96,51406,1,8,0:0:0:0:
159,96,51578,1,0,0:0:0:0:
351,96,51663,1,8,0:0:0:0:
351,96,51835,1,8,0:0:0:0:
159,96,51920,1,0,0:0:0:0:
351,96,52092,1,8,0:0:0:0:
159,96,52178,1,0,0:0:0:0:
159,96,52263,1,0,0:0:0:0:
351,96,52349,1,8,0:0:0:0:
159,96,52435,1,0,0:0:0:0:
159,96,52606,1,0,0:0:0:0:
159,96,52692,1,0,0:0:0:0:
351,96,52778,1,8,0:0:0:0:
159,96,52949,1,0,0:0:0:0:
351,96,53035,1,8,0:0:0:0:
159,96,53120,1,0,0:0:0:0:
351,96,53206,1,8,0:0:0:0:
351,96,53292,1,8,0:0:0:0:
351,96,53463,1,8,0:0:0:0:
351,96,53635,1,8,0:0:0:0:
351,96,53720,1,8,0:0:0:0:
159,96,53806,1,0,0:0:0:0:
159,96,53978,1,0,0:0:0:0:
159,96,54063,1,0,0:0:0:0:
351,96,54149,1,8,0:0:0:0:
351,96,54320,1,8,0:0:0:0:
351,96,54406,1,8,0:0:0:0:
351,96,54578,1,8,0:0:0:0:
159,96,54663,1,0,0:0:0:0:
159,96,54749,1,0,0:0:0:0:
351,96,54835,1,8,0:0:0:0:
159,96,54920,1,0,0:0:0:0:
351,96,55006,1,8,0:0:0:0:
351,96,55092,1,8,0:0:0:0:
351,96,55178,1,8,0:0:0:0:
159,96,55349,1,0,0:0:0:0:
351,96,55520,1,8,0:0:0:0:
159,96,55606,1,0,0:0:0:0:
351,96,55692,1,8,0:0:0:0:
351,96,55778,1,8,0:0:0:0:
159,96,55863,1,0,0:0:0:0:
351,96,56035,1,8,0:0:0:0:
159,96,56120,1,0,0:0:0:0:
351,96,56206,1,8,0:0:0:0:
351,96,56292,1,8,0:0:0:0:
159,96,56378,1,0,0:0:0:0:
351,96,56463,1,8,0:0:0:0:
159,96,56549,1,0,0:0:0:0:
159,96,56720,1,0,0:0:0:0:
159,96,56806,1,0,0:0:0:0:
351,96,56892,1,8,0:0:0:0:
351,96,57063,1,8,0:0:0:0:
159,96,57235,1,0,0:0:0:0:
351,96,57320,1,8,0:0:0:0:
159,96,57406,1,0,0:0:0:0:
351,96,57578,1,8,0:0:0:0:
351,96,57749,1,0,0:0:0:0:
351,96,57835,1,0,0:0:0:0:
159,96,57920,1,0,0:0:0:0:
159,96,58092,1,0,0:0:0:0:
159,96,58178,1,0,0:0:0:0:
351,96,58263,1,8,0:0:0:0:
351,96,58435,1,8,0:0:0:0:
159,96,58520,1,0,0:0:0:0:
351,96,58692,1,8,0:0:0:0:
159,96,58778,1,0,0:0:0:0:
159,96,58863,1,0,0:0:0:0:
351,96,58949,1,8,0:0:0:0:
351,96,59120,1,8,0:0:0:0:
351,96,59206,1,8,0:0:0:0:
159,96,59292,1,0,0:0:0:0:
159,96,59463,1,0,0:0:0:0:
159,96,59549,1,0,0:0:0:0:
351,96,59635,1,8,0:0:0:0:
351,96,59806,1,8,0:0:0:0:
159,96,59892,1,0,0:0:0:0:
351,96,60063,1,8,0:0:0:0:
159,96,60149,1,0,0:0:0:0:
159,96,60235,1,0,0:0:0:0:
351,96,60320,1,8,0:0:0:0:
159,96,60406,1,0,0:0:0:0:
351,96,60492,1,8,0:0:0:0:
351,96,60578,1,8,0:0:0:0:
159,96,60663,1,0,0:0:0:0:
159,96,60835,1,0,0:0:0:0:
351,96,60920,1,8,0:0:0:0:
351,96,61006,1,8,0:0:0:0:
159,96,61178,1,0,0:0:0:0:
351,96,61263,1,8,0:0:0:0:
351,96,61435,1,8,0:0:0:0:
159,96,61520,1,0,0:0:0:0:
159,96,61606,1,0,0:0:0:0:
351,96,61692,1,8,0:0:0:0:
159,96,61863,1,0,0:0:0:0:
351,96,61949,1,8,0:0:0:0:
159,96,62035,1,0,0:0:0:0:
159,96,62206,1,0,0:0:0:0:
159,96,62292,1,0,0:0:0:0:
351,96,62378,1,8,0:0:0:0:
159,96,62549,1,0,0:0:0:0:
159,96,62635,1,0,0:0:0:0:
351,96,62806,1,8,0:0:0:0:
159,96,62892,1,0,0:0:0:0:
351,96,63063,1,8,0:0:0:0:
159,96,63149,1,0,0:0:0:0:
159,96,63235,1,0,0:0:0:0:
351,96,63320,1,8,0:0:0:0:
159,96,63406,1,0,0:0:0:0:
159,96,63578,1,0,0:0:0:0:
159,96,63663,1,0,0:0:0:0:
351,96,63749,1,8,0:0:0:0:
159,96,63920,1,0,0:0:0:0:
351,96,64006,1,8,0:0:0:0:
159,96,64092,1,0,0:0:0:0:
159,96,64178,1,0,0:0:0:0:
351,96,64263,1,8,0:0:0:0:
351,96,64435,1,8,0:0:0:0:
351,96,64606,1,8,0:0:0:0:
351,96,64692,1,8,0:0:0:0:
159,96,64778,1,0,0:0:0:0:
159,96,64949,1,0,0:0:0:0:
159,96,65035,1,0,0:0:0:0:
351,96,65120,1,8,0:0:0:0:
351,96,65292,1,8,0:0:0:0:
351,96,65378,1,8,0:0:0:0:
351,96,65549,1,8,0:0:0:0:
159,96,65635,1,0,0:0:0:0:
159,96,65720,1,0,0:0:0:0:
351,96,65806,1,8,0:0:0:0:
159,96,65892,1,0,0:0:0:0:
351,96,65978,1,8,0:0:0:0:
351,96,66063,1,8,0:0:0:0:
351,96,66149,1,8,0:0:0:0:
159,96,66320,1,0,0:0:0:0:
159,96,66492,5,0,0:0:0:0:
351,96,66663,1,8,0:0:0:0:
159,96,66835,1,0,0:0:0:0:
159,96,66920,1,0,0:0:0:0:
351,96,67006,1,8,0:0:0:0:
351,96,67092,1,8,0:0:0:0:
159,96,67178,1,0,0:0:0:0:
159,96,67263,1,0,0:0:0:0:
351,96,67349,1,8,0:0:0:0:
159,288,67520,1,4,0:0:0:0:
351,96,67692,1,0,0:0:0:0:
159,96,67863,1,0,0:0:0:0:
159,96,67949,1,0,0:0:0:0:
351,96,68035,1,0,0:0:0:0:
351,96,68206,1,8,0:0:0:0:
159,96,68378,1,0,0:0:0:0:
159,96,68463,1,0,0:0:0:0:
133,113,68549,1,8,0:0:0:0:
156,179,68635,1,0,0:0:0:0:
159,96,68720,1,0,0:0:0:0:
159,96,68892,1,0,0:0:0:0:
351,96,69063,1,8,0:0:0:0:
159,96,69235,1,8,0:0:0:0:
159,96,69320,1,0,0:0:0:0:
159,96,69406,1,0,0:0:0:0:
396,243,69492,1,0,0:0:0:0:
351,96,69578,1,8,0:0:0:0:
159,96,69749,1,0,0:0:0:0:
159,96,69835,1,0,0:0:0:0:
351,96,69920,1,8,0:0:0:0:
159,96,70092,1,0,0:0:0:0:
159,96,70263,1,4,0:0:0:0:
159,96,70606,1,0,0:0:0:0:
159,96,70692,1,0,0:0:0:0:
159,96,70778,1,0,0:0:0:0:
351,96,70949,1,8,0:0:0:0:
159,96,71120,1,8,0:0:0:0:
159,96,71206,1,0,0:0:0:0:
159,96,71292,1,8,0:0:0:0:
173,140,71378,1,0,0:0:0:0:
351,96,71463,1,0,0:0:0:0:
159,96,71635,1,0,0:0:0:0:
159,96,71806,1,0,0:0:0:0:
351,96,71978,1,8,0:0:0:0:
159,96,72063,1,0,0:0:0:0:
159,96,72149,1,0,0:0:0:0:
159,96,72320,1,0,0:0:0:0:
351,96,72449,1,8,0:0:0:0:
321,108,72578,1,0,0:0:0:0:
159,96,72835,1,0,0:0:0:0:
159,96,73006,1,4,0:0:0:0:
351,96,73178,1,0,0:0:0:0:
159,96,73349,1,0,0:0:0:0:
159,96,73435,1,0,0:0:0:0:
159,96,73520,1,0,0:0:0:0:
159,96,73606,1,0,0:0:0:0:
351,96,73692,1,8,0:0:0:0:
159,96,73863,1,8,0:0:0:0:
159,96,73949,1,0,0:0:0:0:
159,96,74035,1,8,0:0:0:0:
351,96,74206,1,8,0:0:0:0:
351,96,74378,1,8,0:0:0:0:
159,96,74549,1,0,0:0:0:0:
159,96,74720,1,0,0:0:0:0:
159,96,74806,1,0,0:0:0:0:
159,96,74892,1,8,0:0:0:0:
351,96,75063,1,8,0:0:0:0:
159,96,75235,1,0,0:0:0:0:
159,96,75320,1,0,0:0:0:0:
351,96,75406,1,8,0:0:0:0:
159,96,75492,1,0,0:0:0:0:
77,132,75578,1,0,0:0:0:0:
159,96,75749,1,0,0:0:0:0:
159,96,76092,1,8,0:0:0:0:
159,96,76178,1,0,0:0:0:0:
159,96,76263,1,0,0:0:0:0:
351,96,76435,1,8,0:0:0:0:
159,96,76606,1,0,0:0:0:0:
159,96,76692,1,0,0:0:0:0:
99,128,76778,1,8,0:0:0:0:
159,96,76863,1,0,0:0:0:0:
351,96,76949,1,0,0:0:0:0:
159,96,77120,1,0,0:0:0:0:
159,96,77292,1,0,0:0:0:0:
159,96,77635,1,0,0:0:0:0:
159,96,77978,1,0,0:0:0:0:
159,96,78063,1,0,0:0:0:0:
351,96,78149,1,8,0:0:0:0:
159,96,78320,1,0,0:0:0:0:
159,96,78492,1,4,0:0:0:0:
159,96,78835,1,0,0:0:0:0:
159,96,79006,1,0,0:0:0:0:
351,96,79178,1,8,0:0:0:0:
159,96,79349,1,0,0:0:0:0:
159,96,79435,1,0,0:0:0:0:
351,96,79520,1,8,0:0:0:0:
289,153,79606,1,0,0:0:0:0:
159,96,79692,1,0,0:0:0:0:
159,96,79863,1,0,0:0:0:0:
351,96,80035,1,0,0:0:0:0:
159,96,80206,1,8,0:0:0:0:
159,96,80292,1,0,0:0:0:0:
159,96,80378,1,0,0:0:0:0:
351,96,80549,1,8,0:0:0:0:
96,105,80720,1,0,0:0:0:0:
159,96,80806,1,0,0:0:0:0:
96,105,80892,1,8,0:0:0:0:
159,96,80978,1,0,0:0:0:0:
351,96,81063,1,8,0:0:0:0:
159,96,81235,1,4,0:0:0:0:
159,96,81578,1,0,0:0:0:0:
159,96,81749,1,0,0:0:0:0:
351,96,81920,1,8,0:0:0:0:
159,96,82092,1,0,0:0:0:0:
159,96,82178,1,0,0:0:0:0:
121,30,82263,1,8,0:0:0:0:
351,96,82349,1,0,0:0:0:0:
159,96,82435,1,8,0:0:0:0:
159,96,82606,1,0,0:0:0:0:
159,96,82778,1,0,0:0:0:0:
351,96,82949,1,8,0:0:0:0:
159,96,83120,1,0,0:0:0:0:
159,96,83206,1,0,0:0:0:0:
159,96,83292,1,0,0:0:0:0:
351,96,83463,1,8,0:0:0:0:
159,96,83806,1,0,0:0:0:0:
159,96,83978,1,4,0:0:0:0:
351,96,84149,1,0,0:0:0:0:
159,96,84320,1,0,0:0:0:0:
159,96,84406,1,0,0:0:0:0:
159,96,84492,1,0,0:0:0:0:
351,96,84663,1,8,0:0:0:0:
159,96,84835,1,0,0:0:0:0:
159,96,84920,1,0,0:0:0:0:
159,96,85006,1,0,0:0:0:0:
351,96,85178,1,8,0:0:0:0:
351,96,85349,1,8,0:0:0:0:
159,96,85520,1,0,0:0:0:0:
159,96,85692,1,0,0:0:0:0:
159,96,85778,1,0,0:0:0:0:
159,96,85863,1,0,0:0:0:0:
351,96,86035,1,8,0:0:0:0:
159,96,86206,1,0,0:0:0:0:
159,96,86292,1,0,0:0:0:0:
351,96,86378,1,8,0:0:0:0:
159,96,86463,1,0,0:0:0:0:
197,153,86549,1,0,0:0:0:0:
159,96,86720,1,0,0:0:0:0:
159,96,87063,1,0,0:0:0:0:
351,96,87406,1,8,0:0:0:0:
159,96,87578,1,0,0:0:0:0:
159,96,87749,1,0,0:0:0:0:
159,96,87920,1,0,0:0:0:0:
159,96,88092,1,0,0:0:0:0:
256,192,88263,12,0,89292,0:0:0:0:
159,288,89463,5,4,0:0:0:0:
351,96,89806,1,8,0:0:0:0:
351,96,90063,1,8,0:0:0:0:
159,96,90149,1,0,0:0:0:0:
351,96,90492,1,8,0:0:0:0:
351,96,90749,1,8,0:0:0:0:
159,96,90835,1,0,0:0:0:0:
351,96,91178,1,8,0:0:0:0:
159,96,91349,1,0,0:0:0:0:
351,96,91435,1,8,0:0:0:0:
159,96,91520,1,0,0:0:0:0:
351,96,91692,1,8,0:0:0:0:
159,96,91863,1,0,0:0:0:0:
351,96,91949,1,8,0:0:0:0:
159,96,92035,1,0,0:0:0:0:
351,96,92206,1,8,0:0:0:0:
159,96,92549,1,0,0:0:0:0:
351,96,92806,1,8,0:0:0:0:
351,96,92892,1,8,0:0:0:0:
159,96,93235,1,0,0:0:0:0:
351,96,93492,1,8,0:0:0:0:
351,96,93578,1,8,0:0:0:0:
159,96,93920,1,0,0:0:0:0:
159,96,94092,1,0,0:0:0:0:
351,96,94178,1,8,0:0:0:0:
351,96,94263,1,8,0:0:0:0:
159,96,94435,1,0,0:0:0:0:
159,96,94606,1,0,0:0:0:0:
351,96,94692,1,8,0:0:0:0:
351,96,94778,1,8,0:0:0:0:
159,96,94949,1,0,0:0:0:0:
351,96,95292,1,8,0:0:0:0:
159,96,95549,1,0,0:0:0:0:
159,96,95635,1,0,0:0:0:0:
351,96,95978,1,8,0:0:0:0:
159,96,96235,1,0,0:0:0:0:
159,96,96320,1,0,0:0:0:0:
351,96,96663,1,8,0:0:0:0:
159,96,96835,1,0,0:0:0:0:
159,96,96920,1,0,0:0:0:0:
159,96,97006,1,0,0:0:0:0:
351,96,97178,1,8,0:0:0:0:
159,96,97349,1,0,0:0:0:0:
159,96,97435,1,0,0:0:0:0:
159,96,97520,1,0,0:0:0:0:
159,96,97692,1,0,0:0:0:0:
351,96,98035,1,8,0:0:0:0:
159,96,98292,1,0,0:0:0:0:
159,96,98378,1,0,0:0:0:0:
351,96,98720,1,8,0:0:0:0:
159,96,98978,1,0,0:0:0:0:
159,96,99063,1,0,0:0:0:0:
351,96,99406,1,8,0:0:0:0:
159,96,99578,1,0,0:0:0:0:
159,96,99663,1,0,0:0:0:0:
159,96,99749,1,0,0:0:0:0:
351,96,99920,1,8,0:0:0:0:
159,96,100092,1,0,0:0:0:0:
159,96,100178,1,0,0:0:0:0:
159,96,100263,1,0,0:0:0:0:
159,288,100435,1,4,0:0:0:0:
351,96,100778,1,8,0:0:0:0:
351,96,101035,1,8,0:0:0:0:
159,96,101120,1,0,0:0:0:0:
351,96,101292,1,8,0:0:0:0:
351,96,101463,1,8,0:0:0:0:
159,96,101549,1,0,0:0:0:0:
159,96,101635,1,0,0:0:0:0:
159,96,101806,1,0,0:0:0:0:
351,96,102149,1,8,0:0:0:0:
159,96,102406,1,0,0:0:0:0:
159,96,102492,1,0,0:0:0:0:
351,96,102663,1,8,0:0:0:0:
159,96,102835,1,0,0:0:0:0:
159,96,102920,1,0,0:0:0:0:
351,96,103006,1,8,0:0:0:0:
159,96,103178,1,0,0:0:0:0:
159,96,103520,1,0,0:0:0:0:
159,96,103863,1,0,0:0:0:0:
159,96,104206,1,0,0:0:0:0:
159,96,104549,1,0,0:0:0:0:
159,96,104892,1,0,0:0:0:0:
159,96,105235,1,0,0:0:0:0:
351,96,105406,1,8,0:0:0:0:
159,96,105578,1,0,0:0:0:0:
351,96,105920,1,8,0:0:0:0:
351,96,106092,1,8,0:0:0:0:
351,96,106263,1,8,0:0:0:0:
159,96,106435,1,0,0:0:0:0:
351,96,106606,1,8,0:0:0:0:
351,96,106778,1,8,0:0:0:0:
351,96,106949,1,8,0:0:0:0:
159,96,107120,1,0,0:0:0:0:
351,96,107292,1,8,0:0:0:0:
351,96,107463,1,8,0:0:0:0:
159,96,107635,1,0,0:0:0:0:
159,96,107806,1,0,0:0:0:0:
351,96,107978,1,8,0:0:0:0:
159,96,108149,1,0,0:0:0:0:
159,96,108320,1,0,0:0:0:0:
159,96,108492,1,0,0:0:0:0:
351,96,108663,1,8,0:0:0:0:
159,96,108749,1,0,0:0:0:0:
159,96,108835,1,0,0:0:0:0:
351,96,109006,1,8,0:0:0:0:
159,96,109092,1,0,0:0:0:0:
159,96,109178,1,0,0:0:0:0:
351,96,109349,1,8,0:0:0:0:
159,96,109520,1,0,0:0:0:0:
351,96,109692,1,8,0:0:0:0:
159,96,110035,2,0,L|159:128,8,26.599999675293
159,288,111406,5,4,0:0:0:0:
159,96,111578,1,0,0:0:0:0:
159,96,111663,1,0,0:0:0:0:
351,96,111749,1,8,0:0:0:0:
351,96,111920,1,8,0:0:0:0:
159,96,112006,1,0,0:0:0:0:
159,96,112092,1,0,0:0:0:0:
351,96,112178,1,8,0:0:0:0:
159,96,112263,1,0,0:0:0:0:
351,96,112435,1,8,0:0:0:0:
159,96,112606,1,0,0:0:0:0:
351,96,112692,1,8,0:0:0:0:
159,96,112778,1,0,0:0:0:0:
159,96,112949,1,0,0:0:0:0:
159,96,113035,1,0,0:0:0:0:
351,96,113120,1,8,0:0:0:0:
351,96,113292,1,8,0:0:0:0:
159,96,113378,1,0,0:0:0:0:
351,96,113549,1,8,0:0:0:0:
159,96,113635,1,0,0:0:0:0:
351,96,113806,1,8,0:0:0:0:
159,96,113892,1,0,0:0:0:0:
351,96,113978,1,8,0:0:0:0:
351,96,114063,1,8,0:0:0:0:
159,96,114149,1,0,0:0:0:0:
159,96,114320,1,0,0:0:0:0:
159,96,114406,1,0,0:0:0:0:
351,96,114492,1,8,0:0:0:0:
351,96,114663,1,8,0:0:0:0:
159,96,114749,1,0,0:0:0:0:
159,96,114835,1,0,0:0:0:0:
351,96,114920,1,8,0:0:0:0:
159,96,115006,1,0,0:0:0:0:
351,96,115178,1,8,0:0:0:0:
159,96,115263,1,0,0:0:0:0:
351,96,115349,1,8,0:0:0:0:
351,96,115435,1,8,0:0:0:0:
159,96,115520,1,0,0:0:0:0:
159,96,115692,1,0,0:0:0:0:
351,96,115778,1,8,0:0:0:0:
351,96,115863,1,8,0:0:0:0:
159,96,116035,1,0,0:0:0:0:
351,96,116120,1,8,0:0:0:0:
351,96,116292,1,8,0:0:0:0:
351,96,116378,1,8,0:0:0:0:
159,96,116463,1,0,0:0:0:0:
351,96,116549,1,8,0:0:0:0:
159,96,116720,1,0,0:0:0:0:
351,96,116806,1,8,0:0:0:0:
159,96,116892,1,0,0:0:0:0:
159,96,117063,1,0,0:0:0:0:
159,96,117149,1,0,0:0:0:0:
351,96,117235,1,8,0:0:0:0:
159,96,117406,1,0,0:0:0:0:
351,96,117492,1,8,0:0:0:0:
159,96,117578,1,0,0:0:0:0:
351,96,117663,1,8,0:0:0:0:
159,96,117749,1,0,0:0:0:0:
351,96,117920,1,8,0:0:0:0:
159,96,118006,1,0,0:0:0:0:
159,96,118092,1,0,0:0:0:0:
351,96,118178,1,8,0:0:0:0:
159,96,118263,1,0,0:0:0:0:
159,96,118435,1,0,0:0:0:0:
159,96,118520,1,0,0:0:0:0:
351,96,118606,1,8,0:0:0:0:
159,96,118778,1,0,0:0:0:0:
351,96,118863,1,8,0:0:0:0:
159,96,118949,1,0,0:0:0:0:
351,96,119035,1,8,0:0:0:0:
351,96,119120,1,8,0:0:0:0:
159,96,119206,1,0,0:0:0:0:
351,96,119292,1,8,0:0:0:0:
159,96,119378,1,0,0:0:0:0:
351,96,119463,1,8,0:0:0:0:
351,96,119549,1,8,0:0:0:0:
159,96,119635,1,0,0:0:0:0:
159,96,119806,1,0,0:0:0:0:
159,96,119892,1,0,0:0:0:0:
351,96,119978,1,8,0:0:0:0:
351,96,120149,1,8,0:0:0:0:
351,96,120235,1,8,0:0:0:0:
351,96,120406,1,8,0:0:0:0:
159,96,120492,1,0,0:0:0:0:
159,96,120578,1,0,0:0:0:0:
351,96,120663,1,8,0:0:0:0:
159,96,120749,1,0,0:0:0:0:
351,96,120835,1,8,0:0:0:0:
351,96,120920,1,8,0:0:0:0:
351,96,121006,1,8,0:0:0:0:
159,96,121178,1,0,0:0:0:0:
351,96,121349,1,8,0:0:0:0:
159,96,121435,1,0,0:0:0:0:
351,96,121520,1,8,0:0:0:0:
351,96,121606,1,8,0:0:0:0:
159,96,121692,1,0,0:0:0:0:
351,96,121863,1,8,0:0:0:0:
159,96,121949,1,0,0:0:0:0:
351,96,122035,1,8,0:0:0:0:
351,96,122120,1,8,0:0:0:0:
159,96,122206,1,0,0:0:0:0:
351,96,122292,1,8,0:0:0:0:
159,96,122378,1,0,0:0:0:0:
159,96,122549,1,0,0:0:0:0:
159,96,122635,1,0,0:0:0:0:
351,96,122720,1,8,0:0:0:0:
351,96,122892,1,8,0:0:0:0:
159,96,123063,1,0,0:0:0:0:
351,96,123149,1,8,0:0:0:0:
159,96,123235,1,0,0:0:0:0:
159,96,123320,1,0,0:0:0:0:
351,96,123406,1,8,0:0:0:0:
351,96,123578,1,8,0:0:0:0:
159,96,123663,1,0,0:0:0:0:
159,96,123749,1,0,0:0:0:0:
159,96,123920,1,0,0:0:0:0:
159,96,124006,1,0,0:0:0:0:
351,96,124092,1,8,0:0:0:0:
351,96,124263,1,8,0:0:0:0:
159,96,124349,1,0,0:0:0:0:
351,96,124520,1,8,0:0:0:0:
159,96,124606,1,0,0:0:0:0:
159,96,124692,1,0,0:0:0:0:
351,96,124778,1,8,0:0:0:0:
351,96,124949,1,8,0:0:0:0:
351,96,125035,1,8,0:0:0:0:
159,96,125120,1,0,0:0:0:0:
159,96,125292,1,0,0:0:0:0:
159,96,125378,1,0,0:0:0:0:
351,96,125463,1,8,0:0:0:0:
351,96,125635,1,8,0:0:0:0:
159,96,125720,1,0,0:0:0:0:
351,96,125892,1,8,0:0:0:0:
159,96,125978,1,0,0:0:0:0:
159,96,126063,1,0,0:0:0:0:
351,96,126149,1,8,0:0:0:0:
351,96,126320,1,8,0:0:0:0:
351,96,126406,1,8,0:0:0:0:
159,96,126492,1,0,0:0:0:0:
159,96,126663,1,0,0:0:0:0:
351,96,126749,1,8,0:0:0:0:
351,96,126835,1,8,0:0:0:0:
159,96,127006,1,0,0:0:0:0:
351,96,127092,1,8,0:0:0:0:
351,96,127263,1,8,0:0:0:0:
159,96,127349,1,0,0:0:0:0:
351,96,127520,1,8,0:0:0:0:
159,96,127606,1,0,0:0:0:0:
351,96,127692,1,8,0:0:0:0:
351,96,127778,1,8,0:0:0:0:
159,96,127863,1,0,0:0:0:0:
159,96,128035,1,0,0:0:0:0:
159,96,128120,1,0,0:0:0:0:
351,96,128206,1,8,0:0:0:0:
159,96,128378,1,0,0:0:0:0:
159,96,128463,1,0,0:0:0:0:
351,96,128635,1,8,0:0:0:0:
159,96,128720,1,0,0:0:0:0:
351,96,128892,1,8,0:0:0:0:
159,96,128978,1,0,0:0:0:0:
159,96,129063,1,0,0:0:0:0:
351,96,129149,1,8,0:0:0:0:
159,96,129235,1,0,0:0:0:0:
159,96,129406,1,0,0:0:0:0:
159,96,129492,1,0,0:0:0:0:
351,96,129578,1,8,0:0:0:0:
159,96,129749,1,0,0:0:0:0:
351,96,129835,1,8,0:0:0:0:
159,96,129920,1,0,0:0:0:0:
351,96,130006,1,8,0:0:0:0:
351,96,130092,1,8,0:0:0:0:
159,96,130178,1,0,0:0:0:0:
351,96,130263,1,8,0:0:0:0:
159,96,130349,1,0,0:0:0:0:
351,96,130435,1,8,0:0:0:0:
351,96,130520,1,8,0:0:0:0:
159,96,130606,1,0,0:0:0:0:
159,96,130778,1,0,0:0:0:0:
159,96,130863,1,0,0:0:0:0:
351,96,130949,1,8,0:0:0:0:
351,96,131120,1,8,0:0:0:0:
351,96,131206,1,8,0:0:0:0:
351,96,131378,1,8,0:0:0:0:
159,96,131463,1,0,0:0:0:0:
159,96,131549,1,0,0:0:0:0:
351,96,131635,1,8,0:0:0:0:
159,96,131720,1,0,0:0:0:0:
351,96,131806,1,8,0:0:0:0:
351,96,131892,1,8,0:0:0:0:
351,96,131978,1,8,0:0:0:0:
159,96,132149,1,0,0:0:0:0:
159,96,132320,1,0,0:0:0:0:
351,96,132492,1,8,0:0:0:0:
159,96,132663,1,0,0:0:0:0:
159,96,132749,1,0,0:0:0:0:
351,96,132835,1,8,0:0:0:0:
351,96,132920,1,8,0:0:0:0:
159,96,133006,1,0,0:0:0:0:
159,96,133092,1,0,0:0:0:0:
351,96,133178,1,8,0:0:0:0:
159,288,133349,1,12,0:0:0:0:
351,96,133520,1,0,0:0:0:0:
159,96,133692,1,0,0:0:0:0:
159,96,133778,1,0,0:0:0:0:
159,96,133863,1,0,0:0:0:0:
351,96,134035,1,8,0:0:0:0:
159,96,134206,1,0,0:0:0:0:
159,96,134292,1,0,0:0:0:0:
159,96,134463,1,0,0:0:0:0:
159,96,134549,1,0,0:0:0:0:
351,96,134720,1,8,0:0:0:0:
159,96,134892,1,0,0:0:0:0:
159,96,135063,1,0,0:0:0:0:
159,96,135149,1,0,0:0:0:0:
159,96,135235,1,0,0:0:0:0:
351,96,135406,1,8,0:0:0:0:
159,96,135578,1,0,0:0:0:0:
159,96,135663,1,0,0:0:0:0:
159,96,135835,1,0,0:0:0:0:
351,96,135920,1,0,0:0:0:0:
351,96,136092,1,12,0:0:0:0:
159,96,136435,1,0,0:0:0:0:
159,96,136520,1,0,0:0:0:0:
159,96,136606,1,0,0:0:0:0:
351,96,136778,1,8,0:0:0:0:
159,96,136949,1,0,0:0:0:0:
159,96,137035,1,0,0:0:0:0:
154,92,137120,1,8,0:0:0:0:
159,96,137206,1,0,0:0:0:0:
351,96,137292,1,0,0:0:0:0:
159,96,137463,1,0,0:0:0:0:
159,96,137635,1,0,0:0:0:0:
351,96,137806,1,8,0:0:0:0:
159,96,137892,1,0,0:0:0:0:
159,96,137978,1,0,0:0:0:0:
159,96,138149,1,0,0:0:0:0:
351,96,138278,1,8,0:0:0:0:
159,96,138406,1,0,0:0:0:0:
159,96,138663,1,0,0:0:0:0:
351,96,138835,1,12,0:0:0:0:
159,96,139006,1,0,0:0:0:0:
159,96,139178,1,0,0:0:0:0:
159,96,139263,1,0,0:0:0:0:
159,96,139349,1,0,0:0:0:0:
351,96,139520,1,8,0:0:0:0:
159,96,139692,1,0,0:0:0:0:
159,96,139778,1,0,0:0:0:0:
351,96,139863,1,8,0:0:0:0:
159,96,140035,1,0,0:0:0:0:
351,96,140206,1,8,0:0:0:0:
351,96,140378,1,8,0:0:0:0:
159,96,140549,1,0,0:0:0:0:
159,96,140635,1,0,0:0:0:0:
159,96,140720,1,0,0:0:0:0:
351,96,140892,1,8,0:0:0:0:
159,96,141063,1,0,0:0:0:0:
159,96,141149,1,0,0:0:0:0:
159,96,141320,1,0,0:0:0:0:
351,96,141406,1,0,0:0:0:0:
159,96,141578,1,12,0:0:0:0:
159,96,141920,1,8,0:0:0:0:
159,96,142006,1,0,0:0:0:0:
159,96,142092,1,0,0:0:0:0:
351,96,142263,1,8,0:0:0:0:
159,96,142435,1,0,0:0:0:0:
159,96,142520,1,0,0:0:0:0:
351,96,142606,1,8,0:0:0:0:
159,96,142778,1,8,0:0:0:0:
159,96,142949,1,0,0:0:0:0:
159,96,143120,1,0,0:0:0:0:
159,96,143463,1,0,0:0:0:0:
159,96,143806,1,0,0:0:0:0:
159,96,143978,1,8,0:0:0:0:
159,96,144320,1,12,0:0:0:0:
159,96,144663,1,0,0:0:0:0:
159,96,144835,1,0,0:0:0:0:
351,96,145006,1,8,0:0:0:0:
159,96,145178,1,0,0:0:0:0:
159,96,145263,1,0,0:0:0:0:
351,96,145349,1,8,0:0:0:0:
159,96,145520,1,0,0:0:0:0:
351,96,145692,1,8,0:0:0:0:
351,96,145863,1,8,0:0:0:0:
159,96,146035,1,0,0:0:0:0:
159,96,146120,1,0,0:0:0:0:
159,96,146206,1,0,0:0:0:0:
351,96,146378,1,8,0:0:0:0:
159,96,146549,1,0,0:0:0:0:
159,96,146635,1,0,0:0:0:0:
159,96,146806,1,0,0:0:0:0:
351,96,146892,1,0,0:0:0:0:
159,96,147063,1,12,0:0:0:0:
159,96,147406,1,0,0:0:0:0:
159,96,147578,1,0,0:0:0:0:
351,96,147749,1,8,0:0:0:0:
159,96,147920,1,0,0:0:0:0:
159,96,148006,1,0,0:0:0:0:
351,96,148092,1,8,0:0:0:0:
159,96,148263,1,0,0:0:0:0:
159,96,148435,1,0,0:0:0:0:
159,96,148520,1,0,0:0:0:0:
159,96,148606,1,0,0:0:0:0:
351,96,148778,1,8,0:0:0:0:
159,96,148949,1,0,0:0:0:0:
159,96,149035,1,0,0:0:0:0:
159,96,149120,1,0,0:0:0:0:
351,96,149292,1,8,0:0:0:0:
159,96,149635,1,0,0:0:0:0:
351,96,149806,1,12,0:0:0:0:
159,96,149978,1,0,0:0:0:0:
159,96,150149,1,0,0:0:0:0:
159,96,150235,1,0,0:0:0:0:
159,96,150320,1,0,0:0:0:0:
351,96,150492,1,8,0:0:0:0:
159,96,150663,1,0,0:0:0:0:
159,96,150749,1,0,0:0:0:0:
351,96,150835,1,8,0:0:0:0:
351,96,151006,1,8,0:0:0:0:
159,96,151178,1,0,0:0:0:0:
159,96,151349,1,0,0:0:0:0:
159,96,151520,1,0,0:0:0:0:
159,96,151606,1,0,0:0:0:0:
159,96,151692,1,0,0:0:0:0:
351,96,151863,1,8,0:0:0:0:
159,96,152035,1,0,0:0:0:0:
159,96,152120,1,0,0:0:0:0:
351,96,152206,1,8,0:0:0:0:
159,96,152378,1,0,0:0:0:0:
159,96,152549,1,0,0:0:0:0:
159,96,152892,1,0,0:0:0:0:
351,96,153235,1,8,0:0:0:0:
159,96,153406,1,0,0:0:0:0:
159,96,153578,1,0,0:0:0:0:
159,96,153749,1,0,0:0:0:0:
159,96,153920,1,0,0:0:0:0:
159,96,155292,1,0,0:0:0:0:
159,288,156663,1,4,0:0:0:0:
351,96,156834,1,0,0:0:0:0:
159,96,157005,1,0,0:0:0:0:
159,96,157091,1,0,0:0:0:0:
351,96,157177,1,0,0:0:0:0:
351,96,157348,1,8,0:0:0:0:
159,96,157520,1,0,0:0:0:0:
159,96,157605,1,0,0:0:0:0:
133,113,157691,1,8,0:0:0:0:
156,179,157777,1,0,0:0:0:0:
159,96,157862,1,0,0:0:0:0:
159,96,158034,1,0,0:0:0:0:
351,96,158205,1,8,0:0:0:0:
159,96,158377,1,8,0:0:0:0:
159,96,158462,1,0,0:0:0:0:
159,96,158548,1,0,0:0:0:0:
396,243,158634,1,0,0:0:0:0:
351,96,158720,1,8,0:0:0:0:
159,96,158891,1,0,0:0:0:0:
159,96,158977,1,0,0:0:0:0:
351,96,159062,1,8,0:0:0:0:
159,96,159234,1,0,0:0:0:0:
159,96,159405,1,4,0:0:0:0:
159,96,159748,1,0,0:0:0:0:
159,96,159834,1,0,0:0:0:0:
159,96,159920,1,0,0:0:0:0:
351,96,160091,1,8,0:0:0:0:
159,96,160262,1,8,0:0:0:0:
159,96,160348,1,0,0:0:0:0:
159,96,160434,1,8,0:0:0:0:
173,140,160520,1,0,0:0:0:0:
351,96,160605,1,0,0:0:0:0:
159,96,160777,1,0,0:0:0:0:
159,96,160948,1,0,0:0:0:0:
351,96,161120,1,8,0:0:0:0:
159,96,161205,1,0,0:0:0:0:
159,96,161291,1,0,0:0:0:0:
159,96,161462,1,8,0:0:0:0:
276,136,161634,1,0,0:0:0:0:
185,145,161720,1,0,0:0:0:0:
276,136,161805,1,8,0:0:0:0:
185,145,161891,1,0,0:0:0:0:
159,96,161977,1,0,0:0:0:0:
159,96,162148,1,4,0:0:0:0:
159,96,162491,1,0,0:0:0:0:
159,96,162577,1,0,0:0:0:0:
159,96,162662,1,0,0:0:0:0:
159,96,162748,1,0,0:0:0:0:
351,96,162834,1,8,0:0:0:0:
159,96,163005,1,0,0:0:0:0:
159,96,163091,1,0,0:0:0:0:
159,96,163177,1,8,0:0:0:0:
351,96,163348,1,8,0:0:0:0:
351,96,163520,1,0,0:0:0:0:
159,96,163691,1,0,0:0:0:0:
159,96,163862,1,0,0:0:0:0:
159,96,163948,1,0,0:0:0:0:
159,96,164034,1,0,0:0:0:0:
351,96,164205,1,8,0:0:0:0:
159,96,164377,1,0,0:0:0:0:
159,96,164462,1,0,0:0:0:0:
351,96,164548,1,8,0:0:0:0:
159,96,164634,1,0,0:0:0:0:
77,132,164720,1,0,0:0:0:0:
159,96,164891,1,4,0:0:0:0:
159,96,165234,1,8,0:0:0:0:
159,96,165320,1,8,0:0:0:0:
159,96,165405,1,0,0:0:0:0:
351,96,165577,1,8,0:0:0:0:
159,96,165748,1,0,0:0:0:0:
159,96,165834,1,0,0:0:0:0:
99,128,165920,1,8,0:0:0:0:
159,96,166005,1,8,0:0:0:0:
351,96,166091,1,0,0:0:0:0:
159,96,166262,1,8,0:0:0:0:
159,96,166434,1,0,0:0:0:0:
159,96,166777,1,0,0:0:0:0:
159,96,167120,1,0,0:0:0:0:
351,96,167291,1,0,0:0:0:0:
159,96,167462,1,0,0:0:0:0:
159,96,167634,1,4,0:0:0:0:
159,96,167977,1,0,0:0:0:0:
159,96,168148,1,0,0:0:0:0:
351,96,168320,1,8,0:0:0:0:
159,96,168491,1,0,0:0:0:0:
159,96,168577,1,0,0:0:0:0:
351,96,168662,1,8,0:0:0:0:
289,153,168748,1,0,0:0:0:0:
159,96,168834,1,0,0:0:0:0:
159,96,169005,1,0,0:0:0:0:
351,96,169177,1,0,0:0:0:0:
159,96,169348,1,8,0:0:0:0:
159,96,169434,1,0,0:0:0:0:
159,96,169520,1,0,0:0:0:0:
351,96,169691,1,8,0:0:0:0:
96,105,169862,1,0,0:0:0:0:
159,96,169948,1,0,0:0:0:0:
96,105,170034,1,8,0:0:0:0:
159,96,170120,1,0,0:0:0:0:
351,96,170205,1,8,0:0:0:0:
159,96,170377,1,4,0:0:0:0:
159,96,170720,1,0,0:0:0:0:
159,96,170891,1,0,0:0:0:0:
351,96,171062,1,8,0:0:0:0:
159,96,171234,1,0,0:0:0:0:
159,96,171320,1,0,0:0:0:0:
121,30,171405,1,8,0:0:0:0:
351,96,171491,1,0,0:0:0:0:
159,96,171577,1,0,0:0:0:0:
159,96,171748,1,0,0:0:0:0:
159,96,171920,1,0,0:0:0:0:
351,96,172091,1,0,0:0:0:0:
267,178,172177,1,0,0:0:0:0:
159,96,172262,1,0,0:0:0:0:
159,96,172348,1,0,0:0:0:0:
159,96,172434,1,8,0:0:0:0:
351,96,172605,1,0,0:0:0:0:
267,178,172691,1,0,0:0:0:0:
181,63,172777,1,8,0:0:0:0:
267,178,172863,1,0,0:0:0:0:
159,96,172948,1,8,0:0:0:0:
159,96,173120,1,4,0:0:0:0:
159,96,173462,1,8,0:0:0:0:
159,96,173548,1,0,0:0:0:0:
159,96,173634,1,0,0:0:0:0:
351,96,173805,1,8,0:0:0:0:
159,96,173977,1,0,0:0:0:0:
159,96,174062,1,0,0:0:0:0:
159,96,174148,1,8,0:0:0:0:
351,96,174320,1,0,0:0:0:0:
351,96,174491,1,0,0:0:0:0:
159,96,174662,1,0,0:0:0:0:
159,96,174834,1,0,0:0:0:0:
159,96,174920,1,0,0:0:0:0:
159,96,175005,1,0,0:0:0:0:
351,96,175177,1,8,0:0:0:0:
159,96,175348,1,0,0:0:0:0:
159,96,175434,1,0,0:0:0:0:
351,96,175520,1,8,0:0:0:0:
159,96,175605,1,0,0:0:0:0:
197,153,175691,1,0,0:0:0:0:
159,96,175862,1,8,0:0:0:0:
211,137,176034,1,0,0:0:0:0:
211,137,176205,1,0,0:0:0:0:
211,137,176291,1,0,0:0:0:0:
211,137,176377,1,0,0:0:0:0:
211,137,176463,1,0,0:0:0:0:
211,137,176548,1,8,0:0:0:0:
147,145,176720,1,0,0:0:0:0:
147,145,176805,1,0,0:0:0:0:
147,145,176891,1,8,0:0:0:0:
147,145,177063,1,0,0:0:0:0:
159,96,177235,5,0,0:0:0:0:
159,96,177578,1,0,0:0:0:0:
351,96,177920,5,8,0:0:0:0:
159,96,178092,1,0,0:0:0:0:
159,96,178263,1,0,0:0:0:0:
159,96,178435,1,0,0:0:0:0:
159,288,178605,1,4,0:0:0:0:
