osu file format v14

[General]
AudioFilename: audio.mp3
AudioLeadIn: 0
PreviewTime: 156576
Countdown: 0
SampleSet: Drum
StackLeniency: 0.7
Mode: 2
LetterboxInBreaks: 0
WidescreenStoryboard: 0

[Editor]
Bookmarks: 319,22261,45576,67176,67519,89461,111404,133347,153919,156661,178604
DistanceSpacing: 1.5
BeatDivisor: 4
GridSize: 32
TimelineZoom: 1

[Metadata]
Title:Ghosts
TitleUnicode:Ghosts
Artist:LukHash
ArtistUnicode:LukHash
Creator:Absolute Zero
Version:Salad
Source:osu!
Tags:featured artist dance electronic melodic dnb drum and bass vocals english magic bomb MBomb Nelly JBHyperion JBH mapper's guild Marina Lin John Salvino
BeatmapID:2178750
BeatmapSetID:1042550

[Difficulty]
HPDrainRate:4
CircleSize:3
OverallDifficulty:7
ApproachRate:7
SliderMultiplier:1.4
SliderTickRate:1

[Events]
//Background and Video events
0,0,"sea-2562100_1920.jpg",0,0
//Break Periods
//Storyboard Layer 0 (Background)
//Storyboard Layer 1 (Fail)
//Storyboard Layer 2 (Pass)
//Storyboard Layer 3 (Foreground)
//Storyboard Layer 4 (Overlay)
//Storyboard Sound Samples

[TimingPoints]
319,342.857142857143,4,2,5,60,1,0
661,-100,4,2,3,60,0,0
1004,-100,4,2,7,60,0,0
1347,-100,4,2,6,60,0,0
1690,-100,4,1,69,25,0,0
3061,-100,4,2,4,60,0,0
3404,-100,4,2,3,60,0,0
3747,-100,4,2,5,60,0,0
4090,-100,4,2,7,60,0,0
4433,-100,4,1,69,25,0,0
5804,-100,4,2,1,60,0,0
6490,-100,4,2,3,60,0,0
6833,-100,4,2,2,60,0,0
7176,-100,4,1,69,25,0,0
8547,-100,4,2,2,60,0,0
9233,-100,4,2,5,60,0,0
9576,-100,4,2,7,60,0,0
9919,-100,4,1,69,25,0,0
11290,-100,4,2,5,60,0,0
11633,-100,4,2,3,60,0,0
11976,-100,4,2,7,60,0,0
12319,-100,4,2,6,60,0,0
12661,-100,4,1,69,25,0,0
12833,-100,4,2,3,60,0,0
13090,-100,4,1,69,35,0,0
13347,-100,4,2,6,60,0,0
13690,-100,4,2,7,60,0,0
13861,-100,4,2,6,60,0,0
14033,-100,4,2,4,60,0,0
14376,-100,4,2,3,60,0,0
14719,-100,4,2,5,60,0,0
15061,-100,4,2,7,60,0,0
15233,-100,4,1,69,35,0,0
16776,-100,4,2,1,60,0,0
17461,-100,4,2,3,60,0,0
17804,-100,4,2,2,60,0,0
18147,-100,4,1,69,35,0,0
19519,-100,4,2,2,60,0,0
20204,-100,4,2,5,60,0,0
20547,-100,4,2,7,60,0,0
20890,-100,4,1,69,35,0,0
22261,-100,4,1,1,25,0,0
33233,-100,4,1,1,30,0,0
35976,-100,4,1,1,35,0,0
38719,-100,4,1,1,40,0,0
41461,-100,4,1,1,45,0,0
45576,-100,4,1,99,80,0,1
45661,-100,4,3,1,55,0,1
66833,-100,4,3,2,55,0,1
67176,-100,4,3,2,55,0,0
67519,-100,4,3,1,55,0,1
89033,-100,4,3,1,30,0,1
89461,-100,4,1,99,80,0,0
89547,-100,4,1,2,50,0,0
106261,-100,4,1,2,50,0,0
107290,-100,4,1,2,27,0,0
107633,-100,4,1,2,25,0,0
108661,-100,4,1,2,23,0,0
109004,-100,4,1,2,21,0,0
109347,-100,4,1,2,19,0,0
109690,-100,4,1,2,17,0,0
110033,-100,4,1,2,15,0,0
111404,-100,4,1,99,80,0,0
111490,-100,4,3,1,40,0,0
132661,-100,4,3,2,40,0,0
133347,-100,4,1,99,80,0,1
133433,-100,4,3,1,55,0,1
153919,-100,4,1,1,60,0,0
156661,-100,4,3,1,55,0,1
178604,-100,4,1,99,40,0,0

[Colours]
Combo1 : 120,160,180
Combo2 : 150,150,150
Combo3 : 120,170,170
Combo4 : 201,201,201

[HitObjects]
71,192,319,5,2,0:0:0:0:
226,190,661,2,0,L|366:178,2,140,2|2|2,0:0|0:0|0:0,0:0:0:0:
71,302,1690,6,0,P|41:223|184:109,1,280,0|0,0:0|0:0,0:0:0:0:
409,130,3061,1,2,0:0:0:0:
254,129,3404,2,0,P|211:136|99:199,2,140,2|4|2,0:0|0:0|0:0,0:0:0:0:
409,272,4433,6,0,B|466:188|466:188|294:114,1,280,0|0,0:0|0:0,0:0:0:0:
74,115,5804,5,2,0:0:0:0:
229,264,6147,2,0,P|303:250|357:202,2,140,4|2|2,0:0|0:0|0:0,0:0:0:0:
384,81,7176,6,0,L|383:228,1,140,0|0,0:0|0:0,0:0:0:0:
223,204,7861,2,0,L|224:49,1,140,0|0,0:0|0:0,0:0:0:0:
55,86,8547,6,0,L|197:157,1,140,4|2,0:0|0:0,0:0:0:0:
346,244,9233,2,0,L|205:280,1,140,4|2,0:0|0:0,0:0:0:0:
374,287,9919,2,0,P|430:258|340:125,1,280,0|0,0:0|0:0,0:0:0:0:
74,194,11290,5,2,0:0:0:0:
222,147,11633,2,0,L|78:199,2,140,2|2|2,0:0|0:0|0:0,0:0:0:0:
378,201,12661,5,0,0:0:0:0:
311,200,12833,2,0,P|256:178|133:79,1,210,8|4,0:0|0:0,0:0:0:0:
450,103,14033,5,2,0:0:0:0:
299,110,14376,2,0,L|438:174,2,140,2|4|2,0:0|0:0|0:0,0:0:0:0:
152,105,15404,6,0,L|17:179,2,140,0|0|0,0:0|0:0|0:0,0:0:0:0:
396,250,16776,5,2,0:0:0:0:
250,250,17119,2,0,L|112:174,2,140,4|2|2,0:0|0:0|0:0,0:0:0:0:
96,75,18147,2,0,L|96:224,1,140,0|0,0:0|0:0,0:0:0:0:
256,214,18833,2,0,L|256:71,1,140,0|0,0:0|0:0,0:0:0:0:
425,81,19519,6,0,L|281:157,1,140,4|2,0:0|0:0,0:0:0:0:
140,234,20204,2,0,L|293:289,1,140,4|2,0:0|0:0,0:0:0:0:
125,338,20890,2,0,P|51:304|154:183,1,280,0|0,0:0|0:0,0:0:0:0:
324,176,22261,6,4,L|464:125,2,140,4|8|0,0:0|0:0|0:0,0:0:0:0:
163,173,23290,2,0,P|116:137|178:94,1,140,8|4,0:0|0:0,0:0:0:0:
314,87,23976,2,0,L|234:82,1,70,8|4,0:0|0:0,0:0:0:0:
31,227,24661,1,8,0:0:0:0:
322,225,25004,6,0,P|370:229|427:156,1,140,4|8,0:0|0:0,0:0:0:0:
269,82,25690,2,0,P|222:86|119:125,2,140,0|8|4,0:0|0:0|0:0,0:0:0:0:
430,204,26719,2,0,L|430:117,1,70,8|4,0:0|0:0,0:0:0:0:
221,132,27404,1,8,0:0:0:0:
509,248,27747,6,0,P|448:274|356:259,2,140,4|8|0,0:0|0:0|0:0,0:0:0:0:
325,70,28776,2,0,L|196:130,1,140,8|4,0:0|0:0,0:0:0:0:
358,223,29461,2,0,L|277:192,1,70,8|4,0:0|0:0,0:0:0:0:
490,163,30147,1,8,0:0:0:0:
226,75,30490,6,0,P|163:52|91:84,2,140,4|8|4,0:0|0:0|0:0,0:0:0:0:
390,209,31519,2,0,L|239:155,1,140,8|8,0:0|0:0,0:0:0:0:
422,108,32204,2,0,L|453:23,1,70,4|8,0:0|0:0,0:0:0:0:
302,110,32719,2,0,L|300:28,1,70,4|8,0:0|0:0,0:0:0:0:
13,276,33233,6,0,P|89:268|168:238,2,140,4|8|0,0:0|0:0|0:0,0:0:0:0:
176,283,34261,2,0,L|340:244,1,140,8|4,0:0|0:0,0:0:0:0:
155,148,34947,2,4,L|155:68,1,70,4|8,0:0|0:0,0:0:0:0:
370,80,35633,1,8,0:0:0:0:
98,261,35976,6,4,B|36:212|36:212|86:164,1,140,4|8,0:0|0:0,0:0:0:0:
229,134,36661,2,0,P|165:107|93:124,1,140,0|8,0:0|0:0,0:0:0:0:
389,279,37347,2,0,P|442:267|475:174,1,140,8|0,0:0|0:0,0:0:0:0:
325,107,38033,2,0,P|235:112|181:149,1,140,4|8,0:0|0:0,0:0:0:0:
458,208,38719,6,0,L|311:260,2,140,4|8|4,0:0|0:0|0:0,0:0:0:0:
299,114,39747,1,8,0:0:0:0:
143,113,40090,2,0,L|67:174,1,70,4|0,0:0|0:0,0:0:0:0:
251,273,40604,1,0,0:0:0:0:
186,252,40776,2,0,P|147:231|81:143,1,140
250,72,41461,6,0,P|342:52|388:72,1,140,4|8,0:0|0:0,0:0:0:0:
221,176,42147,2,0,P|141:195|68:157,1,140,4|8,0:0|0:0,0:0:0:0:
263,89,42833,2,0,L|426:66,1,140,8|4,0:0|0:0,0:0:0:0:
335,163,43347,1,4,0:0:0:0:
246,243,43519,2,0,L|365:143,1,140,8|4,0:0|0:0,0:0:0:0:
386,77,44033,1,4,0:0:0:0:
384,81,45576,6,0,B|458:135|458:135|405:191,1,140,4|8,0:0|0:0,0:0:0:0:
343,186,46090,1,0,0:0:0:0:
167,182,46261,2,0,L|54:97,1,140,0|8,0:0|0:0,0:0:0:0:
346,68,46947,6,0,L|483:123,1,140,4|8,0:0|0:0,0:0:0:0:
394,189,47461,2,0,L|315:162,1,70,0|0,0:0|0:0,0:0:0:0:
246,142,47804,2,0,L|170:115,2,70,4|8|0,0:0|0:0|0:0,0:0:0:0:
425,246,48319,6,0,P|442:223|403:130,1,140,4|8,0:0|0:0,0:0:0:0:
234,135,49004,2,0,L|223:212,1,70,0|4,0:0|0:0,0:0:0:0:
313,207,49347,2,0,L|322:124,1,70,8|0,0:0|0:0,0:0:0:0:
239,283,49690,6,0,L|141:161,1,140,4|8,0:0|0:0,0:0:0:0:
242,230,50204,1,0,0:0:0:0:
159,230,50376,2,0,L|86:188,1,70,0|4,0:0|0:0,0:0:0:0:
27,160,50719,1,8,0:0:0:0:
316,234,51061,6,0,P|353:224|433:134,1,140,4|8,0:0|0:0,0:0:0:0:
345,55,51576,1,0,0:0:0:0:
429,109,51747,1,0,0:0:0:0:
246,242,52090,2,0,P|189:236|158:224,1,70,8|0,0:0|0:0,0:0:0:0:
354,173,52433,6,0,B|429:121|429:121|379:95,1,140,4|8,0:0|0:0,0:0:0:0:
222,88,53119,2,0,L|146:111,1,70,0|4,0:0|0:0,0:0:0:0:
104,199,53461,2,0,L|186:177,1,70,8|0,0:0|0:0,0:0:0:0:
351,154,53804,6,0,P|437:167|489:190,2,140,4|8|0,0:0|0:0|0:0,0:0:0:0:
188,30,54833,2,0,L|106:69,1,70,8|0,0:0|0:0,0:0:0:0:
303,89,55176,6,0,L|390:77,2,70,8|4|4,0:0|0:0|0:0,0:0:0:0:
208,177,55690,2,0,L|292:153,2,70,8|4|4,0:0|0:0|0:0,0:0:0:0:
110,158,56204,2,0,L|35:120,1,70,8|4,0:0|0:0,0:0:0:0:
220,70,56547,6,0,L|309:86,2,70,4|0|8,0:0|0:0|0:0,0:0:0:0:
118,54,57061,1,0,0:0:0:0:
218,224,57233,2,0,L|381:223,1,140,0|8,0:0|0:0,0:0:0:0:
71,93,57919,6,0,L|208:148,1,140,4|8,0:0|0:0,0:0:0:0:
289,280,58433,2,0,L|210:253,1,70,0|0,0:0|0:0,0:0:0:0:
306,168,58776,2,0,L|371:191,2,70,4|8|0,0:0|0:0|0:0,0:0:0:0:
130,150,59290,6,0,P|109:127|159:39,1,140,4|8,0:0|0:0,0:0:0:0:
312,84,59976,2,0,L|325:152,1,70,0|4,0:0|0:0,0:0:0:0:
246,219,60319,2,0,L|235:137,1,70,8|0,0:0|0:0,0:0:0:0:
340,208,60661,6,0,L|310:68,1,140,4|8,0:0|0:0,0:0:0:0:
213,84,61176,1,0,0:0:0:0:
294,73,61347,2,0,L|365:119,1,70,0|4,0:0|0:0,0:0:0:0:
421,149,61690,1,8,0:0:0:0:
133,159,62033,6,0,P|78:148|74:60,1,140,4|8,0:0|0:0,0:0:0:0:
148,55,62547,1,0,0:0:0:0:
237,54,62719,1,0,0:0:0:0:
87,222,63061,2,0,L|174:237,1,70,8|0,0:0|0:0,0:0:0:0:
338,288,63404,6,0,L|325:123,1,140,4|8,0:0|0:0,0:0:0:0:
150,88,64090,2,0,L|224:65,1,70,0|4,0:0|0:0,0:0:0:0:
133,176,64433,2,0,L|65:194,1,70,8|0,0:0|0:0,0:0:0:0:
243,216,64776,6,0,L|397:247,2,140,4|8|0,0:0|0:0|0:0,0:0:0:0:
393,57,65804,2,0,L|480:71,1,70,8|0,0:0|0:0,0:0:0:0:
282,193,66147,6,0,L|195:181,2,70,8|4|4,0:0|0:0|0:0,0:0:0:0:
382,200,66661,2,0,L|466:176,2,70,8|4|4,0:0|0:0|0:0,0:0:0:0:
282,193,67176,2,0,L|207:155,1,70,8|8,0:0|0:0,0:0:0:0:
397,110,67519,5,4,0:0:0:0:
249,296,67861,2,0,L|178:263,1,70
365,245,68204,2,0,P|402:307|348:340,1,140,8|0,0:0|0:0,0:0:0:0:
274,344,68719,1,0,0:0:0:0:
358,340,68890,6,0,P|456:333|500:295,1,140,4|0,0:0|0:0,0:0:0:0:
294,56,69576,2,0,L|389:42,1,70,8|0,0:0|0:0,0:0:0:0:
281,54,69919,2,0,L|193:65,1,70,0|0,0:0|0:0,0:0:0:0:
34,75,70261,6,0,B|5:161|5:161|83:174,1,140,4|0,0:0|0:0,0:0:0:0:
134,170,70776,1,0,0:0:0:0:
213,170,70947,2,0,L|58:218,1,140,8|0,0:0|0:0,0:0:0:0:
169,255,71461,1,0,0:0:0:0:
248,257,71633,6,0,L|345:228,1,70,4|0,0:0|0:0,0:0:0:0:
219,152,71976,1,8,0:0:0:0:
358,106,72319,2,0,L|298:128,1,52.5,0|8,0:0|0:0,0:0:0:0:
194,67,72661,2,0,L|287:35,1,70,0|4,0:0|0:0,0:0:0:0:
438,48,73004,6,0,P|491:87|429:136,1,140,4|0,0:0|0:0,0:0:0:0:
286,142,73690,1,8,0:0:0:0:
204,141,73861,1,0,0:0:0:0:
123,140,74033,1,0,0:0:0:0:
204,141,74204,1,0,0:0:0:0:
383,285,74376,6,0,P|426:266|367:201,1,140,4|0,0:0|0:0,0:0:0:0:
299,192,74890,1,0,0:0:0:0:
201,189,75061,2,0,L|357:131,1,140,8|0,0:0|0:0,0:0:0:0:
253,103,75576,1,0,0:0:0:0:
75,42,75747,6,0,P|38:88|107:143,1,140,4|0,0:0|0:0,0:0:0:0:
162,148,76261,1,0,0:0:0:0:
245,152,76433,1,8,0:0:0:0:
89,283,76776,2,0,L|20:246,1,70
205,187,77119,6,0,L|275:241,1,70,4|4,0:0|0:0,0:0:0:0:
417,183,77633,2,0,L|331:219,2,70,4|0|4,0:0|0:0|0:0,0:0:0:0:
496,139,78147,2,0,L|420:93,1,70,8|0,0:0|0:0,0:0:0:0:
257,90,78490,5,4,0:0:0:0:
102,281,78833,2,0,P|175:271|184:258,1,70,0|0,0:0|0:0,0:0:0:0:
84,119,79176,2,0,P|32:156|94:194,1,140,8|0,0:0|0:0,0:0:0:0:
157,196,79690,1,0,0:0:0:0:
249,195,79861,6,0,P|347:188|391:150,1,140,4|0,0:0|0:0,0:0:0:0:
229,304,80547,2,0,L|159:314,1,70,8|0,0:0|0:0,0:0:0:0:
86,82,80890,2,0,L|174:93,1,70,0|0,0:0|0:0,0:0:0:0:
334,76,81233,6,0,P|371:128|325:191,1,140,4|0,0:0|0:0,0:0:0:0:
257,187,81747,1,0,0:0:0:0:
336,186,81919,2,0,L|478:266,1,140,8|0,0:0|0:0,0:0:0:0:
387,263,82433,1,0,0:0:0:0:
210,263,82604,6,0,L|113:234,2,70,4|0|8,0:0|0:0|0:0,0:0:0:0:
369,270,83290,2,0,L|457:309,1,70,0|8,0:0|0:0,0:0:0:0:
354,266,83633,2,0,L|261:298,1,70,0|4,0:0|0:0,0:0:0:0:
108,163,83976,6,0,L|278:183,1,140,4|0,0:0|0:0,0:0:0:0:
400,75,84661,1,8,0:0:0:0:
329,64,84833,1,0,0:0:0:0:
242,136,85004,1,0,0:0:0:0:
174,153,85176,1,0,0:0:0:0:
353,330,85347,6,0,P|390:309|344:234,1,140,4|0,0:0|0:0,0:0:0:0:
279,234,85861,1,0,0:0:0:0:
358,234,86033,2,0,P|417:228|480:155,1,140,8|0,0:0|0:0,0:0:0:0:
184,122,86719,6,0,B|121:126|39:154,2,140,4|4|8,0:0|0:0|0:0,0:0:0:0:
269,196,87576,2,0,L|181:195,1,70,4|4,0:0|0:0,0:0:0:0:
104,188,87919,2,0,L|115:100,1,70,4|4,0:0|0:0,0:0:0:0:
397,125,88433,2,0,P|436:165|312:305,1,280,0|0,0:0|0:0,0:0:0:0:
46,141,89461,6,0,L|199:122,1,140,0|0,0:0|0:0,0:0:0:0:
344,183,90147,2,0,L|191:236,1,140,8|8,0:0|0:0,0:0:0:0:
293,255,90661,1,0,0:0:0:0:
373,274,90833,6,0,P|420:273|485:196,2,140,8|8|0,0:0|0:0|0:0,0:0:0:0:
225,268,91861,2,0,L|143:227,1,70
342,163,92204,6,0,L|471:105,1,140,0|8,0:0|0:0,0:0:0:0:
328,42,92890,2,0,L|196:87,1,140,0|8,0:0|0:0,0:0:0:0:
268,124,93404,1,0,0:0:0:0:
340,162,93576,5,8,0:0:0:0:
173,258,93919,2,0,L|324:235,1,140,8|0,0:0|0:0,0:0:0:0:
392,219,94433,2,0,L|481:200,2,70,8|0|0,0:0|0:0|0:0,0:0:0:0:
214,170,94947,5,0,0:0:0:0:
52,207,95290,2,0,L|202:174,2,140,8|8|8,0:0|0:0|0:0,0:0:0:0:
133,275,96147,1,0,0:0:0:0:
217,275,96319,6,0,L|352:216,1,140,8|8,0:0|0:0,0:0:0:0:
193,76,97004,2,0,L|107:105,1,70,0|8,0:0|0:0,0:0:0:0:
204,193,97347,2,0,L|274:169,1,70,0|0,0:0|0:0,0:0:0:0:
448,140,97690,6,0,P|501:168|451:228,1,140,8|0,0:0|0:0,0:0:0:0:
314,227,98376,1,8,0:0:0:0:
455,220,98719,2,0,L|377:171,1,70
314,227,99061,5,8,0:0:0:0:
23,219,99404,2,0,P|55:171|151:133,1,140,8|0,0:0|0:0,0:0:0:0:
215,235,99919,1,8,0:0:0:0:
127,134,100090,2,0,L|39:104,1,70
242,35,100433,6,0,L|367:111,1,140,4|0,0:0|0:0,0:0:0:0:
205,222,101119,2,0,L|108:207,2,70,4|8|0,0:0|0:0|0:0,0:0:0:0:
491,217,101804,5,4,0:0:0:0:
341,216,102147,2,0,L|242:194,1,70,8|0,0:0|0:0,0:0:0:0:
353,119,102490,2,0,L|425:94,2,70,12|8|0,0:0|0:0|0:0,0:0:0:0:
62,111,103176,5,4,0:0:0:0:
204,114,103519,1,4,0:0:0:0:
62,111,103861,1,4,0:0:0:0:
204,114,104204,1,4,0:0:0:0:
361,107,104547,6,4,L|502:131,1,140
325,216,105233,2,0,L|234:234,2,70,4|4|4,0:0|0:0|0:0,0:0:0:0:
154,84,105919,5,4,0:0:0:0:
79,83,106090,1,4,0:0:0:0:
154,84,106261,1,4,0:0:0:0:
292,85,106604,1,4,0:0:0:0:
336,84,106776,1,4,0:0:0:0:
292,85,106947,1,4,0:0:0:0:
166,226,107290,6,4,L|77:253,2,70
275,326,107976,2,4,L|191:312,2,70,4|4|4,0:0|0:0|0:0,0:0:0:0:
433,216,108661,6,0,L|343:209,1,70,4|4,0:0|0:0,0:0:0:0:
286,114,109004,2,0,L|360:89,1,70,4|4,0:0|0:0,0:0:0:0:
266,36,109347,2,0,L|186:98,1,70,4|4,0:0|0:0,0:0:0:0:
141,34,109690,2,0,L|154:120,1,70,4|4,0:0|0:0,0:0:0:0:
225,315,110033,2,0,L|240:161,2,140,4|4|4,0:0|0:0|0:0,0:0:0:0:
437,180,111404,6,0,L|520:155,2,70,4|0|8,0:0|0:0|0:0,0:0:0:0:
271,92,112090,2,0,L|271:173,1,70,0|4,0:0|0:0,0:0:0:0:
186,160,112433,2,0,L|100:143,1,70,8|0,0:0|0:0,0:0:0:0:
199,245,112776,6,0,L|335:281,1,140,4|8,0:0|0:0,0:0:0:0:
255,337,113290,1,0,0:0:0:0:
92,176,113633,2,0,L|176:176,1,70,4|8,0:0|0:0,0:0:0:0:
451,91,114147,6,0,P|381:65|302:85,1,140,4|8,0:0|0:0,0:0:0:0:
242,118,114661,1,0,0:0:0:0:
171,175,114833,2,0,P|245:200|311:182,1,140,0|8,0:0|0:0,0:0:0:0:
135,321,115519,6,0,P|92:316|54:233,1,140,4|8,0:0|0:0,0:0:0:0:
128,225,116033,1,0,0:0:0:0:
296,107,116376,2,0,L|377:93,1,70,4|8,0:0|0:0,0:0:0:0:
81,32,116890,6,0,L|152:173,1,140,4|8,0:0|0:0,0:0:0:0:
298,189,117576,2,0,L|391:170,1,70,0|4,0:0|0:0,0:0:0:0:
446,112,117919,2,0,L|356:102,1,70,8|0,0:0|0:0,0:0:0:0:
306,97,118261,6,0,P|255:92|161:151,1,140,4|8,0:0|0:0,0:0:0:0:
251,165,118776,1,0,0:0:0:0:
90,226,119119,2,0,L|-9:226,1,70,4|8,0:0|0:0,0:0:0:0:
307,170,119633,6,0,L|447:121,2,140,4|8|0,0:0|0:0|0:0,0:0:0:0:
140,195,120661,1,8,0:0:0:0:
426,221,121004,6,0,L|517:195,2,70,8|4|4,0:0|0:0|0:0,0:0:0:0:
336,136,121519,1,8,0:0:0:0:
178,135,121861,2,0,L|98:116,2,70,4|8|4,0:0|0:0|0:0,0:0:0:0:
359,207,122376,6,0,L|427:147,2,70,4|0|8,0:0|0:0|0:0,0:0:0:0:
185,57,123061,2,0,L|277:57,1,70,0|4,0:0|0:0,0:0:0:0:
343,52,123404,2,0,L|343:138,1,70,8|0,0:0|0:0,0:0:0:0:
161,187,123747,6,0,P|109:199|75:284,1,140,4|8,0:0|0:0,0:0:0:0:
158,333,124261,1,0,0:0:0:0:
319,333,124604,2,0,L|403:333,1,70,4|8,0:0|0:0,0:0:0:0:
100,92,125119,6,0,P|170:66|249:86,1,140,4|8,0:0|0:0,0:0:0:0:
311,110,125633,1,0,0:0:0:0:
235,78,125804,2,0,L|92:131,1,140,0|8,0:0|0:0,0:0:0:0:
392,66,126490,6,0,P|437:96|384:161,1,140,4|8,0:0|0:0,0:0:0:0:
326,162,127004,1,0,0:0:0:0:
167,298,127347,2,0,L|94:276,1,70,4|8,0:0|0:0,0:0:0:0:
389,198,127861,6,0,L|522:288,1,140,4|8,0:0|0:0,0:0:0:0:
345,166,128547,2,0,L|438:147,1,70,0|4,0:0|0:0,0:0:0:0:
335,83,128890,2,0,L|245:73,1,70,8|0,0:0|0:0,0:0:0:0:
86,52,129233,6,0,P|39:74|99:121,1,140,4|8,0:0|0:0,0:0:0:0:
161,131,129747,1,0,0:0:0:0:
323,135,130090,2,0,L|422:135,1,70,4|8,0:0|0:0,0:0:0:0:
102,309,130604,6,0,P|76:266|94:171,1,140,4|8,0:0|0:0,0:0:0:0:
248,142,131290,2,0,L|322:170,1,70,0|4,0:0|0:0,0:0:0:0:
379,195,131633,1,8,0:0:0:0:
89,67,131976,6,0,L|6:90,2,70,8|4|4,0:0|0:0|0:0,0:0:0:0:
155,51,132490,1,8,0:0:0:0:
323,152,132833,2,0,L|403:133,2,70,4|8|8,0:0|0:0|0:0,0:0:0:0:
145,141,133347,6,0,P|59:144|12:199,1,140,4|0,0:0|0:0,0:0:0:0:
184,284,134033,2,0,L|281:255,1,70,8|0,0:0|0:0,0:0:0:0:
170,204,134376,2,0,L|79:161,1,70
286,81,134719,6,0,P|343:57|418:83,1,140,4|0,0:0|0:0,0:0:0:0:
327,109,135233,1,0,0:0:0:0:
251,119,135404,1,8,0:0:0:0:
76,37,135747,2,0,L|63:126,1,70
244,141,136090,6,0,P|286:179|372:187,1,140,4|0,0:0|0:0,0:0:0:0:
454,163,136604,1,0,0:0:0:0:
366,188,136776,2,0,P|278:177|214:207,1,140,8|0,0:0|0:0,0:0:0:0:
316,259,137290,1,0,0:0:0:0:
494,258,137461,5,4,0:0:0:0:
345,260,137804,1,8,0:0:0:0:
186,258,138147,2,0,L|186:195,1,52.5,0|8,0:0|0:0,0:0:0:0:
295,97,138490,2,0,L|378:97,1,70,0|4,0:0|0:0,0:0:0:0:
186,95,138833,6,0,P|118:113|79:187,1,140,4|0,0:0|0:0,0:0:0:0:
242,259,139519,2,0,L|325:235,1,70,8|0,0:0|0:0,0:0:0:0:
227,147,139861,2,0,L|149:171,1,70
338,149,140204,6,0,P|384:101|333:54,1,140,4|0,0:0|0:0,0:0:0:0:
262,53,140719,2,0,L|181:52,1,70,0|8,0:0|0:0,0:0:0:0:
28,237,141233,2,0,L|121:240,1,70
278,249,141576,6,0,P|232:250|127:207,1,140,4|0,0:0|0:0,0:0:0:0:
66,156,142090,1,0,0:0:0:0:
144,219,142261,1,8,0:0:0:0:
307,135,142604,2,0,L|403:155,1,70
197,255,142947,6,0,L|197:170,1,70,4|4,0:0|0:0,0:0:0:0:
352,256,143461,1,4,0:0:0:0:
512,188,143804,2,0,L|415:188,1,70,4|8,0:0|0:0,0:0:0:0:
150,83,144319,6,0,L|16:127,1,140,4|0,0:0|0:0,0:0:0:0:
185,277,145004,2,0,L|283:259,1,70,8|0,0:0|0:0,0:0:0:0:
174,209,145347,2,0,L|85:175,1,70
287,75,145690,6,0,P|356:61|431:87,1,140,4|0,0:0|0:0,0:0:0:0:
492,123,146204,1,0,0:0:0:0:
422,80,146376,1,8,0:0:0:0:
259,209,146719,2,0,L|172:244,1,70
16,206,147061,6,0,L|165:144,1,140,4|0,0:0|0:0,0:0:0:0:
227,112,147576,1,0,0:0:0:0:
309,80,147747,2,0,P|349:121|291:183,1,140,8|0,0:0|0:0,0:0:0:0:
230,183,148261,1,0,0:0:0:0:
52,183,148433,5,4,0:0:0:0:
230,183,148776,1,8,0:0:0:0:
90,180,149119,1,0,0:0:0:0:
9,182,149290,1,8,0:0:0:0:
9,182,149461,1,0,0:0:0:0:
90,180,149633,1,4,0:0:0:0:
272,65,149804,6,0,P|330:79|417:106,1,140,4|0,0:0|0:0,0:0:0:0:
238,251,150490,2,0,L|162:208,1,70,8|0,0:0|0:0,0:0:0:0:
98,38,150833,2,0,L|175:73,1,70
341,175,151176,6,0,P|379:153|329:87,1,140,4|0,0:0|0:0,0:0:0:0:
191,88,151861,2,0,L|105:111,1,70,8|0,0:0|0:0,0:0:0:0:
201,166,152204,2,0,L|281:199,1,70
85,204,152547,6,0,P|67:142|124:75,1,140,4|4,0:0|0:0,0:0:0:0:
267,138,153233,1,8,0:0:0:0:
353,138,153404,2,0,L|443:135,2,70,4|4|4,0:0|0:0|0:0,0:0:0:0:
173,132,153919,1,4,0:0:0:0:
256,192,154261,12,0,155290,0:0:0:0:
212,127,156661,5,4,0:0:0:0:
36,254,157004,2,0,L|118:231,1,70
192,209,157347,2,0,P|244:246|182:284,1,140,8|0,0:0|0:0,0:0:0:0:
119,300,157861,1,0,0:0:0:0:
205,291,158033,6,0,L|357:220,1,140,4|0,0:0|0:0,0:0:0:0:
487,70,158719,2,0,L|488:144,1,70,8|0,0:0|0:0,0:0:0:0:
396,66,159061,2,0,L|482:66,1,70,0|0,0:0|0:0,0:0:0:0:
287,66,159404,6,0,P|206:56|135:78,1,140,4|0,0:0|0:0,0:0:0:0:
229,142,159919,1,0,0:0:0:0:
315,141,160090,2,0,L|476:206,1,140,8|0,0:0|0:0,0:0:0:0:
370,238,160604,1,0,0:0:0:0:
291,273,160776,6,0,L|202:234,2,70,4|0|0,0:0|0:0|0:0,0:0:0:0:
133,184,161461,1,8,0:0:0:0:
303,105,161804,2,0,L|359:44,1,70
171,54,162147,6,0,P|128:98|190:147,1,140,4|0,0:0|0:0,0:0:0:0:
325,158,162833,2,0,L|186:230,1,140,8|0,0:0|0:0,0:0:0:0:
47,277,163519,6,0,P|120:321|176:298,1,140,4|0,0:0|0:0,0:0:0:0:
248,255,164033,1,0,0:0:0:0:
340,181,164204,2,0,L|197:132,1,140,8|0,0:0|0:0,0:0:0:0:
139,93,164719,1,0,0:0:0:0:
317,56,164890,5,4,0:0:0:0:
455,65,165233,2,0,L|357:66,1,70
455,65,165576,1,8,0:0:0:0:
287,161,165919,2,0,L|218:124,1,70
49,93,166261,6,0,L|49:173,1,70,8|4,0:0|0:0,0:0:0:0:
229,206,166776,2,0,L|307:253,2,70,4|0|4,0:0|0:0|0:0,0:0:0:0:
141,104,167290,2,0,L|49:129,1,70,4|4,0:0|0:0,0:0:0:0:
253,112,167633,6,0,P|309:111|406:152,1,140,4|0,0:0|0:0,0:0:0:0:
226,44,168319,2,0,P|170:40|74:64,1,140,8|0,0:0|0:0,0:0:0:0:
171,117,168833,1,0,0:0:0:0:
250,176,169004,5,4,0:0:0:0:
88,57,169347,1,0,0:0:0:0:
250,176,169690,2,0,L|320:186,1,70,8|0,0:0|0:0,0:0:0:0:
243,177,170033,2,0,L|155:188,1,70,0|0,0:0|0:0,0:0:0:0:
351,230,170376,6,0,P|405:270|344:305,1,140,4|0,0:0|0:0,0:0:0:0:
285,311,170890,1,0,0:0:0:0:
201,306,171061,2,0,L|337:212,1,140,8|0,0:0|0:0,0:0:0:0:
246,185,171576,1,0,0:0:0:0:
166,80,171747,6,0,L|69:51,2,70,4|0|0,0:0|0:0|0:0,0:0:0:0:
322,72,172433,2,0,L|410:111,1,70,8|0,0:0|0:0,0:0:0:0:
308,150,172776,2,0,L|215:182,1,70
62,50,173119,6,0,L|63:194,1,140,4|0,0:0|0:0,0:0:0:0:
231,178,173804,1,8,0:0:0:0:
100,286,174147,2,0,L|168:252,1,70
248,203,174490,6,0,B|340:146|340:146|300:97,1,140,4|0,0:0|0:0,0:0:0:0:
240,59,175004,1,0,0:0:0:0:
159,59,175176,2,0,L|0:108,1,140,8|0,0:0|0:0,0:0:0:0:
108,154,175690,1,0,0:0:0:0:
288,216,175861,6,0,P|372:264|433:261,2,140,4|0|8,0:0|0:0|0:0,0:0:0:0:
107,108,176890,2,0,L|180:77,1,70
352,66,177233,5,4,0:0:0:0:
512,65,177576,1,4,0:0:0:0:
227,70,177919,1,8,0:0:0:0:
311,75,178090,2,0,L|400:98,2,70,4|4|4,0:0|0:0|0:0,0:0:0:0:
483,60,178604,1,4,0:0:0:0:
