osu file format v14

[General]
AudioFilename: audio.mp3
AudioLeadIn: 0
PreviewTime: 156576
Countdown: 0
SampleSet: Normal
StackLeniency: 0.7
Mode: 2
LetterboxInBreaks: 0
WidescreenStoryboard: 1

[Editor]
Bookmarks: 319,22261,45576,67176,67519,89461,111404,133347,153919,156661,178604
DistanceSpacing: 1.4
BeatDivisor: 4
GridSize: 8
TimelineZoom: 1

[Metadata]
Title:Ghosts
TitleUnicode:Ghosts
Artist:LukHash
ArtistUnicode:LukHash
Creator:Absolute Zero
Version:MBomb & Absolute Zero's Cup
Source:osu!
Tags:featured artist dance electronic melodic dnb drum and bass vocals english magic bomb MBomb Nelly JBHyperion JBH mapper's guild Marina Lin John Salvino
BeatmapID:2178747
BeatmapSetID:1042550

[Difficulty]
HPDrainRate:3
CircleSize:2.5
OverallDifficulty:6
ApproachRate:6
SliderMultiplier:1.2
SliderTickRate:1

[Events]
//Background and Video events
0,0,"sea-2562100_1920.jpg",0,0
//Break Periods
//Storyboard Layer 0 (Background)
//Storyboard Layer 1 (Fail)
//Storyboard Layer 2 (Pass)
//Storyboard Layer 3 (Foreground)
//Storyboard Layer 4 (Overlay)
//Storyboard Sound Samples

[TimingPoints]
319,342.857142857143,4,2,5,60,1,0
661,-100,4,2,3,60,0,0
1004,-100,4,2,7,60,0,0
1347,-100,4,2,6,60,0,0
1690,-100,4,1,69,25,0,0
3061,-100,4,2,4,60,0,0
3404,-100,4,2,3,60,0,0
3747,-100,4,2,5,60,0,0
4090,-100,4,2,7,60,0,0
4433,-100,4,1,69,25,0,0
5804,-100,4,2,1,60,0,0
6490,-100,4,2,3,60,0,0
6833,-100,4,2,2,60,0,0
7176,-100,4,1,69,25,0,0
8547,-100,4,2,2,60,0,0
9233,-100,4,2,5,60,0,0
9576,-100,4,2,7,60,0,0
9919,-100,4,1,69,25,0,0
11290,-100,4,2,5,60,0,0
11633,-100,4,2,3,60,0,0
11976,-100,4,2,7,60,0,0
12319,-100,4,2,6,60,0,0
12661,-100,4,1,69,25,0,0
12833,-100,4,2,3,60,0,0
13090,-100,4,1,69,35,0,0
13347,-100,4,2,6,60,0,0
13690,-100,4,2,7,60,0,0
13861,-100,4,2,6,60,0,0
14033,-100,4,2,4,60,0,0
14376,-100,4,2,3,60,0,0
14719,-100,4,2,5,60,0,0
15061,-100,4,2,7,60,0,0
15233,-100,4,1,69,35,0,0
16776,-100,4,2,1,60,0,0
17461,-100,4,2,3,60,0,0
17804,-100,4,2,2,60,0,0
18147,-100,4,1,69,35,0,0
19519,-100,4,2,2,60,0,0
20204,-100,4,2,5,60,0,0
20547,-100,4,2,7,60,0,0
20890,-100,4,1,69,35,0,0
22261,-100,4,1,1,25,0,0
33233,-100,4,1,1,30,0,0
35976,-100,4,1,1,35,0,0
38719,-100,4,1,1,40,0,0
41461,-100,4,1,1,45,0,0
45576,-100,4,1,99,80,0,1
45661,-100,4,3,1,55,0,1
66833,-100,4,3,2,55,0,1
67176,-100,4,3,2,55,0,0
67519,-100,4,3,1,55,0,1
89033,-100,4,3,1,30,0,1
89461,-100,4,1,99,80,0,0
89547,-100,4,1,2,50,0,0
106261,-100,4,1,2,50,0,0
107290,-100,4,1,2,27,0,0
107633,-100,4,1,2,25,0,0
108661,-100,4,1,2,23,0,0
109004,-100,4,1,2,21,0,0
109347,-100,4,1,2,19,0,0
109690,-100,4,1,2,17,0,0
110033,-100,4,1,2,15,0,0
111404,-100,4,1,99,80,0,0
111490,-100,4,3,1,40,0,0
132661,-100,4,3,2,40,0,0
133347,-100,4,1,99,80,0,1
133433,-100,4,3,1,55,0,1
153919,-100,4,1,1,60,0,0
156661,-100,4,3,1,55,0,1
178604,-100,4,1,99,40,0,0

[Colours]
Combo1 : 120,160,180
Combo2 : 150,150,150
Combo3 : 120,170,170
Combo4 : 201,201,201

[HitObjects]
176,192,319,6,0,P|48:136|192:64,1,360,2|2,0:0|0:0,0:0:0:0:
416,192,3061,2,0,L|104:8,1,360,2|2,0:0|0:0,0:0:0:0:
344,192,5804,6,0,P|472:160|352:48,1,360,2|2,0:0|0:0,0:0:0:0:
112,192,8547,6,0,P|144:296|256:352,1,240,4|4,0:0|0:0,0:0:0:0:
416,192,9919,2,0,P|384:296|272:352,1,240,0|0,0:0|0:0,0:0:0:0:
16,192,11290,6,0,P|32:136|288:40,1,360,2|2,0:0|0:0,0:0:0:0:
104,192,12833,1,8,0:0:0:0:
248,192,13347,2,0,P|312:136|320:96,1,120,4|4,0:0|0:0,0:0:0:0:
176,192,14033,6,0,L|496:24,1,360,2|2,0:0|0:0,0:0:0:0:
344,192,15404,1,0,0:0:0:0:
160,192,16090,1,0,0:0:0:0:
352,192,16776,6,0,P|464:152|320:72,1,360,2|2,0:0|0:0,0:0:0:0:
208,192,18147,2,0,P|136:152|224:72,1,240,0|0,0:0|0:0,0:0:0:0:
464,192,19519,6,0,P|432:296|320:352,1,240,4|4,0:0|0:0,0:0:0:0:
160,192,20890,2,0,L|416:192,1,240,0|0,0:0|0:0,0:0:0:0:
128,192,22261,6,4,P|56:160|152:96,1,240
280,192,23290,1,8,0:0:0:0:
104,192,23804,1,0,0:0:0:0:
312,192,24319,2,0,P|384:160|392:112,1,120,4|8,0:0|0:0,0:0:0:0:
240,192,25004,5,4,0:0:0:0:
128,192,25347,1,8,0:0:0:0:
64,192,25690,1,0,0:0:0:0:
192,192,26033,1,8,0:0:0:0:
360,192,26547,1,0,0:0:0:0:
168,192,27061,2,0,P|128:160|176:128,1,120,0|8,0:0|0:0,0:0:0:0:
328,192,27747,6,0,P|416:168|352:64,1,240,4|0,0:0|0:0,0:0:0:0:
224,192,28776,1,8,0:0:0:0:
392,192,29290,1,0,0:0:0:0:
184,192,29804,2,0,P|120:176|120:112,1,120,4|8,0:0|0:0,0:0:0:0:
256,192,30490,6,0,L|384:192,2,120,4|8|4,0:0|0:0|0:0,0:0:0:0:
120,192,31519,1,8,0:0:0:0:
280,192,32033,1,4,0:0:0:0:
480,192,32547,2,0,L|360:192,1,120,8|8,0:0|0:0,0:0:0:0:
208,192,33233,6,0,P|152:152|256:80,1,240,4|0,0:0|0:0,0:0:0:0:
388,192,34261,2,0,P|460:141|392:88,1,180,8|0,0:0|0:0,0:0:0:0:
208,192,35290,1,4,0:0:0:0:
112,192,35633,1,8,0:0:0:0:
256,192,35976,6,4,L|376:192,2,120,4|8|0,0:0|0:0|0:0,0:0:0:0:
392,192,37004,1,8,0:0:0:0:
224,192,37519,1,0,0:0:0:0:
416,192,38033,2,0,P|480:168|464:120,1,120,4|8,0:0|0:0,0:0:0:0:
312,192,38719,6,0,B|128:192|128:192|128:128,1,240,4|0,0:0|0:0,0:0:0:0:
256,192,39747,2,0,P|336:184|408:112,1,180,8|4,0:0|0:0,0:0:0:0:
208,192,40776,1,0,0:0:0:0:
344,192,41119,1,8,0:0:0:0:
168,192,41461,6,0,L|40:192,2,120,4|8|4,0:0|0:0|0:0,0:0:0:0:
320,192,42490,2,0,L|136:192,1,180,8|0,0:0|0:0,0:0:0:0:
344,192,43519,2,0,L|344:64,1,120,8|4,0:0|0:0,0:0:0:0:
344,192,44033,1,4,0:0:0:0:
344,192,45576,6,0,L|224:192,1,120,4|8,0:0|0:0,0:0:0:0:
80,192,46261,2,0,P|48:128|80:112,1,120,0|8,0:0|0:0,0:0:0:0:
232,192,46947,6,0,L|352:192,1,120,4|8,0:0|0:0,0:0:0:0:
216,192,47633,2,0,L|96:192,1,120,0|8,0:0|0:0,0:0:0:0:
264,192,48319,6,0,P|360:144|272:80,1,240,4|0,0:0|0:0,0:0:0:0:
144,192,49347,2,0,L|488:72,1,360,8|0,0:0|0:0,0:0:0:0:
216,192,51061,6,0,P|144:184|112:128,1,120,4|8,0:0|0:0,0:0:0:0:
312,192,52090,1,8,0:0:0:0:
168,192,52433,6,0,L|288:192,1,120,4|8,0:0|0:0,0:0:0:0:
480,192,53461,1,8,0:0:0:0:
320,192,53804,6,0,L|200:192,1,120,4|8,0:0|0:0,0:0:0:0:
328,192,54490,1,0,0:0:0:0:
176,192,54833,2,0,P|104:190|24:48,2,240,8|4|8,0:0|0:0|0:0,0:0:0:0:
336,192,56547,6,0,L|456:192,1,120,4|8,0:0|0:0,0:0:0:0:
320,192,57233,2,0,L|192:192,1,120,0|8,0:0|0:0,0:0:0:0:
352,192,57919,6,0,L|208:192,1,120,4|8,0:0|0:0,0:0:0:0:
96,192,58604,1,0,0:0:0:0:
232,192,58947,1,8,0:0:0:0:
392,192,59290,6,0,P|464:120|368:88,1,240,4|0,0:0|0:0,0:0:0:0:
232,192,60319,2,0,P|152:216|224:320,1,240,8|8,0:0|0:0,0:0:0:0:
424,192,61690,1,8,0:0:0:0:
264,192,62033,6,0,P|160:160|88:48,1,240,4|0,0:0|0:0,0:0:0:0:
240,192,63061,2,0,P|320:200|400:328,1,240,8|8,0:0|0:0,0:0:0:0:
272,192,64090,1,0,0:0:0:0:
408,192,64433,1,8,0:0:0:0:
256,192,64776,5,4,0:0:0:0:
120,192,65119,2,0,L|240:192,1,120,8|0,0:0|0:0,0:0:0:0:
400,192,65804,2,0,L|280:192,1,120,8|8,0:0|0:0,0:0:0:0:
424,192,66490,2,0,P|472:144|448:112,1,120,4|4,0:0|0:0,0:0:0:0:
312,192,67176,1,8,0:0:0:0:
136,192,67519,6,0,L|392:192,1,240,4|8,0:0|0:0,0:0:0:0:
248,192,68547,1,0,0:0:0:0:
104,192,68890,2,0,P|32:160|24:64,2,180,4|0|0,0:0|0:0|0:0,0:0:0:0:
272,192,70261,6,0,P|400:168|424:120,2,180,4|0|0,0:0|0:0|0:0,0:0:0:0:
120,192,71633,2,0,L|248:192,1,120,4|8,0:0|0:0,0:0:0:0:
384,192,72319,2,0,B|448:192|448:192|376:192,1,120,0|0,0:0|0:0,0:0:0:0:
304,192,72833,6,0,P|184:176|136:72,1,240,4|0,0:0|0:0,0:0:0:0:
216,192,73690,2,0,P|280:176|304:120,1,120,8|0,0:0|0:0,0:0:0:0:
144,184,74376,2,0,P|56:160|16:72,2,180,4|0|0,0:0|0:0|0:0,0:0:0:0:
288,192,75747,6,0,P|368:160|392:64,2,180,4|0|0,0:0|0:0|0:0,0:0:0:0:
152,192,77119,2,0,L|280:192,1,120,4|0,0:0|0:0,0:0:0:0:
136,192,77804,2,0,L|16:192,1,120,0|8,0:0|0:0,0:0:0:0:
96,192,78319,1,0,0:0:0:0:
184,192,78490,6,0,P|296:152|264:40,1,240,4|8,0:0|0:0,0:0:0:0:
152,192,79519,1,0,0:0:0:0:
304,192,79861,2,0,P|392:176|448:104,2,180,4|0|0,0:0|0:0|0:0,0:0:0:0:
144,192,81233,6,0,P|64:192|24:96,2,180,4|0|0,0:0|0:0|0:0,0:0:0:0:
312,192,82604,2,0,L|184:192,1,120,4|8,0:0|0:0,0:0:0:0:
40,192,83290,2,0,L|160:192,1,120,0|0,0:0|0:0,0:0:0:0:
256,192,83804,6,0,P|336:176|256:88,1,240,4|0,0:0|0:0,0:0:0:0:
200,192,84661,2,0,P|128:184|112:136,1,120,8|0,0:0|0:0,0:0:0:0:
264,192,85347,6,0,P|360:168|400:96,2,180,4|0|0,0:0|0:0|0:0,0:0:0:0:
120,192,86719,2,0,L|120:64,1,120,4|4,0:0|0:0,0:0:0:0:
272,192,87404,1,8,0:0:0:0:
128,192,87747,6,0,L|264:192,1,120,4|4,0:0|0:0,0:0:0:0:
408,192,88433,2,0,L|264:192,1,120,0|0,0:0|0:0,0:0:0:0:
136,192,89119,1,0,0:0:0:0:
304,192,89461,5,0,0:0:0:0:
414,149,89804,1,0,0:0:0:0:
414,149,90147,1,8,0:0:0:0:
304,192,90490,1,8,0:0:0:0:
168,195,90833,6,0,P|91:175|170:83,1,240,8|0,0:0|0:0,0:0:0:0:
298,82,91861,1,0,0:0:0:0:
153,305,92204,5,0,0:0:0:0:
43,230,92547,1,8,0:0:0:0:
43,230,92890,1,0,0:0:0:0:
153,305,93233,1,8,0:0:0:0:
298,308,93576,6,0,P|352:295|430:250,2,120,8|8|0,0:0|0:0|0:0,0:0:0:0:
31,113,94947,5,0,0:0:0:0:
172,113,95290,1,8,0:0:0:0:
31,113,95633,1,8,0:0:0:0:
172,113,95976,1,8,0:0:0:0:
307,112,96319,6,0,P|374:120|424:149,1,120,8|8,0:0|0:0,0:0:0:0:
272,242,97004,2,0,P|207:241|162:201,1,120,0|0,0:0|0:0,0:0:0:0:
307,112,97690,6,0,L|426:160,1,120,8|0,0:0|0:0,0:0:0:0:
294,107,98376,2,0,L|154:65,1,120,8|0,0:0|0:0,0:0:0:0:
57,156,99061,6,0,L|176:115,2,120,8|8|0,0:0|0:0|0:0,0:0:0:0:
227,229,100433,5,4,0:0:0:0:
354,277,100776,2,0,L|285:379,2,120,0|4|0,0:0|0:0|0:0,0:0:0:0:
212,73,101804,6,0,L|75:93,2,120,4|8|12,0:0|0:0|0:0,0:0:0:0:
352,53,102833,1,0,0:0:0:0:
214,220,103176,5,4,0:0:0:0:
358,224,103519,1,4,0:0:0:0:
502,223,103861,1,4,0:0:0:0:
358,224,104204,1,4,0:0:0:0:
220,212,104547,6,4,L|360:205,2,120
15,217,105919,6,4,P|68:181|140:185,1,120,4|4,0:0|0:0,0:0:0:0:
261,228,106604,2,4,P|226:255|128:272,1,120,4|4,0:0|0:0,0:0:0:0:
285,106,107290,2,4,P|346:91|418:96,2,120,4|4|4,0:0|0:0|0:0,0:0:0:0:
38,280,108661,6,0,L|55:147,1,120,4|4,0:0|0:0,0:0:0:0:
190,165,109347,2,0,L|46:165,1,120,4|4,0:0|0:0,0:0:0:0:
208,276,110033,2,0,L|329:236,1,120,4|4,0:0|0:0,0:0:0:0:
320,239,110719,1,4,0:0:0:0:
36,97,111404,6,0,L|168:132,2,120,4|8|0,0:0|0:0|0:0,0:0:0:0:
154,211,112433,1,8,0:0:0:0:
287,223,112776,6,0,P|357:224|418:188,2,120,4|8|0,0:0|0:0|0:0,0:0:0:0:
496,75,114147,6,0,L|367:38,1,120,4|8,0:0|0:0,0:0:0:0:
256,71,114833,2,0,L|383:41,1,120,0|8,0:0|0:0,0:0:0:0:
242,70,115519,6,0,P|168:83|109:65,2,120,4|8|0,0:0|0:0|0:0,0:0:0:0:
336,69,116547,1,0,0:0:0:0:
429,71,116890,6,0,P|470:139|483:198,2,120,4|8|0,0:0|0:0|0:0,0:0:0:0:
297,70,117919,1,8,0:0:0:0:
163,72,118261,2,0,L|280:129,2,120,4|8|0,0:0|0:0|0:0,0:0:0:0:
350,269,119633,6,0,L|478:226,2,120,4|8|0,0:0|0:0|0:0,0:0:0:0:
225,307,120661,1,8,0:0:0:0:
97,309,121004,6,0,L|223:246,1,120,8|4,0:0|0:0,0:0:0:0:
267,215,121519,2,0,L|137:164,1,120,8|4,0:0|0:0,0:0:0:0:
100,140,122033,1,8,0:0:0:0:
236,136,122376,6,0,P|299:130|358:160,2,120,4|8|0,0:0|0:0|0:0,0:0:0:0:
361,58,123404,1,8,0:0:0:0:
236,50,123747,2,0,P|160:62|106:89,1,120,4|8,0:0|0:0,0:0:0:0:
121,79,124433,1,0,0:0:0:0:
351,269,125119,6,0,L|475:213,1,120,4|8,0:0|0:0,0:0:0:0:
334,102,125804,2,0,L|214:150,1,120,0|8,0:0|0:0,0:0:0:0:
75,210,126490,6,0,P|30:249|67:304,1,120,4|8,0:0|0:0,0:0:0:0:
109,301,127004,1,0,0:0:0:0:
171,305,127176,1,0,0:0:0:0:
304,310,127519,1,8,0:0:0:0:
176,67,127861,6,0,P|121:91|107:153,2,120,4|8|0,0:0|0:0|0:0,0:0:0:0:
314,65,128890,1,8,0:0:0:0:
176,177,129233,6,0,P|110:180|42:194,2,120,4|8|0,0:0|0:0|0:0,0:0:0:0:
466,314,130604,6,0,L|467:189,1,120,4|8,0:0|0:0,0:0:0:0:
336,188,131290,2,0,L|213:154,1,120,0|8,0:0|0:0,0:0:0:0:
341,72,131976,6,0,P|414:56|463:78,1,120,8|4,0:0|0:0,0:0:0:0:
393,144,132490,2,0,L|278:203,1,120,8|4,0:0|0:0,0:0:0:0:
228,240,133004,1,8,0:0:0:0:
405,257,133347,6,0,L|265:258,1,120,4|0,0:0|0:0,0:0:0:0:
435,208,134033,2,0,P|455:155|438:81,1,120,8|0,0:0|0:0,0:0:0:0:
304,80,134719,6,0,L|426:82,1,120,4|0,0:0|0:0,0:0:0:0:
302,56,135404,2,0,L|167:55,1,120,8|0,0:0|0:0,0:0:0:0:
36,55,136090,6,0,B|-5:121|-5:121|134:221,1,240,4|8,0:0|0:0,0:0:0:0:
274,216,137119,1,0,0:0:0:0:
431,213,137461,2,0,L|310:194,1,120,4|8,0:0|0:0,0:0:0:0:
491,95,138276,1,8,0:0:0:0:
267,95,138833,6,0,L|140:104,2,120,4|0|8,0:0|0:0|0:0,0:0:0:0:
407,85,139861,1,0,0:0:0:0:
265,195,140204,6,0,L|143:211,2,120,4|0|8,0:0|0:0|0:0,0:0:0:0:
496,279,141576,6,0,L|376:279,2,120,4|0|8,0:0|0:0|0:0,0:0:0:0:
357,137,142604,1,0,0:0:0:0:
208,132,142947,5,4,0:0:0:0:
138,129,143119,2,0,P|103:187|156:210,1,120,4|4,0:0|0:0,0:0:0:0:
277,214,143804,2,0,L|355:214,1,60,4|8,0:0|0:0,0:0:0:0:
486,66,144319,6,0,L|360:97,1,120,4|0,0:0|0:0,0:0:0:0:
225,93,145004,2,0,L|361:52,1,120,8|0,0:0|0:0,0:0:0:0:
195,171,145690,6,0,L|51:171,1,120,4|0,0:0|0:0,0:0:0:0:
202,284,146376,1,8,0:0:0:0:
346,280,146719,1,0,0:0:0:0:
185,182,147061,6,0,P|101:152|192:97,1,240,4|8,0:0|0:0,0:0:0:0:
330,88,148090,2,0,B|413:141|413:141|285:234,1,240,0|8,0:0|0:0,0:0:0:0:
104,234,149290,1,8,0:0:0:0:
320,236,149804,6,0,P|397:222|316:151,1,240,4|8,0:0|0:0,0:0:0:0:
157,155,150833,2,0,P|73:169|-20:302,1,240,0|0,0:0|0:0,0:0:0:0:
126,289,151861,1,8,0:0:0:0:
293,287,152204,1,0,0:0:0:0:
152,285,152547,5,4,0:0:0:0:
296,208,152890,2,0,L|416:208,1,120,4|8,0:0|0:0,0:0:0:0:
280,91,153576,2,0,L|200:91,2,60,4|4|4,0:0|0:0|0:0,0:0:0:0:
256,192,154261,12,0,155290,0:0:0:0:
96,44,156661,6,0,P|38:85|129:198,1,240,4|8,0:0|0:0,0:0:0:0:
247,192,157690,1,0,0:0:0:0:
391,195,158033,6,0,L|504:144,2,120,4|0|8,0:0|0:0|0:0,0:0:0:0:
208,65,159061,6,0,P|135:86|214:183,1,240,0|0,0:0|0:0,0:0:0:0:
349,181,160090,2,0,L|202:180,1,120,8|0,0:0|0:0,0:0:0:0:
377,294,160776,6,0,L|493:248,1,120,4|0,0:0|0:0,0:0:0:0:
351,64,161461,2,0,P|292:57|212:79,1,120,8|0,0:0|0:0,0:0:0:0:
171,103,161976,5,0,0:0:0:0:
234,146,162147,2,0,L|369:138,1,120,4|0,0:0|0:0,0:0:0:0:
204,285,162833,2,0,P|104:284|81:261,1,120,8|0,0:0|0:0,0:0:0:0:
244,194,163519,6,0,L|382:152,1,120,4|0,0:0|0:0,0:0:0:0:
203,67,164204,2,0,P|160:59|68:75,1,120,8|0,0:0|0:0,0:0:0:0:
231,257,164890,6,0,L|110:255,1,120,4|0,0:0|0:0,0:0:0:0:
256,102,165576,1,8,0:0:0:0:
388,101,165919,1,0,0:0:0:0:
239,182,166261,6,0,L|110:160,1,120,8|0,0:0|0:0,0:0:0:0:
268,262,166947,2,0,L|388:262,1,120,0|4,0:0|0:0,0:0:0:0:
321,181,167461,1,4,0:0:0:0:
246,88,167633,6,0,P|155:76|46:172,1,240,4|8,0:0|0:0,0:0:0:0:
197,195,168661,1,0,0:0:0:0:
329,214,169004,6,0,L|213:258,2,120,4|0|8,0:0|0:0|0:0,0:0:0:0:
478,117,170033,6,0,P|414:80|256:126,1,240,0|0,0:0|0:0,0:0:0:0:
113,192,171061,2,0,L|260:191,1,120,8|0,0:0|0:0,0:0:0:0:
372,138,171747,6,0,L|239:104,1,120,4|0,0:0|0:0,0:0:0:0:
110,267,172433,2,0,L|227:223,1,120,8|0,0:0|0:0,0:0:0:0:
277,180,172947,5,0,0:0:0:0:
221,149,173119,2,0,L|89:110,1,120,4|0,0:0|0:0,0:0:0:0:
276,62,173804,2,0,P|342:45|421:48,1,120,8|0,0:0|0:0,0:0:0:0:
252,239,174490,6,0,L|251:118,1,120,4|0,0:0|0:0,0:0:0:0:
96,50,175176,2,0,P|139:42|231:58,1,120,8|0,0:0|0:0,0:0:0:0:
364,54,175861,6,0,L|243:52,1,120,4|0,0:0|0:0,0:0:0:0:
394,139,176547,2,0,P|431:164|386:225,1,120,8|0,0:0|0:0,0:0:0:0:
275,222,177233,6,0,L|146:200,1,120,4|4,0:0|0:0,0:0:0:0:
292,91,177919,2,0,L|412:91,1,120,8|4,0:0|0:0,0:0:0:0:
338,171,178433,1,4,0:0:0:0:
251,236,178604,1,4,0:0:0:0:
