osu file format v14

[General]
AudioFilename: audio.mp3
AudioLeadIn: 0
PreviewTime: 156576
Countdown: 0
SampleSet: Drum
StackLeniency: 0.7
Mode: 2
LetterboxInBreaks: 0
WidescreenStoryboard: 1

[Editor]
Bookmarks: 319,22261,45576,67176,67519,89461,111404,133347,153919,156661,178604
DistanceSpacing: 1.4
BeatDivisor: 4
GridSize: 4
TimelineZoom: 1.7

[Metadata]
Title:Ghosts
TitleUnicode:Ghosts
Artist:LukHash
ArtistUnicode:LukHash
Creator:Absolute Zero
Version:Absolute Zero & Hyperion's Overdose
Source:osu!
Tags:featured artist dance electronic melodic dnb drum and bass vocals english magic bomb MBomb Nelly JBHyperion JBH mapper's guild Marina Lin John Salvino
BeatmapID:2182574
BeatmapSetID:1042550

[Difficulty]
HPDrainRate:6
CircleSize:5.2
OverallDifficulty:9.2
ApproachRate:9.2
SliderMultiplier:2.1
SliderTickRate:1

[Events]
//Background and Video events
0,0,"sea-2562100_1920.jpg",0,0
//Break Periods
//Storyboard Layer 0 (Background)
//Storyboard Layer 1 (Fail)
//Storyboard Layer 2 (Pass)
//Storyboard Layer 3 (Foreground)
//Storyboard Layer 4 (Overlay)
//Storyboard Sound Samples

[TimingPoints]
319,342.857142857143,4,2,5,60,1,0
661,-100,4,2,3,60,0,0
1004,-100,4,2,7,60,0,0
1347,-100,4,2,6,60,0,0
1690,-100,4,1,69,25,0,0
3061,-100,4,2,4,60,0,0
3404,-100,4,2,3,60,0,0
3747,-100,4,2,5,60,0,0
4090,-100,4,2,7,60,0,0
4433,-100,4,1,69,25,0,0
5804,-100,4,2,1,60,0,0
6490,-100,4,2,3,60,0,0
6833,-100,4,2,2,60,0,0
7176,-100,4,1,69,25,0,0
8547,-100,4,2,2,60,0,0
9233,-100,4,2,5,60,0,0
9576,-100,4,2,7,60,0,0
9919,-100,4,1,69,25,0,0
11290,-100,4,2,5,60,0,0
11633,-100,4,2,3,60,0,0
11976,-100,4,2,7,60,0,0
12319,-100,4,2,6,60,0,0
12661,-100,4,1,69,25,0,0
12833,-100,4,2,3,60,0,0
13090,-100,4,1,69,35,0,0
13347,-100,4,2,6,60,0,0
13690,-100,4,2,7,60,0,0
13861,-100,4,2,6,60,0,0
14033,-100,4,2,4,60,0,0
14376,-100,4,2,3,60,0,0
14719,-100,4,2,5,60,0,0
15061,-100,4,2,7,60,0,0
15233,-100,4,1,69,35,0,0
16776,-100,4,2,1,60,0,0
17461,-100,4,2,3,60,0,0
17804,-100,4,2,2,60,0,0
18147,-100,4,1,69,35,0,0
19519,-100,4,2,2,60,0,0
20204,-100,4,2,5,60,0,0
20547,-100,4,2,7,60,0,0
20890,-100,4,1,69,35,0,0
22261,-100,4,1,1,25,0,0
33233,-100,4,1,1,30,0,0
35976,-100,4,1,1,35,0,0
38719,-100,4,1,1,40,0,0
41461,-100,4,1,1,45,0,0
45576,-100,4,1,99,80,0,1
45661,-100,4,3,1,55,0,1
66833,-100,4,3,2,55,0,1
67176,-100,4,3,2,55,0,0
67519,-100,4,3,1,55,0,1
89033,-100,4,3,1,30,0,1
89461,-100,4,1,99,80,0,0
89547,-100,4,1,2,50,0,0
106261,-100,4,1,2,50,0,0
107290,-100,4,1,2,27,0,0
107633,-100,4,1,2,25,0,0
108661,-100,4,1,2,23,0,0
109004,-100,4,1,2,21,0,0
109347,-100,4,1,2,19,0,0
109690,-100,4,1,2,17,0,0
110033,-100,4,1,2,15,0,0
111404,-100,4,1,99,80,0,0
111490,-100,4,3,1,40,0,0
132661,-100,4,3,2,40,0,0
133347,-100,4,1,99,80,0,1
133433,-100,4,3,1,55,0,1
153919,-100,4,1,1,60,0,0
156661,-100,4,3,1,55,0,1
178604,-100,4,1,99,40,0,0

[Colours]
Combo1 : 120,160,180
Combo2 : 150,150,150
Combo3 : 120,170,170
Combo4 : 201,201,201

[HitObjects]
77,186,319,6,0,B|251:64|251:64|80:186|80:186|252:62,1,630,2|2,0:0|0:0,0:0:0:0:
103,68,1690,2,0,L|103:183,1,105
213,68,2033,2,0,L|213:181,1,105
93,69,2376,2,0,L|264:192,1,210,0|0,0:0|0:0,0:0:0:0:
484,300,3061,6,0,B|301:194|301:194|484:296|484:296|285:189,1,630,2|2,0:0|0:0,0:0:0:0:
194,299,4261,1,0,0:0:0:0:
278,70,4433,2,0,L|448:192,2,210,0|0|0,0:0|0:0|0:0,0:0:0:0:
58,76,5804,6,0,B|220:185|220:185|381:34|381:34|313:257,1,630,2|2,0:0|0:0,0:0:0:0:
109,231,7176,2,0,L|108:120,1,105,0|0,0:0|0:0,0:0:0:0:
220,116,7519,1,0,0:0:0:0:
447,118,7861,2,0,L|256:32,1,210,0|0,0:0|0:0,0:0:0:0:
492,192,8547,6,0,P|424:232|328:160,1,210,4|2,0:0|0:0,0:0:0:0:
75,63,9233,2,0,B|29:133|31:132|160:208,1,210,4|2,0:0|0:0,0:0:0:0:
386,268,9919,2,0,B|268:210|268:210|208:60|208:60|92:112,1,420
431,167,11290,6,0,B|226:57|226:57|104:172|73:196|73:196|104:168|226:36,1,630,2|2,0:0|0:0,0:0:0:0:
397,176,12661,1,0,0:0:0:0:
218,73,12833,2,0,P|146:119|211:206,1,210,8|0,0:0|0:0,0:0:0:0:
358,213,13347,2,0,B|449:272|447:273|324:344,1,210,4|4,0:0|0:0,0:0:0:0:
241,358,13861,1,4,0:0:0:0:
104,212,14033,6,0,B|277:314|277:314|416:153|416:153|293:377,1,630,2|2,0:0|0:0,0:0:0:0:
204,160,15233,1,0,0:0:0:0:
100,120,15404,2,0,P|40:176|125:226,1,210,0|0,0:0|0:0,0:0:0:0:
206,238,15919,2,0,L|88:268,1,105,0|0,0:0|0:0,0:0:0:0:
324,236,16433,1,0,0:0:0:0:
104,95,16776,6,0,B|282:196|282:196|101:95|101:95|292:201,1,630,2|2,0:0|0:0,0:0:0:0:
101,310,18147,2,0,B|104:192|104:192|200:192,1,210,0|0,0:0|0:0,0:0:0:0:
317,257,18661,2,0,L|424:228,1,105,0|0,0:0|0:0,0:0:0:0:
208,181,19176,1,0,0:0:0:0:
424,120,19519,6,0,P|371:79|232:56,1,210,4|2,0:0|0:0,0:0:0:0:
27,222,20204,2,0,P|118:260|216:220,1,210,4|2,0:0|0:0,0:0:0:0:
440,72,20890,2,0,B|264:182|264:182|432:318,1,420,0|0,0:0|0:0,0:0:0:0:
52,280,22261,6,4,L|48:68,1,210,4|8,0:0|0:0,0:0:0:0:
264,52,22947,2,0,L|156:52,1,105,0|4,0:0|0:0,0:0:0:0:
336,52,23290,2,0,L|340:160,1,105,8|0,0:0|0:0,0:0:0:0:
224,156,23633,1,4,0:0:0:0:
412,156,23804,2,0,P|476:220|412:304,1,210,0|0,0:0|0:0,0:0:0:0:
232,304,24319,2,0,L|224:192,1,105,4|4,0:0|0:0,0:0:0:0:
340,200,24661,1,8,0:0:0:0:
212,200,24833,1,0,0:0:0:0:
404,200,25004,6,0,B|404:96|404:96|296:96,1,210,4|8,0:0|0:0,0:0:0:0:
108,96,25690,2,0,L|212:96,1,105,4|4,0:0|0:0,0:0:0:0:
32,96,26033,1,8,0:0:0:0:
221,96,26376,1,4,0:0:0:0:
44,96,26547,2,0,L|40:200,1,105,0|8,0:0|0:0,0:0:0:0:
136,200,26890,1,0,0:0:0:0:
312,200,27061,2,0,L|208:200,1,105,4|4,0:0|0:0,0:0:0:0:
312,200,27404,2,0,L|424:200,1,105,8|4,0:0|0:0,0:0:0:0:
228,200,27747,6,4,B|124:200|124:200|124:312,1,210,4|8,0:0|0:0,0:0:0:0:
312,304,28433,2,0,L|216:256,2,105,0|4|8,0:0|0:0|0:0,0:0:0:0:
124,304,29119,1,4,0:0:0:0:
304,304,29290,2,0,L|308:200,1,105,0|8,0:0|0:0,0:0:0:0:
204,192,29633,1,0,0:0:0:0:
384,192,29804,2,0,L|180:136,1,210,4|8,0:0|0:0,0:0:0:0:
288,136,30319,1,4,0:0:0:0:
104,136,30490,6,0,L|96:352,1,210,4|8,0:0|0:0,0:0:0:0:
308,348,31176,1,4,0:0:0:0:
204,348,31347,1,4,0:0:0:0:
20,348,31519,1,8,0:0:0:0:
208,232,31861,2,0,L|212:120,1,105,8|4,0:0|0:0,0:0:0:0:
106,127,32204,2,0,L|218:127,1,105,4|8,0:0|0:0,0:0:0:0:
400,128,32547,2,0,L|404:16,1,105,8|4,0:0|0:0,0:0:0:0:
288,24,32890,1,8,0:0:0:0:
392,24,33061,1,4,0:0:0:0:
136,24,33233,6,0,P|56:80|120:136,1,210,4|8,0:0|0:0,0:0:0:0:
220,136,33747,1,0,0:0:0:0:
388,136,33919,2,0,L|392:188,2,52.5,0|0|4,0:0|0:0|0:0,0:0:0:0:
204,136,34261,2,0,L|200:248,1,105,8|0,0:0|0:0,0:0:0:0:
304,240,34604,1,4,0:0:0:0:
132,240,34776,2,0,L|336:192,1,210,0|0,0:0|0:0,0:0:0:0:
152,192,35290,2,0,L|256:168,1,105,4|4,0:0|0:0,0:0:0:0:
148,168,35633,1,8,0:0:0:0:
272,168,35804,1,4,0:0:0:0:
88,168,35976,6,4,L|80:380,1,210,4|8,0:0|0:0,0:0:0:0:
268,380,36661,2,0,L|160:380,1,105,0|4,0:0|0:0,0:0:0:0:
348,380,37004,2,0,L|352:272,1,105,8|0,0:0|0:0,0:0:0:0:
248,276,37347,1,4,0:0:0:0:
432,276,37519,2,0,P|496:224|432:140,1,210,0|0,0:0|0:0,0:0:0:0:
256,136,38033,2,4,L|252:32,1,105,4|4,0:0|0:0,0:0:0:0:
424,32,38376,2,0,L|312:32,1,105,8|0,0:0|0:0,0:0:0:0:
136,32,38719,6,0,L|320:136,1,210,4|8,0:0|0:0,0:0:0:0:
412,136,39233,1,0,0:0:0:0:
296,136,39404,1,0,0:0:0:0:
294,188,39490,1,0,0:0:0:0:
292,240,39576,1,4,0:0:0:0:
468,240,39747,1,8,0:0:0:0:
292,240,40090,1,4,0:0:0:0:
468,240,40261,1,0,0:0:0:0:
364,240,40433,2,0,L|360:296,1,52.5,8|0,0:0|0:0,0:0:0:0:
436,292,40604,2,0,L|432:344,1,52.5,0|0,0:0|0:0,0:0:0:0:
320,344,40776,2,0,L|316:240,1,105,8|4,0:0|0:0,0:0:0:0:
496,196,41119,1,8,0:0:0:0:
496,144,41204,1,0,0:0:0:0:
456,108,41290,1,4,0:0:0:0:
404,108,41376,1,0,0:0:0:0:
220,108,41461,6,8,L|104:108,1,105,4|0,0:0|0:0,0:0:0:0:
228,108,41804,2,0,L|236:56,2,52.5,8|0|0,0:0|0:0|0:0,0:0:0:0:
48,32,42147,2,0,L|156:32,1,105,4|4,0:0|0:0,0:0:0:0:
336,32,42490,2,0,L|340:88,1,52.5,8|0,0:0|0:0,0:0:0:0:
264,84,42661,2,0,L|268:148,1,52.5,0|0,0:0|0:0,0:0:0:0:
380,136,42833,2,0,L|484:100,2,105,8|0|4,0:0|0:0|0:0,0:0:0:0:
208,136,43347,1,4,0:0:0:0:
472,136,43519,2,0,L|476:244,1,105,8|4,0:0|0:0,0:0:0:0:
212,240,43861,1,4,0:0:0:0:
380,240,44033,1,4,0:0:0:0:
101,98,45576,6,0,L|101:212,1,105,4|0,0:0|0:0,0:0:0:0:
327,207,45919,1,8,0:0:0:0:
176,200,46090,1,0,0:0:0:0:
131,171,46176,1,0,0:0:0:0:
288,156,46261,2,0,L|419:136,1,105,0|4,0:0|0:0,0:0:0:0:
165,66,46604,1,8,0:0:0:0:
108,131,46690,2,0,L|202:156,2,52.5,0|0|0,0:0|0:0|0:0,0:0:0:0:
263,274,46947,5,4,0:0:0:0:
159,277,47119,1,0,0:0:0:0:
387,257,47290,2,0,L|400:192,1,52.5,8|0,0:0|0:0,0:0:0:0:
316,261,47461,2,0,L|290:192,1,52.5,0|0,0:0|0:0,0:0:0:0:
438,117,47633,1,0,0:0:0:0:
488,119,47719,1,0,0:0:0:0:
438,117,47804,1,4,0:0:0:0:
212,126,47976,2,0,L|335:83,1,105,8|0,0:0|0:0,0:0:0:0:
258,112,48233,1,0,0:0:0:0:
414,176,48319,6,0,P|434:230|404:290,1,105,4|0,0:0|0:0,0:0:0:0:
195,275,48661,1,8,0:0:0:0:
310,275,48833,2,0,L|238:324,1,52.5,0|0,0:0|0:0,0:0:0:0:
325,335,49004,2,0,L|394:285,2,52.5,0|0|4,0:0|0:0|0:0,0:0:0:0:
98,335,49347,1,8,0:0:0:0:
242,333,49519,2,0,L|312:281,1,52.5,0|0,0:0|0:0,0:0:0:0:
100,114,49690,6,0,P|77:169|100:216,1,105,4|0,0:0|0:0,0:0:0:0:
319,213,50033,1,8,0:0:0:0:
173,98,50204,2,0,L|163:159,1,52.5,0|0,0:0|0:0,0:0:0:0:
236,160,50376,2,0,L|246:99,1,52.5,0|0,0:0|0:0,0:0:0:0:
173,98,50547,1,4,0:0:0:0:
400,261,50719,2,0,L|501:191,1,105,8|4,0:0|0:0,0:0:0:0:
436,167,50976,1,0,0:0:0:0:
280,246,51061,6,0,L|157:195,1,105,4|0,0:0|0:0,0:0:0:0:
415,244,51404,1,8,0:0:0:0:
463,223,51490,1,0,0:0:0:0:
462,168,51576,1,0,0:0:0:0:
417,143,51661,1,0,0:0:0:0:
349,144,51747,1,0,0:0:0:0:
301,144,51833,1,0,0:0:0:0:
349,144,51919,1,4,0:0:0:0:
120,149,52090,1,8,0:0:0:0:
232,144,52261,2,0,L|158:121,1,52.5,0|0,0:0|0:0,0:0:0:0:
341,208,52433,6,0,L|456:255,1,105,4|0,0:0|0:0,0:0:0:0:
212,133,52776,1,8,0:0:0:0:
329,133,52947,1,0,0:0:0:0:
384,163,53033,1,0,0:0:0:0:
409,207,53119,1,0,0:0:0:0:
384,163,53204,1,0,0:0:0:0:
329,133,53290,1,4,0:0:0:0:
103,131,53461,1,8,0:0:0:0:
244,248,53633,2,0,L|189:230,1,52.5,0|0,0:0|0:0,0:0:0:0:
349,249,53804,6,0,L|350:124,1,105,4|0,0:0|0:0,0:0:0:0:
205,137,54147,1,8,0:0:0:0:
153,163,54233,1,0,0:0:0:0:
154,221,54319,1,0,0:0:0:0:
206,246,54404,1,0,0:0:0:0:
276,247,54490,1,0,0:0:0:0:
328,227,54576,1,0,0:0:0:0:
331,178,54661,1,4,0:0:0:0:
281,148,54747,1,0,0:0:0:0:
430,151,54833,1,8,0:0:0:0:
318,150,55004,2,0,L|264:114,1,52.5,0|0,0:0|0:0,0:0:0:0:
63,120,55176,5,8,0:0:0:0:
197,121,55347,1,4,0:0:0:0:
63,120,55519,2,0,L|63:172,1,52.5,4|0,0:0|0:0,0:0:0:0:
223,232,55690,1,8,0:0:0:0:
90,232,55861,2,0,L|90:297,1,52.5,4|0,0:0|0:0,0:0:0:0:
158,287,56033,1,4,0:0:0:0:
386,283,56204,1,8,0:0:0:0:
264,284,56376,2,0,L|326:306,1,52.5,4|0,0:0|0:0,0:0:0:0:
496,283,56547,6,0,L|399:324,1,105,4|0,0:0|0:0,0:0:0:0:
145,216,56890,1,8,0:0:0:0:
282,222,57061,1,0,0:0:0:0:
332,199,57147,1,0,0:0:0:0:
177,85,57233,2,0,L|176:203,1,105,0|4,0:0|0:0,0:0:0:0:
404,87,57576,1,8,0:0:0:0:
357,105,57661,2,0,L|263:130,2,52.5,0|0|0,0:0|0:0|0:0,0:0:0:0:
211,227,57919,5,4,0:0:0:0:
318,225,58090,1,0,0:0:0:0:
93,164,58261,2,0,L|149:162,1,52.5,8|0,0:0|0:0,0:0:0:0:
197,165,58433,2,0,L|197:90,1,52.5,0|0,0:0|0:0,0:0:0:0:
136,111,58604,1,0,0:0:0:0:
85,110,58690,1,0,0:0:0:0:
136,111,58776,1,4,0:0:0:0:
357,120,58947,2,0,L|357:8,1,105,8|0,0:0|0:0,0:0:0:0:
309,16,59204,1,0,0:0:0:0:
465,226,59290,6,0,L|343:202,1,105,4|0,0:0|0:0,0:0:0:0:
135,220,59633,1,8,0:0:0:0:
254,223,59804,2,0,L|168:260,1,52.5,0|0,0:0|0:0,0:0:0:0:
254,223,59976,2,0,L|339:181,2,52.5,0|0|4,0:0|0:0|0:0,0:0:0:0:
32,224,60319,2,0,L|28:168,1,52.5,8|0,0:0|0:0,0:0:0:0:
201,223,60490,2,0,L|270:223,1,52.5,0|0,0:0|0:0,0:0:0:0:
112,141,60661,5,4,0:0:0:0:
246,140,60833,1,0,0:0:0:0:
19,135,61004,1,8,0:0:0:0:
156,68,61176,1,0,0:0:0:0:
205,95,61261,1,0,0:0:0:0:
225,139,61347,1,0,0:0:0:0:
205,95,61433,1,0,0:0:0:0:
156,68,61519,1,4,0:0:0:0:
384,291,61690,2,0,L|492:237,1,105,8|4,0:0|0:0,0:0:0:0:
406,200,61947,1,0,0:0:0:0:
250,46,62033,6,0,L|127:78,1,105,4|0,0:0|0:0,0:0:0:0:
305,256,62376,1,8,0:0:0:0:
361,233,62461,1,0,0:0:0:0:
363,179,62547,1,0,0:0:0:0:
313,158,62633,1,0,0:0:0:0:
242,152,62719,1,0,0:0:0:0:
191,155,62804,1,0,0:0:0:0:
138,158,62890,1,4,0:0:0:0:
409,247,63061,1,8,0:0:0:0:
303,249,63233,2,0,L|229:226,1,52.5,0|0,0:0|0:0,0:0:0:0:
410,56,63404,6,0,P|430:116|402:125,1,105,4|0,0:0|0:0,0:0:0:0:
179,118,63747,1,8,0:0:0:0:
305,126,63919,2,0,L|360:154,1,52.5,0|0,0:0|0:0,0:0:0:0:
288,55,64090,1,0,0:0:0:0:
234,54,64176,1,0,0:0:0:0:
179,53,64261,1,4,0:0:0:0:
405,64,64433,1,8,0:0:0:0:
277,201,64604,2,0,L|361:190,1,52.5,0|0,0:0|0:0,0:0:0:0:
170,214,64776,6,0,L|61:234,1,105,4|0,0:0|0:0,0:0:0:0:
297,322,65119,2,0,L|424:295,1,105,8|0,0:0|0:0,0:0:0:0:
329,274,65376,1,0,0:0:0:0:
277,253,65461,1,0,0:0:0:0:
252,214,65547,1,0,0:0:0:0:
268,169,65633,1,4,0:0:0:0:
317,144,65719,1,0,0:0:0:0:
479,146,65804,1,8,0:0:0:0:
431,123,65976,2,0,L|492:93,1,52.5,0|0,0:0|0:0,0:0:0:0:
314,102,66147,5,8,0:0:0:0:
180,103,66319,1,4,0:0:0:0:
314,102,66490,2,0,L|314:154,1,52.5,4|0,0:0|0:0,0:0:0:0:
154,214,66661,1,8,0:0:0:0:
308,220,66833,2,0,L|345:182,1,52.5,4|4,0:0|0:0,0:0:0:0:
173,288,67004,2,0,L|130:246,1,52.5,4|4,0:0|0:0,0:0:0:0:
334,278,67176,2,0,L|384:239,1,52.5,8|8,0:0|0:0,0:0:0:0:
173,187,67347,2,0,L|129:153,1,52.5,8|8,0:0|0:0,0:0:0:0:
324,88,67519,6,0,L|329:193,1,105,4|0,0:0|0:0,0:0:0:0:
156,156,67861,1,0,0:0:0:0:
164,96,67947,1,0,0:0:0:0:
208,52,68033,1,0,0:0:0:0:
268,40,68119,1,0,0:0:0:0:
436,40,68204,2,0,L|324:40,1,105,8|0,0:0|0:0,0:0:0:0:
276,40,68461,1,0,0:0:0:0:
340,40,68547,2,0,L|392:40,1,52.5,0|0,0:0|0:0,0:0:0:0:
392,104,68719,2,0,L|336:104,1,52.5,0|0,0:0|0:0,0:0:0:0:
185,115,68890,6,0,L|249:205,1,105,4|0,0:0|0:0,0:0:0:0:
404,208,69233,2,0,L|352:192,1,52.5,0|0,0:0|0:0,0:0:0:0:
412,280,69404,2,0,L|464:264,1,52.5,0|0,0:0|0:0,0:0:0:0:
292,280,69576,2,0,L|176:280,1,105,8|0,0:0|0:0,0:0:0:0:
244,280,69833,1,0,0:0:0:0:
180,280,69919,1,0,0:0:0:0:
140,232,70004,1,0,0:0:0:0:
164,176,70090,1,0,0:0:0:0:
228,176,70176,1,0,0:0:0:0:
64,176,70261,6,0,L|60:60,1,105,4|0,0:0|0:0,0:0:0:0:
228,72,70604,2,0,L|232:12,1,52.5,0|0,0:0|0:0,0:0:0:0:
160,72,70776,2,0,L|156:16,1,52.5,0|0,0:0|0:0,0:0:0:0:
332,20,70947,1,8,0:0:0:0:
236,20,71119,2,0,L|232:80,1,52.5,0|0,0:0|0:0,0:0:0:0:
296,72,71290,1,0,0:0:0:0:
352,100,71376,1,0,0:0:0:0:
380,156,71461,1,0,0:0:0:0:
384,220,71547,1,0,0:0:0:0:
243,128,71633,6,0,L|180:220,1,105,4|0,0:0|0:0,0:0:0:0:
444,220,71976,2,0,L|384:220,1,52.5,8|0,0:0|0:0,0:0:0:0:
392,284,72147,2,0,L|452:284,1,52.5,0|0,0:0|0:0,0:0:0:0:
380,284,72319,1,0,0:0:0:0:
156,284,72447,2,0,L|72:284,1,78.75,8|0,0:0|0:0,0:0:0:0:
168,284,72661,1,0,0:0:0:0:
224,260,72747,1,0,0:0:0:0:
224,196,72833,1,4,0:0:0:0:
164,172,72919,1,0,0:0:0:0:
320,172,73004,6,0,L|432:172,1,105,4|0,0:0|0:0,0:0:0:0:
256,172,73347,2,0,L|252:108,1,52.5,0|0,0:0|0:0,0:0:0:0:
332,100,73519,2,0,L|328:48,1,52.5,0|0,0:0|0:0,0:0:0:0:
160,52,73690,1,8,0:0:0:0:
155,116,73776,1,0,0:0:0:0:
195,164,73861,1,0,0:0:0:0:
256,172,73947,1,0,0:0:0:0:
156,192,74033,2,0,L|104:192,1,52.5,0|0,0:0|0:0,0:0:0:0:
156,256,74204,2,0,L|208:256,1,52.5,0|0,0:0|0:0,0:0:0:0:
368,256,74376,6,0,L|372:376,1,105,4|0,0:0|0:0,0:0:0:0:
204,360,74719,2,0,L|256:360,1,52.5,0|0,0:0|0:0,0:0:0:0:
192,360,74890,2,0,L|188:304,1,52.5,0|0,0:0|0:0,0:0:0:0:
348,256,75061,1,8,0:0:0:0:
379,195,75147,1,0,0:0:0:0:
355,132,75233,1,0,0:0:0:0:
292,107,75319,1,0,0:0:0:0:
238,256,75404,1,0,0:0:0:0:
206,195,75490,1,0,0:0:0:0:
230,132,75576,1,0,0:0:0:0:
292,107,75661,1,0,0:0:0:0:
128,108,75747,6,0,L|12:108,1,105,4|0,0:0|0:0,0:0:0:0:
196,108,76090,2,0,L|200:48,1,52.5,0|0,0:0|0:0,0:0:0:0:
100,24,76261,2,0,L|48:24,1,52.5,0|0,0:0|0:0,0:0:0:0:
216,56,76433,2,0,L|320:56,1,105,8|0,0:0|0:0,0:0:0:0:
264,56,76690,1,0,0:0:0:0:
208,56,76776,1,0,0:0:0:0:
160,92,76861,1,0,0:0:0:0:
160,152,76947,1,0,0:0:0:0:
208,188,77033,1,0,0:0:0:0:
352,192,77119,6,0,L|356:264,1,52.5,4|0,0:0|0:0,0:0:0:0:
252,192,77290,2,0,L|256:256,1,52.5,4|0,0:0|0:0,0:0:0:0:
312,244,77461,2,0,L|316:192,1,52.5,0|0,0:0|0:0,0:0:0:0:
212,192,77633,1,4,0:0:0:0:
153,223,77719,1,0,0:0:0:0:
153,289,77804,1,0,0:0:0:0:
212,320,77890,1,0,0:0:0:0:
312,320,77976,2,0,L|316:264,1,52.5,4|0,0:0|0:0,0:0:0:0:
160,224,78147,2,0,L|119:193,1,52.5,8|0,0:0|0:0,0:0:0:0:
219,193,78319,2,0,L|175:161,1,52.5,0|0,0:0|0:0,0:0:0:0:
20,164,78490,6,0,L|16:60,1,105,4|0,0:0|0:0,0:0:0:0:
184,56,78833,1,0,0:0:0:0:
244,64,78919,1,0,0:0:0:0:
288,108,79004,1,0,0:0:0:0:
300,168,79090,1,0,0:0:0:0:
136,168,79176,2,0,L|24:168,1,105,8|0,0:0|0:0,0:0:0:0:
88,168,79433,1,0,0:0:0:0:
152,168,79519,2,0,L|204:168,1,52.5,0|0,0:0|0:0,0:0:0:0:
204,104,79690,2,0,L|148:104,1,52.5,0|0,0:0|0:0,0:0:0:0:
320,108,79861,6,0,L|324:228,1,105,4|0,0:0|0:0,0:0:0:0:
156,212,80204,2,0,L|208:196,1,52.5,0|0,0:0|0:0,0:0:0:0:
264,248,80376,2,0,L|212:232,1,52.5,0|0,0:0|0:0,0:0:0:0:
51,212,80547,2,0,L|167:212,1,105,8|0,0:0|0:0,0:0:0:0:
212,196,80804,1,0,0:0:0:0:
51,212,80890,1,0,0:0:0:0:
11,260,80976,1,0,0:0:0:0:
48,312,81061,1,0,0:0:0:0:
108,312,81147,1,0,0:0:0:0:
272,312,81233,6,0,L|376:312,1,105,4|0,0:0|0:0,0:0:0:0:
204,312,81576,2,0,L|200:256,1,52.5,0|0,0:0|0:0,0:0:0:0:
260,260,81747,2,0,L|192:260,1,52.5,0|0,0:0|0:0,0:0:0:0:
48,264,81919,1,8,0:0:0:0:
48,208,82004,1,0,0:0:0:0:
88,164,82090,1,0,0:0:0:0:
144,164,82176,1,0,0:0:0:0:
96,164,82261,1,0,0:0:0:0:
52,144,82347,1,0,0:0:0:0:
32,100,82433,1,0,0:0:0:0:
32,52,82519,1,0,0:0:0:0:
200,164,82604,6,0,L|204:52,1,105,4|0,0:0|0:0,0:0:0:0:
468,64,82947,1,8,0:0:0:0:
416,64,83033,1,0,0:0:0:0:
416,64,83119,1,0,0:0:0:0:
468,64,83204,1,0,0:0:0:0:
304,64,83290,2,0,L|300:128,1,52.5,0|0,0:0|0:0,0:0:0:0:
360,144,83461,2,0,L|412:144,1,52.5,8|0,0:0|0:0,0:0:0:0:
244,116,83633,2,0,L|240:176,1,52.5,0|0,0:0|0:0,0:0:0:0:
440,204,83804,2,0,L|388:204,1,52.5,4|0,0:0|0:0,0:0:0:0:
228,168,83976,6,0,L|124:168,1,105,4|0,0:0|0:0,0:0:0:0:
292,256,84319,2,0,L|240:256,1,52.5,0|0,0:0|0:0,0:0:0:0:
180,256,84490,2,0,L|176:308,1,52.5,0|0,0:0|0:0,0:0:0:0:
340,308,84661,2,0,L|448:308,1,105,8|0,0:0|0:0,0:0:0:0:
396,289,84919,1,0,0:0:0:0:
369,245,85004,1,0,0:0:0:0:
374,194,85090,1,0,0:0:0:0:
410,156,85176,1,0,0:0:0:0:
460,148,85261,1,0,0:0:0:0:
300,144,85347,6,0,L|180:144,1,105,4|0,0:0|0:0,0:0:0:0:
364,144,85690,2,0,L|368:84,1,52.5,0|0,0:0|0:0,0:0:0:0:
296,84,85861,2,0,L|292:32,1,52.5,0|0,0:0|0:0,0:0:0:0:
456,32,86033,2,0,B|456:84|456:84|404:92,1,105,8|0,0:0|0:0,0:0:0:0:
344,92,86290,1,0,0:0:0:0:
240,92,86376,1,0,0:0:0:0:
181,123,86461,1,0,0:0:0:0:
181,189,86547,1,0,0:0:0:0:
240,220,86633,1,0,0:0:0:0:
396,220,86719,6,0,L|400:336,1,105,4|0,0:0|0:0,0:0:0:0:
228,324,87061,2,0,L|176:324,1,52.5,4|0,0:0|0:0,0:0:0:0:
240,324,87233,2,0,L|244:268,1,52.5,0|0,0:0|0:0,0:0:0:0:
76,232,87404,2,0,L|72:176,1,52.5,8|0,0:0|0:0,0:0:0:0:
176,192,87576,2,0,L|180:136,1,52.5,4|0,0:0|0:0,0:0:0:0:
340,140,87747,2,0,L|392:140,1,52.5,4|0,0:0|0:0,0:0:0:0:
292,72,87919,2,0,L|356:72,1,52.5,4|0,0:0|0:0,0:0:0:0:
452,72,88090,6,0,L|456:176,1,105,4|0,0:0|0:0,0:0:0:0:
104,180,88433,2,0,P|36:232|100:312,1,210
216,312,88947,1,0,0:0:0:0:
48,312,89119,2,0,L|152:312,1,105,0|0,0:0|0:0,0:0:0:0:
428,312,89461,5,0,0:0:0:0:
215,307,89804,2,0,L|65:254,1,157.5,0|0,0:0|0:0,0:0:0:0:
121,219,90147,1,8,0:0:0:0:
367,218,90490,2,0,P|406:174|343:79,1,157.5,8|0,0:0|0:0,0:0:0:0:
227,91,90833,5,8,0:0:0:0:
463,89,91176,2,0,L|468:204,1,105,8|0,0:0|0:0,0:0:0:0:
385,139,91433,1,0,0:0:0:0:
468,88,91519,2,0,L|467:156,1,52.5,0|0,0:0|0:0,0:0:0:0:
361,266,91690,1,8,0:0:0:0:
298,251,91776,1,0,0:0:0:0:
274,210,91861,1,0,0:0:0:0:
274,210,91947,1,8,0:0:0:0:
298,251,92033,1,0,0:0:0:0:
361,266,92119,1,8,0:0:0:0:
181,274,92204,5,0,0:0:0:0:
404,179,92547,2,0,P|440:138|367:59,1,157.5,8|0,0:0|0:0,0:0:0:0:
345,59,92890,1,0,0:0:0:0:
141,68,93233,6,0,P|77:57|31:90,1,105,8|0,0:0|0:0,0:0:0:0:
104,120,93490,1,0,0:0:0:0:
273,120,93576,5,8,0:0:0:0:
40,113,93919,2,0,L|36:224,1,105,8|0,0:0|0:0,0:0:0:0:
107,216,94176,1,8,0:0:0:0:
47,113,94261,2,0,L|31:195,1,52.5,0|0,0:0|0:0,0:0:0:0:
131,164,94433,1,8,0:0:0:0:
173,179,94519,1,0,0:0:0:0:
197,218,94604,1,0,0:0:0:0:
197,218,94690,1,8,0:0:0:0:
173,179,94776,1,0,0:0:0:0:
131,164,94861,1,8,0:0:0:0:
303,316,94947,6,0,B|392:230|392:230|303:159,1,210,0|8,0:0|0:0,0:0:0:0:
198,172,95461,2,0,L|139:130,1,52.5,0|0,0:0|0:0,0:0:0:0:
247,102,95633,1,8,0:0:0:0:
15,107,95976,2,0,L|139:174,1,105,8|0,0:0|0:0,0:0:0:0:
159,182,96233,1,0,0:0:0:0:
362,145,96319,6,0,P|300:92|186:137,1,210,8|8,0:0|0:0,0:0:0:0:
126,64,96747,1,0,0:0:0:0:
83,95,96833,1,0,0:0:0:0:
66,135,96919,1,0,0:0:0:0:
83,95,97004,1,0,0:0:0:0:
126,64,97090,1,0,0:0:0:0:
221,254,97176,2,0,L|230:185,1,52.5,8|0,0:0|0:0,0:0:0:0:
150,191,97347,2,0,L|144:122,1,52.5,0|8,0:0|0:0,0:0:0:0:
231,192,97519,2,0,L|242:138,1,52.5,0|8,0:0|0:0,0:0:0:0:
87,193,97690,6,0,P|15:250|83:330,1,210,8|0,0:0|0:0,0:0:0:0:
178,334,98204,1,0,0:0:0:0:
227,333,98290,1,0,0:0:0:0:
393,111,98376,2,0,P|322:64|224:129,1,210,8|0,0:0|0:0,0:0:0:0:
338,200,98890,1,0,0:0:0:0:
392,215,98976,1,0,0:0:0:0:
218,78,99061,6,0,P|330:40|424:80,1,210,8|8,0:0|0:0,0:0:0:0:
364,84,99490,1,0,0:0:0:0:
344,118,99576,1,0,0:0:0:0:
343,162,99661,1,8,0:0:0:0:
373,189,99747,1,0,0:0:0:0:
415,212,99833,1,0,0:0:0:0:
308,311,99919,2,0,L|207:312,1,52.5,8|0,0:0|0:0,0:0:0:0:
201,262,100090,2,0,L|258:261,1,52.5,0|0,0:0|0:0,0:0:0:0:
205,206,100261,2,0,L|134:203,1,52.5,0|0,0:0|0:0,0:0:0:0:
340,57,100433,6,0,B|376:103|376:103|197:172,1,210,4|0,0:0|0:0,0:0:0:0:
180,190,100861,1,0,0:0:0:0:
183,235,100947,1,0,0:0:0:0:
239,258,101033,1,0,0:0:0:0:
323,261,101119,2,0,L|387:261,1,52.5,4|0,0:0|0:0,0:0:0:0:
453,258,101290,2,0,L|388:258,1,52.5,8|0,0:0|0:0,0:0:0:0:
311,99,101461,1,0,0:0:0:0:
260,124,101547,1,0,0:0:0:0:
261,175,101633,1,0,0:0:0:0:
309,194,101719,1,0,0:0:0:0:
154,73,101804,6,0,P|91:131|183:207,1,210,4|8,0:0|0:0,0:0:0:0:
209,225,102233,1,0,0:0:0:0:
258,238,102319,1,0,0:0:0:0:
209,225,102404,1,0,0:0:0:0:
288,335,102490,1,12,0:0:0:0:
348,311,102576,1,0,0:0:0:0:
342,257,102661,1,8,0:0:0:0:
286,236,102747,1,0,0:0:0:0:
194,237,102833,2,0,L|173:167,1,52.5,0|0,0:0|0:0,0:0:0:0:
245,236,103004,2,0,L|254:173,1,52.5,0|0,0:0|0:0,0:0:0:0:
74,74,103176,6,0,P|130:54|274:107,2,210,4|4|4,0:0|0:0|0:0,0:0:0:0:
267,165,104204,1,4,0:0:0:0:
498,172,104547,2,4,P|434:132|288:119,2,210
363,243,105404,2,0,L|486:240,1,105,4|4,0:0|0:0,0:0:0:0:
37,147,105919,6,4,L|158:150,1,105
309,211,106261,2,4,L|175:258,1,105
368,214,106604,2,4,L|459:287,1,105,4|4,0:0|0:0,0:0:0:0:
312,68,106947,2,4,L|385:158,1,105,4|4,0:0|0:0,0:0:0:0:
247,250,107290,6,4,L|171:137,1,105,4|4,0:0|0:0,0:0:0:0:
75,61,107633,2,4,L|96:179,1,105,4|4,0:0|0:0,0:0:0:0:
242,65,107976,2,4,L|250:182,3,105,4|4|4|4,0:0|0:0|0:0|0:0,0:0:0:0:
121,243,108661,5,4,0:0:0:0:
60,218,108747,1,4,0:0:0:0:
56,159,108833,1,4,0:0:0:0:
120,128,108919,1,4,0:0:0:0:
189,127,109004,2,0,L|213:178,1,52.5,4|4,0:0|0:0,0:0:0:0:
155,181,109176,2,0,L|128:126,1,52.5,4|4,0:0|0:0,0:0:0:0:
188,48,109347,1,4,0:0:0:0:
235,63,109433,1,4,0:0:0:0:
275,76,109519,1,4,0:0:0:0:
312,104,109604,1,4,0:0:0:0:
344,136,109690,1,4,0:0:0:0:
359,178,109776,1,4,0:0:0:0:
341,222,109861,1,4,0:0:0:0:
309,244,109947,1,4,0:0:0:0:
271,263,110033,2,0,P|373:245|482:263,2,210,4|0|0,0:0|0:0|0:0,0:0:0:0:
176,192,111404,6,0,L|124:192,2,52.5,4|0|0,0:0|0:0|0:0,0:0:0:0:
232,192,111661,1,0,0:0:0:0:
60,192,111747,1,8,0:0:0:0:
68,128,111833,1,0,0:0:0:0:
108,80,111919,1,0,0:0:0:0:
168,64,112004,1,0,0:0:0:0:
100,64,112090,2,0,L|48:64,2,52.5,0|0|4,0:0|0:0|0:0,0:0:0:0:
164,64,112347,1,0,0:0:0:0:
332,64,112433,2,0,L|336:124,1,52.5,8|0,0:0|0:0,0:0:0:0:
272,116,112604,2,0,L|220:116,1,52.5,0|0,0:0|0:0,0:0:0:0:
392,116,112776,6,0,L|396:224,1,105,4|0,0:0|0:0,0:0:0:0:
116,220,113119,2,0,L|112:296,1,52.5,8|0,0:0|0:0,0:0:0:0:
176,272,113290,2,0,L|228:272,1,52.5,0|0,0:0|0:0,0:0:0:0:
164,272,113461,1,0,0:0:0:0:
228,272,113547,1,0,0:0:0:0:
292,272,113633,1,4,0:0:0:0:
228,272,113719,1,0,0:0:0:0:
400,272,113804,1,8,0:0:0:0:
457,238,113890,1,0,0:0:0:0:
450,173,113976,1,0,0:0:0:0:
388,151,114061,1,0,0:0:0:0:
208,152,114147,6,0,L|92:152,1,105,4|0,0:0|0:0,0:0:0:0:
168,152,114404,1,0,0:0:0:0:
344,152,114490,2,0,L|392:132,3,52.5,8|0|0|0,0:0|0:0|0:0|0:0,0:0:0:0:
316,108,114833,1,0,0:0:0:0:
375,138,114919,1,0,0:0:0:0:
377,205,115004,1,4,0:0:0:0:
320,239,115090,1,0,0:0:0:0:
144,240,115176,2,0,L|204:240,1,52.5,8|0,0:0|0:0,0:0:0:0:
260,240,115347,2,0,L|264:296,1,52.5,0|0,0:0|0:0,0:0:0:0:
72,292,115519,6,0,L|68:184,1,105,4|0,0:0|0:0,0:0:0:0:
340,188,115861,1,8,0:0:0:0:
395,150,115947,1,0,0:0:0:0:
395,83,116033,1,0,0:0:0:0:
338,48,116119,1,0,0:0:0:0:
412,48,116204,2,0,L|360:48,1,52.5,0|0,0:0|0:0,0:0:0:0:
436,48,116376,2,0,L|492:48,1,52.5,4|0,0:0|0:0,0:0:0:0:
300,48,116547,2,0,L|296:104,1,52.5,8|0,0:0|0:0,0:0:0:0:
372,100,116719,2,0,L|316:100,1,52.5,0|0,0:0|0:0,0:0:0:0:
128,92,116890,6,0,L|24:92,1,105,4|0,0:0|0:0,0:0:0:0:
296,192,117233,2,0,L|348:192,1,52.5,8|0,0:0|0:0,0:0:0:0:
284,192,117404,2,0,L|228:192,1,52.5,0|0,0:0|0:0,0:0:0:0:
416,192,117576,2,0,L|420:248,1,52.5,0|0,0:0|0:0,0:0:0:0:
356,248,117747,2,0,L|300:248,1,52.5,4|0,0:0|0:0,0:0:0:0:
480,244,117919,1,8,0:0:0:0:
472,312,118004,1,0,0:0:0:0:
428,365,118090,1,0,0:0:0:0:
361,384,118176,1,0,0:0:0:0:
184,384,118261,6,0,L|180:280,1,105,4|0,0:0|0:0,0:0:0:0:
456,244,118604,2,0,L|396:244,1,52.5,8|0,0:0|0:0,0:0:0:0:
340,192,118776,2,0,L|392:192,2,52.5,0|0|0,0:0|0:0|0:0,0:0:0:0:
164,192,119033,2,0,L|112:192,2,52.5,0|4|0,0:0|0:0|0:0,0:0:0:0:
228,192,119290,2,0,L|172:192,1,52.5,8|0,0:0|0:0,0:0:0:0:
240,192,119461,2,0,L|292:192,1,52.5,0|0,0:0|0:0,0:0:0:0:
104,192,119633,6,0,L|100:88,1,105,4|0,0:0|0:0,0:0:0:0:
376,88,119976,1,8,0:0:0:0:
363,155,120061,1,0,0:0:0:0:
309,197,120147,1,0,0:0:0:0:
240,192,120233,1,0,0:0:0:0:
314,196,120319,2,0,L|321:255,1,52.5,0|0,0:0|0:0,0:0:0:0:
236,248,120490,2,0,L|240:304,1,52.5,4|0,0:0|0:0,0:0:0:0:
64,300,120661,2,0,L|68:244,1,52.5,8|0,0:0|0:0,0:0:0:0:
140,248,120833,2,0,L|192:248,1,52.5,0|0,0:0|0:0,0:0:0:0:
16,192,121004,6,0,L|120:192,2,105,8|4|4,0:0|0:0|0:0,0:0:0:0:
80,192,121433,1,0,0:0:0:0:
260,192,121519,2,0,L|312:192,1,52.5,8|0,0:0|0:0,0:0:0:0:
248,192,121690,1,4,0:0:0:0:
186,167,121776,1,0,0:0:0:0:
185,101,121861,1,4,0:0:0:0:
246,75,121947,1,0,0:0:0:0:
428,76,122033,2,0,L|364:76,1,52.5,8|0,0:0|0:0,0:0:0:0:
440,140,122204,2,0,L|388:140,1,52.5,4|0,0:0|0:0,0:0:0:0:
186,167,122376,6,0,L|80:168,1,105,4|0,0:0|0:0,0:0:0:0:
356,168,122719,2,0,L|360:228,1,52.5,8|0,0:0|0:0,0:0:0:0:
276,220,122890,2,0,L|280:276,1,52.5,0|0,0:0|0:0,0:0:0:0:
360,220,123061,1,0,0:0:0:0:
349,151,123147,1,0,0:0:0:0:
301,103,123233,1,4,0:0:0:0:
233,93,123319,1,0,0:0:0:0:
416,92,123404,2,0,L|468:92,1,52.5,8|0,0:0|0:0,0:0:0:0:
402,152,123576,2,0,L|350:152,1,52.5,0|0,0:0|0:0,0:0:0:0:
168,152,123747,6,0,L|164:48,1,105,4|0,0:0|0:0,0:0:0:0:
440,48,124090,2,0,L|444:104,1,52.5,8|0,0:0|0:0,0:0:0:0:
380,100,124261,2,0,L|328:100,1,52.5,0|0,0:0|0:0,0:0:0:0:
264,100,124433,1,0,0:0:0:0:
330,119,124519,1,0,0:0:0:0:
377,170,124604,1,4,0:0:0:0:
392,237,124690,1,0,0:0:0:0:
216,236,124776,1,8,0:0:0:0:
224,164,124861,1,0,0:0:0:0:
276,112,124947,1,0,0:0:0:0:
346,100,125033,1,0,0:0:0:0:
168,100,125119,6,0,L|64:100,1,105,4|0,0:0|0:0,0:0:0:0:
346,100,125461,2,0,L|344:164,1,52.5,8|0,0:0|0:0,0:0:0:0:
280,152,125633,2,0,L|208:152,1,52.5,0|0,0:0|0:0,0:0:0:0:
292,152,125804,2,0,L|296:96,1,52.5,0|0,0:0|0:0,0:0:0:0:
232,100,125976,2,0,L|228:48,1,52.5,4|0,0:0|0:0,0:0:0:0:
408,48,126147,1,8,0:0:0:0:
467,78,126233,1,0,0:0:0:0:
467,145,126319,1,0,0:0:0:0:
408,176,126404,1,0,0:0:0:0:
224,176,126490,6,0,L|112:176,1,105,4|0,0:0|0:0,0:0:0:0:
396,176,126833,2,0,L|400:240,1,52.5,8|0,0:0|0:0,0:0:0:0:
336,228,127004,2,0,L|388:228,2,52.5,0|0|0,0:0|0:0|0:0,0:0:0:0:
160,228,127261,1,0,0:0:0:0:
216,228,127347,1,4,0:0:0:0:
272,228,127433,1,0,0:0:0:0:
92,228,127519,2,0,L|40:228,1,52.5,8|0,0:0|0:0,0:0:0:0:
104,288,127690,2,0,L|44:288,1,52.5,4|0,0:0|0:0,0:0:0:0:
240,288,127861,5,4,0:0:0:0:
308,280,127947,1,0,0:0:0:0:
352,228,128033,1,0,0:0:0:0:
356,164,128119,1,0,0:0:0:0:
180,164,128204,2,0,L|176:108,1,52.5,8|0,0:0|0:0,0:0:0:0:
244,112,128376,2,0,L|296:112,1,52.5,0|0,0:0|0:0,0:0:0:0:
116,48,128547,2,0,L|188:48,1,52.5,0|0,0:0|0:0,0:0:0:0:
244,112,128719,2,0,L|184:112,1,52.5,4|0,0:0|0:0,0:0:0:0:
376,112,128890,1,8,0:0:0:0:
434,144,128976,1,0,0:0:0:0:
436,211,129061,1,0,0:0:0:0:
379,247,129147,1,0,0:0:0:0:
200,248,129233,6,0,L|196:304,1,52.5,4|0,0:0|0:0,0:0:0:0:
260,332,129404,2,0,L|264:280,1,52.5,0|0,0:0|0:0,0:0:0:0:
80,300,129576,1,8,0:0:0:0:
20,269,129661,1,0,0:0:0:0:
19,203,129747,1,0,0:0:0:0:
78,171,129833,1,0,0:0:0:0:
264,172,129919,1,0,0:0:0:0:
78,171,130004,2,0,L|24:172,2,52.5,0|4|0,0:0|0:0|0:0,0:0:0:0:
288,172,130261,2,0,L|340:172,1,52.5,8|0,0:0|0:0,0:0:0:0:
128,172,130433,2,0,L|124:104,1,52.5,0|0,0:0|0:0,0:0:0:0:
364,172,130604,6,0,L|468:172,1,105,4|0,0:0|0:0,0:0:0:0:
412,172,130861,1,0,0:0:0:0:
212,172,130947,1,8,0:0:0:0:
143,161,131033,1,0,0:0:0:0:
91,116,131119,1,0,0:0:0:0:
84,48,131204,1,0,0:0:0:0:
192,48,131290,2,0,L|196:100,1,52.5
91,116,131461,2,0,L|36:116,1,52.5,4|0,0:0|0:0,0:0:0:0:
244,100,131633,2,0,L|300:100,1,52.5,8|0,0:0|0:0,0:0:0:0:
224,100,131804,2,0,L|220:156,1,52.5,0|0,0:0|0:0,0:0:0:0:
400,152,131976,5,8,0:0:0:0:
232,152,132147,1,4,0:0:0:0:
380,152,132319,1,4,0:0:0:0:
88,152,132490,2,0,B|180:204,1,105,8|4,0:0|0:0,0:0:0:0:
240,204,132747,1,4,0:0:0:0:
60,204,132833,2,4,L|112:204,1,52.5,4|4,0:0|0:0,0:0:0:0:
151,172,133004,1,8,0:0:0:0:
148,100,133090,1,8,0:0:0:0:
106,94,133176,1,8,0:0:0:0:
59,112,133261,1,8,0:0:0:0:
241,110,133347,6,0,L|370:95,2,105,4|0|0,0:0|0:0|0:0,0:0:0:0:
183,129,133776,1,0,0:0:0:0:
186,179,133861,1,0,0:0:0:0:
248,198,133947,1,0,0:0:0:0:
407,207,134033,2,0,L|411:280,1,52.5,8|0,0:0|0:0,0:0:0:0:
339,205,134204,2,0,L|337:267,1,52.5,0|0,0:0|0:0,0:0:0:0:
396,323,134376,2,0,L|407:254,1,52.5,0|0,0:0|0:0,0:0:0:0:
478,325,134547,2,0,L|469:259,1,52.5,0|0,0:0|0:0,0:0:0:0:
304,83,134719,6,0,L|181:108,1,105,4|0,0:0|0:0,0:0:0:0:
304,83,135061,1,0,0:0:0:0:
360,114,135147,1,0,0:0:0:0:
363,168,135233,1,0,0:0:0:0:
304,197,135319,1,0,0:0:0:0:
143,202,135404,1,8,0:0:0:0:
81,225,135490,1,0,0:0:0:0:
78,287,135576,1,0,0:0:0:0:
142,300,135661,1,0,0:0:0:0:
224,298,135747,2,0,L|232:237,1,52.5,0|0,0:0|0:0,0:0:0:0:
157,297,135919,2,0,L|155:233,1,52.5,0|0,0:0|0:0,0:0:0:0:
324,139,136090,6,0,P|392:139|430:167,1,105,4|0,0:0|0:0,0:0:0:0:
265,258,136433,2,0,L|197:238,1,52.5,0|0,0:0|0:0,0:0:0:0:
279,172,136604,2,0,L|348:198,1,52.5,0|0,0:0|0:0,0:0:0:0:
117,220,136776,1,8,0:0:0:0:
56,192,136861,1,0,0:0:0:0:
18,160,136947,1,0,0:0:0:0:
54,128,137033,1,0,0:0:0:0:
141,40,137119,1,0,0:0:0:0:
200,68,137204,1,0,0:0:0:0:
198,125,137290,1,0,0:0:0:0:
141,151,137376,1,0,0:0:0:0:
295,152,137461,6,0,L|386:248,1,105,4|0,0:0|0:0,0:0:0:0:
136,254,137804,2,0,L|140:194,1,52.5,8|0,0:0|0:0,0:0:0:0:
221,256,137976,2,0,L|216:195,1,52.5,0|0,0:0|0:0,0:0:0:0:
142,124,138147,1,0,0:0:0:0:
342,121,138276,1,8,0:0:0:0:
438,129,138404,2,0,L|387:150,1,52.5,0|0,0:0|0:0,0:0:0:0:
316,184,138576,2,0,L|252:210,2,52.5,0|4|0,0:0|0:0|0:0,0:0:0:0:
153,89,138833,6,0,L|24:74,2,105,4|0|0,0:0|0:0|0:0,0:0:0:0:
205,99,139261,1,0,0:0:0:0:
256,108,139347,1,0,0:0:0:0:
205,99,139433,1,0,0:0:0:0:
365,64,139519,2,0,L|433:65,1,52.5,8|0,0:0|0:0,0:0:0:0:
471,122,139690,2,0,L|404:122,1,52.5,0|0,0:0|0:0,0:0:0:0:
324,215,139861,2,0,L|323:149,1,52.5,0|0,0:0|0:0,0:0:0:0:
387,216,140033,2,0,L|383:151,1,52.5,0|0,0:0|0:0,0:0:0:0:
211,85,140204,6,0,L|88:110,1,105,4|0,0:0|0:0,0:0:0:0:
229,199,140547,1,0,0:0:0:0:
284,232,140633,1,0,0:0:0:0:
284,276,140719,1,0,0:0:0:0:
228,310,140804,1,0,0:0:0:0:
63,315,140890,2,0,L|61:252,1,52.5,8|0,0:0|0:0,0:0:0:0:
137,216,141061,2,0,L|138:274,1,52.5,0|0,0:0|0:0,0:0:0:0:
55,82,141233,2,0,L|110:80,1,52.5,0|0,0:0|0:0,0:0:0:0:
166,130,141404,2,0,L|109:135,1,52.5,0|0,0:0|0:0,0:0:0:0:
276,123,141576,6,0,P|344:123|382:151,1,105,4|0,0:0|0:0,0:0:0:0:
273,323,141919,1,0,0:0:0:0:
204,303,142004,1,0,0:0:0:0:
205,243,142090,1,0,0:0:0:0:
268,213,142176,1,0,0:0:0:0:
438,213,142261,1,8,0:0:0:0:
491,213,142347,1,0,0:0:0:0:
494,266,142433,1,0,0:0:0:0:
439,268,142519,1,0,0:0:0:0:
348,77,142604,2,0,L|405:78,1,52.5
464,72,142776,2,0,L|412:78,1,52.5,0|0,0:0|0:0,0:0:0:0:
246,69,142947,6,0,L|357:88,1,105,4|4,0:0|0:0,0:0:0:0:
247,120,143290,1,0,0:0:0:0:
195,145,143376,1,0,0:0:0:0:
59,156,143461,1,4,0:0:0:0:
22,181,143547,1,0,0:0:0:0:
57,204,143633,1,0,0:0:0:0:
308,205,143804,1,4,0:0:0:0:
260,205,143890,1,0,0:0:0:0:
438,135,143976,1,8,0:0:0:0:
486,155,144061,1,0,0:0:0:0:
438,135,144147,1,0,0:0:0:0:
204,284,144319,6,0,L|83:249,1,105,4|0,0:0|0:0,0:0:0:0:
206,220,144661,1,0,0:0:0:0:
256,190,144747,1,0,0:0:0:0:
253,138,144833,1,0,0:0:0:0:
200,117,144919,1,0,0:0:0:0:
42,117,145004,2,0,L|32:197,1,52.5,8|0,0:0|0:0,0:0:0:0:
99,185,145176,2,0,L|45:185,1,52.5,0|0,0:0|0:0,0:0:0:0:
126,242,145347,2,0,L|126:327,1,52.5,0|0,0:0|0:0,0:0:0:0:
190,244,145519,2,0,L|256:244,1,52.5,0|0,0:0|0:0,0:0:0:0:
404,135,145690,6,0,P|347:113|288:142,1,105,4|0,0:0|0:0,0:0:0:0:
199,161,146033,1,0,0:0:0:0:
142,177,146119,1,0,0:0:0:0:
87,195,146204,1,0,0:0:0:0:
142,177,146290,1,0,0:0:0:0:
304,299,146376,1,8,0:0:0:0:
360,273,146461,1,0,0:0:0:0:
360,223,146547,1,0,0:0:0:0:
307,200,146633,1,0,0:0:0:0:
237,106,146719,2,0,L|226:173,1,52.5,0|0,0:0|0:0,0:0:0:0:
299,107,146890,2,0,L|306:184,1,52.5,0|0,0:0|0:0,0:0:0:0:
144,153,147061,6,0,P|76:153|38:181,1,105,4|0,0:0|0:0,0:0:0:0:
213,283,147404,1,0,0:0:0:0:
271,258,147490,1,0,0:0:0:0:
272,203,147576,1,0,0:0:0:0:
211,183,147661,1,0,0:0:0:0:
368,128,147747,2,0,L|433:128,1,52.5,8|0,0:0|0:0,0:0:0:0:
368,74,147919,2,0,L|284:74,1,52.5,0|0,0:0|0:0,0:0:0:0:
154,72,148090,2,0,L|154:130,1,52.5,0|0,0:0|0:0,0:0:0:0:
222,70,148261,2,0,L|168:72,1,52.5,0|0,0:0|0:0,0:0:0:0:
323,187,148433,6,0,L|469:187,1,105,4|0,0:0|0:0,0:0:0:0:
192,346,148776,1,8,0:0:0:0:
137,319,148861,1,0,0:0:0:0:
133,261,148947,1,0,0:0:0:0:
193,236,149033,1,0,0:0:0:0:
254,212,149119,1,0,0:0:0:0:
193,236,149204,1,0,0:0:0:0:
386,242,149290,2,0,L|453:243,1,52.5,8|0,0:0|0:0,0:0:0:0:
370,242,149461,2,0,L|315:243,1,52.5,0|0,0:0|0:0,0:0:0:0:
397,183,149633,2,0,L|465:182,1,52.5,4|0,0:0|0:0,0:0:0:0:
284,124,149804,6,0,L|155:109,2,105,4|0|0,0:0|0:0|0:0,0:0:0:0:
227,60,150233,2,0,L|173:54,2,52.5,0|0|0,0:0|0:0|0:0,0:0:0:0:
381,79,150490,1,8,0:0:0:0:
442,98,150576,1,0,0:0:0:0:
442,156,150661,1,0,0:0:0:0:
383,178,150747,1,0,0:0:0:0:
314,186,150833,2,0,L|242:184,1,52.5,0|0,0:0|0:0,0:0:0:0:
314,186,151004,2,0,L|312:126,1,52.5,0|0,0:0|0:0,0:0:0:0:
146,87,151176,6,0,L|23:112,1,105,4|0,0:0|0:0,0:0:0:0:
184,144,151519,1,0,0:0:0:0:
133,165,151604,1,0,0:0:0:0:
82,192,151690,1,0,0:0:0:0:
133,213,151776,1,0,0:0:0:0:
299,221,151861,1,8,0:0:0:0:
354,202,151947,1,0,0:0:0:0:
354,149,152033,1,0,0:0:0:0:
307,122,152119,1,0,0:0:0:0:
229,114,152204,2,0,L|229:177,1,52.5,0|0,0:0|0:0,0:0:0:0:
293,114,152376,2,0,L|294:195,1,52.5,0|0,0:0|0:0,0:0:0:0:
134,116,152547,6,0,P|100:167|154:181,1,105,4|0,0:0|0:0,0:0:0:0:
245,289,152890,1,4,0:0:0:0:
305,263,152976,1,0,0:0:0:0:
303,209,153061,1,0,0:0:0:0:
244,192,153147,1,0,0:0:0:0:
88,197,153233,1,8,0:0:0:0:
39,172,153319,1,0,0:0:0:0:
213,189,153404,2,0,L|264:155,1,52.5,4|0,0:0|0:0,0:0:0:0:
88,197,153576,2,0,L|32:164,1,52.5,4|0,0:0|0:0,0:0:0:0:
213,189,153747,2,0,L|267:156,1,52.5,4|0,0:0|0:0,0:0:0:0:
64,59,153919,6,0,B|212:156|212:156|426:187|423:186|80:363,1,630,4|0,0:0|0:0,0:0:0:0:
172,333,155633,1,0,0:0:0:0:
243,332,156319,1,0,0:0:0:0:
296,192,156661,6,0,L|192:192,1,105,4|0,0:0|0:0,0:0:0:0:
376,192,157004,1,0,0:0:0:0:
431,153,157089,1,0,0:0:0:0:
431,86,157175,1,0,0:0:0:0:
376,48,157261,1,0,0:0:0:0:
192,48,157347,2,0,L|140:48,1,52.5,8|0,0:0|0:0,0:0:0:0:
84,112,157519,2,0,L|140:112,1,52.5,0|0,0:0|0:0,0:0:0:0:
212,112,157690,1,0,0:0:0:0:
280,128,157775,1,0,0:0:0:0:
328,184,157861,1,0,0:0:0:0:
336,252,157947,1,0,0:0:0:0:
220,253,158033,6,0,L|216:369,1,105,4|0,0:0|0:0,0:0:0:0:
408,357,158376,2,0,L|352:357,1,52.5,0|0,0:0|0:0,0:0:0:0:
420,293,158547,2,0,L|364:293,1,52.5,0|0,0:0|0:0,0:0:0:0:
180,293,158719,2,0,L|124:293,1,52.5,8|0,0:0|0:0,0:0:0:0:
188,229,158890,2,0,L|240:229,1,52.5,0|0,0:0|0:0,0:0:0:0:
168,229,159061,1,0,0:0:0:0:
111,192,159146,1,0,0:0:0:0:
112,125,159232,1,0,0:0:0:0:
168,88,159318,1,0,0:0:0:0:
284,88,159404,6,0,L|288:192,1,105,4|0,0:0|0:0,0:0:0:0:
103,191,159747,2,0,L|100:132,1,52.5,0|0,0:0|0:0,0:0:0:0:
180,140,159919,2,0,L|216:96,1,52.5,0|0,0:0|0:0,0:0:0:0:
408,100,160090,2,0,L|408:48,1,52.5,8|0,0:0|0:0,0:0:0:0:
336,48,160261,2,0,L|284:48,1,52.5,0|0,0:0|0:0,0:0:0:0:
472,48,160433,1,0,0:0:0:0:
467,116,160518,1,0,0:0:0:0:
423,170,160604,1,0,0:0:0:0:
357,188,160690,1,0,0:0:0:0:
204,188,160776,6,0,L|308:188,1,105,4|0,0:0|0:0,0:0:0:0:
152,188,161119,2,0,L|208:188,1,52.5,0|0,0:0|0:0,0:0:0:0:
140,248,161290,2,0,L|196:248,1,52.5,0|0,0:0|0:0,0:0:0:0:
384,248,161461,2,0,L|488:248,1,105,8|0,0:0|0:0,0:0:0:0:
424,248,161719,1,0,0:0:0:0:
192,248,161804,2,0,L|136:248,1,52.5,0|0,0:0|0:0,0:0:0:0:
384,248,161976,2,0,L|388:304,1,52.5,0|0,0:0|0:0,0:0:0:0:
124,316,162147,6,0,L|232:316,1,105,4|0,0:0|0:0,0:0:0:0:
344,316,162490,2,0,L|348:264,1,52.5,0|0,0:0|0:0,0:0:0:0:
272,264,162661,2,0,L|264:208,1,52.5,0|0,0:0|0:0,0:0:0:0:
452,208,162833,2,0,L|508:208,1,52.5,8|0,0:0|0:0,0:0:0:0:
444,144,163004,2,0,L|392:144,1,52.5,0|0,0:0|0:0,0:0:0:0:
324,144,163176,1,0,0:0:0:0:
376,144,163261,1,0,0:0:0:0:
428,144,163347,1,0,0:0:0:0:
480,144,163433,1,0,0:0:0:0:
364,144,163519,6,0,L|360:40,1,105,4|0,0:0|0:0,0:0:0:0:
176,40,163861,1,0,0:0:0:0:
124,64,163947,1,0,0:0:0:0:
124,120,164033,1,0,0:0:0:0:
176,144,164119,1,0,0:0:0:0:
364,144,164204,2,0,L|472:144,1,105,8|0,0:0|0:0,0:0:0:0:
412,144,164461,1,0,0:0:0:0:
220,144,164547,2,0,L|168:144,1,52.5,0|0,0:0|0:0,0:0:0:0:
236,144,164719,2,0,L|240:208,1,52.5,0|0,0:0|0:0,0:0:0:0:
48,192,164890,6,0,L|44:296,1,105,4|0,0:0|0:0,0:0:0:0:
232,296,165233,2,0,L|236:364,1,52.5,0|0,0:0|0:0,0:0:0:0:
164,348,165404,2,0,L|160:272,1,52.5,0|0,0:0|0:0,0:0:0:0:
356,300,165576,1,8,0:0:0:0:
414,268,165661,1,0,0:0:0:0:
415,201,165747,1,0,0:0:0:0:
357,168,165833,1,0,0:0:0:0:
164,168,165919,2,0,L|220:168,1,52.5,0|0,0:0|0:0,0:0:0:0:
284,168,166090,2,0,L|336:168,1,52.5,0|0,0:0|0:0,0:0:0:0:
120,168,166261,6,0,L|64:168,1,52.5,8|0,0:0|0:0,0:0:0:0:
176,168,166433,2,0,L|180:116,1,52.5,4|0,0:0|0:0,0:0:0:0:
120,168,166604,1,0,0:0:0:0:
236,116,166776,1,4,0:0:0:0:
180,116,166861,1,0,0:0:0:0:
124,116,166947,1,0,0:0:0:0:
252,48,167119,1,4,0:0:0:0:
188,48,167204,1,0,0:0:0:0:
364,48,167290,2,0,L|368:104,1,52.5,4|0,0:0|0:0,0:0:0:0:
252,116,167461,2,0,L|248:172,1,52.5,4|0,0:0|0:0,0:0:0:0:
60,168,167633,6,0,L|56:296,1,105,4|0,0:0|0:0,0:0:0:0:
184,272,167976,2,0,L|120:272,1,52.5,0|0,0:0|0:0,0:0:0:0:
68,272,168147,2,0,L|16:272,1,52.5,0|0,0:0|0:0,0:0:0:0:
228,272,168319,1,8,0:0:0:0:
279,230,168404,1,0,0:0:0:0:
283,165,168490,1,0,0:0:0:0:
239,117,168576,1,0,0:0:0:0:
173,117,168661,1,0,0:0:0:0:
129,165,168747,1,0,0:0:0:0:
134,231,168833,1,0,0:0:0:0:
185,272,168919,1,0,0:0:0:0:
300,272,169004,6,0,L|404:272,1,105,4|0,0:0|0:0,0:0:0:0:
216,272,169347,2,0,L|212:216,1,52.5,0|0,0:0|0:0,0:0:0:0:
300,192,169519,2,0,L|296:132,1,52.5,0|0,0:0|0:0,0:0:0:0:
116,140,169690,2,0,B|60:140|60:140|120:140,1,105,8|0,0:0|0:0,0:0:0:0:
172,140,169947,1,0,0:0:0:0:
236,140,170033,2,0,L|240:88,1,52.5,0|0,0:0|0:0,0:0:0:0:
176,88,170204,2,0,L|124:88,1,52.5,0|0,0:0|0:0,0:0:0:0:
324,88,170376,6,0,L|328:192,1,105,4|0,0:0|0:0,0:0:0:0:
200,192,170719,2,0,L|156:220,3,52.5
400,192,171061,2,0,B|456:192|456:192|396:192,1,105,8|0,0:0|0:0,0:0:0:0:
344,192,171319,1,0,0:0:0:0:
407,192,171404,2,0,L|348:192,1,52.5,0|0,0:0|0:0,0:0:0:0:
292,256,171576,2,0,L|348:256,1,52.5,0|0,0:0|0:0,0:0:0:0:
460,256,171747,6,0,L|464:368,1,105,4|0,0:0|0:0,0:0:0:0:
280,360,172090,2,0,L|340:360,1,52.5,0|0,0:0|0:0,0:0:0:0:
268,360,172261,2,0,L|216:360,1,52.5,0|0,0:0|0:0,0:0:0:0:
416,360,172433,2,0,B|472:360|472:360|412:360,1,105,8|0,0:0|0:0,0:0:0:0:
360,360,172690,1,0,0:0:0:0:
312,317,172775,1,0,0:0:0:0:
306,253,172861,1,0,0:0:0:0:
345,202,172947,1,0,0:0:0:0:
408,192,173032,1,0,0:0:0:0:
224,192,173119,6,0,L|120:192,1,105,4|0,0:0|0:0,0:0:0:0:
296,88,173461,2,0,L|300:28,1,52.5,0|0,0:0|0:0,0:0:0:0:
236,36,173633,2,0,L|292:36,1,52.5,0|0,0:0|0:0,0:0:0:0:
112,36,173804,2,0,L|8:56,1,105,8|0,0:0|0:0,0:0:0:0:
72,36,174061,1,0,0:0:0:0:
136,36,174147,2,0,L|140:88,1,52.5,0|0,0:0|0:0,0:0:0:0:
76,88,174319,2,0,L|20:88,1,52.5,0|0,0:0|0:0,0:0:0:0:
181,88,174490,6,0,L|61:88,1,105,4|0,0:0|0:0,0:0:0:0:
216,88,174833,2,0,L|240:136,1,52.5,0|0,0:0|0:0,0:0:0:0:
176,160,175004,2,0,L|220:192,1,52.5,0|0,0:0|0:0,0:0:0:0:
420,208,175176,2,0,L|308:208,1,105,8|0,0:0|0:0,0:0:0:0:
136,208,175519,2,0,L|84:208,1,52.5,0|0,0:0|0:0,0:0:0:0:
200,276,175690,2,0,L|260:276,1,52.5,0|0,0:0|0:0,0:0:0:0:
60,208,175861,6,0,L|56:312,1,105,4|0,0:0|0:0,0:0:0:0:
232,340,176204,2,0,L|180:340,1,52.5,0|0,0:0|0:0,0:0:0:0:
252,276,176376,2,0,L|192:276,1,52.5,0|0,0:0|0:0,0:0:0:0:
400,280,176547,1,8,0:0:0:0:
456,243,176632,1,0,0:0:0:0:
455,176,176718,1,0,0:0:0:0:
399,139,176804,1,0,0:0:0:0:
212,140,176890,2,0,L|204:76,1,52.5,0|0,0:0|0:0,0:0:0:0:
312,64,177061,2,0,L|364:64,1,52.5,0|0,0:0|0:0,0:0:0:0:
172,88,177233,6,0,L|64:88,1,105,4|0,0:0|0:0,0:0:0:0:
244,140,177576,2,0,L|192:140,1,52.5,4|0,0:0|0:0,0:0:0:0:
128,140,177747,2,0,L|72:140,1,52.5,0|0,0:0|0:0,0:0:0:0:
300,140,177919,2,0,L|352:140,1,52.5,8|0,0:0|0:0,0:0:0:0:
140,228,178090,2,0,L|88:228,1,52.5,4|0,0:0|0:0,0:0:0:0:
324,228,178261,2,0,L|328:296,1,52.5,4|0,0:0|0:0,0:0:0:0:
212,228,178433,2,0,L|216:288,1,52.5,4|0,0:0|0:0,0:0:0:0:
452,280,178604,5,4,0:0:0:0:
