osu file format v14

[General]
AudioFilename: audio.mp3
AudioLeadIn: 0
PreviewTime: 93434
Countdown: 0
SampleSet: Soft
StackLeniency: 0.2
Mode: 0
LetterboxInBreaks: 0
EpilepsyWarning: 1
WidescreenStoryboard: 1

[Editor]
Bookmarks: 5748,16720,27691,49634,71577,82548,93520,115463,137405,148377,159348,181291,182663,204605,215577
DistanceSpacing: 0.5
BeatDivisor: 6
GridSize: 4
TimelineZoom: 3.499999

[Metadata]
Title:GLITCH
TitleUnicode:GLITCH
Artist:LukHash
ArtistUnicode:LukHash
Creator:Mao
Version:DEFECT
Source:osu!
Tags:chiptune dubstep mirash gero noffy mappers' guild fa featured artist
BeatmapID:1649675
BeatmapSetID:785774

[Difficulty]
HPDrainRate:7
CircleSize:4
OverallDifficulty:8.5
ApproachRate:9.3
SliderMultiplier:2
SliderTickRate:1

[Events]
//Background and Video events
0,0,"bg.jpg",0,0
//Break Periods
2,181405,182109
//Storyboard Layer 0 (Background)
//Storyboard Layer 1 (Fail)
//Storyboard Layer 2 (Pass)
//Storyboard Layer 3 (Foreground)
Sprite,Foreground,Centre,"SB\mao.jpg",320,210 L,214205,2 S,0,0,348,1.05,1 L,214891,0 S,0,0,172,1.05,1 S,0,172,348,1.05,1 S,0,348,520,1.05,1 S,0,522,694,1.05,1 S,0,694,866,1.05,1 F,0,214205,,0 C,0,214205,,255,0,255 F,0,214548,,1 F,0,215405,,0 P,0,215405,,A
Sprite,Foreground,Centre,"SB\mao.jpg",320,210 F,0,214205,,0 C,0,214205,,0,255,0 F,0,214548,,1 F,0,215405,,0 P,0,215405,,A
//Storyboard Sound Samples

[TimingPoints]
263,342.857142857143,4,2,0,5,1,0
5748,-125,4,2,0,35,0,0
16720,-111.111111111111,4,2,0,45,0,0
27348,-62.5,4,2,0,50,0,0
27691,-100,4,2,0,60,0,0
28548,-66.6666666666667,4,2,0,60,0,0
29063,-100,4,2,0,60,0,0
29920,-66.6666666666667,4,2,0,60,0,0
30434,-100,4,2,0,60,0,0
31291,-66.6666666666667,4,2,0,60,0,0
31805,-100,4,2,0,60,0,0
34034,-66.6666666666667,4,2,0,60,0,0
34548,-100,4,2,0,60,0,0
35405,-66.6666666666667,4,2,0,60,0,0
35920,-100,4,2,0,60,0,0
36777,-66.6666666666667,4,2,0,60,0,0
37120,-58.8235294117647,4,2,0,60,0,0
37291,-100,4,2,0,60,0,0
37805,-58.8235294117647,4,2,0,60,0,0
37977,-50,4,2,0,60,0,0
38148,-100,4,2,0,60,0,0
38320,-50,4,2,0,60,0,0
38491,-100,4,2,0,60,0,0
39520,-66.6666666666667,4,2,0,60,0,0
40034,-100,4,2,0,60,0,0
40891,-66.6666666666667,4,2,0,60,0,0
41320,-100,4,2,0,60,0,0
42263,-66.6666666666667,4,2,0,60,0,0
42777,-100,4,2,0,60,0,0
43463,-50,4,2,0,60,0,0
43634,-100,4,2,0,60,0,0
43805,-50,4,2,0,60,0,0
43977,-100,4,2,0,60,0,0
45005,-66.6666666666667,4,2,0,60,0,0
45520,-100,4,2,0,60,0,0
46377,-66.6666666666667,4,2,0,60,0,0
46891,-100,4,2,0,60,0,0
47748,-66.6666666666667,4,2,0,60,0,0
48091,-58.8235294117647,4,2,0,60,0,0
48263,-66.6666666666667,4,2,0,60,0,0
48777,-58.8235294117647,4,2,0,60,0,0
48948,-50,4,2,0,60,0,0
49120,-100,4,2,0,60,0,0
49291,-50,4,2,0,60,0,0
49463,-100,4,2,0,60,0,0
50491,-66.6666666666667,4,2,0,60,0,0
51005,-100,4,2,0,60,0,0
51863,-66.6666666666667,4,2,0,60,0,0
52377,-100,4,2,0,60,0,0
53234,-66.6666666666667,4,2,0,60,0,0
53748,-100,4,2,0,60,0,0
55977,-66.6666666666667,4,2,0,60,0,0
56491,-100,4,2,0,60,0,0
57348,-66.6666666666667,4,2,0,60,0,0
57863,-100,4,2,0,60,0,0
58720,-66.6666666666667,4,2,0,60,0,0
59063,-58.8235294117647,4,2,0,60,0,0
59234,-100,4,2,0,60,0,0
59748,-58.8235294117647,4,2,0,60,0,0
59920,-50,4,2,0,60,0,0
60091,-100,4,2,0,60,0,0
60263,-50,4,2,0,60,0,0
60434,-100,4,2,0,60,0,0
61463,-66.6666666666667,4,2,0,60,0,0
61977,-100,4,2,0,60,0,0
62834,-66.6666666666667,4,2,0,60,0,0
63348,-100,4,2,0,60,0,0
64205,-66.6666666666667,4,2,0,60,0,0
64720,-100,4,2,0,60,0,0
65405,-50,4,2,0,60,0,0
65577,-100,4,2,0,60,0,0
65748,-50,4,2,0,60,0,0
65920,-100,4,2,0,60,0,0
66948,-66.6666666666667,4,2,0,60,0,0
67463,-100,4,2,0,60,0,0
68320,-66.6666666666667,4,2,0,60,0,0
68834,-100,4,2,0,60,0,0
69691,-66.6666666666667,4,2,0,60,0,0
70034,-58.8235294117647,4,2,0,60,0,0
70891,-50,4,2,0,60,0,0
71063,-100,4,2,0,60,0,0
71234,-50,4,2,0,60,0,0
71405,-100,4,2,0,60,0,0
71577,-142.857142857143,4,2,0,40,0,0
82205,-100,4,2,0,60,0,0
82548,-83.3333333333333,4,2,0,60,0,0
82891,-66.6666666666667,4,2,0,60,0,0
83234,-83.3333333333333,4,2,0,60,0,0
83577,-66.6666666666667,4,2,0,60,0,0
83920,-83.3333333333333,4,2,0,60,0,0
84263,-66.6666666666667,4,2,0,60,0,0
84605,-83.3333333333333,4,2,0,60,0,0
85634,-66.6666666666667,4,2,0,60,0,0
85977,-83.3333333333333,4,2,0,60,0,0
86320,-66.6666666666667,4,2,0,60,0,0
86663,-83.3333333333333,4,2,0,60,0,0
87005,-66.6666666666667,4,2,0,60,0,0
88034,-83.3333333333333,4,2,0,60,0,0
88377,-66.6666666666667,4,2,0,60,0,0
88720,-83.3333333333333,4,2,0,60,0,0
89063,-66.6666666666667,4,2,0,60,0,0
89405,-83.3333333333333,4,2,0,60,0,0
89748,-66.6666666666667,4,2,0,60,0,0
90091,-83.3333333333333,4,2,0,60,0,0
90434,-66.6666666666667,4,2,0,60,0,0
90777,-83.3333333333333,4,2,0,60,0,0
91291,-66.6666666666667,4,2,0,60,0,0
93520,-400,4,2,0,80,0,0
94205,-40,4,2,0,80,0,1
94377,-55.5555555555556,4,2,0,80,0,1
95920,-166.666666666667,4,2,0,80,0,1
96263,-400,4,2,0,80,0,0
96605,-285.714285714286,4,2,0,80,0,0
96948,-55.5555555555556,4,2,0,80,0,1
97291,-40,4,2,0,80,0,1
97634,-55.5555555555556,4,2,0,80,0,1
98320,-83.3333333333333,4,2,0,80,0,1
99005,-400,4,2,0,80,0,0
99691,-40,4,2,0,80,0,1
100034,-55.5555555555556,4,2,0,80,0,1
101405,-166.666666666667,4,2,0,80,0,1
101748,-400,4,2,0,80,0,0
102434,-55.5555555555556,4,2,0,80,0,0
102777,-40,4,2,0,80,0,1
102948,-55.5555555555556,4,2,0,80,0,1
104491,-400,4,2,0,80,0,0
105177,-100,4,2,0,80,0,0
105863,-66.6666666666667,4,2,0,80,0,1
107234,-400,4,2,0,80,0,0
107577,-285.714285714286,4,2,0,80,0,0
107920,-55.5555555555556,4,2,0,80,0,0
108263,-40,4,2,0,80,0,1
108605,-55.5555555555556,4,2,0,80,0,1
109977,-400,4,2,0,80,0,0
110663,-40,4,2,0,80,0,1
111005,-55.5555555555556,4,2,0,80,0,1
112377,-66.6666666666667,4,2,0,80,0,1
115463,-100,4,2,0,60,0,0
116320,-66.6666666666667,4,2,0,60,0,0
116663,-100,4,2,0,60,0,0
117691,-66.6666666666667,4,2,0,60,0,0
118034,-100,4,2,0,60,0,0
119063,-66.6666666666667,4,2,0,60,0,0
119577,-100,4,2,0,60,0,0
121805,-66.6666666666667,4,2,0,60,0,0
122320,-100,4,2,0,60,0,0
123177,-66.6666666666667,4,2,0,60,0,0
123691,-100,4,2,0,60,0,0
124548,-66.6666666666667,4,2,0,60,0,0
124891,-58.8235294117647,4,2,0,60,0,0
125063,-100,4,2,0,60,0,0
125577,-58.8235294117647,4,2,0,60,0,0
125748,-50,4,2,0,60,0,0
125920,-100,4,2,0,60,0,0
126091,-50,4,2,0,60,0,0
126263,-100,4,2,0,60,0,0
127291,-66.6666666666667,4,2,0,60,0,0
127805,-100,4,2,0,60,0,0
128663,-66.6666666666667,4,2,0,60,0,0
129177,-100,4,2,0,60,0,0
130034,-66.6666666666667,4,2,0,60,0,0
130548,-100,4,2,0,60,0,0
131234,-50,4,2,0,60,0,0
131405,-100,4,2,0,60,0,0
131577,-50,4,2,0,60,0,0
131748,-100,4,2,0,60,0,0
132777,-66.6666666666667,4,2,0,60,0,0
133291,-100,4,2,0,60,0,0
134148,-66.6666666666667,4,2,0,60,0,0
134663,-100,4,2,0,60,0,0
135520,-66.6666666666667,4,2,0,60,0,0
135863,-58.8235294117647,4,2,0,60,0,0
136720,-50,4,2,0,60,0,0
136891,-100,4,2,0,60,0,0
137063,-50,4,2,0,60,0,0
137234,-100,4,2,0,60,0,0
137405,-166.666666666667,4,2,0,30,0,0
147005,-166.666666666667,4,2,0,40,0,0
147691,-166.666666666667,4,2,0,50,0,0
148377,-83.3333333333333,4,2,0,60,0,0
148720,-66.6666666666667,4,2,0,60,0,0
149063,-83.3333333333333,4,2,0,60,0,0
149405,-66.6666666666667,4,2,0,60,0,0
149748,-83.3333333333333,4,2,0,60,0,0
150091,-66.6666666666667,4,2,0,60,0,0
150434,-83.3333333333333,4,2,0,60,0,0
151463,-66.6666666666667,4,2,0,60,0,0
151634,-83.3333333333333,4,2,0,60,0,0
152148,-66.6666666666667,4,2,0,60,0,0
152320,-83.3333333333333,4,2,0,60,0,0
152834,-66.6666666666667,4,2,0,60,0,0
153005,-83.3333333333333,4,2,0,60,0,0
154205,-66.6666666666667,4,2,0,60,0,0
154548,-83.3333333333333,4,2,0,60,0,0
154891,-66.6666666666667,4,2,0,60,0,0
155234,-83.3333333333333,4,2,0,60,0,0
155577,-66.6666666666667,4,2,0,60,0,0
155920,-83.3333333333333,4,2,0,60,0,0
157120,-66.6666666666667,4,2,0,60,0,0
157291,-83.3333333333333,4,2,0,60,0,0
157805,-66.6666666666667,4,2,0,60,0,0
157977,-83.3333333333333,4,2,0,60,0,0
159348,-400,4,2,0,80,0,0
160034,-40,4,2,0,80,0,1
160377,-55.5555555555556,4,2,0,80,0,1
161748,-166.666666666667,4,2,0,80,0,1
162091,-400,4,2,0,80,0,0
162434,-285.714285714286,4,2,0,80,0,0
162777,-55.5555555555556,4,2,0,80,0,1
163120,-40,4,2,0,80,0,1
163463,-55.5555555555556,4,2,0,80,0,1
164148,-83.3333333333333,4,2,0,80,0,1
164834,-400,4,2,0,80,0,0
165520,-40,4,2,0,80,0,1
165863,-55.5555555555556,4,2,0,80,0,1
167234,-166.666666666667,4,2,0,80,0,1
167577,-71.4285714285714,4,2,0,80,0,1
167920,-55.5555555555556,4,2,0,80,0,1
168605,-40,4,2,0,80,0,1
170320,-400,4,2,0,80,0,0
171005,-40,4,2,0,80,0,1
171348,-55.5555555555556,4,2,0,80,0,1
172720,-166.666666666667,4,2,0,80,0,1
173063,-400,4,2,0,80,0,0
173405,-285.714285714286,4,2,0,80,0,0
173748,-55.5555555555556,4,2,0,80,0,1
174091,-40,4,2,0,80,0,1
174434,-55.5555555555556,4,2,0,80,0,1
175120,-83.3333333333333,4,2,0,80,0,1
175805,-400,4,2,0,80,0,0
176491,-40,4,2,0,80,0,1
176834,-55.5555555555556,4,2,0,80,0,1
178205,-166.666666666667,4,2,0,80,0,1
178548,-400,4,2,0,80,0,0
179234,-40,4,2,0,80,0,1
179577,-55.5555555555556,4,2,0,80,0,1
179920,-100,4,2,0,80,0,1
180948,-66.6666666666667,4,2,0,80,0,1
181205,-100,4,2,0,60,0,0
183520,-66.6666666666667,4,2,0,60,0,0
184034,-100,4,2,0,60,0,0
184891,-66.6666666666667,4,2,0,60,0,0
185405,-100,4,2,0,60,0,0
186263,-66.6666666666667,4,2,0,60,0,0
186777,-100,4,2,0,60,0,0
189005,-66.6666666666667,4,2,0,60,0,0
189520,-100,4,2,0,60,0,0
190377,-66.6666666666667,4,2,0,60,0,0
190891,-100,4,2,0,60,0,0
191748,-66.6666666666667,4,2,0,60,0,0
192091,-58.8235294117647,4,2,0,60,0,0
192263,-100,4,2,0,60,0,0
192948,-58.8235294117647,4,2,0,60,0,0
193120,-111.111111111111,4,2,0,60,0,0
193463,-100,4,2,0,60,0,0
194491,-66.6666666666667,4,2,0,60,0,0
195005,-100,4,2,0,60,0,0
195863,-66.6666666666667,4,2,0,60,0,0
196377,-100,4,2,0,60,0,0
197234,-66.6666666666667,4,2,0,60,0,0
197748,-100,4,2,0,60,0,0
199977,-66.6666666666667,4,2,0,60,0,0
200491,-100,4,2,0,60,0,0
201348,-66.6666666666667,4,2,0,60,0,0
201863,-100,4,2,0,60,0,0
202720,-66.6666666666667,4,2,0,60,0,0
203063,-58.8235294117647,4,2,0,60,0,0
203920,-50,4,2,0,60,0,0
204091,-100,4,2,0,60,0,0
204263,-50,4,2,0,60,0,0
204434,-100,4,2,0,60,0,0
204605,-400,4,2,0,80,0,0
205291,-40,4,2,0,80,0,1
205634,-55.5555555555556,4,2,0,80,0,1
207005,-166.666666666667,4,2,0,80,0,1
207348,-71.4285714285714,4,2,0,80,0,1
207691,-55.5555555555556,4,2,0,80,0,1
208034,-55.5555555555556,4,2,0,80,0,1
208377,-40,4,2,0,80,0,1
208720,-55.5555555555556,4,2,0,80,0,1
210091,-400,4,2,0,80,0,0
210777,-40,4,2,0,80,0,1
211120,-55.5555555555556,4,2,0,80,0,1
211463,-55.5555555555556,4,2,0,80,0,1
212491,-166.666666666667,4,2,0,80,0,1
212834,-71.4285714285714,4,2,0,80,0,1
213177,-55.5555555555556,4,2,0,80,0,1
213520,-40,4,2,0,80,0,1
215577,-25,4,2,0,80,0,0

[Colours]
Combo1 : 64,64,255
Combo2 : 244,244,244
Combo3 : 19,253,224
Combo4 : 252,3,71
Combo5 : 146,126,184
Combo6 : 0,255,0
Combo7 : 255,0,255
Combo8 : 255,255,0

[HitObjects]
256,192,605,12,0,5577,0:0:0:0:
90,48,5748,6,0,L|96:134,1,80,4|0,0:0|0:0,0:0:0:0:
104,215,6091,1,2,0:3:0:0:
399,56,6605,1,4,3:0:0:0:
399,56,6777,2,0,P|355:76|313:71,1,80,2|0,0:3|0:0,0:0:0:0:
465,6,7120,38,0,P|432:53|411:166,1,160,4|2,0:3|0:3,0:0:0:0:
142,357,7977,1,4,3:0:0:0:
142,357,8148,1,2,0:3:0:0:
94,282,8320,1,0,0:0:0:0:
168,236,8491,70,0,P|204:252|257:261,1,80,4|0,0:3|0:0,0:0:0:0:
331,261,8834,1,2,0:3:0:0:
70,74,9348,1,4,0:3:0:0:
69,74,9520,2,0,P|56:111|49:150,1,80,2|0,0:3|0:0,0:0:0:0:
6,19,9863,38,0,P|59:40|168:53,1,160,4|2,0:3|0:3,0:0:0:0:
383,22,10548,1,2,0:0:0:0:
365,108,10720,1,4,0:3:0:0:
402,11,10891,1,2,0:3:0:0:
379,123,11063,1,0,0:0:0:0:
458,85,11234,70,0,P|469:132|464:184,1,80,4|0,0:3|0:0,0:0:0:0:
393,209,11577,2,0,P|453:244|476:336,1,160,2|0,0:3|0:0,0:0:0:0:
365,384,12091,1,4,0:3:0:0:
365,384,12263,2,0,P|369:336|391:296,1,80,2|0,0:3|0:0,0:0:0:0:
289,171,12605,38,0,P|263:243|281:325,1,160,4|2,0:3|0:3,0:0:0:0:
31,58,13463,1,4,0:3:0:0:
31,58,13634,1,2,0:3:0:0:
83,128,13805,1,0,0:0:0:0:
20,190,13977,70,0,P|65:220|92:260,1,80,4|0,0:3|0:0,0:0:0:0:
127,314,14320,2,0,P|120:260|179:140,1,160,2|0,0:3|0:0,0:0:0:0:
208,48,14834,1,4,0:3:0:0:
208,48,15005,2,0,P|218:86|240:119,1,80,2|0,0:3|0:0,0:0:0:0:
311,196,15348,38,0,P|271:207|230:221,1,80,4|0,0:3|0:0,0:0:0:0:
407,201,15691,2,0,P|447:212|488:226,2,80,2|0|2,0:3|0:0|0:0,0:0:0:0:
349,371,16205,1,4,0:3:0:0:
355,282,16377,1,2,0:3:0:0:
355,282,16548,1,4,0:3:0:0:
479,77,16720,86,0,P|431:90|365:85,1,89.9999972534181,4|0,0:0|0:0,0:0:0:0:
319,21,17063,2,0,P|294:82|347:179,1,179.999994506836,0|0,1:0|0:0,0:0:0:0:
474,219,17577,1,4,0:3:0:0:
474,219,17748,2,0,P|422:239|398:280,1,89.9999972534181,0|0,1:0|0:0,0:0:0:0:
268,363,18091,102,0,P|258:316|261:271,1,89.9999972534181,4|0,0:3|0:0,0:0:0:0:
154,319,18434,2,0,P|165:230|198:147,1,179.999994506836,0|0,1:0|0:0,0:0:0:0:
90,30,18948,1,4,0:3:0:0:
90,30,19120,1,0,1:0:0:0:
99,128,19291,1,0,0:0:0:0:
196,49,19463,22,0,P|240:52|285:58,1,89.9999972534181,4|0,0:3|0:0,0:0:0:0:
198,146,19805,2,0,P|249:153|301:156,1,89.9999972534181,0|0,1:0|0:0,0:0:0:0:
416,24,20148,1,2,0:0:0:0:
416,24,20320,2,0,P|388:60|375:118,1,89.9999972534181,4|0,0:3|1:0,0:0:0:0:
415,287,20663,2,0,P|387:250|374:192,2,89.9999972534181,0|4|0,0:0|3:0|0:0,0:0:0:0:
267,373,21177,2,0,P|277:330|317:283,1,89.9999972534181,0|0,1:0|0:0,0:0:0:0:
455,165,21520,101,2,0:0:0:0:
375,208,21691,1,4,0:3:0:0:
288,181,21863,1,0,1:0:0:0:
260,95,22034,1,4,0:3:0:0:
97,24,22205,102,0,P|153:93|169:198,1,179.999994506836,4|0,0:0|1:0,0:0:0:0:
19,270,22720,2,0,P|50:229|68:191,1,89.9999972534181
147,369,23063,1,4,3:0:0:0:
132,273,23234,1,0,1:0:0:0:
132,273,23405,1,4,0:3:0:0:
319,254,23577,22,0,P|274:249|230:259,1,89.9999972534181,4|0,3:0|0:0,0:0:0:0:
382,335,23920,2,0,P|425:346|463:370,1,89.9999972534181,0|0,1:0|0:0,0:0:0:0:
493,190,24263,1,2,0:0:0:0:
482,100,24434,1,4,3:0:0:0:
412,43,24605,1,0,1:0:0:0:
321,41,24777,1,4,0:3:0:0:
256,103,24948,85,4,3:0:0:0:
246,133,25034,1,4,3:0:0:0:
245,164,25120,1,4,3:0:0:0:
253,194,25205,1,4,3:0:0:0:
273,224,25291,1,4,3:0:0:0:
299,247,25377,1,4,3:0:0:0:
320,276,25463,1,4,3:0:0:0:
325,311,25548,1,4,3:0:0:0:
316,350,25634,1,4,3:0:0:0:
286,377,25720,1,4,3:0:0:0:
245,380,25805,1,4,3:0:0:0:
210,359,25891,1,4,3:0:0:0:
189,318,25977,1,4,3:0:0:0:
156,287,26063,1,4,3:0:0:0:
111,283,26148,1,4,3:0:0:0:
70,303,26234,1,4,3:0:0:0:
54,345,26320,37,4,3:0:0:0:
189,318,26491,1,4,3:0:0:0:
36,337,26663,1,4,3:0:0:0:
197,304,26834,1,4,3:0:0:0:
20,326,27005,1,4,3:0:0:0:
208,288,27176,1,4,3:0:0:0:
100,135,27348,86,0,P|86:175|88:214,2,80,2|0|0,3:0|0:0|0:0,0:0:0:0:
285,204,27691,102,0,P|235:206|189:187,1,100,4|0,1:2|0:0,0:0:0:0:
398,26,28034,2,0,B|428:66|428:66|411:180,1,150,2|0,0:0|0:0,0:0:0:0:
409,189,28377,1,0,1:0:0:0:
254,110,28548,6,0,P|258:73|270:38,2,75.0000028610231,2|0|2,0:3|0:0|0:0,0:0:0:0:
285,204,28891,1,2,0:3:0:0:
155,70,29063,21,4,0:3:0:0:
136,67,29148,1,0,0:0:0:0:
117,64,29234,1,0,0:0:0:0:
98,61,29320,1,0,0:0:0:0:
78,57,29405,2,0,B|48:97|48:97|65:211,1,150,2|0,0:0|0:0,0:0:0:0:
67,220,29748,1,0,1:0:0:0:
238,297,29920,86,0,P|281:287|326:292,2,75.0000028610231,2|0|2,0:3|0:0|0:0,0:0:0:0:
163,373,30263,1,2,0:3:0:0:
213,86,30434,102,0,P|182:133|163:199,1,100,4|0,1:2|0:0,0:0:0:0:
342,384,30777,2,0,P|319:332|312:264,1,100,2|0,0:0|0:0,0:0:0:0:
312,274,31034,1,0,0:0:0:0:
317,259,31120,1,0,1:0:0:0:
459,44,31291,6,0,P|446:79|439:116,2,75.0000028610231,2|0|2,0:3|0:0|0:0,0:0:0:0:
406,260,31634,2,0,P|399:223|386:187,1,75.0000028610231,2|0,0:3|0:0,0:0:0:0:
336,24,31805,21,4,3:0:0:0:
352,71,31891,1,0,0:0:0:0:
324,112,31977,1,0,0:0:0:0:
249,52,32148,1,2,0:0:0:0:
241,172,32320,1,0,1:0:0:0:
97,30,32491,85,4,0:0:0:0:
154,205,32663,1,0,0:0:0:0:
180,6,32834,5,2,1:2:0:0:
76,155,33005,1,0,0:0:0:0:
228,357,33177,86,0,P|230:307|224:258,1,100,6|0,1:2|0:0,0:0:0:0:
333,23,33520,2,0,P|339:66|329:162,1,100,2|0,0:0|0:0,0:0:0:0:
330,137,33777,1,0,0:0:0:0:
323,151,33863,1,0,1:0:0:0:
488,334,34034,6,0,P|455:281|446:250,2,75.0000028610231,2|0|0,0:3|0:0|0:0,0:0:0:0:
483,67,34377,2,0,P|450:120|441:151,1,75.0000028610231,2|0,0:3|0:0,0:0:0:0:
358,376,34548,22,0,P|343:301|355:255,1,100,4|0,3:0|0:0,0:0:0:0:
319,34,34891,2,0,P|330:110|357:149,1,100,2|0,0:0|0:0,0:0:0:0:
166,362,35234,1,0,1:0:0:0:
141,266,35405,86,0,P|190:267|232:288,2,75.0000028610231,2|0|2,0:3|0:0|0:0,0:0:0:0:
10,127,35748,2,0,P|46:116|76:93,1,75.0000028610231,2|0,0:3|0:0,0:0:0:0:
257,0,35920,102,0,P|225:39|178:54,1,100,4|0,3:0|0:0,0:0:0:0:
347,210,36263,2,0,P|315:172|268:157,1,100,2|0,0:0|0:0,0:0:0:0:
254,163,36520,1,0,0:0:0:0:
240,169,36605,1,0,1:0:0:0:
478,49,36777,6,0,P|492:91|488:146,2,75.0000028610231,2|0|2,0:3|0:0|0:0,0:0:0:0:
492,368,37120,2,0,P|490:323|466:267,1,85.0000016212464,2|0,0:3|0:0,0:0:0:0:
366,114,37291,22,0,P|347:160|346:209,1,100,4|0,0:3|0:0,0:0:0:0:
351,229,37548,1,0,0:0:0:0:
360,246,37634,1,2,0:0:0:0:
188,349,37805,102,2,B|225:332|225:332|218:377,1,85.0000016212464,2|0,0:3|0:0,0:3:0:0:
218,375,37977,2,2,B|253:338|253:338|248:289,1,100,2|0,1:3|0:0,0:3:0:0:
211,179,38148,2,0,B|232:193|232:193|235:217,1,50,2|0,0:0|0:0,0:0:0:0:
102,297,38320,2,2,B|142:266|142:266|146:217,1,100,2|0,1:3|0:0,0:3:0:0:
128,102,38491,2,0,B|146:119|146:119|145:144,1,50,0|0,1:0|0:0,0:0:0:0:
304,147,38663,86,0,P|260:170|210:178,1,100,4|0,1:2|0:0,0:0:0:0:
5,194,39006,2,0,B|44:174|44:174|64:49,1,150,2|0,0:0|0:0,0:0:0:0:
66,49,39348,1,0,1:0:0:0:
26,314,39520,6,0,P|60:300|98:299,2,75.0000028610231,2|0|2,0:3|0:0|0:0,0:0:0:0:
264,376,39863,2,0,P|242:345|210:325,1,75.0000028610231,2|0,0:3|0:0,0:0:0:0:
173,111,40034,21,4,0:3:0:0:
176,130,40119,1,0,0:0:0:0:
179,149,40205,1,0,0:0:0:0:
182,168,40291,1,0,0:0:0:0:
186,188,40376,2,0,B|226:218|226:218|340:201,1,150,2|0,0:0|0:0,0:0:0:0:
344,199,40719,1,0,1:0:0:0:
467,365,40892,86,0,P|477:322|472:277,2,75.0000028610231,2|0|2,0:3|0:0|0:0,0:0:0:0:
447,84,41234,2,0,P|463:131|460:171,1,75.0000028610231,2|0,0:3|0:0,0:0:0:0:
319,382,41406,102,0,P|305:327|310:258,1,100,4|0,1:2|0:0,0:0:0:0:
230,65,41749,2,0,P|199:112|180:178,1,100,2|0,0:0|0:0,0:0:0:0:
182,168,42006,1,0,0:0:0:0:
183,183,42092,1,0,1:0:0:0:
53,369,42263,6,0,P|46:332|33:296,2,75.0000028610231,2|0|2,0:3|0:0|0:0,0:0:0:0:
116,80,42606,2,0,P|98:142|96:183,1,75.0000028610231,2|0,0:3|0:0,0:0:0:0:
209,301,42777,21,4,3:0:0:0:
171,269,42863,1,0,0:0:0:0:
127,287,42949,1,0,0:0:0:0:
159,374,43120,1,2,0:0:0:0:
183,183,43292,1,0,1:0:0:0:
295,337,43463,102,2,B|345:345|345:345|324:290,1,100,2|0,1:3|0:0,0:3:0:0:
397,279,43634,2,0,B|407:305|407:305|428:312,1,50,2|0,0:0|0:0,0:0:0:0:
348,168,43805,2,2,B|398:160|398:160|377:215,1,100,2|0,1:3|0:0,0:3:0:0:
450,226,43977,2,0,B|460:200|460:200|481:192,1,50,2|0,0:0|0:0,0:0:0:0:
457,20,44149,86,0,P|468:62|456:140,1,100,6|0,1:2|0:0,0:0:0:0:
259,212,44491,2,0,P|254:162|265:114,1,100,2|0,0:0|0:0,0:0:0:0:
277,97,44749,1,0,0:0:0:0:
292,84,44835,1,0,1:0:0:0:
190,375,45005,6,0,P|221:320|244:298,2,75.0000028610231,2|0|0,0:3|0:0|0:0,0:0:0:0:
423,245,45348,2,0,P|360:240|329:247,1,75.0000028610231,2|0,0:3|0:0,0:0:0:0:
91,279,45520,22,0,P|150:230|196:219,1,100,4|0,3:0|0:0,0:0:0:0:
375,84,45862,2,0,P|313:129|291:171,1,100,2|0,0:0|0:0,0:0:0:0:
95,26,46206,1,0,1:0:0:0:
56,118,46377,86,0,P|105:125|150:111,2,75.0000028610231,2|0|2,0:3|0:0|0:0,0:0:0:0:
298,74,46720,2,0,P|305:123|291:168,1,75.0000028610231,2|0,0:3|0:0,0:0:0:0:
224,379,46892,102,0,P|239:322|225:250,1,100,4|0,3:0|0:0,0:0:0:0:
406,125,47234,2,0,P|401:183|363:246,1,100,2|0,0:0|0:0,0:0:0:0:
372,236,47492,1,0,0:0:0:0:
355,247,47577,1,0,1:0:0:0:
223,24,47749,6,0,P|210:59|213:97,2,75.0000028610231,2|0|2,0:3|0:0|0:0,0:0:0:0:
137,301,48092,2,0,P|138:263|171:210,1,85.0000016212464,2|0,0:3|0:0,0:0:0:0:
294,73,48263,21,4,1:2:0:0:
109,28,48434,1,4,1:3:0:0:
98,87,48520,1,0,1:0:0:0:
134,136,48605,1,0,1:0:0:0:
257,289,48777,102,2,B|247:249|247:249|216:282,1,85.0000016212464,2|0,0:3|0:0,0:3:0:0:
217,280,48949,2,2,B|239:326|239:326|287:338,1,100,2|0,1:3|0:0,0:3:0:0:
403,340,49120,2,0,B|382:355|382:355|358:350,1,50,2|0,0:0|0:0,0:0:0:0:
329,197,49292,2,2,B|343:245|343:245|388:266,1,100,2|0,1:3|0:0,0:3:0:0:
503,288,49463,2,2,B|480:299|480:299|457:290,1,50,0|0,1:0|0:0,0:3:0:0:
450,42,49634,86,0,P|468:90|464:144,1,100,4|0,1:2|0:0,0:0:0:0:
210,108,49977,2,0,B|242:78|242:78|366:101,1,150,2|0,0:0|0:0,0:0:0:0:
365,101,50320,1,0,1:0:0:0:
137,56,50491,6,0,P|121:92|120:128,2,75.0000028610231,2|0|2,0:3|0:0|0:0,0:0:0:0:
79,358,50834,2,0,P|78:312|92:277,1,75.0000028610231,2|0,0:3|0:0,0:0:0:0:
210,108,51005,21,4,0:3:0:0:
207,127,51090,1,0,0:0:0:0:
204,146,51176,1,0,0:0:0:0:
201,165,51262,1,0,0:0:0:0:
197,185,51347,2,0,B|157:215|157:215|43:198,1,150,2|0,0:0|0:0,0:0:0:0:
39,196,51690,1,0,1:0:0:0:
226,270,51863,86,0,B|258:252|258:252|294:284,1,75.0000028610231,2|0,0:3|0:0,0:0:0:0:
106,113,52034,2,0,B|77:87|77:87|45:105,1,75.0000028610231,2|0,0:0|0:0,0:0:0:0:
109,101,52205,2,0,B|80:75|80:75|48:93,1,75.0000028610231,2|0,0:3|0:0,0:0:0:0:
291,40,52377,102,0,P|274:90|274:162,1,100,4|0,1:2|0:0,0:0:0:0:
418,305,52720,2,0,P|387:258|368:192,1,100,2|0,0:0|0:0,0:0:0:0:
370,202,52977,1,0,0:0:0:0:
371,187,53063,1,0,1:0:0:0:
301,333,53234,6,0,P|264:340|229:353,2,75.0000028610231,2|0|2,0:3|0:0|0:0,0:0:0:0:
27,306,53577,2,0,P|63:312|99:325,1,75.0000028610231,2|0,0:3|0:0,0:0:0:0:
183,189,53748,21,4,3:0:0:0:
165,235,53834,1,0,0:0:0:0:
186,280,53920,1,0,0:0:0:0:
267,237,54091,1,2,0:0:0:0:
86,189,54263,1,0,1:0:0:0:
215,87,54434,85,4,0:0:0:0:
186,280,54606,1,0,0:0:0:0:
225,83,54777,5,2,1:2:0:0:
196,287,54948,1,0,0:0:0:0:
159,0,55120,86,0,P|127:37|113:101,1,100,6|0,1:2|0:0,0:0:0:0:
207,296,55463,2,0,P|175:259|161:195,1,100,2|0,0:0|0:0,0:0:0:0:
165,191,55720,1,0,0:0:0:0:
174,173,55806,1,0,1:0:0:0:
327,23,55977,6,0,P|316:58|314:96,2,75.0000028610231,2|0|0,0:3|0:0|0:0,0:0:0:0:
372,313,56320,2,0,P|359:251|361:219,1,75.0000028610231,2|0,0:3|0:0,0:0:0:0:
510,67,56491,22,0,P|435:82|389:70,1,100,4|0,3:0|0:0,0:0:0:0:
174,173,56834,2,0,P|249:188|295:176,1,100,2|0,0:0|0:0,0:0:0:0:
444,261,57177,1,0,1:0:0:0:
490,181,57348,86,0,P|454:170|416:172,2,75.0000028610231,2|0|2,0:3|0:0|0:0,0:0:0:0:
292,373,57691,2,0,P|321:333|363:311,1,75.0000028610231,2|0,0:3|0:0,0:0:0:0:
325,53,57863,102,0,P|339:99|339:165,1,100,4|0,3:0|0:0,0:0:0:0:
211,339,58205,2,0,P|225:293|225:227,1,100,2|0,0:0|0:0,0:0:0:0:
222,221,58463,1,0,0:0:0:0:
215,202,58548,1,0,1:0:0:0:
64,321,58720,6,0,P|100:348|129:395,2,75.0000028610231,2|0|2,0:3|0:0|0:0,0:0:0:0:
27,49,59063,2,0,P|16:85|28:146,1,85.0000016212464,2|0,0:3|0:0,0:0:0:0:
244,82,59234,22,0,P|194:112|135:109,1,100,4|0,0:3|0:0,0:0:0:0:
134,106,59491,1,0,0:0:0:0:
117,94,59577,1,2,0:0:0:0:
168,244,59748,102,2,B|195:214|195:214|150:206,1,85.0000016212464,2|0,0:3|0:0,0:3:0:0:
152,207,59920,2,2,B|198:185|198:185|243:205,1,100,2|0,1:3|0:0,0:3:0:0:
336,274,60091,2,0,B|329:249|329:249|307:239,1,50,2|0,0:0|0:0,0:0:0:0:
190,341,60263,2,2,B|231:312|231:312|279:323,1,100,2|0,1:3|0:0,0:3:0:0:
384,377,60434,2,0,B|373:354|373:354|349:347,1,50,0|0,1:0|0:0,0:0:0:0:
312,159,60606,86,0,P|305:118|320:56,1,100,4|0,1:2|0:0,0:0:0:0:
492,279,60949,2,0,B|460:249|460:249|336:272,1,150,2|0,0:0|0:0,0:0:0:0:
336,274,61292,1,0,1:0:0:0:
261,3,61463,6,0,P|242:34|237:76,2,75.0000028610231,2|0|2,0:3|0:0|0:0,0:0:0:0:
225,298,61805,2,0,P|206:267|201:225,1,75.0000028610231,2|0,0:3|0:0,0:0:0:0:
41,59,61977,21,4,0:3:0:0:
44,78,62062,1,0,0:0:0:0:
47,97,62148,1,0,0:0:0:0:
50,116,62234,1,0,0:0:0:0:
54,136,62319,2,0,B|94:166|94:166|208:149,1,150,2|0,0:0|0:0,0:0:0:0:
212,147,62662,1,0,1:0:0:0:
6,237,62834,86,0,B|38:219|38:219|81:250,1,75.0000028610231,2|0,0:3|0:0,0:0:0:0:
144,65,63005,2,0,B|112:83|112:83|82:58,1,75.0000028610231,2|0,0:0|0:0,0:0:0:0:
146,56,63177,2,0,B|114:74|114:74|84:49,1,75.0000028610231,2|0,0:3|0:0,0:0:0:0:
192,316,63349,102,0,P|198:260|226:197,1,100,4|0,1:2|0:0,0:0:0:0:
314,20,63691,2,0,P|320:75|348:138,1,100,2|0,0:0|0:0,0:0:0:0:
351,128,63949,1,0,0:0:0:0:
369,134,64035,1,0,1:0:0:0:
323,352,64206,6,0,P|304:319|299:281,2,75.0000028610231,2|0|2,0:3|0:0|0:0,0:0:0:0:
492,115,64548,2,0,P|463:139|445:171,1,75.0000028610231,2|0,0:3|0:0,0:0:0:0:
441,368,64720,21,4,3:0:0:0:
414,325,64806,1,0,0:0:0:0:
414,274,64892,1,0,0:0:0:0:
512,302,65063,1,2,0:0:0:0:
323,352,65235,1,0,1:0:0:0:
390,105,65405,102,2,B|340:97|340:97|361:152,1,100,2|0,1:3|0:0,0:3:0:0:
288,163,65577,2,0,B|278:137|278:137|257:130,1,50,2|0,0:0|0:0,0:0:0:0:
337,274,65748,2,2,B|287:282|287:282|308:227,1,100,2|0,1:3|0:0,0:3:0:0:
235,216,65920,2,0,B|225:242|225:242|204:250,1,50,2|0,0:0|0:0,0:0:0:0:
248,359,66092,86,0,P|204:340|109:355,1,100,6|0,1:2|0:0,0:0:0:0:
3,219,66434,2,0,P|47:200|142:215,1,100,2|0,0:0|0:0,0:0:0:0:
116,207,66692,1,0,0:0:0:0:
132,218,66778,1,0,1:0:0:0:
301,32,66949,6,0,P|259:78|245:107,2,75.0000028610231,2|0|0,0:3|0:0|0:0,0:0:0:0:
243,365,67291,2,0,P|219:307|216:274,1,75.0000028610231,2|0,0:3|0:0,0:0:0:0:
394,56,67463,22,0,P|366:127|370:174,1,100,4|0,3:0|0:0,0:0:0:0:
338,373,67805,2,0,P|336:296|356:253,1,100,2|0,0:0|0:0,0:0:0:0:
463,126,68149,1,0,1:0:0:0:
507,202,68320,86,0,P|472:214|434:209,2,75.0000028610231,2|0|2,0:3|0:0|0:0,0:0:0:0:
308,21,68663,2,0,P|296:56|300:93,1,75.0000028610231,2|0,0:3|0:0,0:0:0:0:
421,329,68835,102,0,P|389:290|342:275,1,100,4|0,3:0|0:0,0:0:0:0:
181,107,69178,2,0,P|220:139|235:186,1,100,2|0,0:0|0:0,0:0:0:0:
235,204,69435,1,0,0:0:0:0:
231,223,69520,1,0,1:0:0:0:
45,371,69692,6,0,P|55:329|91:292,2,75.0000028610231,2|0|2,0:3|0:0|0:0,0:0:0:0:
110,61,70035,2,0,P|99:97|111:158,1,85.0000016212464,2|0,0:3|0:0,0:0:0:0:
196,341,70206,21,4,1:2:0:0:
37,238,70377,1,4,1:3:0:0:
92,219,70463,1,0,1:0:0:0:
135,262,70548,1,0,1:0:0:0:
277,287,70720,102,2,B|317:285|317:285|293:324,1,85.0000016212464,2|0,0:3|0:0,0:3:0:0:
294,322,70892,2,2,B|340:301|340:301|355:254,1,100,2|0,1:3|0:0,0:3:0:0:
399,142,71063,2,2,B|412:163|412:163|406:186,1,50,2|0,0:0|0:0,0:3:0:0:
226,209,71235,2,2,B|274:196|274:196|297:152,1,100,2|0,1:3|0:0,0:3:0:0:
344,36,71406,2,2,B|353:58|353:58|343:81,1,50,0|0,1:0|0:0,0:3:0:0:
145,83,71577,86,0,B|85:160|157:207|101:286,1,209.999993591309,4|0,0:0|0:0,0:0:0:0:
38,335,72263,1,0,1:0:0:0:
469,221,72777,5,4,0:3:0:0:
469,221,72948,2,0,P|464:263|471:308,1,69.9999978637696,4|0,0:0|0:0,0:0:0:0:
384,372,73291,2,0,P|387:337|382:302,1,69.9999978637696,4|0,0:3|0:0,0:0:0:0:
341,222,73634,1,0,1:0:0:0:
341,222,73977,1,2,0:0:0:0:
394,148,74148,1,0,0:0:0:0:
348,68,74320,102,0,B|252:43|238:128|143:107,1,209.999993591309,4|0,0:0|0:0,0:0:0:0:
78,49,75005,1,0,1:0:0:0:
31,352,75520,1,4,3:0:0:0:
78,49,76034,1,4,3:0:0:0:
78,49,76377,21,4,1:2:0:0:
52,136,76548,1,0,0:0:0:0:
126,188,76720,1,2,0:0:0:0:
198,133,76891,1,0,0:0:0:0:
167,47,77063,86,0,B|263:28|272:114|368:100,1,209.999993591309,4|0,0:0|0:0,0:0:0:0:
432,42,77748,1,0,1:0:0:0:
389,355,78263,5,4,3:0:0:0:
389,355,78434,2,0,P|437:360|482:364,1,69.9999978637696,4|0,0:0|0:0,0:0:0:0:
495,283,78777,2,0,P|443:280|411:275,1,69.9999978637696,4|0,3:0|0:0,0:0:0:0:
357,227,79120,1,0,1:0:0:0:
357,227,79463,1,2,0:0:0:0:
310,305,79634,1,0,0:0:0:0:
256,231,79805,102,0,B|232:172|286:154|260:95,1,139.999995727539,4|0,0:0|0:0,0:0:0:0:
197,28,80320,2,0,L|169:36,3,23.3333326212565,4|0|0|0,0:3|0:0|0:0|1:0,0:0:0:0:
18,258,81005,22,0,P|65:255|140:328,1,139.999995727539,4|0,3:0|0:0,0:0:0:0:
229,372,81520,1,4,3:0:0:0:
229,372,81605,1,0,0:0:0:0:
229,372,81691,1,0,0:0:0:0:
229,372,81777,1,0,0:0:0:0:
229,372,81863,2,0,L|243:293,1,69.9999978637696,2|0,0:0|0:0,0:0:0:0:
334,253,82205,2,0,L|345:320,2,50,2|0|0,0:3|0:0|0:0,0:0:0:0:
234,48,82548,102,0,P|162:68|94:46,1,119.999996337891,4|0,1:2|0:0,0:0:0:0:
373,66,82891,2,0,P|383:41|428:6,2,75.0000028610231,2|0|4,3:0|0:0|0:3,0:0:0:0:
241,197,83234,2,0,P|178:236|107:234,1,119.999996337891,0|0,1:0|0:0,0:0:0:0:
427,185,83577,2,0,P|452:175|509:182,2,75.0000028610231,6|0|0,3:0|0:0|0:0,0:0:0:0:
259,360,83920,6,0,P|286:319|364:298,1,119.999996337891,4|0,3:0|0:0,0:0:0:0:
374,299,84177,1,0,0:0:0:0:
398,306,84263,2,0,P|419:322|476:330,2,75.0000028610231,2|0|4,0:3|0:0|0:3,0:0:0:0:
389,39,84605,2,0,P|345:82|329:139,1,119.999996337891,0|0,1:0|0:0,0:0:0:0:
259,360,84948,1,2,0:0:0:0:
160,225,85120,1,0,0:0:0:0:
402,205,85291,6,0,P|343:238|283:224,1,119.999996337891,6|0,1:2|0:0,0:0:0:0:
180,18,85634,2,0,P|174:44|194:100,1,75.0000028610231,2|0,0:3|0:0,0:0:0:0:
244,144,85805,1,6,0:3:0:0:
232,153,85891,1,0,0:0:0:0:
221,161,85977,2,0,P|170:167|112:115,1,119.999996337891,0|0,1:0|0:0,0:0:0:0:
65,382,86320,2,0,P|49:344|68:282,1,75.0000028610231,2|0,0:3|0:0,0:0:0:0:
125,288,86491,1,2,0:0:0:0:
132,309,86576,1,0,0:0:0:0:
129,332,86662,69,4,0:3:0:0:
244,144,86834,1,2,0:3:0:0:
310,305,87005,2,0,P|307:268|292:234,1,75.0000028610231,2|0,0:3|0:0,0:0:0:0:
231,288,87177,1,4,0:3:0:0:
228,309,87262,1,0,0:0:0:0:
232,333,87348,1,2,1:2:0:0:
368,374,87520,1,0,0:0:0:0:
345,156,87691,5,2,0:0:0:0:
310,305,87863,1,0,0:0:0:0:
462,132,88034,6,0,P|457:81|416:15,1,119.999996337891,6|0,1:2|0:0,0:0:0:0:
426,283,88377,2,0,P|410:321|415:375,2,75.0000028610231,2|0|4,0:3|0:0|0:3,0:0:0:0:
243,93,88720,2,0,P|264:47|325:-1,1,119.999996337891,0|0,1:0|0:0,0:0:0:0:
225,247,89063,2,0,P|226:288|202:337,2,75.0000028610231,6|0|0,3:0|0:0|0:0,0:0:0:0:
421,193,89405,6,0,P|468:205|518:292,1,119.999996337891,4|0,3:0|0:0,0:0:0:0:
198,163,89748,2,0,P|149:156|76:212,2,75.0000028610231,2|0|4,3:0|0:0|0:3,0:0:0:0:
320,355,90091,2,0,P|328:296|307:240,1,119.999996337891,0|0,1:0|0:0,0:0:0:0:
162,331,90434,1,2,0:0:0:0:
288,147,90605,1,0,0:0:0:0:
37,145,90777,70,0,P|77:87|153:75,1,119.999996337891,6|0,1:2|0:0,0:0:0:0:
162,331,91120,1,0,1:0:0:0:
128,177,91291,2,0,P|113:224|120:272,1,75.0000028610231,6|0,0:3|0:0,0:0:0:0:
199,207,91463,1,2,0:0:0:0:
206,186,91548,1,0,0:0:0:0:
203,163,91634,5,0,1:0:0:0:
338,19,91805,1,0,1:0:0:0:
320,180,91977,2,0,P|305:133|312:85,1,75.0000028610231,6|0,0:3|0:0,0:0:0:0:
433,17,92148,5,0,1:0:0:0:
473,206,92320,1,4,0:3:0:0:
410,120,92491,1,0,1:0:0:0:
473,206,92663,1,4,0:3:0:0:
388,331,92834,1,4,3:0:0:0:
364,360,92920,1,0,3:0:0:0:
321,375,93006,1,0,1:0:0:0:
268,373,93091,1,0,3:0:0:0:
215,343,93177,1,4,3:0:0:0:
184,291,93263,1,2,3:0:0:0:
176,223,93349,1,0,3:0:0:0:
216,160,93434,1,0,3:0:0:0:
305,144,93520,86,0,L|346:149,1,37.5,4|0,1:2|0:0,0:0:0:0:
207,144,93863,2,0,L|166:149,1,37.5,0|0,1:0|0:0,0:0:0:0:
276,16,94205,6,0,B|256:76|256:76|236:16,2,125,4|0|0,1:0|0:0|0:0,0:0:0:0:
256,280,94548,21,2,0:3:0:0:
278,318,94634,1,0,0:0:0:0:
316,341,94720,1,0,0:0:0:0:
359,349,94805,1,0,0:0:0:0:
403,340,94891,102,0,P|447:346|487:367,1,89.9999972534181,4|0,0:0|0:0,0:0:0:0:
340,253,95063,2,0,P|295:258|255:279,1,89.9999972534181,2|0,0:3|0:0,0:0:0:0:
427,202,95234,2,0,P|471:207|511:228,1,89.9999972534181,2|0,0:3|0:0,0:0:0:0:
389,62,95405,1,0,0:3:0:0:
386,80,95491,1,0,3:0:0:0:
383,98,95577,2,0,P|341:116|297:118,1,89.9999972534181,2|0,0:3|0:0,0:0:0:0:
164,196,95748,1,2,0:3:0:0:
135,145,95834,1,0,0:0:0:0:
168,99,95920,6,0,B|193:74,1,29.9999990844727,6|0,0:3|0:0,0:0:0:0:
308,257,96091,1,4,0:3:0:0:
308,257,96263,70,0,L|320:298,1,37.5,4|0,1:2|0:0,0:0:0:0:
204,127,96605,2,0,L|188:74,1,52.4999983978272,2|0,1:0|0:0,0:0:0:0:
194,254,96948,22,0,P|168:241|68:249,1,89.9999972534181,4|0,1:0|0:0,0:0:0:0:
25,359,97120,2,0,P|51:346|151:354,1,89.9999972534181,2|0,0:3|0:0,0:0:0:0:
2,134,97291,102,0,B|32:189|32:189|41:127,2,125,6|4|0,1:3|0:3|1:0,0:0:0:0:
262,63,97634,6,0,P|234:109|192:129,1,89.9999972534181,4|0,0:0|0:0,0:0:0:0:
252,317,97805,2,0,P|224:271|182:251,1,89.9999972534181,2|0,0:0|0:0,0:0:0:0:
374,64,97977,1,2,1:0:0:0:
351,103,98063,1,0,0:0:0:0:
381,135,98148,1,0,0:0:0:0:
358,173,98234,1,0,0:0:0:0:
395,209,98320,2,0,P|429:209|465:200,1,59.9999981689454,2|0,0:1|0:0,0:0:0:0:
415,305,98491,2,2,P|381:305|345:314,1,59.9999981689454,6|0,1:3|0:0,0:3:0:0:
224,91,98663,5,4,0:3:0:0:
239,98,98748,1,4,0:3:0:0:
222,155,98834,1,4,0:3:0:0:
169,124,98920,1,4,0:3:0:0:
170,60,99005,70,0,L|126:55,1,37.5,4|0,1:2|0:0,0:0:0:0:
342,60,99348,2,0,L|386:55,1,37.5,0|0,1:0|0:0,0:0:0:0:
276,356,99691,6,0,B|256:296|256:296|236:356,2,125,6|0|0,1:3|0:0|0:0,0:0:0:0:
258,33,100034,21,2,0:3:0:0:
250,77,100120,1,0,0:0:0:0:
280,109,100205,1,0,1:0:0:0:
248,140,100291,1,0,0:0:0:0:
242,183,100377,102,0,P|196:218|183:258,1,89.9999972534181,4|0,0:0|0:0,0:0:0:0:
106,354,100548,2,0,P|98:297|115:260,1,89.9999972534181,2|0,0:3|0:0,0:0:0:0:
149,129,100720,2,0,B|110:153|110:153|92:192,1,89.9999972534181,0|0,1:3|3:0,0:0:0:0:
15,301,100891,2,0,P|7:244|24:207,1,89.9999972534181,2|0,0:3|0:0,0:0:0:0:
76,9,101063,1,4,3:0:0:0:
121,50,101148,1,4,3:0:0:0:
172,22,101234,1,4,3:0:0:0:
213,67,101320,1,4,3:0:0:0:
219,59,101405,6,0,L|263:69,1,29.9999990844727,2|0,0:3|0:0,0:0:0:0:
340,232,101577,2,0,L|296:242,1,29.9999990844727,2|0,0:3|0:0,0:0:0:0:
311,239,101748,70,0,L|306:201,1,37.5,4|0,1:2|0:0,0:0:0:0:
201,145,102091,2,0,L|205:182,1,37.5,0|0,1:0|0:0,0:0:0:0:
360,102,102434,22,0,P|395:79|442:70,1,89.9999972534181,4|0,1:2|0:0,0:0:0:0:
512,221,102605,2,0,P|477:191|433:178,1,89.9999972534181,2|0,0:3|0:0,0:0:0:0:
392,323,102777,102,0,B|435:277|435:277|427:339,2,125,4|0|0,1:2|0:0|0:0,0:0:0:0:
245,215,103120,21,4,0:0:0:0:
313,376,103291,1,4,3:0:0:0:
152,238,103463,1,0,1:0:0:0:
309,286,103634,1,4,3:0:0:0:
98,305,103805,1,0,1:0:0:0:
109,318,103891,1,0,0:0:0:0:
118,343,103977,1,4,3:0:0:0:
101,375,104063,1,0,0:0:0:0:
56,382,104148,1,0,1:0:0:0:
19,341,104234,1,0,0:0:0:0:
21,277,104320,1,0,1:0:0:0:
73,228,104405,1,0,0:0:0:0:
152,238,104491,70,0,L|168:272,1,37.5,4|0,1:2|0:0,0:0:0:0:
152,146,104834,2,0,L|168:112,1,37.5,0|0,1:0|0:0,0:0:0:0:
127,30,105177,38,0,B|99:42|99:42|54:36|54:36|31:47,3,100,0|0|2|2,3:0|3:0|3:0|3:0,0:0:0:0:
363,365,105863,2,0,B|404:347|404:347|463:357|463:357|505:339,3,150.000005722046,2|2|0|0,3:0|3:0|3:0|3:0,0:0:0:0:
256,192,106548,85,0,1:0:0:0:
143,148,106720,1,4,3:0:0:0:
130,116,106805,1,0,0:0:0:0:
160,99,106891,2,0,P|199:99|242:90,1,75.0000028610231,2|0,3:0|0:0,0:0:0:0:
352,285,107063,2,0,P|313:285|270:294,1,75.0000028610231,2|0,3:0|0:0,0:0:0:0:
360,158,107234,102,0,L|400:162,1,37.5,4|0,1:2|0:0,0:0:0:0:
152,226,107577,2,0,L|98:220,1,52.4999983978272,0|0,1:0|0:0,0:0:0:0:
227,5,107920,22,0,P|239:45|229:104,1,89.9999972534181,4|0,1:0|0:0,0:0:0:0:
277,291,108091,2,0,P|276:249|248:196,1,89.9999972534181,2|0,3:0|0:0,0:0:0:0:
359,107,108263,102,0,B|421:110|421:110|369:144,2,125,6|4|0,1:3|0:3|1:0,0:0:0:0:
422,9,108606,6,0,P|476:18|507:57,1,89.9999972534181,4|0,0:0|0:0,0:0:0:0:
457,208,108777,2,0,P|494:184|510:143,1,89.9999972534181,2|0,0:0|0:0,0:0:0:0:
359,107,108948,2,0,B|326:138|326:138|377:144,1,89.9999972534181,2|0,1:0|0:0,0:0:0:0:
479,319,109120,1,2,3:0:0:0:
442,292,109206,1,0,0:0:0:0:
397,285,109291,1,0,0:0:0:0:
357,307,109377,1,0,0:0:0:0:
332,344,109463,2,0,B|289:368|289:368|270:331,1,89.9999972534181,2|0,1:0|0:0,0:0:0:0:
224,111,109635,5,4,0:3:0:0:
239,104,109720,1,4,0:3:0:0:
222,47,109806,1,4,0:3:0:0:
169,78,109892,1,4,0:3:0:0:
169,138,109977,70,0,L|125:143,1,37.5,4|0,1:2|0:0,0:0:0:0:
343,138,110320,2,0,L|387:143,1,37.5,0|0,1:0|0:0,0:0:0:0:
276,368,110663,6,0,B|256:308|256:308|236:368,2,125,6|0|0,1:3|0:0|0:0,0:0:0:0:
258,33,111006,21,2,0:3:0:0:
293,59,111092,1,0,0:0:0:0:
337,34,111177,1,0,1:0:0:0:
383,39,111263,1,0,0:0:0:0:
421,66,111348,102,0,P|390:98|379:142,1,89.9999972534181,4|0,0:0|0:0,0:0:0:0:
491,249,111520,2,0,P|447:242|413:213,1,89.9999972534181,2|0,0:3|0:0,0:0:0:0:
266,91,111691,2,0,P|274:134|304:167,1,89.9999972534181,2|0,0:3|0:0,0:0:0:0:
380,320,111863,1,0,0:0:0:0:
349,288,111948,1,0,3:0:0:0:
339,244,112034,2,0,P|295:285|289:339,1,89.9999972534181,2|0,1:3|0:0,0:0:0:0:
200,349,112205,2,0,P|198:288|232:246,1,89.9999972534181,2|0,3:0|0:0,0:0:0:0:
172,182,112377,2,0,P|128:223|122:277,1,75.0000028610231,2|0,0:3|0:0,0:0:0:0:
33,287,112548,2,0,P|31:226|65:184,1,75.0000028610231,2|0,0:3|0:0,0:0:0:0:
20,20,112720,101,4,3:0:0:0:
9,78,112805,1,4,3:0:0:0:
39,129,112891,1,4,3:0:0:0:
96,145,112977,1,4,3:0:0:0:
146,112,113063,1,4,3:0:0:0:
161,54,113148,1,4,3:0:0:0:
210,20,113234,1,4,3:0:0:0:
269,27,113320,1,4,3:0:0:0:
305,78,113405,1,4,3:0:0:0:
301,141,113491,1,4,3:0:0:0:
270,197,113577,1,4,3:0:0:0:
236,251,113663,1,4,3:0:0:0:
237,314,113748,1,4,3:0:0:0:
271,368,113834,1,4,3:0:0:0:
333,383,113920,1,4,3:0:0:0:
391,350,114005,1,4,3:0:0:0:
401,275,114091,21,4,3:0:0:0:
190,375,114263,1,4,3:0:0:0:
386,267,114434,1,4,3:0:0:0:
196,357,114605,1,4,3:0:0:0:
376,261,114777,1,4,3:0:0:0:
201,343,114948,1,4,3:0:0:0:
367,254,115120,2,0,L|300:286,1,75.0000028610231,0|0,1:0|0:0,0:0:0:0:
207,330,115291,2,0,L|275:300,1,75.0000028610231,0|0,1:0|0:0,0:0:0:0:
218,30,115463,70,0,P|196:77|201:125,1,100,4|0,1:2|0:0,0:0:0:0:
450,83,115806,2,0,B|410:113|410:113|296:96,1,150,2|0,0:0|0:0,0:0:0:0:
287,94,116149,1,0,1:0:0:0:
101,123,116320,54,0,P|108:160|128:191,2,75.0000028610231,2|0|2,0:3|0:0|0:0,0:0:0:0:
113,16,116663,1,2,0:3:0:0:
24,136,116835,101,4,0:3:0:0:
43,133,116920,1,0,0:0:0:0:
62,130,117006,1,0,0:0:0:0:
81,127,117092,1,0,0:0:0:0:
101,123,117177,2,0,B|131:163|131:163|114:277,1,150,2|0,0:0|0:0,0:0:0:0:
112,286,117520,1,0,1:0:0:0:
310,369,117692,6,0,P|350:383|398:374,2,75.0000028610231,2|0|2,0:3|0:0|0:0,0:0:0:0:
210,330,118035,1,2,0:3:0:0:
358,296,118206,54,0,P|389:249|408:183,1,100,4|0,1:2|0:0,0:0:0:0:
224,1,118549,2,0,P|247:53|254:121,1,100,2|0,0:0|0:0,0:0:0:0:
256,115,118806,1,0,0:0:0:0:
254,134,118892,1,0,1:0:0:0:
389,30,119063,54,0,P|402:65|409:102,2,75.0000028610231,2|0|2,0:3|0:0|0:0,0:0:0:0:
482,266,119406,2,0,P|494:230|501:193,1,75.0000028610231,2|0,0:3|0:0,0:0:0:0:
314,277,119577,101,4,3:0:0:0:
361,261,119663,1,0,0:0:0:0:
399,294,119749,1,0,0:0:0:0:
345,362,119920,1,2,0:0:0:0:
378,184,120092,1,0,1:0:0:0:
255,344,120263,5,4,0:0:0:0:
430,383,120435,1,0,0:0:0:0:
285,190,120606,5,2,1:2:0:0:
345,362,120777,1,0,0:0:0:0:
328,117,120949,38,0,P|330:67|324:18,1,100,6|0,1:2|0:0,0:0:0:0:
186,288,121292,2,0,P|180:245|190:148,1,100,2|0,0:0|0:0,0:0:0:0:
190,174,121549,1,0,0:0:0:0:
197,160,121635,1,0,1:0:0:0:
19,27,121806,54,0,P|52:80|61:111,2,75.0000028610231,2|0|0,0:3|0:0|0:0,0:0:0:0:
13,305,122149,2,0,P|46:252|55:221,1,75.0000028610231,2|0,0:3|0:0,0:0:0:0:
203,0,122320,102,0,P|192:76|165:115,1,100,4|0,3:0|0:0,0:0:0:0:
149,357,122663,2,0,P|164:282|152:236,1,100,2|0,0:0|0:0,0:0:0:0:
296,94,123006,1,0,1:0:0:0:
271,190,123177,6,0,P|320:189|362:168,2,75.0000028610231,2|0|2,0:3|0:0|0:0,0:0:0:0:
512,244,123520,2,0,P|476:233|446:210,1,75.0000028610231,2|0,0:3|0:0,0:0:0:0:
284,366,123692,54,0,P|330:351|362:313,1,100,4|0,3:0|0:0,0:0:0:0:
160,259,124034,2,0,P|113:243|82:205,1,100,2|0,0:0|0:0,0:0:0:0:
75,185,124292,1,0,0:0:0:0:
76,165,124377,1,0,1:0:0:0:
228,31,124549,54,0,P|214:73|218:128,2,75.0000028610231,2|0|2,0:3|0:0|0:0,0:0:0:0:
281,273,124892,2,0,P|247:241|227:183,1,85.0000016212464,2|0,0:3|0:0,0:0:0:0:
361,56,125063,102,0,P|342:102|341:151,1,100,4|0,0:3|0:0,0:0:0:0:
346,171,125320,1,0,0:0:0:0:
355,188,125406,1,2,0:0:0:0:
457,326,125577,22,2,B|434:359|434:359|479:360,1,85.0000016212464,2|0,0:3|0:0,0:3:0:0:
478,358,125749,2,2,B|435:386|435:386|388:374,1,100,2|0,1:3|0:0,0:3:0:0:
285,321,125920,2,0,B|295:343|295:343|318:350,1,50,2|0,0:0|0:0,0:0:0:0:
419,232,126092,2,2,B|382:266|382:266|333:262,1,100,2|0,1:3|0:0,0:3:0:0:
222,227,126263,2,0,B|235:247|235:247|260:250,1,50,0|0,1:0|0:0,0:0:0:0:
359,104,126435,38,0,P|306:85|278:30,1,100,4|0,1:2|0:0,0:0:0:0:
125,179,126778,2,0,B|164:159|164:159|184:34,1,150,2|0,0:0|0:0,0:0:0:0:
186,34,127120,1,0,1:0:0:0:
26,279,127292,54,0,P|60:265|98:264,2,75.0000028610231,2|0|2,0:3|0:0|0:0,0:0:0:0:
264,341,127635,2,0,P|242:310|210:290,1,75.0000028610231,2|0,0:3|0:0,0:0:0:0:
257,41,127806,101,4,0:3:0:0:
238,44,127891,1,0,0:0:0:0:
219,47,127977,1,0,0:0:0:0:
200,50,128063,1,0,0:0:0:0:
180,54,128148,2,0,B|150:94|150:94|167:208,1,150,2|0,0:0|0:0,0:0:0:0:
170,213,128491,1,0,1:0:0:0:
348,4,128664,6,0,P|358:47|353:92,2,75.0000028610231,2|0|2,0:3|0:0|0:0,0:0:0:0:
380,278,129006,2,0,P|378:228|362:191,1,75.0000028610231,2|0,0:3|0:0,0:0:0:0:
495,15,129178,54,0,P|463:61|444:128,1,100,4|0,1:2|0:0,0:0:0:0:
511,341,129521,2,0,P|480:294|461:228,1,100,2|0,0:0|0:0,0:0:0:0:
463,238,129778,1,0,0:0:0:0:
464,223,129864,1,0,1:0:0:0:
277,325,130035,54,0,P|284:288|297:252,2,75.0000028610231,2|0|2,0:3|0:0|0:0,0:0:0:0:
271,23,130378,2,0,P|277:59|290:95,1,75.0000028610231,2|0,0:3|0:0,0:0:0:0:
190,127,130549,101,4,3:0:0:0:
142,133,130635,1,0,0:0:0:0:
113,91,130721,1,0,0:0:0:0:
181,34,130892,1,2,0:0:0:0:
158,219,131064,1,0,1:0:0:0:
257,57,131235,22,2,B|307:49|307:49|286:104,1,100,2|0,1:3|0:0,0:3:0:0:
359,115,131406,2,0,B|369:89|369:89|390:82,1,50,2|0,0:0|0:0,0:0:0:0:
310,226,131577,2,2,B|360:234|360:234|339:179,1,100,2|0,1:3|0:0,0:3:0:0:
412,168,131749,2,0,B|422:194|422:194|443:202,1,50,2|0,0:0|0:0,0:0:0:0:
431,377,131921,38,0,P|436:328|425:280,1,100,6|0,1:2|0:0,0:0:0:0:
330,56,132263,2,0,P|351:101|357:150,1,100,2|0,0:0|0:0,0:0:0:0:
352,170,132521,1,0,0:0:0:0:
342,187,132605,1,0,1:0:0:0:
321,351,132777,54,0,P|290:296|267:274,2,75.0000028610231,2|0|0,0:3|0:0|0:0,0:0:0:0:
80,228,133120,2,0,P|143:223|174:230,1,75.0000028610231,2|0,0:3|0:0,0:0:0:0:
290,60,133291,102,0,P|262:131|266:178,1,100,4|0,3:0|0:0,0:0:0:0:
164,382,133634,2,0,P|186:308|219:274,1,100,2|0,0:0|0:0,0:0:0:0:
85,33,133978,1,0,1:0:0:0:
46,125,134149,6,0,P|95:132|140:118,2,75.0000028610231,2|0|2,0:3|0:0|0:0,0:0:0:0:
290,60,134492,2,0,P|262:87|222:99,1,75.0000028610231,2|0,0:3|0:0,0:0:0:0:
307,301,134664,54,0,P|292:244|306:172,1,100,4|0,3:0|0:0,0:0:0:0:
455,22,135005,2,0,P|421:69|410:142,1,100,2|0,0:0|0:0,0:0:0:0:
409,134,135264,1,0,0:0:0:0:
418,156,135349,1,0,1:0:0:0:
235,312,135521,54,0,P|270:299|308:302,2,75.0000028610231,2|0|2,0:3|0:0|0:0,0:0:0:0:
512,226,135864,2,0,P|474:227|421:260,1,85.0000016212464,2|0,0:3|0:0,0:0:0:0:
284,383,136035,101,4,1:2:0:0:
239,198,136206,1,4,1:3:0:0:
298,187,136292,1,0,1:0:0:0:
347,223,136377,1,0,1:0:0:0:
116,270,136549,22,2,B|156:260|156:260|140:303,1,85.0000016212464,2|0,0:3|0:0,0:3:0:0:
141,300,136721,2,2,B|90:301|90:301|57:263,1,100,2|0,1:3|0:0,0:3:0:0:
3,161,136892,2,0,B|0:186|0:186|14:205,1,50,2|0,0:0|0:0,0:0:0:0:
164,163,137064,2,2,B|114:172|114:172|75:141,1,100,2|0,1:3|0:0,0:3:0:0:
4,50,137235,2,2,B|4:75|4:75|23:91,1,50,0|0,1:0|0:0,0:3:0:0:
190,11,137405,38,0,P|193:111|265:181,1,179.999994506836,4|0,0:0|0:0,0:0:0:0:
315,197,138091,1,0,1:0:0:0:
484,21,138605,1,4,0:3:0:0:
484,21,138777,53,4,0:0:0:0:
409,58,139120,1,4,0:3:0:0:
480,102,139463,1,0,1:0:0:0:
407,143,139805,1,4,0:3:0:0:
407,143,140148,54,0,P|383:215|421:319,1,179.999994506836,4|0,0:0|0:0,0:0:0:0:
473,361,140834,1,0,1:0:0:0:
289,192,141348,1,4,0:3:0:0:
168,381,141863,1,6,0:3:0:0:
147,287,142205,69,0,1:0:0:0:
238,317,142548,1,2,0:0:0:0:
237,317,142891,38,0,P|164:257|142:170,1,179.999994506836,6|0,0:0|0:0,0:0:0:0:
148,99,143577,1,0,1:0:0:0:
384,32,144091,1,4,0:3:0:0:
485,255,144605,1,4,0:3:0:0:
443,168,144948,1,0,1:0:0:0:
389,247,145291,1,4,0:3:0:0:
389,247,145634,54,0,P|325:239|246:145,1,179.999994506836,4|0,0:0|0:0,0:0:0:0:
226,82,146320,1,0,1:0:0:0:
50,290,146834,1,4,3:0:0:0:
71,205,147005,5,4,1:2:0:0:
50,290,147177,1,0,1:0:0:0:
75,189,147348,1,2,1:3:0:0:
47,305,147520,1,0,1:0:0:0:
155,159,147691,101,6,1:3:0:0:
189,304,147863,1,0,1:0:0:0:
148,133,148034,1,2,1:3:0:0:
194,329,148206,1,0,1:0:0:0:
222,90,148377,6,0,P|294:70|362:92,1,119.999996337891,4|0,1:2|0:0,0:0:0:0:
83,72,148720,2,0,P|73:97|28:132,2,75.0000028610231,2|0|4,3:0|0:0|0:3,0:0:0:0:
238,258,149063,2,0,P|312:261|373:224,1,119.999996337891,0|0,1:0|0:0,0:0:0:0:
106,306,149406,2,0,P|90:283|38:259,2,75.0000028610231,6|0|0,3:0|0:0|0:0,0:0:0:0:
301,166,149749,102,0,P|260:193|239:271,1,119.999996337891,4|0,3:0|0:0,0:0:0:0:
240,281,150006,1,0,0:0:0:0:
247,305,150092,2,0,P|270:316|302:364,2,75.0000028610231,2|0|4,0:3|0:0|0:3,0:0:0:0:
474,263,150434,2,0,P|457:207|415:166,1,119.999996337891,0|0,1:0|0:0,0:0:0:0:
271,75,150777,1,2,0:0:0:0:
363,234,150949,1,0,0:0:0:0:
491,26,151120,102,0,P|432:59|372:45,1,119.999996337891,6|0,1:2|0:0,0:0:0:0:
208,184,151463,2,0,P|214:158|194:102,1,75.0000028610231,2|0,0:3|0:0,0:0:0:0:
144,58,151634,1,4,0:3:0:0:
156,49,151720,1,0,0:0:0:0:
167,41,151806,2,0,P|218:35|276:87,1,119.999996337891,0|0,1:0|0:0,0:0:0:0:
63,234,152149,2,0,P|47:196|66:134,1,75.0000028610231,2|0,0:3|0:0,0:0:0:0:
123,140,152320,1,2,0:0:0:0:
130,161,152405,1,0,0:0:0:0:
127,184,152491,69,4,0:3:0:0:
56,323,152663,1,2,0:3:0:0:
204,281,152834,2,0,P|165:273|130:286,1,75.0000028610231,2|0,0:3|0:0,0:0:0:0:
173,355,153006,1,4,0:3:0:0:
193,362,153091,1,0,0:0:0:0:
218,362,153177,1,2,1:2:0:0:
276,232,153349,1,0,0:0:0:0:
350,377,153520,53,2,0:0:0:0:
301,158,153692,1,0,0:0:0:0:
445,260,153863,6,0,P|426:212|368:160,1,119.999996337891,6|0,1:2|0:0,0:0:0:0:
232,375,154206,2,0,P|233:338|249:304,2,75.0000028610231,2|0|4,0:3|0:0|0:3,0:0:0:0:
146,211,154548,2,0,P|164:163|222:111,1,119.999996337891,0|0,1:0|0:0,0:0:0:0:
359,327,154891,2,0,P|357:289|342:255,2,75.0000028610231,6|0|0,3:0|0:0|0:0,0:0:0:0:
380,60,155234,86,0,P|427:72|477:159,1,119.999996337891,4|0,3:0|0:0,0:0:0:0:
222,30,155577,2,0,P|173:23|100:79,2,75.0000028610231,2|0|4,3:0|0:0|0:3,0:0:0:0:
186,192,155920,2,0,P|130:212|71:204,1,119.999996337891,2|0,1:2|0:0,0:0:0:0:
304,21,156263,1,2,0:0:0:0:
257,227,156434,1,0,0:0:0:0:
492,146,156606,70,0,P|437:168|407:219,1,119.999996337891,6|0,1:2|0:0,0:0:0:0:
291,381,156949,1,2,0:3:0:0:
257,227,157120,2,0,P|242:274|249:322,1,75.0000028610231,6|0,0:3|0:0,0:0:0:0:
328,251,157292,1,2,0:0:0:0:
335,230,157377,1,0,0:0:0:0:
332,207,157463,53,0,1:0:0:0:
209,20,157634,1,0,1:0:0:0:
191,181,157806,2,0,P|176:134|183:86,1,75.0000028610231,6|0,0:3|0:0,0:0:0:0:
85,316,157977,5,0,1:0:0:0:
12,150,158149,1,4,0:3:0:0:
91,212,158320,1,0,1:0:0:0:
12,150,158492,1,4,0:3:0:0:
207,39,158663,1,0,3:0:0:0:
240,21,158749,1,0,3:0:0:0:
285,24,158835,1,0,1:0:0:0:
333,47,158920,1,0,3:0:0:0:
370,95,159006,1,2,3:0:0:0:
379,155,159092,1,0,3:0:0:0:
359,221,159178,1,4,3:0:0:0:
298,263,159263,1,0,3:0:0:0:
206,273,159348,38,0,L|165:264,1,37.5,4|0,1:2|0:0,0:0:0:0:
308,344,159691,2,0,L|349:353,1,37.5,0|0,1:0|0:0,0:0:0:0:
280,177,160034,54,0,B|288:161|280:141|280:141|256:129|232:141|232:141|224:161|232:177,2,125,6|0|0,1:3|0:0|0:0,0:0:0:0:
47,378,160377,101,2,0:3:0:0:
21,348,160463,1,0,0:0:0:0:
13,309,160549,1,0,0:0:0:0:
26,266,160634,1,0,0:0:0:0:
48,228,160720,22,0,P|67:189|67:129,1,89.9999972534181,4|0,0:0|0:0,0:0:0:0:
94,313,160891,2,0,P|136:321|184:357,1,89.9999972534181,2|0,0:3|0:0,0:0:0:0:
144,186,161063,2,0,P|148:142|127:86,1,89.9999972534181,2|0,0:3|0:0,0:0:0:0:
185,261,161234,2,0,B|223:284|223:284|249:320,1,89.9999972534181,0|0,0:3|3:0,0:0:0:0:
219,113,161405,2,0,P|208:70|169:24,1,89.9999972534181,2|0,0:3|0:0,0:0:0:0:
288,245,161577,1,2,0:3:0:0:
315,279,161662,1,0,0:0:0:0:
328,322,161748,86,0,L|319:369,1,29.9999990844727,6|0,0:3|0:0,0:0:0:0:
363,156,161920,1,4,0:3:0:0:
329,110,162005,1,0,0:0:0:0:
347,63,162092,70,0,L|359:22,1,37.5,4|0,1:2|0:0,0:0:0:0:
219,113,162434,2,0,L|202:57,1,52.4999983978272,2|0,1:0|0:0,0:0:0:0:
254,233,162777,70,0,P|228:220|128:228,1,89.9999972534181,4|0,1:0|0:0,0:0:0:0:
13,307,162949,2,0,P|39:294|139:302,1,89.9999972534181,2|0,0:3|0:0,0:0:0:0:
68,116,163120,102,0,B|80:128|79:150|79:150|60:169|33:165|33:165|19:148|22:130,2,125,6|4|0,1:3|0:3|1:0,0:0:0:0:
312,296,163463,6,0,P|284:250|242:230,1,89.9999972534181,4|0,0:0|0:0,0:0:0:0:
290,45,163634,2,0,P|262:91|220:111,1,89.9999972534181,2|0,0:0|0:0,0:0:0:0:
440,296,163806,1,2,1:0:0:0:
462,256,163892,1,0,0:0:0:0:
460,211,163977,1,0,0:0:0:0:
440,170,164063,1,0,0:0:0:0:
408,148,164149,2,0,L|327:161,1,59.9999981689454,2|0,0:1|0:0,0:0:0:0:
405,48,164320,2,0,L|464:40,1,59.9999981689454,6|0,1:3|0:0,0:0:0:0:
288,293,164492,85,4,0:3:0:0:
273,286,164577,1,4,0:3:0:0:
290,229,164663,1,4,0:3:0:0:
343,260,164749,1,4,0:3:0:0:
343,320,164834,70,0,L|387:325,1,37.5,4|0,1:2|0:0,0:0:0:0:
169,320,165177,2,0,L|125:325,1,37.5,0|0,1:0|0:0,0:0:0:0:
280,143,165520,54,0,B|288:159|280:179|280:179|256:191|232:179|232:179|224:159|232:143,2,125,6|0|0,1:3|0:0|0:0,0:0:0:0:
11,0,165863,101,2,0:3:0:0:
52,16,165949,1,0,0:0:0:0:
26,52,166034,1,0,1:0:0:0:
56,85,166120,1,0,0:0:0:0:
63,129,166206,22,0,P|24:192|26:217,1,89.9999972534181,4|0,0:0|0:0,0:0:0:0:
60,384,166377,2,0,P|21:321|23:296,1,89.9999972534181,2|0,0:3|0:0,0:0:0:0:
181,142,166549,2,0,B|161:181|161:181|119:200,1,89.9999972534181,0|0,1:3|3:0,0:0:0:0:
179,374,166720,2,0,P|128:319|103:314,1,89.9999972534181,2|0,0:3|0:0,0:0:0:0:
330,94,166892,1,4,3:0:0:0:
284,144,166977,1,4,3:0:0:0:
324,199,167063,1,4,3:0:0:0:
269,240,167149,1,4,3:0:0:0:
277,246,167234,86,0,L|267:290,1,29.9999990844727,2|0,0:3|0:0,0:0:0:0:
385,359,167406,2,0,L|375:315,1,29.9999990844727,2|0,0:3|0:0,0:0:0:0:
378,329,167577,70,0,L|451:322,2,69.9999978637696,4|0|0,1:2|0:0|0:0,0:0:0:0:
508,168,167834,1,0,0:0:0:0:
508,168,167920,2,2,B|463:172|463:172|410:144|410:144|238:168,1,269.999991760254,0|0,1:0|0:0,0:3:0:0:
67,17,168263,70,0,P|98:50|115:91,1,89.9999972534181,4|0,1:2|0:0,0:0:0:0:
84,284,168434,2,0,P|114:251|131:210,1,89.9999972534181,2|0,0:3|0:0,0:0:0:0:
258,41,168605,102,0,B|260:58|245:74|245:74|219:77|200:58|200:58|199:36|212:24,2,125,4|0|0,1:2|0:0|0:0,0:0:0:0:
402,201,168948,101,4,0:0:0:0:
470,40,169119,1,4,3:0:0:0:
309,178,169291,1,0,1:0:0:0:
466,130,169462,1,4,3:0:0:0:
255,111,169633,1,0,1:0:0:0:
266,98,169719,1,0,0:0:0:0:
275,73,169805,1,4,3:0:0:0:
258,41,169891,1,0,0:0:0:0:
213,35,169976,1,0,1:0:0:0:
176,75,170062,1,0,0:0:0:0:
178,139,170148,1,0,1:0:0:0:
230,188,170233,1,0,0:0:0:0:
309,178,170320,70,0,L|319:218,1,37.5,4|0,1:2|0:0,0:0:0:0:
172,301,170663,2,0,L|181:264,1,37.5,0|0,1:0|0:0,0:0:0:0:
369,355,171005,54,0,B|373:338|361:320|361:320|336:312|314:328|314:328|310:349|320:363,2,125,6|0|0,1:3|0:0|0:0,0:0:0:0:
478,157,171348,101,2,0:3:0:0:
434,145,171434,1,0,0:0:0:0:
399,115,171520,1,0,0:0:0:0:
386,72,171605,1,0,0:0:0:0:
399,28,171691,22,0,P|387:53|332:101,1,89.9999972534181,4|0,0:0|0:0,0:0:0:0:
235,0,171863,2,0,P|237:27|272:91,1,89.9999972534181,2|0,0:3|0:0,0:0:0:0:
434,145,172034,2,0,P|411:160|339:174,1,89.9999972534181,2|0,0:3|0:0,0:0:0:0:
162,97,172206,2,0,B|190:131|190:131|229:153,1,89.9999972534181,0|0,0:3|3:0,0:0:0:0:
405,263,172377,2,0,P|377:265|308:241,1,89.9999972534181,2|0,0:3|0:0,0:0:0:0:
148,218,172548,1,2,0:3:0:0:
189,233,172633,1,0,0:0:0:0:
234,233,172720,86,0,L|225:280,1,29.9999990844727,6|0,0:3|0:0,0:0:0:0:
368,384,172891,1,4,0:3:0:0:
384,338,172977,1,0,0:0:0:0:
434,337,173063,70,0,L|475:344,1,37.5,4|0,1:2|0:0,0:0:0:0:
485,136,173405,2,0,L|428:145,1,52.4999983978272,0|0,1:0|0:0,0:0:0:0:
303,378,173749,70,0,P|294:334|308:291,1,89.9999972534181,4|0,1:0|0:0,0:0:0:0:
355,79,173920,2,0,P|332:117|331:162,1,89.9999972534181,2|0,3:0|0:0,0:0:0:0:
210,187,174091,102,0,B|225:180|244:190|244:190|254:214|240:238|240:238|220:245|205:235,2,125,6|4|0,1:3|0:3|1:0,0:0:0:0:
39,307,174435,6,0,P|82:296|115:266,1,89.9999972534181,4|0,0:0|0:0,0:0:0:0:
74,71,174605,2,0,P|111:95|133:135,1,89.9999972534181,2|0,0:0|0:0,0:0:0:0:
178,373,174777,1,2,3:0:0:0:
203,335,174863,1,0,0:0:0:0:
239,310,174948,1,0,0:0:0:0:
283,302,175034,1,0,0:0:0:0:
327,314,175120,2,0,L|307:247,1,59.9999981689454,2|0,1:0|0:0,0:0:0:0:
435,306,175291,2,0,L|424:367,1,59.9999981689454,2|0,3:0|0:0,0:0:0:0:
312,138,175463,85,4,0:3:0:0:
297,131,175548,1,4,0:3:0:0:
314,74,175634,1,4,0:3:0:0:
367,105,175720,1,4,0:3:0:0:
356,167,175805,70,0,L|400:172,1,37.5,4|0,1:2|0:0,0:0:0:0:
156,167,176148,2,0,L|112:172,1,37.5,0|0,1:0|0:0,0:0:0:0:
280,310,176491,54,0,B|288:326|280:346|280:346|256:358|232:346|232:346|224:326|232:310,2,125,6|0|0,1:3|0:0|0:0,0:0:0:0:
250,110,176834,101,2,0:3:0:0:
220,74,176920,1,0,0:0:0:0:
178,56,177005,1,2,3:0:0:0:
133,60,177091,1,0,0:0:0:0:
96,86,177177,22,0,P|115:124|115:184,1,89.9999972534181,4|0,0:0|0:0,0:0:0:0:
91,361,177348,2,0,P|72:323|72:263,1,89.9999972534181,2|0,0:3|0:0,0:0:0:0:
7,120,177520,2,0,P|17:164|43:200,1,89.9999972534181,2|0,0:3|0:0,0:0:0:0:
179,325,177691,2,0,P|169:282|143:246,1,89.9999972534181,0|0,0:3|3:0,0:0:0:0:
238,32,177863,1,2,0:3:0:0:
222,92,177948,1,8,0:3:0:0:
264,138,178034,1,6,0:3:0:0:
243,197,178120,1,4,0:3:0:0:
251,210,178205,86,0,L|242:257,1,29.9999990844727,6|0,0:3|0:0,0:0:0:0:
340,79,178377,2,0,L|331:32,1,29.9999990844727,6|0,0:3|0:0,0:0:0:0:
334,49,178548,70,0,L|371:64,1,37.5,4|0,1:2|0:0,0:0:0:0:
178,49,178891,2,0,L|141:64,1,37.5,0|0,1:0|0:0,0:0:0:0:
67,278,179234,54,0,B|81:266|82:245|82:245|65:224|38:225|38:225|23:239|23:257,2,125,6|4|0,1:3|0:3|1:0,0:0:0:0:
302,173,179577,6,2,B|314:133|285:73|199:81|160:157|207:236|230:258,1,269.999991760254,4|0,0:0|0:0,0:3:0:0:
237,266,179920,85,4,3:0:0:0:
368,223,180091,1,4,3:0:0:0:
235,285,180263,1,4,3:0:0:0:
380,237,180434,1,4,3:0:0:0:
231,304,180605,1,4,3:0:0:0:
393,251,180777,1,4,3:0:0:0:
227,323,180949,2,0,L|303:302,1,75.0000028610231,0|0,1:0|0:0,0:0:0:0:
407,265,181120,2,0,L|329:292,1,75.0000028610231,0|0,1:0|0:0,0:0:0:0:
53,25,182663,70,0,P|76:70|67:127,1,100,4|0,1:2|0:0,0:0:0:0:
33,293,183006,2,0,B|65:263|65:263|189:286,1,150,2|0,0:0|0:0,0:0:0:0:
185,285,183349,1,0,1:0:0:0:
258,41,183520,102,0,P|245:76|241:113,2,75.0000028610231,2|0|2,0:3|0:0|0:0,0:0:0:0:
291,342,183863,2,0,P|278:306|274:269,1,75.0000028610231,0|0,0:0|0:0,0:0:0:0:
332,71,184034,53,4,0:3:0:0:
333,90,184119,1,0,0:0:0:0:
334,109,184205,1,0,0:0:0:0:
336,128,184291,1,0,0:0:0:0:
336,148,184376,2,0,B|303:186|303:186|188:195,1,150,2|0,0:0|0:0,0:0:0:0:
185,195,184719,1,0,1:0:0:0:
127,320,184892,54,0,B|167:317|167:317|193:339,1,75.0000028610231,2|0,0:3|0:0,0:0:0:0:
67,159,185063,2,0,B|27:162|27:162|1:140,1,75.0000028610231,2|0,0:0|0:0,0:0:0:0:
70,150,185234,2,0,B|30:153|30:153|4:131,1,75.0000028610231,2|0,0:3|0:0,0:0:0:0:
195,20,185406,6,0,P|164:67|155:131,1,100,4|0,1:2|0:0,0:0:0:0:
308,307,185749,2,0,P|275:269|258:222,1,100,2|0,0:0|0:0,0:0:0:0:
256,202,186006,1,0,0:0:0:0:
261,182,186092,1,0,1:0:0:0:
414,26,186263,102,0,P|396:88|394:129,2,75.0000028610231,2|0|2,0:3|0:0|0:0,0:0:0:0:
416,287,186606,2,0,P|403:251|396:214,1,75.0000028610231,2|0,0:3|0:0,0:0:0:0:
312,149,186777,53,4,3:0:0:0:
288,119,186863,1,0,0:0:0:0:
248,108,186949,1,0,0:0:0:0:
151,172,187120,1,2,0:0:0:0:
199,18,187292,1,0,1:0:0:0:
287,239,187463,53,4,0:0:0:0:
170,94,187635,1,0,0:0:0:0:
295,252,187806,101,2,1:2:0:0:
160,81,187977,1,0,0:0:0:0:
125,351,188149,22,0,P|119:308|129:212,1,100,6|0,1:2|0:0,0:0:0:0:
280,53,188492,2,0,P|259:91|236:184,1,100,2|0,0:0|0:0,0:0:0:0:
243,161,188749,1,0,0:0:0:0:
245,176,188835,1,0,1:0:0:0:
249,365,189006,102,0,P|236:303|238:271,2,75.0000028610231,2|0|0,0:3|0:0|0:0,0:0:0:0:
373,121,189349,2,0,P|340:174|331:205,1,75.0000028610231,2|0,0:3|0:0,0:0:0:0:
456,383,189520,54,0,P|436:337|434:288,1,100,4|0,3:0|0:0,0:0:0:0:
512,77,189863,2,0,P|480:115|464:162,1,100,2|0,0:0|0:0,0:0:0:0:
286,71,190206,1,0,1:0:0:0:
383,48,190377,54,0,P|381:97|359:139,2,75.0000028610231,2|0|2,0:3|0:0|0:0,0:0:0:0:
342,333,190720,2,0,P|342:295|322:247,1,75.0000028610231,2|0,0:3|0:0,0:0:0:0:
201,112,190892,6,0,P|233:151|280:166,1,100,4|0,3:0|0:0,0:0:0:0:
510,216,191234,2,0,P|463:228|414:219,1,100,2|0,0:0|0:0,0:0:0:0:
397,207,191491,1,0,0:0:0:0:
382,193,191577,1,0,1:0:0:0:
206,361,191749,102,0,P|233:325|280:296,2,75.0000028610231,2|0|2,0:3|0:0|0:0,0:0:0:0:
47,183,192092,2,0,P|36:219|48:280,1,85.0000016212464,2|0,0:3|0:0,0:0:0:0:
87,356,192263,53,4,3:0:0:0:
219,185,192434,2,0,P|149:205|121:264,1,100,2|0,0:0|0:0,0:0:0:0:
344,218,192777,1,0,0:0:0:0:
249,18,192948,38,2,B|280:48|280:48|293:88,1,85.0000016212464,0|0,1:0|0:0,0:3:0:0:
219,185,193120,6,0,P|203:130|210:88,1,89.9999972534181,2|0,0:3|0:0,0:0:0:0:
445,19,193463,1,0,1:0:0:0:
445,19,193548,1,0,0:0:0:0:
445,19,193634,6,0,P|413:75|418:126,1,100,4|0,1:2|0:0,0:0:0:0:
497,251,193978,2,2,B|527:219|527:219|504:95,1,150,2|0,0:0|0:0,0:0:0:0:
504,94,194321,1,0,1:0:0:0:
495,352,194492,102,0,P|462:333|426:323,2,75.0000028610231,2|0|2,0:3|0:0|0:0,0:0:0:0:
217,342,194834,2,0,P|249:323|285:313,1,75.0000028610231,2|0,0:3|0:0,0:0:0:0:
234,136,195005,53,4,3:0:0:0:
253,135,195090,1,0,0:0:0:0:
272,134,195176,1,0,0:0:0:0:
291,132,195262,1,0,0:0:0:0:
311,132,195347,2,0,B|349:164|349:164|358:279,1,150,2|0,0:0|0:0,0:0:0:0:
358,283,195690,1,0,1:0:0:0:
435,182,195863,54,0,B|432:146|432:146|458:101,1,75.0000028610231,2|0,0:3|0:0,0:0:0:0:
254,228,196034,2,0,B|258:267|258:267|231:309,1,75.0000028610231,2|0,0:0|0:0,0:0:0:0:
265,230,196205,2,0,B|269:269|269:269|242:311,1,75.0000028610231,2|0,0:3|0:0,0:0:0:0:
31,355,196378,6,0,P|62:328|118:309,1,100,4|0,1:2|0:0,0:0:0:0:
341,184,196720,2,0,P|307:154|254:141,1,100,2|0,0:0|0:0,0:0:0:0:
235,147,196978,1,0,0:0:0:0:
220,160,197064,1,0,1:0:0:0:
43,25,197235,102,0,P|30:61|23:98,2,75.0000028610231,2|0|2,0:3|0:0|0:0,0:0:0:0:
117,309,197577,2,0,P|101:275|97:236,1,75.0000028610231,2|0,0:3|0:0,0:0:0:0:
254,151,197749,53,4,3:0:0:0:
279,186,197835,1,0,0:0:0:0:
282,226,197921,1,0,0:0:0:0:
220,307,198092,1,2,0:0:0:0:
152,139,198264,1,0,1:0:0:0:
353,149,198434,53,4,3:0:0:0:
184,225,198605,1,2,0:0:0:0:
202,32,198777,101,0,1:0:0:0:
282,226,198948,1,2,0:0:0:0:
475,20,199121,22,0,P|425:27|382:57,1,100,6|0,1:2|0:0,0:0:0:0:
373,257,199463,2,0,P|322:253|279:223,1,100,2|0,0:0|0:0,0:0:0:0:
271,209,199721,1,0,0:0:0:0:
266,189,199805,1,0,1:0:0:0:
462,122,199978,102,0,P|447:176|451:209,2,75.0000028610231,2|0|0,0:3|0:0|0:0,0:0:0:0:
491,366,200320,2,0,P|471:334|463:297,1,75.0000028610231,2|0,0:3|0:0,0:0:0:0:
360,56,200492,54,0,P|345:131|357:177,1,100,4|0,3:0|0:0,0:0:0:0:
301,384,200835,2,0,P|312:308|339:269,1,100,2|0,0:0|0:0,0:0:0:0:
277,8,201178,1,0,1:0:0:0:
244,94,201348,54,0,P|244:131|256:167,2,75.0000028610231,2|0|2,0:3|0:0|0:0,0:0:0:0:
145,321,201692,2,0,P|174:281|216:259,1,75.0000028610231,2|0,0:3|0:0,0:0:0:0:
48,23,201864,6,0,P|83:57|101:108,1,100,4|0,3:0|0:0,0:0:0:0:
16,316,202205,2,0,P|51:281|69:230,1,100,2|0,0:0|0:0,0:0:0:0:
64,214,202463,1,0,0:0:0:0:
56,195,202548,1,0,1:0:0:0:
197,67,202721,102,0,P|196:115|184:154,2,75.0000028610231,2|0|2,0:3|0:0|0:0,0:0:0:0:
221,361,203064,2,0,P|215:319|227:279,1,85.0000016212464,2|0,0:3|0:0,0:0:0:0:
337,126,203235,53,4,1:2:0:0:
412,311,203406,1,4,1:3:0:0:
358,287,203492,1,0,1:0:0:0:
311,324,203577,1,0,1:0:0:0:
420,83,203748,38,2,B|430:123|430:123|461:90,1,85.0000016212464,2|0,0:3|0:0,0:3:0:0:
460,92,203920,2,2,B|438:46|438:46|390:34,1,100,2|0,1:3|0:0,0:3:0:0:
266,26,204091,2,2,B|287:11|287:11|311:16,1,50,2|0,0:0|0:0,0:3:0:0:
346,178,204263,2,2,B|332:130|332:130|287:109,1,100,2|0,1:3|0:0,0:3:0:0:
157,85,204434,2,2,B|180:74|180:74|203:83,1,50,0|0,1:0|0:0,0:3:0:0:
172,266,204605,22,0,L|128:259,1,37.5,4|0,1:2|0:0,0:0:0:0:
340,266,204948,2,0,L|384:259,1,37.5,0|0,1:0|0:0,0:0:0:0:
245,320,205291,102,0,B|233:349|233:349|256:371|256:371|278:349|278:349|267:320,2,125,6|0|0,1:3|0:0|0:0,0:0:0:0:
132,156,205634,53,2,0:3:0:0:
87,152,205720,1,0,0:0:0:0:
53,121,205806,1,0,0:0:0:0:
57,76,205891,1,0,0:0:0:0:
92,48,205977,38,0,P|118:49|176:103,1,89.9999972534181,4|0,0:0|0:0,0:0:0:0:
342,139,206148,2,0,P|321:123|242:127,1,89.9999972534181,2|0,0:3|0:0,0:0:0:0:
47,147,206320,2,0,P|71:139|144:169,1,89.9999972534181,2|0,0:3|0:0,0:0:0:0:
312,243,206491,2,0,P|298:220|222:197,1,89.9999972534181,0|0,0:3|3:0,0:0:0:0:
38,255,206663,2,0,P|58:239|137:243,1,89.9999972534181,2|0,0:3|0:0,0:0:0:0:
250,332,206834,1,2,0:3:0:0:
235,290,206919,1,0,0:0:0:0:
200,263,207005,70,0,L|191:310,1,29.9999990844727,6|0,0:3|0:0,0:0:0:0:
312,121,207177,1,4,0:3:0:0:
292,70,207264,1,0,0:0:0:0:
325,28,207349,70,0,L|427:12,2,69.9999978637696,4|0|0,1:2|0:0|0:0,0:0:0:0:
486,172,207605,1,0,0:0:0:0:
486,172,207691,2,2,B|441:176|441:176|388:148|388:148|216:172,1,269.999991760254,2|0,1:0|0:0,0:3:0:0:
132,22,208035,86,0,P|133:66|150:107,1,89.9999972534181,4|0,1:0|0:0,0:0:0:0:
140,327,208206,2,0,P|141:282|158:241,1,89.9999972534181,2|0,0:3|0:0,0:0:0:0:
24,180,208377,6,0,B|50:163|50:163|76:182|76:182|57:208|57:208|27:201,2,125,6|4|0,1:3|0:3|1:0,0:0:0:0:
224,170,208720,5,4,3:0:0:0:
140,327,208891,1,4,3:0:0:0:
150,107,209063,101,4,3:0:0:0:
230,297,209234,1,4,3:0:0:0:
242,73,209405,101,4,3:0:0:0:
63,269,209577,1,4,3:0:0:0:
324,125,209749,69,4,0:3:0:0:
309,132,209834,1,4,0:3:0:0:
326,189,209920,1,4,0:3:0:0:
379,158,210006,1,4,0:3:0:0:
367,94,210092,70,0,L|411:89,1,37.5,4|0,1:2|0:0,0:0:0:0:
145,94,210434,2,0,L|101:89,1,37.5,0|0,1:0|0:0,0:0:0:0:
245,360,210777,102,0,B|233:331|233:331|256:309|256:309|278:331|278:331|267:360,2,125,6|0|0,1:3|0:0|0:0,0:0:0:0:
256,49,211120,53,2,0:3:0:0:
246,93,211206,1,0,0:0:0:0:
280,121,211291,1,0,1:0:0:0:
243,146,211377,1,0,0:0:0:0:
222,186,211464,38,0,P|285:225|310:223,1,89.9999972534181,4|0,0:0|0:0,0:0:0:0:
446,153,211634,2,0,P|423:191|383:211,1,89.9999972534181,2|0,0:3|0:0,0:0:0:0:
235,366,211805,2,0,P|257:327|297:307,1,89.9999972534181,0|0,1:3|3:0,0:0:0:0:
482,329,211977,2,0,P|419:290|394:292,1,89.9999972534181,2|0,0:3|0:0,0:0:0:0:
356,0,212149,1,4,3:0:0:0:
310,43,212234,1,4,3:0:0:0:
350,98,212320,1,4,3:0:0:0:
295,139,212406,1,4,3:0:0:0:
286,128,212492,70,0,L|266:104,1,29.9999990844727,2|0,0:3|0:0,0:0:0:0:
197,288,212663,2,0,L|206:259,1,29.9999990844727,2|0,0:3|0:0,0:0:0:0:
206,259,212835,70,0,L|125:249,2,69.9999978637696,4|0|0,1:2|0:0|0:0,0:0:0:0:
99,68,213091,1,0,0:0:0:0:
99,68,213177,2,2,B|144:72|144:72|197:44|197:44|369:68,1,269.999991760254,0|0,1:0|0:0,0:3:0:0:
500,35,213520,102,0,B|501:66|501:66|472:79|472:79|459:50|459:50|479:27,2,125,6|0|0,1:3|0:0|0:0,0:0:0:0:
395,325,213863,1,2,3:3:0:0:
355,277,213948,1,2,3:0:0:0:
395,228,214034,1,2,3:0:0:0:
359,176,214120,1,2,3:0:0:0:
402,131,214206,37,4,0:0:0:0:
469,289,214377,1,4,3:0:0:0:
110,131,214549,1,4,0:0:0:0:
43,289,214720,1,4,3:0:0:0:
359,365,214891,101,0,1:0:0:0:
176,41,215064,1,0,1:0:0:0:
153,365,215234,1,0,1:0:0:0:
336,41,215405,1,4,1:0:0:0:
