osu file format v14

[General]
AudioFilename: audio.mp3
AudioLeadIn: 0
PreviewTime: 70869
Countdown: 1
SampleSet: Normal
StackLeniency: 0.7
Mode: 0
LetterboxInBreaks: 0
WidescreenStoryboard: 0

[Editor]
DistanceSpacing: 0.65
BeatDivisor: 4
GridSize: 4
TimelineZoom: 1.6

[Metadata]
Title:8BIT FAIRY TALE
TitleUnicode:8BIT FAIRY TALE
Artist:LukHash
ArtistUnicode:LukHash
Creator:Delis
Version:Extra
Source:
Tags:other side
BeatmapID:1773235
BeatmapSetID:847930

[Difficulty]
HPDrainRate:8
CircleSize:4
OverallDifficulty:9
ApproachRate:9
SliderMultiplier:1.8
SliderTickRate:1

[Events]
//Background and Video events
0,0,"asdfghjk.jpg",0,0
//Break Periods
2,93709,97784
//Storyboard Layer 0 (Background)
//Storyboard Layer 1 (Fail)
//Storyboard Layer 2 (Pass)
//Storyboard Layer 3 (Foreground)
//Storyboard Sound Samples

[TimingPoints]
2384,342.857142857143,4,1,1,40,1,0
13355,-100,4,1,2,40,0,0
22955,-100,4,1,1,40,0,0
23384,-100,4,1,2,40,0,0
23812,-100,4,1,1,50,0,0
24326,-100,4,1,1,50,0,0
25098,-100,4,1,2,50,0,0
25269,-100,4,1,1,50,0,0
25612,-100,4,1,2,40,0,0
25784,-100,4,1,1,40,0,0
26126,-100,4,1,2,40,0,0
26298,-100,4,1,1,40,0,0
26469,-100,4,1,2,40,0,0
26641,-100,4,1,1,40,0,0
27069,-100,4,1,1,50,0,0
27841,-100,4,1,2,50,0,0
28012,-100,4,1,1,50,0,0
28441,-100,4,1,2,40,0,0
29041,-100,4,1,1,40,0,0
29212,-100,4,1,2,40,0,0
29384,-100,4,1,1,40,0,0
29812,-100,4,1,1,50,0,0
30669,-100,4,1,2,50,0,0
30841,-100,4,1,1,50,0,0
31184,-100,4,1,1,60,0,0
31955,-100,4,1,2,60,0,0
32126,-100,4,1,1,60,0,0
32555,-100,4,1,1,40,0,0
33926,-100,4,1,1,50,0,0
34698,-100,4,1,2,50,0,0
34869,-100,4,1,1,50,0,0
35041,-100,4,1,2,50,0,0
35212,-100,4,1,1,50,0,0
36069,-100,4,1,2,50,0,0
36241,-100,4,1,1,50,0,0
36584,-100,4,1,2,40,0,0
36755,-100,4,1,1,40,0,0
37098,-100,4,1,2,40,0,0
37269,-100,4,1,1,40,0,0
37441,-100,4,1,2,40,0,0
37784,-100,4,1,1,40,0,0
38041,-100,4,1,1,50,0,0
38812,-100,4,1,2,50,0,0
38984,-100,4,1,1,50,0,0
39412,-100,4,1,2,40,0,0
40098,-100,4,1,1,40,0,0
40269,-100,4,1,2,40,0,0
40441,-100,4,1,1,40,0,0
40784,-100,4,1,2,50,0,0
41212,-100,4,1,1,50,0,0
41384,-100,4,1,2,50,0,0
41726,-100,4,1,1,50,0,0
42155,-100,4,1,1,40,0,0
42926,-100,4,1,2,40,0,0
43098,-100,4,1,1,40,0,0
43526,-100,4,3,1,50,0,0
44041,-133.333333333333,4,1,1,40,0,0
44555,-133.333333333333,4,3,1,50,0,0
46269,-100,4,1,1,50,0,0
55784,-100,4,1,2,50,0,0
55955,-100,4,1,1,50,0,0
56641,-100,4,1,2,50,0,0
56812,-100,4,1,1,50,0,0
67012,-100,4,1,2,50,0,0
67184,-100,4,1,1,50,0,0
67441,-100,4,1,2,50,0,0
67784,-100,4,1,1,50,0,0
69584,-100,4,1,1,60,0,0
70784,-100,4,1,1,10,0,0
70955,-66.6666666666667,4,1,2,60,0,0
71126,-66.6666666666667,4,1,1,60,0,0
71812,-66.6666666666667,4,1,2,60,0,0
71984,-66.6666666666667,4,1,1,60,0,0
72326,-66.6666666666667,4,1,2,50,0,0
72498,-66.6666666666667,4,1,1,50,0,0
72841,-66.6666666666667,4,1,2,50,0,0
73012,-66.6666666666667,4,1,1,50,0,0
73184,-66.6666666666667,4,1,2,50,0,0
73355,-66.6666666666667,4,1,1,50,0,0
73698,-66.6666666666667,4,1,1,60,0,0
74555,-66.6666666666667,4,1,1,60,0,0
74641,-66.6666666666667,4,1,2,60,0,0
74898,-66.6666666666667,4,1,1,60,0,0
75069,-66.6666666666667,4,1,2,50,0,0
76441,-66.6666666666667,4,1,2,60,0,0
76526,-66.6666666666667,4,1,1,60,0,0
77298,-66.6666666666667,4,1,2,60,0,0
77469,-66.6666666666667,4,1,1,60,0,0
77812,-66.6666666666667,4,1,1,70,0,0
78669,-66.6666666666667,4,1,2,70,0,0
78755,-66.6666666666667,4,1,1,70,0,0
79184,-66.6666666666667,4,1,1,60,0,0
80041,-66.6666666666667,4,1,2,60,0,0
80555,-66.6666666666667,4,1,1,70,0,0
81326,-66.6666666666667,4,1,1,5,0,0
81412,-66.6666666666667,4,1,2,70,0,0
81498,-66.6666666666667,4,1,2,5,0,0
81584,-66.6666666666667,4,1,1,70,0,0
81669,-66.6666666666667,4,1,1,5,0,0
81755,-66.6666666666667,4,1,1,70,0,0
81841,-66.6666666666667,4,1,1,5,0,0
81926,-66.6666666666667,4,1,1,60,0,0
82784,-66.6666666666667,4,1,2,60,0,0
82955,-66.6666666666667,4,1,1,60,0,0
83298,-66.6666666666667,4,1,2,50,0,0
84669,-66.6666666666667,4,1,1,60,0,0
85526,-66.6666666666667,4,1,2,60,0,0
85698,-66.6666666666667,4,1,1,60,0,0
86041,-66.6666666666667,4,1,2,50,0,0
87412,-66.6666666666667,4,1,1,60,0,0
88269,-66.6666666666667,4,1,2,60,0,0
88441,-66.6666666666667,4,1,1,60,0,0
88784,-66.6666666666667,4,1,1,70,0,0
90155,-100,4,3,1,50,0,0
92898,-100,4,3,1,30,0,0
98384,-100,4,1,1,50,0,0
107899,-100,4,1,2,50,0,0
108070,-100,4,1,1,50,0,0
108756,-100,4,1,2,50,0,0
108927,-100,4,1,1,50,0,0
117584,-100,4,1,1,40,0,0
119555,-100,4,1,1,60,0,0
120069,-100,4,1,2,60,0,0
120241,-100,4,1,1,60,0,0
125555,-100,4,1,2,60,0,0
125726,-100,4,1,1,60,0,0
129841,-100,4,1,2,60,0,0
130012,-100,4,1,1,60,0,0
141498,-100,4,1,2,60,0,0
141669,-100,4,1,1,60,0,0

[Colours]
Combo1 : 182,149,73
Combo2 : 1,167,197
Combo3 : 102,170,119
Combo4 : 134,145,121

[HitObjects]
40,332,2383,6,0,L|136:348,1,90,0|0,0:0|0:0,0:0:0:0:
144,268,2726,2,0,L|48:252,1,90,8|0,0:0|0:0,0:0:0:0:
87,41,3069,2,0,L|192:60,1,90,0|0,0:0|0:0,0:0:0:0:
164,136,3412,2,0,L|59:117,1,90,8|0,0:0|0:0,0:0:0:0:
232,216,3755,6,0,B|320:200,1,90,0|0,0:0|0:0,0:0:0:0:
352,112,4098,2,0,B|264:128,1,90,8|0,0:0|0:0,0:0:0:0:
196,312,4441,2,0,B|300:292,1,90,0|0,0:0|0:0,0:0:0:0:
348,364,4784,2,0,B|244:384,1,90,8|0,0:0|0:0,0:0:0:0:
116,252,5126,6,0,B|96:208|112:152,1,90,0|0,0:0|0:0,0:0:0:0:
204,48,5469,2,0,B|304:36,1,90,8|0,0:0|0:0,0:0:0:0:
264,124,5812,1,0,0:0:0:0:
184,164,5984,1,0,0:0:0:0:
256,216,6155,1,8,0:0:0:0:
332,264,6326,1,0,0:0:0:0:
248,304,6498,6,0,B|148:296,1,90,0|0,0:0|0:0,0:0:0:0:
264,124,6841,2,0,B|368:132,1,90,8|0,0:0|0:0,0:0:0:0:
344,312,7184,2,0,B|352:208,1,90,0|0,0:0|0:0,0:0:0:0:
168,120,7526,2,0,B|160:224,1,90,8|0,0:0|0:0,0:0:0:0:
256,216,7869,5,0,0:0:0:0:
264,124,8041,1,0,0:0:0:0:
344,176,8212,1,8,0:0:0:0:
252,300,8384,1,0,0:0:0:0:
432,216,8555,2,0,B|436:156|420:108,1,90,0|0,0:0|0:0,0:0:0:0:
80,168,8898,2,0,B|76:228|92:276,1,90,8|0,0:0|0:0,0:0:0:0:
160,308,9241,5,0,0:0:0:0:
360,260,9412,1,0,0:0:0:0:
336,352,9584,1,8,0:0:0:0:
260,288,9755,1,0,0:0:0:0:
424,328,9926,2,0,B|472:324|516:312,1,90,0|0,0:0|0:0,0:0:0:0:
384,168,10269,2,0,B|336:172|292:184,1,90,8|0,0:0|0:0,0:0:0:0:
252,96,10612,5,0,0:0:0:0:
468,48,10784,1,0,0:0:0:0:
416,124,10955,1,8,0:0:0:0:
496,168,11126,1,0,0:0:0:0:
340,72,11298,2,0,B|324:116|332:172,1,90,0|0,0:0|0:0,0:0:0:0:
240,200,11641,2,0,B|244:244|236:292,1,90,8|0,0:0|0:0,0:0:0:0:
160,328,11984,6,0,B|68:336,1,90,0|0,0:0|0:0,0:0:0:0:
324,316,12326,1,8,0:0:0:0:
152,236,12498,1,0,0:0:0:0:
240,200,12669,2,0,B|288:208|332:184,1,90,2|0,0:0|0:0,0:0:0:0:
184,56,13012,2,0,B|98:49|59:123,1,135,4|0,0:2|2:0,0:0:0:0:
64,152,13355,1,6,0:0:0:0:
0,80,13526,5,0,0:0:0:0:
156,136,13698,1,8,0:0:0:0:
4,216,13869,1,0,0:0:0:0:
96,252,14041,1,0,0:0:0:0:
64,152,14212,5,2,0:0:0:0:
32,320,14384,1,8,0:0:0:0:
188,280,14555,1,0,0:0:0:0:
280,260,14726,6,0,B|384:272,1,90,2|2,0:0|3:0,0:0:0:0:
388,284,14984,1,2,3:3:0:0:
408,296,15069,2,0,B|404:192,1,90,8|2,0:0|0:0,0:0:0:0:
304,36,15412,2,0,B|296:84|308:128,1,90,0|2,0:0|0:0,0:0:0:0:
484,192,15755,2,0,B|492:144|480:100,1,90,8|0,0:0|0:0,0:0:0:0:
304,208,16098,6,0,B|408:196,1,90,2|0,0:0|0:0,0:0:0:0:
208,176,16441,2,0,B|104:188,1,90,8|0,0:0|0:0,0:0:0:0:
60,128,16784,1,0,0:0:0:0:
144,268,16955,1,2,0:0:0:0:
44,228,17126,1,8,0:0:0:0:
152,92,17298,1,0,0:0:0:0:
208,176,17469,6,0,B|256:176|320:168,1,90,2|2,0:0|3:0,0:0:0:0:
340,156,17726,1,2,3:0:0:0:
380,136,17812,1,8,0:0:0:0:
372,224,17984,1,0,0:0:0:0:
292,80,18155,5,0,0:0:0:0:
448,188,18326,1,2,0:0:0:0:
280,264,18498,1,8,0:0:0:0:
292,80,18669,1,2,0:0:0:0:
380,136,18841,6,0,B|352:168|296:172,1,90,2|0,0:0|0:0,0:0:0:0:
132,248,19184,2,0,B|160:216|216:212,1,90,8|0,0:0|0:0,0:0:0:0:
280,264,19526,1,0,0:0:0:0:
216,136,19698,1,2,0:0:0:0:
360,240,19869,1,8,0:0:0:0:
380,136,20041,1,0,0:0:0:0:
296,184,20212,5,2,0:0:0:0:
432,280,20384,1,2,3:0:0:0:
432,280,20469,1,2,3:0:0:0:
432,280,20555,2,0,B|448:240|444:184,1,90,8|2,0:0|0:0,0:0:0:0:
280,264,20898,2,0,B|168:276,1,90,0|2,0:0|0:0,0:0:0:0:
116,236,21241,5,8,0:0:0:0:
64,96,21412,1,0,0:0:0:0:
220,116,21584,2,0,B|280:120|328:116,1,90,2|0,0:0|0:0,0:0:0:0:
392,72,21926,2,0,B|456:108|448:196|376:216,1,180,8|0,0:0|0:0,0:0:0:0:
300,196,22441,1,2,0:0:0:0:
320,344,22612,1,8,0:0:0:0:
448,276,22784,1,0,0:0:0:0:
120,284,22955,5,10,0:0:0:0:
360,264,23126,1,0,0:0:0:0:
212,352,23298,5,10,0:0:0:0:
200,112,23469,1,2,0:0:0:0:
264,276,23641,5,2,0:0:0:0:
300,196,23812,2,0,B|260:204|208:204,2,90,10|0|2,0:0|2:0|0:0,0:0:0:0:
384,208,24326,5,6,0:0:0:0:
268,44,24498,1,0,0:0:0:0:
124,192,24669,1,10,0:0:0:0:
300,196,24841,5,2,0:0:0:0:
224,144,25012,1,0,0:0:0:0:
212,236,25184,1,2,0:0:0:0:
300,196,25355,2,0,B|352:196|400:164,1,90,10|2,0:0|0:0,0:0:0:0:
472,80,25698,5,2,0:0:0:0:
488,324,25869,1,2,0:0:0:0:
240,348,26041,1,10,0:0:0:0:
328,340,26212,1,2,0:0:0:0:
316,252,26384,1,10,0:0:0:0:
228,260,26555,1,2,0:0:0:0:
240,348,26726,5,10,0:0:0:0:
408,332,26898,1,2,0:0:0:0:
324,104,27069,5,6,0:0:0:0:
164,184,27241,1,0,0:0:0:0:
352,188,27412,1,8,0:0:0:0:
260,168,27584,5,2,0:0:0:0:
440,204,27755,1,2,0:2:0:0:
272,256,27926,1,2,0:0:0:0:
352,188,28098,1,8,0:0:0:0:
372,292,28269,1,2,0:0:0:0:
180,272,28441,5,2,0:0:0:0:
108,332,28612,1,2,3:0:0:0:
108,332,28698,1,2,3:0:0:0:
108,332,28784,1,8,0:0:0:0:
92,232,28955,1,2,1:2:0:0:
136,56,29126,5,2,0:0:0:0:
56,68,29298,1,2,0:0:0:0:
292,184,29469,5,10,0:0:0:0:
212,196,29641,1,2,0:0:0:0:
416,124,29812,6,0,B|524:136,1,90,6|0,0:0|0:0,0:0:0:0:
505,133,30155,1,8,0:0:0:0:
256,176,30326,1,2,0:0:0:0:
208,248,30498,2,0,B|211:300|224:344,1,90,2|2,0:0|0:0,0:0:0:0:
344,320,30841,2,0,B|340:267|328:224,1,90,8|2,0:0|0:0,0:0:0:0:
308,100,31184,5,2,0:0:0:0:
180,128,31355,1,2,0:0:0:0:
208,248,31526,1,10,0:0:0:0:
329,231,31698,1,2,0:0:0:0:
124,200,31869,5,2,0:0:0:0:
256,176,32041,1,2,0:0:0:0:
280,308,32212,1,10,0:0:0:0:
144,328,32384,1,2,0:0:0:0:
64,280,32555,6,2,B|20:188|64:92,1,180,6|10,0:0|0:0,0:0:0:0:
128,48,33069,2,2,B|172:140|128:236,1,180,2|0,0:0|0:0,0:0:0:0:
232,208,33584,2,0,B|248:96,1,90,8|2,0:0|0:0,0:0:0:0:
264,36,33926,5,4,0:2:0:0:
424,76,34098,1,2,2:2:0:0:
308,256,34269,1,8,0:0:0:0:
340,100,34441,1,2,0:0:0:0:
384,216,34612,5,4,0:2:0:0:
224,300,34784,1,2,0:0:0:0:
368,360,34955,1,8,0:0:0:0:
368,360,35126,1,2,0:0:0:0:
152,360,35298,6,0,B|140:288|148:240,1,90,6|0,0:0|0:0,0:0:0:0:
252,192,35641,1,10,0:0:0:0:
260,336,35812,1,2,0:0:0:0:
156,132,35984,5,2,0:0:0:0:
336,248,36155,1,2,0:0:0:0:
172,220,36326,1,10,0:0:0:0:
84,192,36498,1,2,0:0:0:0:
100,284,36669,5,2,0:0:0:0:
64,104,36841,1,2,0:0:0:0:
252,192,37012,1,10,0:0:0:0:
64,104,37184,5,2,0:0:0:0:
156,132,37355,1,2,0:0:0:0:
248,104,37526,1,2,0:0:0:0:
260,272,37698,1,10,0:0:0:0:
100,284,37869,1,2,0:0:0:0:
168,344,38041,6,0,B|256:364,1,90,6|0,0:0|0:0,0:0:0:0:
392,220,38384,1,10,0:0:0:0:
420,320,38555,2,0,B|332:300,1,90,2|0,0:0|0:0,0:0:0:0:
248,104,38898,5,2,0:0:0:0:
172,172,39069,1,8,0:0:0:0:
328,168,39241,1,2,0:0:0:0:
164,76,39412,5,2,0:0:0:0:
88,132,39584,1,2,3:0:0:0:
88,132,39669,1,2,3:0:0:0:
88,132,39755,1,8,0:0:0:0:
228,352,39926,5,2,2:0:0:0:
248,184,40098,1,2,0:0:0:0:
48,292,40269,5,2,0:0:0:0:
124,352,40441,1,10,0:0:0:0:
140,224,40612,1,2,0:0:0:0:
236,276,40784,6,0,B|320:280|348:276,1,90,6|0,0:0|0:0,0:0:0:0:
488,192,41126,1,8,0:0:0:0:
492,312,41298,1,2,0:0:0:0:
328,188,41469,1,0,0:0:0:0:
324,68,41641,1,2,0:0:0:0:
160,180,41812,1,10,0:0:0:0:
164,300,41984,1,2,0:0:0:0:
76,120,42155,5,2,0:0:0:0:
172,84,42326,1,2,3:0:0:0:
172,84,42412,1,2,3:0:0:0:
172,84,42498,1,10,0:0:0:0:
160,180,42669,1,2,0:0:0:0:
248,244,42841,5,2,0:0:0:0:
72,252,43012,1,2,0:0:0:0:
252,328,43184,1,8,0:0:0:0:
76,336,43355,1,2,0:0:0:0:
164,300,43526,5,4,0:0:0:0:
160,224,43698,1,8,0:0:0:0:
156,148,43869,1,0,1:0:0:0:
152,72,44041,2,2,B|312:80,1,135,2|2,0:0|1:1,0:0:0:0:
320,156,44555,2,0,B|236:152,1,67.4999979883433,0|2,1:0|0:0,0:0:0:0:
256,348,44898,5,4,0:0:0:0:
248,340,45069,1,4,0:0:0:0:
256,332,45241,1,2,2:0:0:0:
264,340,45412,1,2,2:0:0:0:
416,316,45584,5,8,0:0:0:0:
424,324,45755,1,8,0:0:0:0:
432,316,45927,1,2,2:0:0:0:
424,308,46098,1,2,2:0:0:0:
304,232,46269,6,2,B|216:244|104:236,1,180,6|2,0:0|0:0,0:0:0:0:
124,237,46784,1,2,1:0:0:0:
304,144,46955,2,0,B|256:148|208:148,1,90,10|0,0:0|0:0,0:0:0:0:
100,152,47298,1,2,2:2:0:0:
96,40,47469,1,2,2:2:0:0:
164,92,47641,5,2,0:0:0:0:
168,216,47812,1,2,0:0:0:0:
44,224,47984,1,0,0:0:0:0:
28,100,48155,1,2,0:0:0:0:
100,152,48326,5,10,0:0:0:0:
232,148,48498,1,0,0:0:0:0:
364,140,48669,1,2,0:0:0:0:
372,236,48841,1,2,0:0:0:0:
276,244,49012,6,0,B|228:248|176:248,1,90,2|0,0:0|0:0,0:0:0:0:
164,72,49355,2,0,B|212:68|264:68,1,90,2|0,0:0|0:0,0:0:0:0:
364,140,49698,1,10,0:0:0:0:
232,148,49869,1,2,0:2:0:0:
328,64,50041,1,2,0:0:0:0:
460,56,50212,1,2,0:2:0:0:
448,140,50384,6,0,B|464:236,1,90,2|2,0:0|0:0,0:0:0:0:
292,332,50726,2,0,B|276:236,1,90,2|0,0:0|0:0,0:0:0:0:
244,40,51069,5,10,0:0:0:0:
277,243,51241,1,0,0:0:0:0:
80,200,51412,1,10,0:0:0:0:
232,148,51584,1,2,0:0:0:0:
160,204,51755,6,0,B|144:160|152:112,1,90,6|0,0:0|0:0,0:0:0:0:
328,64,52098,2,0,B|344:108|336:156,1,90,2|2,0:0|0:0,0:0:0:0:
277,243,52441,1,8,0:0:0:0:
376,296,52612,1,2,0:0:0:0:
456,208,52784,1,2,2:0:0:0:
277,243,52955,1,2,2:0:0:0:
204,296,53126,6,0,B|116:288,1,90,2|2,0:0|0:0,0:0:0:0:
84,252,53384,1,2,0:0:0:0:
60,216,53469,2,0,B|52:160|64:104,1,90,2|2,0:0|0:0,0:0:0:0:
124,72,53812,5,10,0:0:0:0:
320,80,53984,1,2,0:2:0:0:
220,76,54155,5,2,0:0:0:0:
416,84,54327,1,2,0:2:0:0:
364,156,54498,6,0,B|360:208|364:248,1,90,2|2,0:0|0:0,0:0:0:0:
448,284,54841,2,0,B|452:232|448:192,1,90,2|2,0:0|3:0,0:0:0:0:
216,264,55184,2,0,B|104:256,1,90,8|2,0:0|0:0,0:0:0:0:
72,172,55526,1,0,0:0:0:0:
16,260,55698,1,2,0:0:0:0:
256,64,55869,5,2,0:0:0:0:
176,112,56041,1,2,0:0:0:0:
256,160,56212,1,2,0:0:0:0:
216,356,56384,5,10,0:0:0:0:
300,312,56555,1,0,0:0:0:0:
216,264,56727,1,2,0:0:0:0:
480,192,56898,5,10,0:0:0:0:
480,192,57069,1,2,0:0:0:0:
416,124,57241,6,0,B|368:140|320:140,1,90,6|0,0:0|0:0,0:0:0:0:
96,260,57584,2,0,B|144:244|192:244,1,90,2|0,0:0|0:0,0:0:0:0:
360,224,57926,5,8,0:0:0:0:
256,348,58098,1,0,0:0:0:0:
260,144,58269,1,2,0:0:0:0:
168,160,58441,1,2,0:0:0:0:
256,36,58612,6,0,B|316:48|368:52,1,90,2|2,0:0|0:0,0:0:0:0:
256,348,58955,2,0,B|196:336|144:332,1,90,0|2,0:0|0:0,0:0:0:0:
64,144,59298,2,0,B|60:196|48:256,1,90,10|2,0:0|0:0,0:0:0:0:
448,240,59641,2,0,B|452:188|464:128,1,90,2|2,0:0|0:0,0:0:0:0:
480,64,59984,5,2,0:0:0:0:
308,164,60155,1,2,0:0:0:0:
360,236,60326,1,0,0:0:0:0:
400,40,60498,1,2,0:0:0:0:
216,128,60669,1,8,0:0:0:0:
152,52,60841,1,0,0:0:0:0:
248,32,61012,1,2,0:0:0:0:
268,248,61184,1,2,0:0:0:0:
200,308,61355,6,0,B|136:312|96:312,1,90,2|2,0:0|0:0,0:0:0:0:
52,236,61698,2,0,B|116:232|156:232,1,90,2|0,0:0|0:0,0:0:0:0:
388,224,62041,1,8,0:0:0:0:
236,228,62212,1,2,0:0:0:0:
388,224,62384,2,0,B|464:224|496:220,1,90,2|2,0:0|0:0,0:0:0:0:
188,116,62726,6,0,B|144:124|92:120,1,90,6|2,0:0|0:0,0:0:0:0:
332,92,63069,2,0,B|376:84|428:88,1,90,2|2,0:0|0:0,0:0:0:0:
492,40,63412,1,8,0:0:0:0:
384,168,63584,1,2,0:0:0:0:
256,40,63755,1,2,0:2:0:0:
332,92,63926,1,2,0:2:0:0:
104,44,64098,5,2,0:0:0:0:
120,204,64269,1,2,0:0:0:0:
280,180,64441,1,2,3:0:0:0:
208,248,64612,1,2,0:0:0:0:
256,340,64784,5,8,0:0:0:0:
400,320,64955,1,0,0:0:0:0:
448,184,65126,2,0,B|452:136|448:80,1,90,2|0,0:0|0:0,0:0:0:0:
368,104,65469,6,0,B|268:100,1,90,2|2,0:0|0:0,0:0:0:0:
176,40,65812,1,0,0:0:0:0:
168,152,65984,1,2,0:0:0:0:
88,88,66155,5,8,0:0:0:0:
252,148,66326,1,2,0:0:0:0:
80,192,66498,1,0,0:0:0:0:
244,260,66669,1,2,0:0:0:0:
324,212,66841,6,2,B|380:196|424:204,2,90,2|2|8,0:0|0:0|0:0,0:0:0:0:
252,148,67355,1,2,0:0:0:0:
172,200,67526,5,2,0:0:0:0:
236,340,67698,1,2,0:0:0:0:
324,212,67869,1,8,0:0:0:0:
264,64,68041,1,2,0:0:0:0:
256,192,68212,12,0,70784,2:0:0:0:
168,172,70955,5,6,0:0:0:0:
356,120,71126,1,2,0:0:0:0:
212,260,71298,1,10,0:0:0:0:
260,56,71469,1,2,0:0:0:0:
224,348,71812,5,2,0:0:0:0:
360,288,71984,1,10,0:0:0:0:
277,171,72155,1,0,0:0:0:0:
60,96,72326,5,0,0:0:0:0:
115,281,72498,1,0,3:0:0:0:
115,281,72584,1,0,3:0:0:0:
115,281,72669,1,8,0:0:0:0:
202,135,72841,1,2,0:0:0:0:
384,316,73012,5,0,0:0:0:0:
237,235,73184,1,2,0:0:0:0:
436,188,73355,2,0,B|404:168|404:168|364:176,1,67.4999979883433,0|0,0:0|2:0,0:0:0:0:
184,328,73526,2,0,B|216:348|216:348|256:340,1,67.4999979883433,0|0,0:0|2:0,0:0:0:0:
384,316,73698,5,4,0:0:0:0:
296,104,73869,1,2,0:0:0:0:
237,235,74041,1,10,0:0:0:0:
169,57,74212,1,2,0:0:0:0:
100,328,74555,5,2,0:0:0:0:
92,160,74726,1,8,0:0:0:0:
188,296,74898,1,10,0:0:0:0:
24,253,75069,5,2,0:0:0:0:
297,198,75241,1,2,3:0:0:0:
297,198,75326,1,2,3:0:0:0:
297,198,75412,1,8,0:0:0:0:
273,345,75584,1,0,0:0:0:0:
204,269,75755,5,0,0:0:0:0:
381,228,75926,1,2,0:0:0:0:
222,99,76098,2,0,B|210:187,1,67.4999979883433,8|0,0:0|2:0,0:0:0:0:
371,294,76269,2,0,B|383:206,1,67.4999979883433,2|0,0:0|2:0,0:0:0:0:
319,98,76441,5,6,0:0:0:0:
144,200,76612,1,2,0:0:0:0:
312,184,76784,1,2,0:0:0:0:
96,128,76955,1,2,0:0:0:0:
240,260,77298,5,2,0:0:0:0:
200,48,77469,1,8,0:0:0:0:
240,260,77641,1,2,0:0:0:0:
143,200,77812,5,0,0:0:0:0:
232,112,77984,1,2,3:0:0:0:
232,112,78069,1,2,3:0:0:0:
232,112,78155,1,0,0:0:0:0:
112,48,78326,1,2,0:0:0:0:
308,132,78498,5,2,0:0:0:0:
212,220,78669,1,2,0:0:0:0:
332,280,78841,2,0,B|372:260|420:268,1,67.5000025749208,0|0,0:0|2:0,0:0:0:0:
240,320,79012,2,0,B|200:340|152:332,1,67.5000025749208,0|0,0:0|2:0,0:0:0:0:
216,104,79184,5,4,0:0:0:0:
356,176,79355,1,2,0:0:0:0:
212,220,79526,1,8,0:0:0:0:
340,84,79698,1,2,0:0:0:0:
156,44,79869,1,0,0:0:0:0:
296,228,80041,1,2,0:0:0:0:
76,140,80212,1,0,0:0:0:0:
100,336,80384,1,2,0:2:0:0:
308,328,80555,5,2,0:0:0:0:
172,276,80726,1,2,0:0:0:0:
328,216,80898,1,8,0:0:0:0:
184,124,81069,1,2,0:0:0:0:
460,184,81241,6,0,B|480:252,1,67.4999979883433,2|0,0:0|2:0,0:0:0:0:
52,200,81412,2,0,B|32:132,1,67.4999979883433,2|0,0:0|2:0,0:0:0:0:
300,32,81584,6,0,B|320:100,1,67.4999979883433,0|0,0:0|2:0,0:0:0:0:
212,352,81755,2,0,B|192:284,1,67.4999979883433,2|0,0:0|2:0,0:0:0:0:
216,96,81926,5,6,0:0:0:0:
276,248,82098,1,2,0:0:0:0:
132,164,82269,1,2,0:0:0:0:
304,152,82441,1,2,0:0:0:0:
112,336,82612,5,2,0:0:0:0:
112,336,82955,1,8,0:0:0:0:
252,232,83126,1,8,0:0:0:0:
40,144,83298,5,2,0:0:0:0:
104,64,83469,1,2,3:0:0:0:
136,76,83555,1,2,3:0:0:0:
168,88,83641,1,8,0:0:0:0:
396,172,83812,1,2,0:0:0:0:
112,336,83984,5,0,0:0:0:0:
304,340,84155,1,2,0:0:0:0:
212,308,84326,2,0,L|228:216,1,67.5000025749208,8|0,0:0|2:0,0:0:0:0:
312,124,84498,2,0,L|328:32,1,67.5000025749208,0|0,0:0|2:0,0:0:0:0:
148,184,84669,5,2,0:0:0:0:
224,136,84841,1,2,0:0:0:0:
172,68,85012,1,8,0:0:0:0:
100,116,85184,1,10,0:0:0:0:
212,308,85355,5,0,0:0:0:0:
212,308,85698,1,8,0:0:0:0:
60,240,85869,1,0,0:0:0:0:
312,304,86041,5,2,0:0:0:0:
404,344,86212,1,2,3:0:0:0:
436,336,86298,1,2,3:0:0:0:
468,324,86384,1,8,0:0:0:0:
252,232,86555,1,0,0:0:0:0:
188,304,86726,5,0,0:0:0:0:
328,256,86898,1,0,0:0:0:0:
172,196,87069,2,0,B|160:156|168:116,1,67.4999979883433,8|0,0:0|2:0,0:0:0:0:
316,96,87241,2,0,B|328:136|320:176,1,67.4999979883433,0|0,0:0|2:0,0:0:0:0:
236,64,87412,5,6,0:0:0:0:
88,168,87584,1,2,0:0:0:0:
252,232,87755,1,8,0:0:0:0:
176,160,87926,1,2,0:0:0:0:
356,36,88098,5,0,0:0:0:0:
356,36,88441,1,0,0:0:0:0:
256,164,88612,1,2,0:0:0:0:
364,336,88784,5,2,0:0:0:0:
264,312,88955,1,2,3:0:0:0:
264,312,89041,1,2,3:0:0:0:
264,312,89126,1,10,0:0:0:0:
408,232,89298,1,2,0:0:0:0:
204,176,89469,6,0,B|176:200|132:192,1,67.4999979883433,2|0,0:0|2:0,0:0:0:0:
289,191,89641,2,0,B|286:227|249:253,1,67.4999979883433,2|0,0:0|2:0,0:0:0:0:
96,120,89812,1,8,0:0:0:0:
352,132,89984,2,0,B|380:164|372:216,1,67.4999979883433,2|0,0:0|2:0,0:0:0:0:
180,56,90155,5,4,0:2:0:0:
256,104,90326,1,0,0:0:0:0:
332,56,90498,1,4,0:0:0:0:
180,56,90669,2,0,B|164:116|180:160,1,90,0|0,1:0|0:0,0:0:0:0:
332,232,91012,5,8,0:0:0:0:
256,280,91183,1,0,1:0:0:0:
180,232,91355,1,2,0:0:0:0:
332,232,91526,2,0,B|348:172|332:128,1,90,4|2,0:0|0:0,0:0:0:0:
180,232,91869,5,0,1:0:0:0:
112,308,92041,1,0,0:0:0:0:
76,200,92212,1,8,0:0:0:0:
180,232,92384,5,0,0:0:0:0:
332,316,92555,1,0,1:0:0:0:
324,148,92726,1,2,0:0:0:0:
276,232,92898,5,0,0:0:0:0:
392,268,98384,5,6,0:0:0:0:
376,168,98555,1,0,0:0:0:0:
472,204,98726,1,2,0:0:0:0:
392,268,98898,2,2,B|296:232|208:256,1,180,2|2,1:0|0:0,0:0:0:0:
144,304,99412,1,2,2:2:0:0:
32,196,99584,1,2,2:2:0:0:
216,64,99755,5,2,0:0:0:0:
172,152,99926,1,2,0:0:0:0:
172,152,100012,1,0,0:0:0:0:
172,152,100098,1,0,0:0:0:0:
112,72,100269,1,2,0:0:0:0:
144,304,100441,6,0,B|192:304|248:288,1,90,10|0,0:0|0:0,0:0:0:0:
368,80,100784,2,0,B|320:80|264:96,1,90,2|2,0:0|0:0,0:0:0:0:
256,196,101126,5,2,0:0:0:0:
328,256,101298,1,0,0:0:0:0:
352,160,101469,1,2,0:0:0:0:
256,196,101641,1,0,0:0:0:0:
352,344,101812,6,0,B|408:340|472:320,1,90,10|2,0:0|0:2,0:0:0:0:
456,64,102155,2,0,B|400:68|336:88,1,90,2|2,0:0|0:2,0:0:0:0:
288,48,102498,5,2,0:0:0:0:
192,128,102669,1,2,0:0:0:0:
112,48,102841,1,2,0:0:0:0:
84,152,103012,5,0,0:0:0:0:
220,276,103184,1,10,0:0:0:0:
60,344,103355,1,0,0:0:0:0:
140,224,103526,5,10,0:0:0:0:
132,304,103698,1,2,0:0:0:0:
352,164,103869,6,0,B|472:176,1,90,4|0,0:0|0:0,0:0:0:0:
216,192,104212,1,2,0:0:0:0:
84,152,104384,1,2,0:0:0:0:
276,112,104555,5,8,0:0:0:0:
220,276,104726,1,2,0:0:0:0:
172,108,104898,1,2,2:0:0:0:
308,240,105069,1,2,2:0:0:0:
136,344,105241,6,0,B|128:288|136:240,1,90,2|2,0:0|0:0,0:0:0:0:
104,220,105498,1,2,0:0:0:0:
76,184,105584,2,0,B|80:140|80:80,1,90,2|2,0:0|0:0,0:0:0:0:
240,200,105926,1,10,0:0:0:0:
240,108,106098,1,2,0:2:0:0:
416,140,106269,2,0,B|408:188|416:240,1,90,2|2,0:0|0:2,0:0:0:0:
468,52,106612,6,2,B|456:116|356:140|316:80,1,180
304,176,107126,1,2,3:0:0:0:
112,348,107298,1,8,0:0:0:0:
240,280,107469,1,2,0:0:0:0:
108,124,107641,1,0,0:0:0:0:
88,228,107812,1,2,0:0:0:0:
292,152,107984,5,2,0:0:0:0:
448,120,108155,1,2,0:0:0:0:
360,88,108326,2,0,B|384:204,1,90,2|10,0:0|0:0,0:0:0:0:
224,192,108669,5,0,0:0:0:0:
378,176,108841,1,2,0:0:0:0:
144,256,109012,2,0,B|120:140,1,90,10|2,0:0|0:0,0:0:0:0:
84,76,109355,6,0,B|132:96|184:72,1,90,4|0,0:0|0:0,0:0:0:0:
392,260,109698,2,0,B|344:280|292:256,1,90,2|0,0:0|0:0,0:0:0:0:
224,192,110041,1,8,0:0:0:0:
144,256,110212,5,2,0:0:0:0:
236,104,110384,1,2,0:0:0:0:
304,261,110555,1,2,0:0:0:0:
224,192,110726,5,2,0:0:0:0:
144,140,110898,1,2,0:0:0:0:
144,140,110984,1,0,0:0:0:0:
144,140,111069,2,0,B|80:140|28:144,1,90,0|2,0:0|0:0,0:0:0:0:
280,280,111412,1,10,0:0:0:0:
328,108,111584,1,2,0:0:0:0:
224,192,111755,1,0,0:0:0:0:
360,248,111926,1,2,0:0:0:0:
156,308,112098,5,2,0:0:0:0:
112,232,112269,1,2,0:0:0:0:
232,336,112441,1,0,0:0:0:0:
88,360,112612,1,2,0:0:0:0:
224,192,112784,5,8,0:0:0:0:
316,312,112955,1,0,0:0:0:0:
428,140,113126,1,2,0:0:0:0:
496,200,113298,1,2,0:0:0:0:
312,224,113469,5,2,0:0:0:0:
296,184,113641,1,2,0:0:0:0:
304,144,113812,1,2,0:0:0:0:
332,120,113984,1,0,0:0:0:0:
204,296,114155,5,8,0:0:0:0:
136,340,114326,1,2,0:0:0:0:
64,308,114498,1,2,0:0:0:0:
128,264,114669,1,2,0:0:0:0:
344,352,114841,6,0,B|444:340,1,90,4|2,0:0|0:0,0:0:0:0:
200,192,115184,2,0,B|100:204,1,90,2|2,0:0|0:0,0:0:0:0:
48,144,115526,1,8,0:0:0:0:
168,272,115698,1,2,0:0:0:0:
256,252,115869,5,2,0:2:0:0:
132,344,116041,1,2,0:2:0:0:
88,216,116212,2,0,B|96:116,1,90,2|2,0:0|0:0,0:0:0:0:
132,104,116469,1,2,3:0:0:0:
172,84,116555,2,0,B|224:88|284:76,1,90,2|2,3:0|0:0,0:0:0:0:
436,272,116898,2,0,B|384:268|324:280,1,90,10|0,0:0|0:0,0:0:0:0:
184,192,117241,5,2,0:0:0:0:
340,168,117412,1,0,0:0:0:0:
288,336,117584,5,2,2:1:0:0:
272,224,117755,1,2,2:1:0:0:
192,296,117926,1,2,2:1:0:0:
340,168,118098,5,2,2:1:0:0:
244,364,118441,1,2,2:1:0:0:
52,252,118784,1,2,2:1:0:0:
52,252,119126,5,2,2:1:0:0:
132,216,119298,1,2,2:1:0:0:
112,96,119469,1,2,2:1:0:0:
56,164,119641,5,8,0:0:0:0:
456,220,119812,1,0,0:0:0:0:
52,252,119984,5,0,0:0:0:0:
440,132,120155,1,2,0:0:0:0:
364,216,120326,6,0,B|308:224|260:192,1,90,4|2,0:0|0:0,0:0:0:0:
216,128,120669,1,0,0:0:0:0:
300,84,120841,1,2,0:0:0:0:
416,324,121012,1,2,0:0:0:0:
456,220,121184,1,0,0:0:0:0:
276,344,121355,5,2,0:0:0:0:
104,296,121526,1,2,0:0:0:0:
152,128,121698,1,2,0:0:0:0:
360,240,121869,1,2,0:0:0:0:
360,240,121955,1,2,0:0:0:0:
360,240,122041,1,2,0:0:0:0:
184,332,122212,1,2,0:0:0:0:
416,324,122384,6,0,B|444:280|448:236,1,90,10|2,0:0|0:0,0:0:0:0:
96,60,122726,2,0,B|68:104|64:148,1,90,0|2,0:0|0:0,0:0:0:0:
284,300,123069,5,6,0:0:0:0:
324,132,123241,1,0,0:0:0:0:
156,168,123412,1,2,0:0:0:0:
248,204,123584,1,2,0:0:0:0:
284,300,123755,5,8,0:0:0:0:
132,240,123926,1,0,0:0:0:0:
244,112,124098,1,2,0:0:0:0:
392,188,124269,1,2,0:0:0:0:
304,40,124441,6,0,B|260:28|200:24,1,90,2|0,0:0|0:0,0:0:0:0:
176,336,124784,2,0,B|220:348|280:352,1,90,2|2,0:0|0:0,0:0:0:0:
464,192,125126,5,8,0:0:0:0:
452,320,125298,1,0,0:0:0:0:
396,120,125469,5,8,0:0:0:0:
272,272,125641,1,2,0:0:0:0:
92,208,125812,2,0,B|84:160|88:104,1,90,6|0,0:0|0:0,0:0:0:0:
236,40,126155,2,0,B|244:88|240:144,1,90,2|0,0:0|0:0,0:0:0:0:
192,212,126498,5,10,0:0:0:0:
320,80,126669,1,0,0:0:0:0:
352,260,126841,1,2,0:0:0:0:
284,192,127012,1,2,0:0:0:0:
192,212,127184,6,0,B|144:212|100:216,1,90,2|2,0:0|0:0,0:0:0:0:
64,192,127441,1,2,0:0:0:0:
36,160,127526,2,0,B|24:56,1,90,2|0,0:0|0:0,0:0:0:0:
144,288,127869,2,0,B|120:380,1,90,10|0,0:0|0:0,0:0:0:0:
144,92,128212,5,0,0:0:0:0:
232,104,128384,1,2,0:0:0:0:
320,80,128555,2,0,B|364:88|412:88,1,90,4|0,0:0|0:0,0:0:0:0:
436,264,128898,1,2,0:0:0:0:
348,276,129069,1,0,0:0:0:0:
176,156,129241,5,8,0:0:0:0:
92,164,129412,2,2,B|52:260|112:344,1,180
412,152,129926,5,2,0:0:0:0:
388,72,130098,1,2,0:0:0:0:
468,88,130269,1,2,0:0:0:0:
256,136,130441,5,8,0:0:0:0:
212,64,130612,1,0,0:0:0:0:
240,220,130784,1,2,0:0:0:0:
328,92,130955,5,10,0:0:0:0:
152,176,131126,1,0,0:0:0:0:
324,260,131298,6,0,B|380:264|428:256,1,90,4|0,0:0|0:0,0:0:0:0:
456,172,131641,2,0,B|400:168|352:176,1,90,2|0,0:0|0:0,0:0:0:0:
260,164,131984,1,8,0:0:0:0:
152,176,132155,1,2,0:0:0:0:
136,68,132326,1,2,0:0:0:0:
244,48,132498,1,0,0:0:0:0:
152,176,132669,6,0,B|100:176|48:148,1,90,2|2,0:0|0:0,0:0:0:0:
52,140,132926,1,2,0:0:0:0:
40,120,133012,1,2,0:0:0:0:
260,164,133184,1,0,0:0:0:0:
440,36,133355,2,0,B|440:88|412:140,1,90,10|0,0:0|0:0,0:0:0:0:
284,256,133698,5,2,0:0:0:0:
336,128,133869,1,2,0:0:0:0:
200,96,134041,2,0,B|248:92|288:56,1,90,4|0,0:0|0:0,0:0:0:0:
204,252,134384,2,0,B|176:212|125:195,1,90,2|0,0:0|0:0,0:0:0:0:
360,208,134726,1,8,0:0:0:0:
360,208,134898,2,0,B|339:251|350:304,2,90,0|2|2,0:0|0:0|0:0,0:0:0:0:
428,152,135412,5,2,0:0:0:0:
200,96,135584,1,0,0:0:0:0:
292,64,135755,5,2,0:0:0:0:
64,64,135926,1,2,0:0:0:0:
148,32,136098,5,8,0:0:0:0:
80,272,136269,1,0,0:0:0:0:
104,184,136441,5,2,0:0:0:0:
168,352,136612,1,2,0:0:0:0:
288,272,136784,6,0,B|388:288,1,90,4|0,0:0|0:0,0:0:0:0:
428,152,137126,2,0,B|320:136,1,90,2|0,0:0|0:0,0:0:0:0:
272,80,137469,1,8,0:0:0:0:
184,140,137641,1,0,0:0:0:0:
148,32,137812,1,2,0:0:0:0:
104,184,137984,1,0,0:0:0:0:
52,84,138155,5,2,0:0:0:0:
184,140,138326,1,0,0:0:0:0:
316,196,138498,1,0,0:0:0:0:
232,216,138669,1,2,0:0:0:0:
152,232,138841,5,10,0:0:0:0:
292,276,139012,1,0,0:0:0:0:
432,320,139184,1,2,0:0:0:0:
352,80,139355,1,2,0:0:0:0:
412,140,139526,6,0,B|472:136|504:128,1,90,6|0,0:0|0:0,0:0:0:0:
460,228,139869,2,0,B|400:232|368:240,1,90,2|0,0:0|0:0,0:0:0:0:
164,328,140212,1,8,0:0:0:0:
164,328,140384,2,2,B|208:280|296:296|312:372,1,180
309,361,141069,5,2,0:0:0:0:
256,132,141241,1,8,0:0:0:0:
432,320,141412,1,2,0:0:0:0:
256,216,141584,5,2,0:0:0:0:
92,320,141755,5,2,0:0:0:0:
256,108,141926,1,8,0:0:0:0:
212,364,142098,1,2,0:0:0:0:
