osu file format v14

[General]
AudioFilename: audio.mp3
AudioLeadIn: 0
PreviewTime: 70869
Countdown: 1
SampleSet: Normal
StackLeniency: 0.7
Mode: 0
LetterboxInBreaks: 0
WidescreenStoryboard: 0

[Editor]
DistanceSpacing: 1
BeatDivisor: 4
GridSize: 4
TimelineZoom: 1

[Metadata]
Title:8BIT FAIRY TALE
TitleUnicode:8BIT FAIRY TALE
Artist:LukHash
ArtistUnicode:LukHash
Creator:Delis
Version:Easy
Source:
Tags:other side
BeatmapID:1773234
BeatmapSetID:847930

[Difficulty]
HPDrainRate:2
CircleSize:3
OverallDifficulty:3
ApproachRate:3
SliderMultiplier:0.9
SliderTickRate:1

[Events]
//Background and Video events
0,0,"asdfghjk.jpg",0,0
//Break Periods
2,43383,44829
2,93709,96944
2,117441,118201
//Storyboard Layer 0 (Background)
//Storyboard Layer 1 (Fail)
//Storyboard Layer 2 (Pass)
//Storyboard Layer 3 (Foreground)
//Storyboard Sound Samples

[TimingPoints]
2384,342.857142857143,4,1,1,40,1,0
13355,-100,4,1,2,40,0,0
22955,-100,4,1,1,40,0,0
23384,-100,4,1,2,40,0,0
23812,-100,4,1,1,50,0,0
25098,-100,4,1,2,50,0,0
25269,-100,4,1,1,50,0,0
25612,-100,4,1,2,40,0,0
25784,-100,4,1,1,40,0,0
26126,-100,4,1,2,40,0,0
26298,-100,4,1,1,40,0,0
26469,-100,4,1,2,40,0,0
26641,-100,4,1,1,40,0,0
27069,-100,4,1,1,50,0,0
27841,-100,4,1,2,50,0,0
28012,-100,4,1,1,50,0,0
28441,-100,4,1,2,40,0,0
29041,-100,4,1,1,40,0,0
29212,-100,4,1,2,40,0,0
29384,-100,4,1,1,40,0,0
29812,-100,4,1,1,50,0,0
30669,-100,4,1,2,50,0,0
30841,-100,4,1,1,50,0,0
31184,-100,4,1,1,60,0,0
31955,-100,4,1,2,60,0,0
32126,-100,4,1,1,60,0,0
32555,-100,4,1,1,40,0,0
33926,-100,4,1,1,50,0,0
34698,-100,4,1,2,50,0,0
34869,-100,4,1,1,50,0,0
35041,-100,4,1,2,50,0,0
35212,-100,4,1,1,50,0,0
36069,-100,4,1,2,50,0,0
36241,-100,4,1,1,50,0,0
36584,-100,4,1,2,40,0,0
36755,-100,4,1,1,40,0,0
37098,-100,4,1,2,40,0,0
37269,-100,4,1,1,40,0,0
37441,-100,4,1,2,40,0,0
37784,-100,4,1,1,40,0,0
38041,-100,4,1,1,50,0,0
38812,-100,4,1,2,50,0,0
38984,-100,4,1,1,50,0,0
39412,-100,4,1,2,40,0,0
40098,-100,4,1,1,40,0,0
40269,-100,4,1,2,40,0,0
40441,-100,4,1,1,40,0,0
40784,-100,4,1,2,50,0,0
41212,-100,4,1,1,50,0,0
41384,-100,4,1,2,50,0,0
41726,-100,4,1,1,50,0,0
42155,-100,4,1,1,40,0,0
42926,-100,4,1,2,40,0,0
43098,-100,4,1,1,40,0,0
43526,-133.333333333333,4,3,1,50,0,0
44041,-133.333333333333,4,1,1,40,0,0
44555,-133.333333333333,4,3,1,50,0,0
46269,-100,4,1,1,50,0,0
55784,-100,4,1,2,50,0,0
55955,-100,4,1,1,50,0,0
56641,-100,4,1,2,50,0,0
56812,-100,4,1,1,50,0,0
67012,-100,4,1,2,50,0,0
67184,-100,4,1,1,50,0,0
67441,-100,4,1,2,50,0,0
67784,-100,4,1,1,50,0,0
69584,-100,4,1,1,60,0,0
70784,-100,4,1,1,10,0,0
70955,-100,4,1,2,60,0,0
71126,-100,4,1,1,60,0,0
71812,-100,4,1,2,60,0,0
71984,-100,4,1,1,60,0,0
72326,-100,4,1,2,50,0,0
72498,-100,4,1,1,50,0,0
72841,-100,4,1,2,50,0,0
73012,-100,4,1,1,50,0,0
73184,-100,4,1,2,50,0,0
73355,-100,4,1,1,50,0,0
73698,-100,4,1,1,60,0,0
74641,-100,4,1,2,60,0,0
74898,-100,4,1,1,60,0,0
75069,-100,4,1,2,50,0,0
76441,-100,4,1,2,60,0,0
76526,-100,4,1,1,60,0,0
77298,-100,4,1,2,60,0,0
77469,-100,4,1,1,60,0,0
77812,-100,4,1,1,70,0,0
78669,-100,4,1,2,70,0,0
78755,-100,4,1,1,70,0,0
79184,-100,4,1,1,60,0,0
80041,-100,4,1,2,60,0,0
80555,-100,4,1,1,70,0,0
81326,-100,4,1,1,5,0,0
81412,-100,4,1,2,70,0,0
81498,-100,4,1,2,5,0,0
81584,-100,4,1,1,70,0,0
81669,-100,4,1,1,5,0,0
81755,-100,4,1,1,70,0,0
81841,-100,4,1,1,5,0,0
81926,-100,4,1,1,60,0,0
82784,-100,4,1,2,60,0,0
82955,-100,4,1,1,60,0,0
83298,-100,4,1,2,50,0,0
84669,-100,4,1,1,60,0,0
85526,-100,4,1,2,60,0,0
85698,-100,4,1,1,60,0,0
86041,-100,4,1,2,50,0,0
87412,-100,4,1,1,60,0,0
88269,-100,4,1,2,60,0,0
88441,-100,4,1,1,60,0,0
88784,-100,4,1,1,70,0,0
90155,-100,4,3,1,50,0,0
92898,-100,4,3,1,30,0,0
98384,-100,4,1,1,50,0,0
107899,-100,4,1,2,50,0,0
108070,-100,4,1,1,50,0,0
108756,-100,4,1,2,50,0,0
108927,-100,4,1,1,50,0,0
117584,-100,4,1,1,40,0,0
119555,-100,4,1,1,60,0,0
120069,-100,4,1,2,60,0,0
120241,-100,4,1,1,60,0,0
125555,-100,4,1,2,60,0,0
125726,-100,4,1,1,60,0,0
129841,-100,4,1,2,60,0,0
130012,-100,4,1,1,60,0,0
141498,-100,4,1,2,60,0,0
141669,-100,4,1,1,60,0,0

[Colours]
Combo1 : 182,149,73
Combo2 : 1,167,197
Combo3 : 102,170,119
Combo4 : 134,145,121

[HitObjects]
112,280,2383,6,0,B|220:256|172:320|316:280,1,180,0|0,0:0|0:0,0:0:0:0:
440,192,3755,2,0,B|332:216|380:152|236:192,1,180,0|0,0:0|0:0,0:0:0:0:
120,80,5126,5,0,0:0:0:0:
300,60,5812,1,0,0:0:0:0:
300,240,6498,2,0,B|376:300|472:252,1,180
488,164,7526,1,0,0:0:0:0:
444,84,7869,6,0,B|384:60|384:60|360:116|268:104,1,180,0|0,0:0|0:0,0:0:0:0:
192,260,9241,2,0,B|252:284|252:284|276:228|368:240,1,180,0|0,0:0|0:0,0:0:0:0:
244,92,10612,2,0,B|220:156|132:172|88:124,1,180,0|0,0:0|0:0,0:0:0:0:
236,244,11984,2,0,B|260:180|348:164|392:212,1,180,0|2,0:0|0:0,0:0:0:0:
436,280,13012,1,4,0:2:0:0:
376,348,13355,6,0,B|312:356|272:336,1,90,6|8,0:0|0:0,0:0:0:0:
144,232,14384,1,8,0:0:0:0:
188,156,14726,1,2,0:0:0:0:
240,228,15069,2,0,B|292:264|380:232|388:160,1,180,8|8,0:0|0:0,0:0:0:0:
444,104,16098,6,0,B|400:84|344:92,1,90,2|8,0:0|0:0,0:0:0:0:
188,156,17126,1,8,0:0:0:0:
100,132,17469,2,0,B|92:80|124:32,2,90,2|8|0,0:0|0:0|0:0,0:0:0:0:
72,216,18498,1,8,0:0:0:0:
132,284,18841,6,0,B|116:388,1,90,2|8,0:0|0:0,0:0:0:0:
208,368,19526,2,0,B|224:264,1,90,0|8,0:0|0:0,0:0:0:0:
264,200,20212,2,0,B|252:152|264:96,2,90,2|8|0,0:0|0:0|0:0,0:0:0:0:
352,228,21241,1,8,0:0:0:0:
440,212,21584,6,0,B|452:264|440:324,1,90,2|8,0:0|0:0,0:0:0:0:
272,356,22612,1,8,0:0:0:0:
200,304,22955,2,0,B|152:296|152:296|108:324,2,90,10|10|2,0:0|0:0|0:0,0:0:0:0:
348,200,24326,6,2,B|352:132|240:88|184:164,1,180,6|0,0:0|0:0,0:0:0:0:
168,216,25355,1,10,0:0:0:0:
120,140,25698,2,0,B|104:36,1,90,2|10,0:0|0:0,0:0:0:0:
28,96,26384,2,0,B|56:280,1,180,10|6,0:0|0:0,0:0:0:0:
120,336,27412,6,0,B|176:352|212:312|212:312|300:336,1,180,8|8,0:0|0:0,0:0:0:0:
376,308,28441,2,0,B|396:264|380:204,1,90,2|8,0:0|0:0,0:0:0:0:
324,152,29126,2,0,B|308:108|336:48,1,90,2|10,0:0|0:0,0:0:0:0:
408,108,29812,5,6,0:0:0:0:
420,196,30155,2,0,B|404:264|316:288|260:236,1,180,8|8,0:0|0:0,0:0:0:0:
220,176,31184,2,0,B|184:204|120:196,1,90,2|10,0:0|0:0,0:0:0:0:
76,128,31869,2,0,B|112:100|176:108,1,90,2|10,0:0|0:0,0:0:0:0:
236,52,32555,6,2,B|400:68,2,135,6|2|8,0:0|0:0|0:0,0:0:0:0:
148,40,33926,1,4,0:2:0:0:
124,220,34612,1,4,0:2:0:0:
212,208,34955,1,8,0:0:0:0:
288,260,35298,6,2,B|340:296|428:268|436:192,1,180,6|2,0:0|0:0,0:0:0:0:
416,120,36326,1,10,0:0:0:0:
328,144,36669,2,0,B|220:128,1,90,2|10,0:0|0:0,0:0:0:0:
152,100,37355,2,0,B|168:212,1,90,2|10,0:0|0:0,0:0:0:0:
132,272,38041,6,2,B|68:228|-16:240,2,135,6|2|8,0:0|0:0|0:0,0:0:0:0:
180,348,39412,1,2,0:0:0:0:
248,292,39755,2,0,B|312:260|392:304|388:384,1,180,8|10,0:0|0:0,0:0:0:0:
468,320,40784,6,2,B|448:124,1,180,6|0,0:0|0:0,0:0:0:0:
388,76,41812,1,10,0:0:0:0:
320,136,42155,1,2,0:0:0:0:
268,64,42498,2,2,B|208:32|128:68|132:144,1,180,10|8,0:0|0:0,0:0:0:0:
328,172,46269,6,0,B|380:208|376:296|312:328,2,180,6|10|2,0:0|0:0|0:0,0:0:0:0:
240,184,47984,1,0,0:0:0:0:
164,136,48326,2,0,B|60:156,1,90,10|2,0:0|0:0,0:0:0:0:
96,64,49012,6,2,B|172:52|172:52|204:60|204:60|304:40,1,180,2|10,0:0|0:0,0:0:0:0:
416,156,50384,2,0,B|372:124|320:136,1,90,2|2,0:0|0:0,0:0:0:0:
256,184,51069,1,10,0:0:0:0:
272,272,51412,1,10,0:0:0:0:
196,320,51755,6,2,B|136:312|104:232|160:176,1,180,6|8,0:0|0:0,0:0:0:0:
312,92,53126,1,2,0:0:0:0:
392,132,53469,1,2,0:0:0:0:
368,220,53812,2,0,B|356:268|352:328,1,90,10|2,0:0|0:0,0:0:0:0:
268,336,54498,6,2,B|288:232|208:160,1,180,2|8,0:0|0:0,0:0:0:0:
132,144,55526,1,0,0:0:0:0:
192,76,55869,2,0,B|268:84|328:36,1,135,2|10,0:0|0:0,0:0:0:0:
388,100,56726,2,0,B|368:168,1,45,2|10,0:0|0:0,0:0:0:0:
320,212,57241,6,0,B|284:280|332:352|404:356,2,180,4|8|4,0:0|0:0|0:0,0:0:0:0:
164,124,59298,2,0,B|192:168|176:228,1,90,10|2,0:0|0:0,0:0:0:0:
188,300,59984,6,2,B|268:244|376:272,1,180,2|8,0:0|0:0,0:0:0:0:
440,312,61012,1,2,0:0:0:0:
444,224,61355,2,0,B|464:124,1,90,2|2,0:0|0:0,0:0:0:0:
372,132,62041,2,0,B|356:24,1,90,8|2,0:0|0:0,0:0:0:0:
276,80,62726,6,0,B|212:128|212:128|148:124|112:76,2,180,6|8|2,0:0|0:0|0:0,0:0:0:0:
344,248,64784,2,0,B|312:284|260:276,1,90,8|2,0:0|0:0,0:0:0:0:
188,228,65469,6,2,B|120:152|0:188,1,180,2|8,0:0|0:0,0:0:0:0:
128,96,66669,2,2,B|204:116|256:48,1,135,2|8,0:0|0:0,0:0:0:0:
304,128,67526,2,0,B|368:124|408:172,1,90,2|8,0:0|0:0,0:0:0:0:
256,192,68212,12,6,70955,0:0:0:0:
348,280,72326,5,2,0:0:0:0:
268,324,72669,2,0,B|248:128,1,180,8|0,0:0|0:0,0:0:0:0:
300,72,73698,5,6,0:0:0:0:
380,108,74041,2,2,B|324:176|352:288,1,180,10|8,0:0|0:0,0:0:0:0:
272,320,75069,2,0,B|252:220,1,90,2|8,0:0|0:0,0:0:0:0:
192,164,75755,2,0,B|128:144|68:156,1,90,0|8,0:0|0:0,0:0:0:0:
68,68,76441,5,6,0:0:0:0:
156,56,76784,2,2,B|212:56|256:80|256:80|284:48|352:48,1,180,2|8,0:0|0:0,0:0:0:0:
412,68,77812,2,0,B|424:164,1,90,2|10,0:0|0:0,0:0:0:0:
344,204,78498,2,0,B|328:248|332:304,1,90,2|8,0:0|0:0,0:0:0:0:
380,368,79184,5,4,0:0:0:0:
252,328,79698,2,0,B|176:316|112:344,1,135,2|8,3:0|0:0,0:0:0:0:
64,268,80555,2,0,B|40:164,2,90,2|8|2,0:0|0:0|0:0,0:0:0:0:
152,244,81584,1,0,0:0:0:0:
240,232,81926,6,0,B|288:236|336:252,1,90,6|2,0:0|0:0,0:0:0:0:
416,224,82612,2,0,B|408:172|424:120,1,90,2|8,0:0|0:0,0:0:0:0:
444,48,83298,1,2,0:0:0:0:
356,68,83641,2,2,B|156:52,1,180,10|8,0:0|0:0,0:0:0:0:
92,80,84669,6,0,B|48:148|92:228,2,135,2|2|8,0:0|0:0|0:0,0:0:0:0:
168,128,86041,2,0,B|224:220|328:168|328:168|308:220|360:268,1,270,2|8,0:0|0:0,0:0:0:0:
416,296,87412,5,6,0:0:0:0:
488,240,87755,2,0,B|472:120,2,90,8|0|8,0:0|0:0|0:0,0:0:0:0:
504,328,88784,1,2,0:0:0:0:
416,296,89126,2,2,B|308:328|336:260|228:288,1,180,10|8,0:0|0:0,0:0:0:0:
172,228,90155,1,4,0:2:0:0:
256,192,90326,12,0,92898,0:0:0:0:
256,192,98384,5,6,0:0:0:0:
184,244,98726,2,0,B|68:248,1,90,2|0,0:0|0:0,0:0:0:0:
196,96,99755,2,2,B|380:92,1,180,2|10,0:0|0:0,0:0:0:0:
452,140,100784,1,2,0:0:0:0:
484,224,101126,6,0,B|492:272|484:332,2,90,2|2|10,0:0|0:0|0:0,0:0:0:0:
452,140,102155,1,2,0:0:0:0:
376,188,102498,2,2,B|164:196,1,180,2|10,0:0|0:0,0:0:0:0:
108,196,103526,1,10,0:0:0:0:
64,116,103869,6,0,B|92:60|184:56|220:108,1,180,4|8,0:0|0:0,0:0:0:0:
356,220,105241,2,0,B|380:180|364:120,2,90,2|2|10,0:0|0:0|0:0,0:0:0:0:
272,248,106269,1,2,0:0:0:0:
216,176,106612,6,0,B|148:248|44:208,2,180,2|8|2,0:0|0:0|0:0,0:0:0:0:
328,100,108498,2,2,B|308:240,1,135,10|10,0:0|0:0,0:0:0:0:
276,320,109355,6,0,B|176:276|100:360,1,180,4|8,0:0|0:0,0:0:0:0:
40,292,110384,1,2,0:0:0:0:
96,224,110726,2,0,B|116:180|100:128,1,90,2|0,0:0|0:0,0:0:0:0:
164,72,111412,2,2,B|180:132|256:160|324:116,1,180,10|2,0:0|0:0,0:0:0:0:
472,36,112784,6,0,B|444:224,1,180,8|2,0:0|0:0,0:0:0:0:
368,260,113812,1,2,0:0:0:0:
292,212,114155,2,0,B|300:160|276:108,2,90,8|2|4,0:0|0:0|0:0,0:0:0:0:
260,296,115184,5,2,0:0:0:0:
172,320,115526,2,0,B|64:332,1,90,8|2,0:0|0:2,0:0:0:0:
100,240,116212,2,2,B|136:192|112:96|32:88,1,180,2|10,0:0|0:0,0:0:0:0:
32,180,117241,1,2,0:0:0:0:
256,192,119641,5,8,0:0:0:0:
344,188,119984,1,0,0:0:0:0:
336,276,120326,2,0,B|244:268|148:280,1,180,4|2,0:0|0:0,0:0:0:0:
80,324,121355,1,2,0:0:0:0:
72,236,121698,2,0,B|64:120,1,90,2|2,0:0|0:0,0:0:0:0:
152,120,122384,2,0,B|156:232,1,90,10|0,0:0|0:0,0:0:0:0:
240,240,123069,6,2,B|340:276|412:208,1,180,6|8,0:0|0:0,0:0:0:0:
496,200,124098,2,0,B|468:160|488:84,1,90,2|2,0:0|0:0,0:0:0:0:
412,56,124784,1,2,0:0:0:0:
336,104,125126,2,0,B|236:96,1,90,8|8,0:0|0:0,0:0:0:0:
172,44,125812,6,2,B|116:68|104:160|160:200,1,180,6|10,0:0|0:0,0:0:0:0:
244,184,126841,1,2,0:0:0:0:
324,224,127184,2,0,B|336:276|308:332,1,90,2|2,0:0|0:0,0:0:0:0:
236,352,127869,2,0,B|224:300|252:244,1,90,10|0,0:0|0:0,0:0:0:0:
160,224,128555,6,2,B|148:292|64:320|16:280,1,180,4|8,0:0|0:0,0:0:0:0:
88,164,129755,2,2,B|128:112|220:120|252:184,1,180,2|8,0:0|0:0,0:0:0:0:
316,116,130784,2,0,B|376:128,1,45,2|10,0:0|0:0,0:0:0:0:
444,92,131298,6,0,B|456:284,1,180,4|8,0:0|0:0,0:0:0:0:
380,320,132326,1,2,0:0:0:0:
312,264,132669,2,0,B|264:236|216:248,1,90,2|2,0:0|0:0,0:0:0:0:
144,284,133355,2,2,B|84:280|44:196|108:132,1,180,10|4,0:0|0:0,0:0:0:0:
152,72,134384,5,2,0:0:0:0:
236,104,134726,2,0,B|284:120|344:116,1,90,8|2,0:0|0:0,0:0:0:0:
404,76,135412,1,2,0:0:0:0:
404,168,135755,2,0,B|416:268,2,90,2|8|2,0:0|0:0|0:0,0:0:0:0:
324,128,136784,6,2,B|264:152|236:224|280:296,1,180,6|8,0:0|0:0,0:0:0:0:
320,356,137812,1,2,0:0:0:0:
232,360,138155,2,0,B|140:320|36:344,1,180,2|10,0:0|0:0,0:0:0:0:
24,256,139184,1,2,0:0:0:0:
88,192,139526,6,0,B|108:148|92:96,2,90,6|2|8,0:0|0:0|0:0,0:0:0:0:
212,248,140726,2,2,B|376:228,1,135,2|8,0:0|0:0,0:0:0:0:
420,284,141584,2,0,B|448:244|428:180,2,90,2|8|0,0:0|0:0|0:0,0:0:0:0:
