osu file format v14

[General]
AudioFilename: audio.mp3
AudioLeadIn: 0
PreviewTime: 24241
Countdown: 0
SampleSet: Soft
StackLeniency: 0.7
Mode: 2
LetterboxInBreaks: 0
WidescreenStoryboard: 0

[Editor]
Bookmarks: 49012
DistanceSpacing: 1
BeatDivisor: 4
GridSize: 32
TimelineZoom: 1

[Metadata]
Title:8BIT FAIRY TALE
TitleUnicode:8BIT FAIRY TALE
Artist:LukHash
ArtistUnicode:LukHash
Creator:Ascendance
Version:Overdose
Source:osu!
Tags:other side electronic jbhyperion jbh rocma no492_shaymin _asriel -_magic_bomb_- mbomb osu_gangster ster chara -plus- bunnrei mappers guild fruit factory fairytale
BeatmapID:2184880
BeatmapSetID:1045131

[Difficulty]
HPDrainRate:7
CircleSize:4
OverallDifficulty:9.2
ApproachRate:9.2
SliderMultiplier:2.2
SliderTickRate:2

[Events]
//Background and Video events
0,0,"glitch-2717630_1920.jpg",0,0
//Break Periods
//Storyboard Layer 0 (Background)
//Storyboard Layer 1 (Fail)
//Storyboard Layer 2 (Pass)
//Storyboard Layer 3 (Foreground)
//Storyboard Layer 4 (Overlay)
//Storyboard Sound Samples

[TimingPoints]
2384,342.857142857143,4,2,50,55,1,0
13355,-100,4,2,50,60,0,0
21584,-100,4,2,50,62,0,0
22955,-100,4,2,50,64,0,0
23641,-100,4,2,50,66,0,0
24326,-100,4,2,1,90,0,0
43526,-100,4,2,50,75,0,0
46269,-100,4,2,1,82,0,0
68212,-100,4,2,1,60,0,0
70955,-100,4,2,1,90,0,0
90155,-100,4,2,50,75,0,0
92898,-100,4,2,2,50,0,0
93069,-100,4,2,2,40,0,0
98384,-100,4,2,1,82,0,0
117584,-100,4,2,2,70,0,0
119641,-100,4,2,1,82,0,0
142269,-100,4,2,2,70,0,0
142441,-100,4,2,2,65,0,0
142612,-100,4,2,2,60,0,0
142784,-100,4,2,2,55,0,0
143298,-100,4,2,2,50,0,0
143984,-100,4,2,2,35,0,0
158726,-100,4,2,2,25,0,0
161469,-100,4,2,2,15,0,0
164212,-100,4,2,2,8,0,0
166612,-100,4,2,2,6,0,0

[Colours]
Combo1 : 240,90,150
Combo2 : 40,20,130
Combo3 : 220,20,90
Combo4 : 120,100,230

[HitObjects]
126,341,2383,6,0,L|111:208,1,110
259,221,2726,2,0,L|259:100,1,110,4|0,0:0|0:0,0:0:0:0:
391,348,3069,2,0,L|406:215,1,110
253,221,3412,2,0,L|253:100,1,110,4|0,0:0|0:0,0:0:0:0:
438,59,3755,6,0,L|299:39,1,110,0|0,0:0|0:0,0:0:0:0:
193,208,4098,2,0,L|327:197,1,110,4|0,0:0|0:0,0:0:0:0:
438,59,4441,2,0,L|299:39,1,110,0|0,0:0|0:0,0:0:0:0:
193,208,4784,2,0,L|327:197,1,110,4|0,0:0|0:0,0:0:0:0:
124,102,5126,6,0,L|109:237,1,110,0|0,0:0|0:0,0:0:0:0:
258,105,5469,2,0,L|271:229,1,110,4|0,0:0|0:0,0:0:0:0:
106,103,5812,2,0,L|91:238,1,110,0|0,0:0|0:0,0:0:0:0:
258,105,6155,2,0,L|271:229,1,110,4|0,0:0|0:0,0:0:0:0:
406,103,6498,6,0,L|421:238,1,110,0|0,0:0|0:0,0:0:0:0:
254,105,6841,2,0,L|241:229,1,110,4|0,0:0|0:0,0:0:0:0:
406,103,7184,2,0,L|421:238,1,110,0|0,0:0|0:0,0:0:0:0:
254,105,7527,2,0,L|241:229,1,110,4|0,0:0|0:0,0:0:0:0:
56,352,7869,5,0,0:0:0:0:
42,245,8040,1,0,0:0:0:0:
189,220,8211,1,4,0:0:0:0:
193,119,8383,1,0,0:0:0:0:
341,271,8555,5,0,0:0:0:0:
361,153,8726,1,0,0:0:0:0:
200,160,8897,1,4,0:0:0:0:
195,59,9069,1,0,0:0:0:0:
48,175,9241,6,0,L|61:49,1,110,0|0,0:0|0:0,0:0:0:0:
186,173,9584,2,0,L|201:52,1,110,4|0,0:0|0:0,0:0:0:0:
346,146,9926,2,0,L|371:25,1,110,0|0,0:0|0:0,0:0:0:0:
204,312,10269,2,0,L|188:201,1,110,4|0,0:0|0:0,0:0:0:0:
360,175,10612,6,0,L|347:49,1,110,0|0,0:0|0:0,0:0:0:0:
222,173,10955,2,0,L|207:52,1,110,4|0,0:0|0:0,0:0:0:0:
62,146,11297,2,0,L|37:25,1,110,0|0,0:0|0:0,0:0:0:0:
204,312,11640,2,0,L|220:201,1,110,4|0,0:0|0:0,0:0:0:0:
379,207,11984,6,0,L|404:98,1,110,0|0,0:0|0:0,0:0:0:0:
233,344,12326,2,0,L|219:223,1,110,4|0,0:0|0:0,0:0:0:0:
465,338,12669,2,0,P|485:256|383:188,1,220,0|6,0:0|0:0,0:0:0:0:
268,184,13184,1,0,0:0:0:0:
135,184,13355,6,0,L|128:311,1,110,2|0,0:0|0:0,0:0:0:0:
392,171,13698,2,0,L|404:30,1,110,10|0,0:0|0:0,0:0:0:0:
273,240,14041,2,0,L|391:241,1,110,0|2,0:0|0:0,0:0:0:0:
81,354,14384,2,0,L|74:231,1,110,10|0,0:0|0:0,0:0:0:0:
215,307,14726,6,0,L|342:307,1,110,2|0,0:0|0:0,0:0:0:0:
58,220,15069,2,0,L|56:103,1,110,10|2,0:0|0:0,0:0:0:0:
185,143,15412,2,0,L|70:145,1,110,0|2,0:0|0:0,0:0:0:0:
321,282,15755,2,0,L|201:282,1,110,10|0,0:0|0:0,0:0:0:0:
76,340,16098,6,0,L|78:208,1,110,2|0,0:0|0:0,0:0:0:0:
322,335,16441,2,0,L|461:335,1,110,10|0,0:0|0:0,0:0:0:0:
269,295,16784,2,0,L|128:294,1,110,0|2,0:0|0:0,0:0:0:0:
450,240,17126,2,0,L|458:100,1,110,10|0,0:0|0:0,0:0:0:0:
293,264,17469,6,0,L|438:263,1,110,2|0,0:0|0:0,0:0:0:0:
136,341,17812,2,0,L|149:226,1,110,10|0,0:0|0:0,0:0:0:0:
290,243,18155,2,0,L|309:128,1,110,0|2,0:0|0:0,0:0:0:0:
51,371,18498,2,0,L|41:240,1,110,14|2,0:0|0:0,0:0:0:0:
205,291,18841,6,0,L|331:291,1,110,2|0,0:0|0:0,0:0:0:0:
60,204,19184,2,0,L|45:89,1,110,10|0,0:0|0:0,0:0:0:0:
191,232,19526,2,0,L|66:225,1,110,0|2,0:0|0:0,0:0:0:0:
388,321,19869,2,0,L|394:208,1,110,10|0,0:0|0:0,0:0:0:0:
261,283,20212,6,0,L|130:278,1,110,2|0,0:0|0:0,0:0:0:0:
451,223,20555,2,0,L|468:86,1,110,10|2,0:0|0:0,0:0:0:0:
340,261,20898,2,0,L|460:257,1,110,0|2,0:0|0:0,0:0:0:0:
193,140,21241,2,0,L|326:135,1,110,10|0,0:0|0:0,0:0:0:0:
38,51,21584,5,2,0:0:0:0:
165,54,21755,1,0,0:0:0:0:
474,51,21926,1,10,0:0:0:0:
347,54,22097,1,0,0:0:0:0:
41,158,22269,5,0,0:0:0:0:
168,161,22440,1,2,0:0:0:0:
477,158,22611,1,10,0:0:0:0:
350,161,22784,1,0,0:0:0:0:
56,314,22955,6,0,L|54:193,1,110,10|0,0:0|0:0,0:0:0:0:
339,223,23298,1,10,0:0:0:0:
56,196,23469,1,2,0:0:0:0:
351,226,23641,2,0,L|475:223,1,110,2|10,0:0|0:0,0:0:0:0:
138,142,23984,2,0,L|9:144,1,110,0|10,0:0|0:0,0:0:0:0:
329,325,24326,6,0,L|329:280,1,27.5,6|0,0:1|0:0,0:0:0:0:
213,266,24498,1,0,0:0:0:0:
458,230,24669,1,10,0:0:0:0:
163,150,24841,2,0,L|396:150,1,220,0|2,0:0|0:0,0:0:0:0:
57,198,25355,2,0,L|43:336,1,110,10|0,0:0|0:0,0:0:0:0:
344,318,25698,6,0,L|357:283,1,27.5,2|0,0:0|0:0,0:0:0:0:
218,217,25869,2,0,L|210:189,1,27.5,0|0,0:0|0:0,0:0:0:0:
340,168,26041,2,0,L|353:133,1,27.5,10|0,0:0|0:0,0:0:0:0:
214,67,26212,2,0,L|206:39,1,27.5,2|0,0:0|0:0,0:0:0:0:
354,27,26384,2,0,L|353:139,1,110,0|2,0:0|0:0,0:0:0:0:
69,274,26726,2,0,L|190:275,1,110,10|0,0:0|0:0,0:0:0:0:
456,334,27069,6,0,L|465:290,1,27.5,6|0,0:0|0:0,0:0:0:0:
345,267,27241,1,0,0:0:0:0:
89,270,27412,1,10,0:0:0:0:
371,286,27584,2,0,P|456:217|396:132,1,220,0|2,0:0|0:0,0:0:0:0:
120,64,28098,2,0,L|115:179,1,110,10|0,0:0|0:0,0:0:0:0:
403,39,28441,6,0,L|401:69,1,27.5,2|0,0:0|0:0,0:0:0:0:
286,90,28612,2,0,L|281:137,1,27.5,0|0,0:0|0:0,0:0:0:0:
161,132,28784,2,0,L|157:178,1,27.5,10|0,0:0|0:0,0:0:0:0:
286,90,28955,2,0,L|292:40,1,27.5,0|0,0:0|0:0,0:0:0:0:
34,248,29126,2,0,L|273:241,1,220,0|10,0:0|0:0,0:0:0:0:
105,167,29641,1,2,0:0:0:0:
433,178,29812,6,0,L|465:178,1,27.5,6|0,0:0|0:0,0:0:0:0:
328,108,29984,1,0,0:0:0:0:
61,105,30155,1,10,0:0:0:0:
334,98,30326,2,0,L|93:99,1,220,0|2,0:0|0:0,0:0:0:0:
444,156,30841,2,0,L|448:279,1,110,10|0,0:0|0:0,0:0:0:0:
146,250,31184,6,0,L|105:248,1,27.5,2|0,0:0|0:0,0:0:0:0:
347,230,31355,2,0,L|389:229,1,27.5,0|0,0:0|0:0,0:0:0:0:
146,250,31526,2,0,L|105:248,1,27.5,10|0,0:0|0:0,0:0:0:0:
347,230,31698,2,0,L|389:229,1,27.5,2|0,0:0|0:0,0:0:0:0:
102,239,31869,2,0,P|38:192|98:78,1,220,0|10,0:0|0:0,0:0:0:0:
210,77,32384,1,0,0:0:0:0:
468,78,32555,5,6,0:0:0:0:
328,80,32726,1,0,0:0:0:0:
468,78,32898,1,10,0:0:0:0:
174,204,33069,2,0,L|423:204,1,220,0|2,0:0|0:0,0:0:0:0:
249,307,33584,1,10,0:0:0:0:
390,308,33755,1,0,0:0:0:0:
56,357,33926,6,0,L|57:223,1,110,6|0,0:0|0:0,0:0:0:0:
178,214,34269,2,0,L|178:186,1,27.5,10|0,0:0|0:0,0:0:0:0:
54,216,34441,2,0,L|53:174,1,27.5,0|0,0:0|0:0,0:0:0:0:
325,354,34612,2,0,L|324:220,1,110,4|2,0:0|0:0,0:0:0:0:
178,214,34955,2,0,L|178:186,1,27.5,10|0,0:0|0:0,0:0:0:0:
327,213,35127,2,0,L|328:171,1,27.5,2|0,0:0|0:0,0:0:0:0:
66,145,35298,6,0,L|66:109,1,27.5,6|0,0:1|0:0,0:0:0:0:
168,92,35469,1,0,0:0:0:0:
433,96,35641,1,10,0:0:0:0:
168,92,35812,2,0,L|401:94,1,220,0|2,0:0|0:0,0:0:0:0:
111,248,36326,2,0,L|111:134,1,110,10|0,0:0|0:0,0:0:0:0:
452,283,36669,6,0,L|425:273,1,27.5,2|0,0:0|0:0,0:0:0:0:
309,279,36841,2,0,L|277:270,1,27.5,0|0,0:0|0:0,0:0:0:0:
397,195,37012,2,0,L|370:185,1,27.5,10|0,0:0|0:0,0:0:0:0:
246,198,37184,2,0,L|214:189,1,27.5,2|0,0:0|0:0,0:0:0:0:
339,84,37355,2,0,L|340:198,1,110,0|2,0:0|0:0,0:0:0:0:
61,133,37698,2,0,L|61:23,1,110,10|0,0:0|0:0,0:0:0:0:
305,168,38041,6,0,L|344:168,1,27.5,6|0,0:0|0:0,0:0:0:0:
466,167,38212,1,0,0:0:0:0:
171,86,38384,1,10,0:0:0:0:
452,353,38555,2,0,P|509:285|417:180,1,220,0|2,0:0|0:0,0:0:0:0:
174,257,39069,2,0,L|328:258,1,110,10|0,0:0|0:0,0:0:0:0:
55,198,39412,6,0,L|66:157,1,27.5,2|0,0:0|0:0,0:0:0:0:
186,156,39584,2,0,L|195:119,1,27.5,0|0,0:0|0:0,0:0:0:0:
44,197,39755,2,0,L|55:156,1,27.5,10|0,0:0|0:0,0:0:0:0:
175,155,39927,2,0,L|184:118,1,27.5,0|0,0:0|0:0,0:0:0:0:
54,75,40098,2,0,L|180:59,1,110,0|2,0:0|0:0,0:0:0:0:
429,141,40441,2,0,L|438:29,1,110,10|2,0:0|0:0,0:0:0:0:
178,298,40784,6,0,L|195:260,1,27.5,6|0,0:0|0:0,0:0:0:0:
297,255,40955,1,0,0:0:0:0:
38,181,41126,1,10,0:0:0:0:
309,258,41298,2,0,P|384:234|389:105,1,220,0|2,0:0|0:0,0:0:0:0:
128,161,41812,2,0,L|132:46,1,110,10|0,0:0|0:0,0:0:0:0:
408,249,42155,6,0,L|438:247,1,27.5,2|0,0:0|0:0,0:0:0:0:
205,343,42326,2,0,L|162:345,1,27.5,0|0,0:0|0:0,0:0:0:0:
408,249,42498,2,0,L|438:247,1,27.5,10|0,0:0|0:0,0:0:0:0:
205,343,42669,2,0,L|162:345,1,27.5,2|0,0:0|0:0,0:0:0:0:
446,259,42841,2,0,L|449:375,1,110,0|2,0:0|0:0,0:0:0:0:
118,219,43184,2,0,L|120:106,1,110,10|0,0:0|0:0,0:0:0:0:
377,327,43526,6,0,L|458:212,2,110,2|0|10,0:0|0:0|0:0,0:0:0:0:
242,199,44041,2,0,L|177:100,2,110,0|0|2,0:0|0:0|0:0,0:0:0:0:
102,317,44555,2,0,L|121:201,1,110,10|2,0:0|0:0,0:0:0:0:
264,202,44898,6,0,L|242:69,3,110,0|0|0|0,0:0|0:0|0:0|0:0,0:0:0:0:
395,338,45584,2,0,L|417:205,3,110
173,219,46269,6,0,L|52:219,2,110,2|0|0,0:0|0:0|0:0,0:0:0:0:
439,220,46784,1,0,0:0:0:0:
177,217,46955,2,0,L|161:341,1,110,10|0,0:0|0:0,0:0:0:0:
283,288,47298,1,0,0:0:0:0:
149,288,47469,1,0,0:0:0:0:
448,350,47641,6,0,L|448:229,1,110,2|0,0:0|0:0,0:0:0:0:
302,232,47984,1,0,0:0:0:0:
435,235,48155,1,0,0:0:0:0:
117,235,48326,2,0,L|255:237,1,110,10|0,0:0|0:0,0:0:0:0:
389,303,48669,2,0,L|389:192,1,110,0|0,0:0|0:0,0:0:0:0:
141,98,49012,5,2,0:0:0:0:
286,108,49184,2,0,L|299:246,1,110,0|0,0:0|0:0,0:0:0:0:
57,271,49526,1,0,0:0:0:0:
312,283,49698,2,0,L|440:283,2,110,10|0|0,0:0|0:0|0:0,0:0:0:0:
42,335,50212,1,0,0:0:0:0:
185,373,50384,6,0,L|195:256,1,110,2|0,0:0|0:0,0:0:0:0:
48,225,50726,2,0,L|36:104,1,110,0|0,0:0|0:0,0:0:0:0:
338,194,51069,2,0,L|468:182,1,110,10|0,0:0|0:0,0:0:0:0:
139,313,51412,2,0,L|20:325,1,110,10|2,0:0|0:0,0:0:0:0:
349,361,51755,5,2,0:0:0:0:
209,328,51926,2,0,L|200:211,1,110,0|0,0:0|0:0,0:0:0:0:
456,272,52269,1,0,0:0:0:0:
177,147,52441,2,0,L|303:120,1,110,10|0,0:0|0:0,0:0:0:0:
428,267,52784,2,0,L|302:248,1,110,0|0,0:0|0:0,0:0:0:0:
36,359,53126,6,0,L|37:237,1,110,2|0,0:0|0:0,0:0:0:0:
165,233,53469,1,0,0:0:0:0:
342,236,53641,1,0,0:0:0:0:
86,237,53812,2,0,L|77:123,1,110,10|0,0:0|0:0,0:0:0:0:
188,109,54155,1,0,0:0:0:0:
54,76,54326,1,0,0:0:0:0:
334,183,54498,6,0,L|196:184,2,110,2|0|0,0:0|0:0|0:0,0:0:0:0:
76,125,55012,1,0,0:0:0:0:
370,185,55184,2,0,L|379:307,1,110,10|0,0:0|0:0,0:0:0:0:
241,246,55526,1,0,0:0:0:0:
489,223,55698,1,0,0:0:0:0:
353,307,55869,6,0,L|352:187,1,110,2|0,0:0|0:0,0:0:0:0:
489,223,56212,1,0,0:0:0:0:
180,123,56384,1,10,0:0:0:0:
325,89,56555,2,0,L|333:203,1,110,0|0,0:0|0:0,0:0:0:0:
60,139,56898,2,0,L|51:5,1,110,10|0,0:0|0:0,0:0:0:0:
356,219,57241,6,0,L|202:219,1,110,2|0,0:0|0:0,0:0:0:0:
85,220,57584,1,0,0:0:0:0:
356,219,57755,1,0,0:0:0:0:
76,222,57926,2,0,L|65:338,1,110,10|0,0:0|0:0,0:0:0:0:
205,276,58269,2,0,L|356:276,1,110,0|0,0:0|0:0,0:0:0:0:
32,360,58612,5,2,0:0:0:0:
23,252,58783,1,0,0:0:0:0:
166,190,58954,1,0,0:0:0:0:
12,148,59126,1,0,0:0:0:0:
299,233,59298,2,0,L|416:233,1,110,10|0,0:0|0:0,0:0:0:0:
257,263,59641,2,0,L|109:263,1,110,0|0,0:0|0:0,0:0:0:0:
467,349,59984,6,0,L|470:212,1,110,2|0,0:0|0:0,0:0:0:0:
333,194,60326,1,0,0:0:0:0:
69,166,60498,1,0,0:0:0:0:
340,179,60669,2,0,L|470:166,2,110,10|0|0,0:0|0:0|0:0,0:0:0:0:
36,121,61184,1,0,0:0:0:0:
174,68,61355,6,0,L|177:184,1,110,2|0,0:0|0:0,0:0:0:0:
324,163,61698,2,0,L|327:279,1,110,0|0,0:0|0:0,0:0:0:0:
66,343,62041,2,0,L|199:337,1,110,10|0,0:0|0:0,0:0:0:0:
346,293,62384,2,0,L|467:294,1,110,0|0,0:0|0:0,0:0:0:0:
108,349,62726,6,0,L|240:336,1,110,2|0,0:0|0:0,0:0:0:0:
374,364,63069,1,0,0:0:0:0:
103,255,63241,1,0,0:0:0:0:
395,177,63412,2,0,L|401:301,1,110,10|0,0:0|0:0,0:0:0:0:
249,172,63755,2,0,L|118:171,1,110,0|0,0:0|0:0,0:0:0:0:
443,343,64098,6,0,L|444:221,1,110,2|0,0:0|0:0,0:0:0:0:
290,353,64441,2,0,L|418:353,1,110,0|0,0:0|0:0,0:0:0:0:
131,362,64784,2,0,L|151:248,1,110,10|0,0:0|0:0,0:0:0:0:
319,244,65126,2,0,L|341:129,1,110,0|0,0:0|0:0,0:0:0:0:
53,111,65469,6,0,L|168:133,2,110,2|0|0,0:0|0:0|0:0,0:0:0:0:
296,40,65984,1,0,0:0:0:0:
39,117,66155,2,0,L|39:237,1,110,10|0,0:0|0:0,0:0:0:0:
173,240,66498,1,0,0:0:0:0:
477,315,66669,6,0,L|244:313,1,220,0|2,0:0|0:0,0:0:0:0:
9,322,67184,2,0,L|134:323,1,110,10|0,0:0|0:0,0:0:0:0:
365,322,67526,1,2,0:0:0:0:
236,325,67698,1,2,0:0:0:0:
488,335,67869,2,0,L|489:193,1,110,10|0,0:0|0:0,0:0:0:0:
256,192,68212,12,0,70784,0:0:0:0:
191,338,70955,6,0,L|196:295,1,27.5,6|0,0:1|0:0,0:0:0:0:
311,288,71126,1,0,0:0:0:0:
68,223,71298,1,10,0:0:0:0:
356,286,71469,2,0,P|422:252|359:113,1,220,0|2,0:0|0:0,0:0:0:0:
73,59,71984,2,0,L|53:177,1,110,10|0,0:0|0:0,0:0:0:0:
326,132,72326,6,0,L|335:104,1,27.5,2|0,0:0|0:0,0:0:0:0:
221,254,72498,2,0,L|215:222,1,27.5,0|0,0:0|0:0,0:0:0:0:
326,132,72669,2,0,L|335:104,1,27.5,10|0,0:0|0:0,0:0:0:0:
221,254,72841,2,0,L|215:222,1,27.5,2|0,0:0|0:0,0:0:0:0:
341,285,73012,2,0,L|456:285,1,110,0|2,0:0|0:0,0:0:0:0:
169,364,73355,2,0,L|298:363,1,110,10|0,0:0|0:0,0:0:0:0:
35,288,73698,6,0,L|35:253,1,27.5,6|0,0:0|0:0,0:0:0:0:
142,228,73869,1,0,0:0:0:0:
414,228,74041,1,10,0:0:0:0:
142,228,74212,2,0,L|409:228,1,220,0|2,0:0|0:0,0:0:0:0:
58,54,74726,2,0,L|55:173,1,110,10|0,0:0|0:0,0:0:0:0:
326,240,75069,6,0,L|325:205,1,27.5,2|0,0:0|0:0,0:0:0:0:
204,196,75241,2,0,L|198:151,1,27.5,0|0,0:0|0:0,0:0:0:0:
90,154,75412,2,0,L|82:116,1,27.5,10|0,0:0|0:0,0:0:0:0:
202,106,75584,2,0,L|195:60,1,27.5,0|0,0:0|0:0,0:0:0:0:
57,102,75755,2,0,L|36:-10,1,110,0|2,0:0|0:0,0:0:0:0:
294,357,76098,2,0,L|159:345,1,110,10|2,0:0|0:0,0:0:0:0:
479,294,76441,6,0,L|485:265,1,27.5,6|0,0:0|0:0,0:0:0:0:
375,207,76612,1,0,0:0:0:0:
117,178,76784,1,10,0:0:0:0:
388,212,76955,2,0,P|456:138|382:57,1,220,0|2,0:0|0:0,0:0:0:0:
102,157,77469,2,0,L|91:43,1,110,10|0,0:0|0:0,0:0:0:0:
407,234,77812,6,0,L|440:232,1,27.5,2|0,0:0|0:0,0:0:0:0:
214,314,77984,2,0,L|165:317,1,27.5,0|0,0:0|0:0,0:0:0:0:
407,234,78155,2,0,L|440:232,1,27.5,10|0,0:0|0:0,0:0:0:0:
214,314,78327,2,0,L|165:317,1,27.5,2|0,0:0|0:0,0:0:0:0:
437,241,78498,2,0,L|437:357,1,110,0|2,0:0|0:0,0:0:0:0:
147,196,78841,2,0,L|16:195,1,110,10|0,0:0|0:0,0:0:0:0:
313,92,79184,5,6,0:0:0:0:
170,139,79355,2,0,L|164:271,1,110,0|10,0:0|0:0,0:0:0:0:
456,361,79698,2,0,L|221:353,1,220,0|2,0:0|0:0,0:0:0:0:
358,265,80212,1,10,0:0:0:0:
358,265,80384,1,0,0:0:0:0:
93,319,80555,6,0,L|94:185,1,110,6|0,0:0|0:0,0:0:0:0:
215,176,80898,2,0,L|215:148,1,27.5,10|0,0:0|0:0,0:0:0:0:
91,178,81070,2,0,L|90:136,1,27.5,0|0,0:0|0:0,0:0:0:0:
362,316,81241,2,0,L|361:182,1,110,4|2,0:0|0:0,0:0:0:0:
215,176,81584,2,0,L|215:148,1,27.5,10|0,0:0|0:0,0:0:0:0:
364,175,81756,2,0,L|365:133,1,27.5,2|0,0:0|0:0,0:0:0:0:
116,228,81926,6,0,L|79:228,1,27.5,6|0,0:1|0:0,0:0:0:0:
176,292,82098,1,0,0:0:0:0:
454,305,82269,1,10,0:0:0:0:
150,306,82441,2,0,P|67:206|149:152,1,220,0|2,0:0|0:0,0:0:0:0:
386,70,82955,2,0,L|389:189,1,110,10|0,0:0|0:0,0:0:0:0:
100,60,83298,6,0,L|134:52,1,27.5,2|0,0:0|0:0,0:0:0:0:
235,74,83469,2,0,L|261:65,1,27.5,0|0,0:0|0:0,0:0:0:0:
152,163,83641,2,0,L|186:155,1,27.5,10|0,0:0|0:0,0:0:0:0:
304,175,83812,2,0,L|330:166,1,27.5,2|0,0:0|0:0,0:0:0:0:
468,163,83984,2,0,L|479:48,1,110,0|2,0:0|0:0,0:0:0:0:
221,259,84326,2,0,L|98:259,1,110,10|0,0:0|0:0,0:0:0:0:
356,357,84669,6,0,L|347:330,1,27.5,6|0,0:0|0:0,0:0:0:0:
222,311,84841,1,0,0:0:0:0:
475,317,85012,1,10,0:0:0:0:
187,313,85184,2,0,P|116:257|190:168,1,220,0|2,0:0|0:0,0:0:0:0:
453,86,85698,2,0,L|454:203,1,110,10|0,0:0|0:0,0:0:0:0:
156,113,86041,6,0,L|193:104,1,27.5,2|0,0:0|0:0,0:0:0:0:
310,213,86212,2,0,L|272:207,1,27.5,0|0,0:0|0:0,0:0:0:0:
156,113,86384,2,0,L|193:104,1,27.5,10|0,0:0|0:0,0:0:0:0:
310,213,86555,2,0,L|272:207,1,27.5,0|0,0:0|0:0,0:0:0:0:
148,302,86726,2,0,L|147:189,1,110,0|2,0:0|0:0,0:0:0:0:
437,222,87069,2,0,L|439:98,1,110,10|2,0:0|0:0,0:0:0:0:
203,164,87412,6,0,L|204:129,1,27.5,6|0,0:0|0:0,0:0:0:0:
311,121,87584,1,0,0:0:0:0:
53,114,87755,1,10,0:0:0:0:
350,121,87926,2,0,P|420:191|332:275,1,220,0|2,0:0|0:0,0:0:0:0:
80,142,88441,2,0,L|80:24,1,110,10|0,0:0|0:0,0:0:0:0:
356,158,88784,6,0,L|395:159,1,27.5,2|0,0:0|0:0,0:0:0:0:
172,257,88955,2,0,L|134:256,1,27.5,0|0,0:0|0:0,0:0:0:0:
356,158,89126,2,0,L|395:159,1,27.5,10|0,0:0|0:0,0:0:0:0:
172,257,89298,2,0,L|134:256,1,27.5,2|0,0:0|0:0,0:0:0:0:
362,170,89469,2,0,L|475:170,1,110,0|2,0:0|0:0,0:0:0:0:
193,70,89812,2,0,L|307:69,1,110,10|0,0:0|0:0,0:0:0:0:
53,142,90155,6,0,L|10:255,2,110,2|0|10,0:0|0:0|0:0,0:0:0:0:
185,227,90669,2,0,L|222:341,2,110,0|0|2,0:0|0:0|0:0,0:0:0:0:
333,213,91184,2,0,L|351:92,1,110,10|2,0:0|0:0,0:0:0:0:
195,130,91526,6,0,L|175:12,3,110,2|0|10|0,0:0|0:0|0:0|0:0,0:0:0:0:
324,309,92212,2,0,L|344:191,3,110,0|2|10|2,0:0|0:0|0:0|0:0,0:0:0:0:
166,354,92898,5,4,0:0:0:0:
78,294,93069,1,0,0:0:0:0:
79,188,93240,1,0,0:0:0:0:
166,130,93412,1,0,0:0:0:0:
410,130,93926,1,2,0:0:0:0:
183,136,94612,6,0,L|176:17,1,110,0|0,0:0|0:0,0:0:0:0:
323,143,94955,2,0,L|329:268,1,110,2|0,0:0|0:0,0:0:0:0:
61,338,95641,5,4,0:0:0:0:
196,291,95812,1,0,0:0:0:0:
240,207,95984,1,0,0:0:0:0:
91,99,96155,1,0,0:0:0:0:
340,192,96669,1,2,0:0:0:0:
153,343,97355,5,0,0:0:0:0:
203,258,97526,1,0,0:0:0:0:
304,226,97698,1,2,0:0:0:0:
442,355,97869,1,0,0:0:0:0:
356,304,98041,1,2,0:0:0:0:
434,216,98212,1,2,0:0:0:0:
166,349,98384,6,0,L|166:224,1,110,2|0,0:0|0:0,0:0:0:0:
294,293,98726,1,0,0:0:0:0:
31,293,98898,1,0,0:0:0:0:
313,294,99069,2,0,L|439:292,1,110,10|0,0:0|0:0,0:0:0:0:
260,229,99412,2,0,L|138:229,1,110,0|0,0:0|0:0,0:0:0:0:
453,357,99755,5,2,0:0:0:0:
496,258,99926,1,0,0:0:0:0:
455,159,100097,1,0,0:0:0:0:
356,119,100269,1,0,0:0:0:0:
114,179,100441,2,0,L|109:64,1,110,10|0,0:0|0:0,0:0:0:0:
252,155,100784,2,0,L|371:152,1,110,0|0,0:0|0:0,0:0:0:0:
96,305,101126,6,0,L|250:301,2,110,2|0|0,0:0|0:0|0:0,0:0:0:0:
338,343,101641,1,0,0:0:0:0:
52,337,101812,2,0,L|46:217,1,110,10|0,0:0|0:0,0:0:0:0:
151,175,102155,1,0,0:0:0:0:
408,173,102326,1,0,0:0:0:0:
141,178,102498,6,0,L|139:65,1,110,2|0,0:0|0:0,0:0:0:0:
294,148,102841,2,0,L|294:264,1,110,0|0,0:0|0:0,0:0:0:0:
40,346,103184,2,0,L|40:230,1,110,10|0,0:0|0:0,0:0:0:0:
337,306,103526,2,0,L|455:307,1,110,10|2,0:0|0:0,0:0:0:0:
168,181,103869,5,2,0:0:0:0:
308,251,104041,2,0,L|438:235,1,110,0|0,0:0|0:0,0:0:0:0:
149,79,104384,1,0,0:0:0:0:
428,122,104555,2,0,L|441:241,1,110,10|0,0:0|0:0,0:0:0:0:
292,121,104898,1,0,0:0:0:0:
437,122,105069,1,0,0:0:0:0:
184,137,105241,6,0,L|58:137,1,110,2|0,0:0|0:0,0:0:0:0:
244,209,105584,2,0,L|364:209,1,110,0|0,0:0|0:0,0:0:0:0:
47,347,105926,1,10,0:0:0:0:
180,348,106098,1,0,0:0:0:0:
180,348,106269,1,0,0:0:0:0:
47,347,106441,1,0,0:0:0:0:
321,365,106612,6,0,L|321:246,1,110,2|0,0:0|0:0,0:0:0:0:
183,226,106955,1,0,0:0:0:0:
461,235,107126,1,0,0:0:0:0:
166,225,107298,2,0,L|48:225,2,110,10|0|0,0:0|0:0|0:0,0:0:0:0:
454,229,107812,1,0,0:0:0:0:
311,330,107984,6,0,L|307:191,1,110,2|0,0:0|0:0,0:0:0:0:
454,229,108326,1,0,0:0:0:0:
124,199,108498,1,10,0:0:0:0:
258,268,108669,2,0,L|258:134,1,110,0|0,0:0|0:0,0:0:0:0:
490,149,109012,2,0,L|490:11,1,110,10|0,0:0|0:0,0:0:0:0:
162,88,109355,5,2,0:0:0:0:
304,26,109526,2,0,L|314:143,1,110,0|0,0:0|0:0,0:0:0:0:
61,44,109869,1,0,0:0:0:0:
321,122,110041,2,0,L|333:264,1,110,10|0,0:0|0:0,0:0:0:0:
201,110,110384,2,0,L|70:110,1,110,0|0,0:0|0:0,0:0:0:0:
412,50,110726,5,2,0:0:0:0:
268,52,110898,1,0,0:0:0:0:
428,58,111069,2,0,L|439:185,1,110,0|0,0:0|0:0,0:0:0:0:
181,348,111412,2,0,L|181:198,1,110,10|0,0:0|0:0,0:0:0:0:
316,224,111755,1,0,0:0:0:0:
316,224,111926,1,0,0:0:0:0:
50,178,112098,6,0,L|200:178,2,110,2|0|0,0:0|0:0|0:0,0:0:0:0:
374,177,112612,1,0,0:0:0:0:
133,176,112784,2,0,L|251:177,1,110,10|0,0:0|0:0,0:0:0:0:
374,177,113126,1,0,0:0:0:0:
36,121,113298,1,0,0:0:0:0:
174,68,113469,6,0,L|177:184,1,110,2|0,0:0|0:0,0:0:0:0:
324,163,113812,2,0,L|327:279,1,110,0|0,0:0|0:0,0:0:0:0:
66,343,114155,2,0,L|63:219,1,110,10|0,0:0|0:0,0:0:0:0:
346,293,114498,2,0,L|467:294,1,110,0|0,0:0|0:0,0:0:0:0:
108,349,114840,6,0,L|240:336,1,110,2|0,0:0|0:0,0:0:0:0:
374,364,115183,1,0,0:0:0:0:
103,255,115355,1,0,0:0:0:0:
395,177,115526,2,0,L|401:301,1,110,10|0,0:0|0:0,0:0:0:0:
249,172,115869,2,0,L|118:171,1,110,0|0,0:0|0:0,0:0:0:0:
434,357,116212,6,0,L|433:235,1,110,2|0,0:0|0:0,0:0:0:0:
311,367,116555,2,0,L|444:368,1,110,0|0,0:0|0:0,0:0:0:0:
110,270,116898,2,0,L|254:269,1,110,10|0,0:0|0:0,0:0:0:0:
383,191,117241,2,0,L|385:318,1,110,0|0,0:0|0:0,0:0:0:0:
90,80,117584,5,2,0:0:0:0:
230,103,117755,1,0,0:0:0:0:
90,80,117926,1,0,0:0:0:0:
241,49,118098,2,0,L|11:75,1,220,0|0,0:0|0:0,0:0:0:0:
136,97,118612,1,0,0:0:0:0:
389,42,118784,6,0,P|456:122|380:194,1,220,2|0,0:0|0:0,0:0:0:0:
218,271,119298,2,0,L|216:131,1,110,0|2,0:0|0:0,0:0:0:0:
473,358,119641,2,0,L|473:227,1,110,10|0,0:0|0:0,0:0:0:0:
193,206,119984,1,10,0:0:0:0:
471,209,120155,1,0,0:0:0:0:
139,366,120326,5,2,0:0:0:0:
50,309,120497,1,0,0:0:0:0:
58,204,120668,1,0,0:0:0:0:
153,160,120840,1,0,0:0:0:0:
382,233,121012,2,0,L|386:89,1,110,10|0,0:0|0:0,0:0:0:0:
266,169,121355,1,0,0:0:0:0:
409,174,121526,1,0,0:0:0:0:
155,177,121698,6,0,L|36:177,1,110,2|0,0:0|0:0,0:0:0:0:
338,174,122041,1,0,0:0:0:0:
106,82,122212,1,0,0:0:0:0:
416,336,122384,2,0,P|495:279|425:156,1,220,10|0,0:0|0:0,0:0:0:0:
349,156,122898,1,0,0:0:0:0:
63,235,123069,6,0,L|189:233,1,110,2|0,0:0|0:0,0:0:0:0:
320,302,123412,1,0,0:0:0:0:
40,206,123584,1,0,0:0:0:0:
341,187,123755,1,10,0:0:0:0:
215,234,123926,2,0,L|216:108,1,110,0|0,0:0|0:0,0:0:0:0:
341,187,124269,1,0,0:0:0:0:
96,285,124441,6,0,L|94:164,1,110,2|0,0:0|0:0,0:0:0:0:
383,328,124784,2,0,L|506:328,1,110,0|0,0:0|0:0,0:0:0:0:
162,239,125126,1,10,0:0:0:0:
420,246,125298,1,0,0:0:0:0:
162,239,125469,1,10,0:0:0:0:
420,246,125641,1,2,0:0:0:0:
177,238,125812,5,2,0:0:0:0:
65,183,125983,1,0,0:0:0:0:
69,78,126154,1,0,0:0:0:0:
185,35,126326,1,0,0:0:0:0:
443,37,126498,2,0,L|449:191,1,110,10|0,0:0|0:0,0:0:0:0:
315,142,126841,1,0,0:0:0:0:
448,143,127012,1,0,0:0:0:0:
216,145,127184,6,0,L|91:145,1,110,2|0,0:0|0:0,0:0:0:0:
272,145,127526,1,0,0:0:0:0:
272,145,127698,1,0,0:0:0:0:
36,144,127869,1,10,0:0:0:0:
273,136,128041,2,0,L|509:137,1,220,0|0,0:0|0:0,0:0:0:0:
186,355,128555,6,0,L|182:229,1,110,2|0,0:0|0:0,0:0:0:0:
298,286,128898,1,0,0:0:0:0:
40,209,129069,1,0,0:0:0:0:
339,289,129241,2,0,L|344:168,1,110,10|0,0:0|0:0,0:0:0:0:
210,148,129584,1,0,0:0:0:0:
488,69,129755,6,0,L|256:45,1,220,0|0,0:0|0:0,0:0:0:0:
146,28,130269,1,0,0:0:0:0:
391,197,130441,2,0,L|398:78,1,110,10|0,0:0|0:0,0:0:0:0:
276,39,130784,1,0,0:0:0:0:
22,86,130955,2,0,L|7:216,1,110,10|0,0:0|0:0,0:0:0:0:
319,349,131298,6,0,L|320:232,1,110,2|0,0:0|0:0,0:0:0:0:
169,258,131641,2,0,L|170:137,1,110,0|0,0:0|0:0,0:0:0:0:
433,187,131984,1,10,0:0:0:0:
290,241,132155,1,0,0:0:0:0:
433,187,132326,2,0,L|440:310,1,110,0|0,0:0|0:0,0:0:0:0:
187,351,132669,6,0,L|189:217,1,110,2|0,0:0|0:0,0:0:0:0:
344,237,133012,1,0,0:0:0:0:
344,237,133184,1,0,0:0:0:0:
66,236,133355,1,10,0:0:0:0:
344,237,133526,2,0,P|422:194|359:83,1,220,0|0,0:0|0:0,0:0:0:0:
64,34,134041,6,0,L|63:158,1,110,2|0,0:0|0:0,0:0:0:0:
214,189,134384,2,0,L|67:190,1,110,0|0,0:0|0:0,0:0:0:0:
454,266,134726,1,10,0:0:0:0:
315,357,134898,2,0,L|312:247,1,110,0|0,0:0|0:0,0:0:0:0:
454,266,135241,1,0,0:0:0:0:
189,263,135412,6,0,L|66:263,1,110,2|0,0:0|0:0,0:0:0:0:
380,340,135755,1,0,0:0:0:0:
131,344,135926,1,0,0:0:0:0:
397,345,136098,2,0,L|403:211,1,110,10|0,0:0|0:0,0:0:0:0:
266,202,136441,1,0,0:0:0:0:
28,200,136612,1,0,0:0:0:0:
297,358,136784,5,2,0:0:0:0:
292,250,136955,1,0,0:0:0:0:
193,164,137126,1,0,0:0:0:0:
55,143,137298,1,0,0:0:0:0:
335,222,137469,2,0,L|459:224,1,110,10|0,0:0|0:0,0:0:0:0:
309,312,137812,2,0,L|437:312,1,110,0|0,0:0|0:0,0:0:0:0:
130,353,138155,6,0,L|152:243,1,110,2|0,0:0|0:0,0:0:0:0:
319,261,138498,2,0,L|342:151,1,110,0|0,0:0|0:0,0:0:0:0:
59,190,138841,1,10,0:0:0:0:
351,197,139012,2,0,L|121:197,1,220,0|0,0:0|0:0,0:0:0:0:
475,355,139526,6,0,L|481:234,1,110,2|0,0:0|0:0,0:0:0:0:
359,202,139869,1,0,0:0:0:0:
490,142,140041,1,0,0:0:0:0:
175,142,140212,1,10,0:0:0:0:
475,139,140384,2,0,L|352:140,1,110,0|0,0:0|0:0,0:0:0:0:
112,285,140726,6,0,L|373:287,1,220,0|2,0:0|0:0,0:0:0:0:
53,192,141241,1,10,0:0:0:0:
431,199,141412,1,0,0:0:0:0:
297,210,141584,2,0,L|435:211,1,110,2|2,0:0|0:0,0:0:0:0:
130,205,141926,1,10,0:0:0:0:
428,216,142098,1,0,0:0:0:0:
146,344,142269,5,4,0:0:0:0:
179,249,142441,1,0,0:0:0:0:
312,293,142612,1,0,0:0:0:0:
354,203,142784,1,0,0:0:0:0:
196,134,143298,1,2,0:0:0:0:
383,57,143984,5,0,0:0:0:0:
271,79,144155,1,0,0:0:0:0:
199,178,144326,1,2,0:0:0:0:
349,283,144498,1,0,0:0:0:0:
99,350,145012,5,4,0:0:0:0:
186,301,145184,1,0,0:0:0:0:
295,372,145355,1,0,0:0:0:0:
164,299,145526,1,0,0:0:0:0:
361,246,146041,1,2,0:0:0:0:
111,113,146726,5,0,0:0:0:0:
208,137,146898,1,0,0:0:0:0:
268,230,147070,1,2,0:0:0:0:
128,316,147241,1,0,0:0:0:0:
220,344,147412,1,2,0:0:0:0:
128,316,147584,1,2,0:0:0:0:
295,260,147755,5,4,0:0:0:0:
351,83,147926,1,0,0:0:0:0:
276,165,148098,1,0,0:0:0:0:
166,114,148269,1,0,0:0:0:0:
346,43,148784,1,2,0:0:0:0:
140,18,149469,5,0,0:0:0:0:
257,40,149641,1,0,0:0:0:0:
96,115,149812,1,2,0:0:0:0:
189,139,149984,1,0,0:0:0:0:
404,194,150498,5,4,0:0:0:0:
321,157,150669,1,0,0:0:0:0:
262,144,150841,1,0,0:0:0:0:
234,151,151012,1,0,0:0:0:0:
420,246,151526,1,2,0:0:0:0:
187,335,152212,5,0,0:0:0:0:
299,282,152384,1,0,0:0:0:0:
254,212,152555,1,2,0:0:0:0:
144,199,152726,1,0,0:0:0:0:
285,176,152898,1,2,0:0:0:0:
167,171,153069,1,2,0:0:0:0:
152,179,153241,5,4,0:0:0:0:
319,162,153412,1,0,0:0:0:0:
443,187,153584,1,0,0:0:0:0:
365,160,153755,1,0,0:0:0:0:
183,294,155984,5,2,0:0:0:0:
322,265,156155,1,0,0:0:0:0:
283,238,156326,1,0,0:0:0:0:
190,268,156498,1,0,0:0:0:0:
427,358,158726,5,4,0:0:0:0:
275,313,158898,1,0,0:0:0:0:
306,270,159069,1,0,0:0:0:0:
432,272,159241,1,0,0:0:0:0:
250,295,161469,5,2,0:0:0:0:
283,253,161641,1,0,0:0:0:0:
201,200,161812,1,0,0:0:0:0:
126,249,161984,1,0,0:0:0:0:
347,292,164212,5,4,0:0:0:0:
182,242,164898,1,0,0:0:0:0:
370,165,165755,1,2,0:0:0:0:
165,134,166612,1,0,0:0:0:0:
415,115,167641,1,0,0:0:0:0:
92,83,169012,1,2,0:0:0:0:
331,107,170555,5,0,0:0:0:0:
267,100,170641,1,2,0:0:0:0:
256,192,172612,12,0,173812,0:0:0:0:
