osu file format v14

[General]
AudioFilename: audio.mp3
AudioLeadIn: 0
PreviewTime: 24241
Countdown: 0
SampleSet: Soft
StackLeniency: 0.7
Mode: 2
LetterboxInBreaks: 0
WidescreenStoryboard: 0

[Editor]
Bookmarks: 2383,13355,24326,46269,70955,92898,98384,120326,142269,153241
DistanceSpacing: 1.2
BeatDivisor: 4
GridSize: 4
TimelineZoom: 2.1

[Metadata]
Title:8BIT FAIRY TALE
TitleUnicode:8BIT FAIRY TALE
Artist:LukHash
ArtistUnicode:LukHash
Creator:Ascendance
Version:Hyperion's Rain
Source:osu!
Tags:other side electronic jbhyperion jbh rocma no492_shaymin _asriel -_magic_bomb_- mbomb osu_gangster ster chara -plus- bunnrei mappers guild fruit factory fairytale
BeatmapID:2184877
BeatmapSetID:1045131

[Difficulty]
HPDrainRate:6
CircleSize:3.6
OverallDifficulty:8.8
ApproachRate:8.8
SliderMultiplier:1.8
SliderTickRate:2

[Events]
//Background and Video events
0,0,"glitch-2717630_1920.jpg",0,0
//Break Periods
//Storyboard Layer 0 (Background)
//Storyboard Layer 1 (Fail)
//Storyboard Layer 2 (Pass)
//Storyboard Layer 3 (Foreground)
//Storyboard Layer 4 (Overlay)
//Storyboard Sound Samples

[TimingPoints]
2384,342.857142857143,4,2,50,55,1,0
2384,-100,4,2,50,55,0,0
13355,-100,4,2,50,55,0,0
21584,-100,4,2,50,55,0,0
22955,-100,4,2,50,55,0,0
23641,-100,4,2,50,55,0,0
24326,-100,4,2,1,90,0,1
24841,-80,4,2,1,90,0,1
25184,-100,4,2,1,90,0,1
27584,-80,4,2,1,90,0,1
27927,-100,4,2,1,90,0,1
35212,-100,4,2,1,90,0,0
35298,-100,4,2,1,90,0,1
35812,-80,4,2,1,90,0,1
36155,-100,4,2,1,90,0,1
41298,-80,4,2,1,90,0,1
41641,-100,4,2,1,90,0,1
43526,-100,4,2,50,75,0,0
46269,-100,4,2,1,82,0,0
56384,-80,4,2,1,82,0,0
56726,-100,4,2,1,82,0,0
68212,-100,4,2,1,60,0,0
70955,-100,4,2,1,90,0,1
71469,-80,4,2,1,90,0,1
71812,-100,4,2,1,90,0,1
74212,-80,4,2,1,90,0,1
74555,-100,4,2,1,90,0,1
81841,-100,4,2,1,90,0,0
81926,-100,4,2,1,90,0,1
82441,-80,4,2,1,90,0,1
82784,-100,4,2,1,90,0,1
87926,-80,4,2,1,90,0,1
88269,-100,4,2,1,90,0,1
90155,-100,4,2,50,75,0,0
92898,-133.333333333333,4,2,1,50,0,0
92984,-133.333333333333,4,2,1,40,0,0
98384,-100,4,2,1,82,0,1
98469,-100,4,2,1,82,0,0
108498,-66.6666666666667,4,2,1,82,0,0
108841,-100,4,2,1,82,0,0
117584,-100,4,2,2,70,0,0
119641,-100,4,2,1,82,0,0
130441,-66.6666666666667,4,2,1,82,0,0
130784,-100,4,2,1,82,0,0
142269,-133.333333333333,4,2,2,70,0,1
142355,-133.333333333333,4,2,2,70,0,0
142441,-133.333333333333,4,2,2,65,0,0
142612,-133.333333333333,4,2,2,60,0,0
142784,-133.333333333333,4,2,2,55,0,0
143298,-133.333333333333,4,2,2,50,0,0
143984,-133.333333333333,4,2,2,35,0,0
158726,-133.333333333333,4,2,2,25,0,0
161469,-133.333333333333,4,2,2,15,0,0
164212,-133.333333333333,4,2,2,8,0,0
166612,-133.333333333333,4,2,2,6,0,0

[Colours]
Combo1 : 240,90,150
Combo2 : 40,20,130
Combo3 : 220,20,90
Combo4 : 120,100,230

[HitObjects]
208,192,2383,6,0,L|204:100,1,90,0|0,0:0|0:0,0:0:0:0:
368,104,2726,2,0,L|447:58,1,90,4|0,0:0|0:0,0:0:0:0:
348,104,3069,2,0,L|344:4,1,90,0|0,0:0|0:0,0:0:0:0:
180,12,3412,2,0,L|100:58,1,90,4|0,0:0|0:0,0:0:0:0:
212,84,3755,6,0,L|132:132,1,90,0|0,0:0|0:0,0:0:0:0:
300,128,4098,2,0,L|379:174,1,90,4|0,0:0|0:0,0:0:0:0:
488,176,4441,2,0,L|480:276,1,90,0|0,0:0|0:0,0:0:0:0:
320,264,4784,2,0,L|240:218,1,90,4|0,0:0|0:0,0:0:0:0:
368,220,5126,5,0,0:0:0:0:
260,220,5298,1,0,0:0:0:0:
96,220,5469,2,0,L|16:266,1,90,4|0,0:0|0:0,0:0:0:0:
128,264,5812,2,0,L|136:368,1,90,0|0,0:0|0:0,0:0:0:0:
300,352,6155,2,0,L|383:304,1,90,4|0,0:0|0:0,0:0:0:0:
268,280,6498,6,0,L|348:232,1,90,0|0,0:0|0:0,0:0:0:0:
180,236,6841,2,0,L|100:190,1,90,4|0,0:0|0:0,0:0:0:0:
212,196,7184,2,0,L|220:96,1,90,0|0,0:0|0:0,0:0:0:0:
56,60,7526,2,0,L|135:106,1,90,4|0,0:0|0:0,0:0:0:0:
240,108,7869,5,0,0:0:0:0:
112,104,8041,1,0,0:0:0:0:
276,108,8212,2,0,L|355:62,1,90,4|0,0:0|0:0,0:0:0:0:
228,64,8555,1,0,0:0:0:0:
336,64,8726,1,0,0:0:0:0:
500,64,8898,2,0,L|422:108,1,90,4|0,0:0|0:0,0:0:0:0:
312,108,9241,6,0,L|308:208,1,90,0|0,0:0|0:0,0:0:0:0:
144,200,9584,2,0,L|50:254,1,90,4|0,0:0|0:0,0:0:0:0:
176,244,9926,2,0,L|180:344,1,90,0|0,0:0|0:0,0:0:0:0:
344,336,10269,2,0,L|437:390,1,90,4|0,0:0|0:0,0:0:0:0:
296,336,10612,5,0,0:0:0:0:
404,336,10784,1,0,0:0:0:0:
240,336,10955,2,0,L|236:244,1,90,4|0,0:0|0:0,0:0:0:0:
364,244,11298,1,0,0:0:0:0:
256,244,11469,1,0,0:0:0:0:
420,244,11641,2,0,L|424:152,1,90,4|0,0:0|0:0,0:0:0:0:
316,152,11984,6,0,L|406:100,1,90,0|0,0:0|0:0,0:0:0:0:
232,108,12326,2,0,L|141:56,1,90,4|0,0:0|0:0,0:0:0:0:
324,60,12669,1,0,0:0:0:0:
168,60,12841,1,0,0:0:0:0:
348,60,13012,2,0,L|427:106,1,90,6|0,0:0|0:0,0:0:0:0:
192,60,13355,6,0,L|188:172,1,90,2|0,0:0|0:0,0:0:0:0:
372,152,13698,2,0,L|452:192,1,90,10|0,0:0|0:0,0:0:0:0:
344,192,14041,2,0,L|440:192,1,90,0|2,0:0|0:0,0:0:0:0:
252,192,14384,2,0,L|165:242,1,90,10|0,0:0|0:0,0:0:0:0:
284,192,14726,6,0,L|288:296,1,90,2|0,0:0|0:0,0:0:0:0:
199,280,14984,1,0,0:0:0:0:
112,280,15069,2,0,L|25:230,1,90,10|2,0:0|0:0,0:0:0:0:
200,192,15412,2,0,L|208:84,1,90,0|2,0:0|0:0,0:0:0:0:
24,100,15755,2,0,L|120:100,1,90,10|0,0:0|0:0,0:0:0:0:
348,104,16098,6,0,L|352:4,1,90,2|0,0:0|0:0,0:0:0:0:
172,16,16441,2,0,L|276:16,1,90,10|0,0:0|0:0,0:0:0:0:
372,16,16784,2,0,L|368:112,1,90,0|2,0:0|0:0,0:0:0:0:
188,108,17126,2,0,L|108:154,1,90,10|0,0:0|0:0,0:0:0:0:
220,180,17469,6,0,L|140:226,1,90,2|0,0:0|0:0,0:0:0:0:
229,224,17726,1,0,0:0:0:0:
316,224,17812,2,0,L|402:174,1,90,10|0,0:0|0:0,0:0:0:0:
280,104,18155,2,0,L|376:104,1,90,0|2,0:0|0:0,0:0:0:0:
188,104,18498,2,0,L|180:8,1,90,14|2,0:0|0:0,0:0:0:0:
308,16,18841,5,2,0:0:0:0:
200,16,19012,1,0,0:0:0:0:
20,16,19184,2,0,L|103:64,1,90,10|0,0:0|0:0,0:0:0:0:
204,60,19526,1,0,0:0:0:0:
76,60,19698,1,2,0:0:0:0:
256,60,19869,2,0,L|346:112,1,90,10|0,0:0|0:0,0:0:0:0:
224,104,20212,6,0,L|216:208,1,90,2|0,0:0|0:0,0:0:0:0:
304,196,20469,1,0,0:0:0:0:
392,196,20555,2,0,L|475:244,1,90,10|2,0:0|0:0,0:0:0:0:
364,288,20898,2,0,L|464:288,1,90,0|2,0:0|0:0,0:0:0:0:
280,288,21241,2,0,L|183:232,1,90,10|0,0:0|0:0,0:0:0:0:
28,244,21584,6,0,L|32:152,1,90,2|0,0:0|0:0,0:0:0:0:
212,152,21926,2,0,L|120:152,1,90,10|0,0:0|0:0,0:0:0:0:
284,152,22269,2,0,L|292:48,1,90,0|2,0:0|0:0,0:0:0:0:
108,60,22612,2,0,L|208:60,1,90,10|0,0:0|0:0,0:0:0:0:
452,64,22955,6,0,L|456:172,1,90,10|0,0:0|0:0,0:0:0:0:
200,152,23298,2,0,L|192:272,1,90,10|2,0:0|0:0,0:0:0:0:
376,240,23641,1,2,0:0:0:0:
124,240,23812,2,0,L|24:240,2,90,10|0|10,0:0|0:0|0:0,0:0:0:0:
396,324,24326,6,0,L|488:324,1,90,6|0,0:1|0:0,0:0:0:0:
304,324,24669,1,10,0:0:0:0:
468,324,24841,2,0,P|512:252|428:160,1,225,0|2,0:0|0:0,0:0:0:0:
248,160,25355,2,0,L|144:160,1,90,10|0,0:0|0:0,0:0:0:0:
276,160,25698,5,2,0:0:0:0:
176,160,25869,2,0,L|172:112,1,45,0|0,0:0|0:0,0:0:0:0:
324,64,26041,2,0,L|416:64,1,90,10|2,0:0|0:0,0:0:0:0:
304,64,26384,2,0,L|300:160,1,90,0|2,0:0|0:0,0:0:0:0:
480,156,26726,2,0,L|388:156,1,90,10|0,0:0|0:0,0:0:0:0:
152,156,27069,6,0,L|48:156,1,90,6|0,0:0|0:0,0:0:0:0:
220,156,27412,1,10,0:0:0:0:
364,164,27584,2,0,P|432:232|364:324,1,225,0|2,0:0|0:0,0:0:0:0:
188,324,28098,1,10,0:0:0:0:
312,324,28269,1,0,0:0:0:0:
484,324,28441,6,0,L|488:216,1,90,2|0,0:0|0:0,0:0:0:0:
432,232,28698,1,0,0:0:0:0:
280,228,28784,2,0,L|184:228,1,90,10|0,0:0|0:0,0:0:0:0:
280,144,29126,2,0,L|392:144,1,90,0|2,0:0|0:0,0:0:0:0:
188,144,29469,2,0,L|184:48,1,90,10|2,0:0|0:0,0:0:0:0:
420,56,29812,6,0,L|320:56,1,90,6|0,0:0|0:0,0:0:0:0:
172,52,30155,1,10,0:0:0:0:
344,56,30326,2,0,B|432:56|432:56|440:148,1,180,0|2,0:0|0:0,0:0:0:0:
256,148,30841,2,0,L|248:264,1,90,10|0,0:0|0:0,0:0:0:0:
484,240,31184,5,2,0:0:0:0:
340,240,31355,1,0,0:0:0:0:
180,336,31526,1,10,0:0:0:0:
333,332,31698,1,2,0:0:0:0:
487,329,31869,2,0,L|483:237,1,90,0|2,0:0|0:0,0:0:0:0:
300,240,32212,2,0,L|408:240,1,90,10|0,0:0|0:0,0:0:0:0:
156,240,32555,6,0,L|60:240,1,90,6|0,0:0|0:0,0:0:0:0:
248,240,32898,1,10,0:0:0:0:
84,240,33069,2,0,B|84:148|84:148|172:120,1,180,0|2,0:0|0:0,0:0:0:0:
348,120,33584,2,0,L|240:120,1,90,10|0,0:0|0:0,0:0:0:0:
24,120,33926,6,0,L|107:72,1,90,6|0,0:0|0:0,0:0:0:0:
268,120,34269,2,0,L|351:72,1,90,10|0,0:0|0:0,0:0:0:0:
188,76,34612,1,4,0:0:0:0:
304,76,34784,1,2,0:0:0:0:
68,164,34955,2,0,L|160:164,1,90,10|2,0:0|0:0,0:0:0:0:
412,164,35298,6,0,L|504:164,1,90,6|0,0:1|0:0,0:0:0:0:
344,164,35641,1,10,0:0:0:0:
200,164,35812,2,0,P|132:232|200:324,1,225,0|2,0:0|0:0,0:0:0:0:
376,324,36326,1,10,0:0:0:0:
252,324,36498,1,0,0:0:0:0:
432,324,36669,6,0,L|436:224,1,90,2|0,0:0|0:0,0:0:0:0:
372,232,36926,1,0,0:0:0:0:
220,228,37012,2,0,L|120:228,1,90,10|2,0:0|0:0,0:0:0:0:
240,228,37355,2,0,L|256:136,1,90,0|2,0:0|0:0,0:0:0:0:
76,140,37698,2,0,L|172:140,1,90,10|0,0:0|0:0,0:0:0:0:
400,140,38041,6,0,L|304:140,1,90,6|0,0:0|0:0,0:0:0:0:
460,140,38384,1,10,0:0:0:0:
296,140,38555,2,0,B|208:140|208:140|192:48,1,180,0|2,0:0|0:0,0:0:0:0:
372,48,39069,2,0,L|472:48,1,90,10|0,0:0|0:0,0:0:0:0:
300,48,39412,5,2,0:0:0:0:
416,48,39584,2,0,L|420:112,1,45,0|0,0:0|0:0,0:0:0:0:
268,124,39755,2,0,L|156:124,1,90,10|0,0:0|0:0,0:0:0:0:
68,124,40098,1,0,0:0:0:0:
204,124,40269,1,2,0:0:0:0:
16,212,40441,2,0,L|108:212,1,90,10|2,0:0|0:0,0:0:0:0:
340,212,40784,6,0,L|432:212,1,90,6|0,0:0|0:0,0:0:0:0:
248,212,41126,1,10,0:0:0:0:
412,212,41298,2,0,P|484:280|408:348,1,225,0|2,0:0|0:0,0:0:0:0:
228,344,41812,1,10,0:0:0:0:
100,344,41984,1,0,0:0:0:0:
336,348,42155,6,0,L|340:252,1,90,2|0,0:0|0:0,0:0:0:0:
276,256,42412,1,0,0:0:0:0:
124,256,42498,2,0,L|120:148,1,90,10|2,0:0|0:0,0:0:0:0:
304,168,42841,1,0,0:0:0:0:
196,168,43012,1,2,0:0:0:0:
376,168,43184,2,0,L|455:122,1,90,10|0,0:0|0:0,0:0:0:0:
220,120,43526,6,0,L|216:24,1,90,2|0,0:0|0:0,0:0:0:0:
380,28,43869,1,10,0:0:0:0:
480,28,44041,2,0,B|480:120|480:120|388:136,1,180,0|2,0:0|0:0,0:0:0:0:
228,136,44555,2,0,L|144:184,1,90,10|2,0:0|0:0,0:0:0:0:
316,184,44898,5,0,0:0:0:0:
216,184,45069,1,0,0:0:0:0:
116,184,45241,1,0,0:0:0:0:
216,184,45412,1,0,0:0:0:0:
28,184,45584,2,0,L|24:292,1,90
168,276,45926,2,0,L|260:276,1,90,0|0,0:0|0:0,0:0:0:0:
492,276,46269,5,2,0:0:0:0:
492,184,46441,1,0,0:0:0:0:
424,128,46612,1,0,0:0:0:0:
316,124,46784,1,0,0:0:0:0:
496,128,46955,2,0,L|500:32,1,90,10|0,0:0|0:0,0:0:0:0:
392,36,47298,2,0,L|296:36,1,90,0|0,0:0|0:0,0:0:0:0:
116,36,47641,5,2,0:0:0:0:
224,52,47812,1,0,0:0:0:0:
224,160,47984,1,0,0:0:0:0:
112,184,48155,1,0,0:0:0:0:
292,192,48326,2,0,L|357:257,1,90,10|0,0:0|0:0,0:0:0:0:
192,256,48669,2,0,L|126:321,1,90,0|0,0:0|0:0,0:0:0:0:
312,320,49012,5,2,0:0:0:0:
420,320,49184,1,0,0:0:0:0:
296,320,49355,1,0,0:0:0:0:
188,320,49526,1,0,0:0:0:0:
376,320,49698,2,0,L|380:224,1,90,10|0,0:0|0:0,0:0:0:0:
304,152,50041,1,0,0:0:0:0:
68,152,50212,5,0,0:0:0:0:
8,48,50384,2,0,L|108:48,3,90,2|0|0|0,0:0|0:0|0:0|0:0,0:0:0:0:
288,48,51069,2,0,L|292:160,1,90,10|0,0:0|0:0,0:0:0:0:
104,136,51412,2,0,L|108:248,1,90,10|2,0:0|0:0,0:0:0:0:
288,228,51755,5,2,0:0:0:0:
388,268,51926,1,0,0:0:0:0:
388,268,52098,1,0,0:0:0:0:
288,308,52269,1,0,0:0:0:0:
104,308,52441,2,0,L|187:260,1,90,10|0,0:0|0:0,0:0:0:0:
72,260,52784,2,0,L|68:160,1,90,0|0,0:0|0:0,0:0:0:0:
252,168,53126,6,0,L|348:168,1,90,2|0,0:0|0:0,0:0:0:0:
232,88,53469,2,0,L|132:88,1,90,0|0,0:0|0:0,0:0:0:0:
324,88,53812,2,0,L|328:180,1,90,10|0,0:0|0:0,0:0:0:0:
200,176,54155,1,0,0:0:0:0:
308,176,54326,1,0,0:0:0:0:
128,176,54498,5,2,0:0:0:0:
120,264,54669,1,0,0:0:0:0:
176,336,54841,1,0,0:0:0:0:
264,344,55012,1,0,0:0:0:0:
444,344,55184,2,0,L|344:344,1,90,10|0,0:0|0:0,0:0:0:0:
248,344,55526,1,0,0:0:0:0:
484,344,55698,6,0,L|488:252,1,90,0|2,0:0|0:0,0:0:0:0:
324,256,56041,1,0,0:0:0:0:
476,256,56212,1,0,0:0:0:0:
240,256,56384,2,0,P|172:192|252:124,1,225,10|0,0:0|0:0,0:0:0:0:
16,120,56898,2,0,L|106:68,1,90,10|0,0:0|0:0,0:0:0:0:
328,76,57241,5,2,0:0:0:0:
336,184,57412,1,0,0:0:0:0:
216,184,57584,1,0,0:0:0:0:
208,292,57755,1,0,0:0:0:0:
388,292,57926,2,0,L|308:246,1,90,10|0,0:0|0:0,0:0:0:0:
436,248,58269,2,0,L|512:200,1,90,0|0,0:0|0:0,0:0:0:0:
276,192,58612,5,2,0:0:0:0:
384,184,58784,1,0,0:0:0:0:
384,76,58955,1,0,0:0:0:0:
276,68,59126,1,0,0:0:0:0:
96,68,59298,2,0,L|92:168,1,90,10|0,0:0|0:0,0:0:0:0:
208,160,59641,2,0,L|292:192,1,90,0|0,0:0|0:0,0:0:0:0:
112,268,59984,6,0,L|198:218,1,90,2|0,0:0|0:0,0:0:0:0:
304,336,60326,2,0,L|217:286,1,90,0|0,0:0|0:0,0:0:0:0:
400,292,60669,1,10,0:0:0:0:
492,292,60841,2,0,L|472:192,1,90,0|0,0:0|0:0,0:0:0:0:
240,204,61184,5,0,0:0:0:0:
132,204,61355,2,0,L|40:204,1,90,2|0,0:0|0:0,0:0:0:0:
208,116,61698,2,0,L|308:116,1,90,0|0,0:0|0:0,0:0:0:0:
116,204,62041,2,0,B|24:204|24:204|20:116,1,180,10|0,0:0|0:0,0:0:0:0:
120,116,62555,1,0,0:0:0:0:
300,116,62726,6,0,L|304:20,1,90,2|0,0:0|0:0,0:0:0:0:
196,28,63069,2,0,L|296:28,1,90,0|0,0:0|0:0,0:0:0:0:
468,28,63412,2,0,L|381:78,2,90,10|0|0,0:0|0:0|0:0,0:0:0:0:
304,28,63926,1,0,0:0:0:0:
68,28,64098,5,2,0:0:0:0:
76,120,64269,1,0,0:0:0:0:
136,196,64441,1,0,0:0:0:0:
224,216,64612,1,0,0:0:0:0:
404,216,64784,2,0,L|212:216,1,180,10|0,0:0|0:0,0:0:0:0:
132,216,65298,1,0,0:0:0:0:
312,312,65469,6,0,L|404:312,2,90,2|0|0,0:0|0:0|0:0,0:0:0:0:
148,312,65984,2,0,L|136:220,1,90,0|10,0:0|0:0,0:0:0:0:
316,192,66326,2,0,L|395:146,1,90,0|0,0:0|0:0,0:0:0:0:
140,132,66669,6,0,L|219:86,1,90,0|0,0:0|0:0,0:0:0:0:
56,84,67012,1,2,0:0:0:0:
308,88,67184,2,0,L|400:88,1,90,10|0,0:0|0:0,0:0:0:0:
228,192,67526,1,2,0:0:0:0:
382,192,67698,1,2,0:0:0:0:
112,192,67869,2,0,L|104:296,1,90,10|0,0:0|0:0,0:0:0:0:
412,280,68212,5,4,0:1:0:0:
256,192,68384,12,0,70784,0:0:0:0:
256,28,70955,6,0,L|164:28,1,90,6|0,0:1|0:0,0:0:0:0:
348,28,71298,1,10,0:0:0:0:
184,28,71469,2,0,P|103:95|145:191,1,225,0|2,0:0|0:0,0:0:0:0:
328,192,71984,2,0,L|432:192,1,90,10|0,0:0|0:0,0:0:0:0:
300,192,72326,5,2,0:0:0:0:
400,192,72498,2,0,L|404:240,1,45,0|0,0:0|0:0,0:0:0:0:
252,288,72669,2,0,L|160:288,1,90,10|2,0:0|0:0,0:0:0:0:
272,288,73012,2,0,L|172:288,1,90,0|2,0:0|0:0,0:0:0:0:
364,288,73355,2,0,L|456:288,1,90,10|0,0:0|0:0,0:0:0:0:
216,192,73698,6,0,L|112:192,1,90,6|0,0:0|0:0,0:0:0:0:
284,192,74041,1,10,0:0:0:0:
441,192,74212,2,0,L|217:192,1,225,0|2,0:0|0:0,0:0:0:0:
32,192,74726,1,10,0:0:0:0:
156,192,74898,1,0,0:0:0:0:
336,284,75069,6,0,L|340:176,1,90,2|0,0:0|0:0,0:0:0:0:
284,192,75326,1,0,0:0:0:0:
132,192,75412,2,0,L|36:192,2,90,10|0|0,0:0|0:0|0:0,0:0:0:0:
256,192,75926,1,2,0:0:0:0:
76,192,76098,2,0,L|72:96,1,90,10|2,0:0|0:0,0:0:0:0:
317,100,76441,6,0,L|217:100,1,90,6|0,0:0|0:0,0:0:0:0:
398,100,76784,1,10,0:0:0:0:
227,100,76955,2,0,B|139:100|139:100|131:192,1,180,0|2,0:0|0:0,0:0:0:0:
312,192,77469,2,0,L|222:192,1,90,10|0,0:0|0:0,0:0:0:0:
460,192,77812,5,2,0:0:0:0:
312,192,77984,1,0,0:0:0:0:
476,192,78155,1,10,0:0:0:0:
328,192,78326,1,2,0:0:0:0:
180,192,78498,2,0,L|184:284,1,90,0|2,0:0|0:0,0:0:0:0:
368,280,78841,2,0,L|460:280,1,90,10|0,0:0|0:0,0:0:0:0:
220,280,79184,6,0,L|124:280,1,90,6|0,0:0|0:0,0:0:0:0:
312,280,79526,1,10,0:0:0:0:
148,280,79698,2,0,B|148:188|148:188|236:160,1,180,0|2,0:0|0:0,0:0:0:0:
56,160,80212,2,0,L|164:160,1,90,10|0,0:0|0:0,0:0:0:0:
384,160,80555,6,0,L|467:112,1,90,6|0,0:0|0:0,0:0:0:0:
284,160,80898,2,0,L|201:112,1,90,10|0,0:0|0:0,0:0:0:0:
372,116,81241,1,4,0:0:0:0:
244,116,81412,1,2,0:0:0:0:
480,32,81584,2,0,L|388:32,1,90,10|2,0:0|0:0,0:0:0:0:
136,32,81926,6,0,L|226:32,1,90,6|0,0:1|0:0,0:0:0:0:
408,32,82269,1,10,0:0:0:0:
264,32,82441,2,0,P|196:100|264:192,1,225,0|2,0:0|0:0,0:0:0:0:
440,192,82955,1,10,0:0:0:0:
316,192,83126,1,0,0:0:0:0:
136,100,83298,6,0,L|132:200,1,90,2|0,0:0|0:0,0:0:0:0:
196,192,83555,1,0,0:0:0:0:
348,192,83641,2,0,L|256:192,1,90,10|2,0:0|0:0,0:0:0:0:
148,280,83984,2,0,L|163:191,1,90,0|2,0:0|0:0,0:0:0:0:
343,279,84326,2,0,L|247:279,1,90,10|0,0:0|0:0,0:0:0:0:
16,360,84669,6,0,L|112:360,1,90,6|0,0:0|0:0,0:0:0:0:
256,360,85012,1,10,0:0:0:0:
404,360,85184,2,0,B|492:360|492:360|508:268,1,180,0|2,0:0|0:0,0:0:0:0:
328,272,85698,2,0,L|228:272,1,90,10|0,0:0|0:0,0:0:0:0:
420,272,86041,5,2,0:0:0:0:
312,272,86212,2,0,L|308:208,1,45,0|0,0:0|0:0,0:0:0:0:
460,196,86384,2,0,L|368:196,1,90,10|0,0:0|0:0,0:0:0:0:
260,196,86726,1,0,0:0:0:0:
396,196,86898,1,2,0:0:0:0:
212,192,87069,2,0,L|125:142,1,90,10|2,0:0|0:0,0:0:0:0:
372,84,87412,6,0,L|280:84,1,90,6|0,0:0|0:0,0:0:0:0:
452,84,87755,1,10,0:0:0:0:
260,84,87926,2,0,P|188:152|264:220,1,225,0|2,0:0|0:0,0:0:0:0:
444,220,88441,1,10,0:0:0:0:
316,220,88612,1,0,0:0:0:0:
80,312,88784,6,0,L|76:216,1,90,2|0,0:0|0:0,0:0:0:0:
140,220,89041,1,0,0:0:0:0:
292,220,89126,2,0,L|200:220,2,90,10|2|0,0:0|0:0|0:0,0:0:0:0:
400,220,89641,1,2,0:0:0:0:
220,220,89812,2,0,L|141:174,1,90,10|0,0:0|0:0,0:0:0:0:
380,116,90155,6,0,L|288:116,1,90,2|0,0:0|0:0,0:0:0:0:
460,36,90498,1,10,0:0:0:0:
360,36,90669,1,0,0:0:0:0:
260,36,90841,1,0,0:0:0:0:
384,36,91012,1,2,0:0:0:0:
224,36,91184,2,0,L|132:36,1,90,10|2,0:0|0:0,0:0:0:0:
312,36,91526,6,0,L|308:132,1,90,2|0,0:0|0:0,0:0:0:0:
144,128,91869,2,0,L|240:128,1,90,10|0,0:0|0:0,0:0:0:0:
124,128,92212,1,0,0:0:0:0:
16,128,92384,1,2,0:0:0:0:
180,220,92555,1,10,0:0:0:0:
88,220,92726,1,2,0:0:0:0:
376,296,92898,6,0,P|392:224|364:100,1,202.500007724762,4|0,0:0|0:0,0:0:0:0:
124,100,93926,1,2,0:0:0:0:
308,100,94612,2,0,L|240:100,1,67.5000025749208,0|0,0:0|0:0,0:0:0:0:
376,100,94955,2,0,L|380:28,1,67.5000025749208,2|0,0:0|0:0,0:0:0:0:
44,32,95641,6,0,P|52:88|164:172,1,202.500007724762,4|0,0:0|0:0,0:0:0:0:
464,172,96669,1,2,0:0:0:0:
260,172,97355,2,0,L|300:228,1,67.5000025749208,0|0,0:0|0:0,0:0:0:0:
176,228,97698,2,0,L|120:192,2,67.5000025749208,2|0|2,0:0|0:0|0:0,0:0:0:0:
352,228,98212,1,2,0:0:0:0:
80,328,98384,6,0,L|184:328,2,90,2|0|0,0:0|0:0|0:0,0:0:0:0:
328,328,98898,1,0,0:0:0:0:
436,328,99069,2,0,L|440:224,1,90,10|0,0:0|0:0,0:0:0:0:
260,236,99412,2,0,L|180:192,1,90,0|0,0:0|0:0,0:0:0:0:
372,120,99755,5,2,0:0:0:0:
264,120,99926,1,0,0:0:0:0:
392,120,100098,1,0,0:0:0:0:
500,120,100269,1,0,0:0:0:0:
320,40,100441,1,10,0:0:0:0:
428,40,100612,1,0,0:0:0:0:
300,40,100784,1,0,0:0:0:0:
192,44,100955,1,0,0:0:0:0:
440,120,101126,6,0,L|452:224,1,90,2|0,0:0|0:0,0:0:0:0:
292,208,101469,1,0,0:0:0:0:
56,208,101641,1,0,0:0:0:0:
216,208,101812,1,10,0:0:0:0:
108,208,101984,2,0,L|100:312,1,90,0|0,0:0|0:0,0:0:0:0:
208,296,102326,1,0,0:0:0:0:
392,296,102498,6,0,L|292:296,1,90,2|0,0:0|0:0,0:0:0:0:
412,296,102841,2,0,L|416:192,1,90,0|0,0:0|0:0,0:0:0:0:
168,208,103184,2,0,L|164:112,1,90,10|0,0:0|0:0,0:0:0:0:
400,116,103526,1,10,0:0:0:0:
236,116,103698,1,2,0:0:0:0:
484,32,103869,5,2,0:0:0:0:
376,32,104041,1,0,0:0:0:0:
268,32,104212,1,0,0:0:0:0:
448,32,104384,1,0,0:0:0:0:
180,32,104555,1,10,0:0:0:0:
288,32,104726,1,0,0:0:0:0:
124,32,104898,2,0,L|120:132,1,90,0|0,0:0|0:0,0:0:0:0:
368,124,105241,6,0,L|256:124,1,90,2|0,0:0|0:0,0:0:0:0:
96,208,105584,2,0,L|192:208,1,90,0|0,0:0|0:0,0:0:0:0:
368,208,105926,1,10,0:0:0:0:
240,208,106098,2,0,L|332:208,1,90,0|0,0:0|0:0,0:0:0:0:
204,208,106441,1,0,0:0:0:0:
452,208,106612,5,2,0:0:0:0:
464,100,106784,1,0,0:0:0:0:
356,88,106955,1,0,0:0:0:0:
176,88,107126,1,0,0:0:0:0:
448,88,107298,1,10,0:0:0:0:
340,88,107469,1,0,0:0:0:0:
504,168,107641,2,0,L|392:168,1,90,0|0,0:0|0:0,0:0:0:0:
176,168,107984,6,0,L|84:168,1,90,2|0,0:0|0:0,0:0:0:0:
256,168,108326,1,0,0:0:0:0:
16,256,108498,2,0,L|288:256,1,270.000010299683,10|0,0:0|0:0,0:0:0:0:
468,256,109012,2,0,L|360:256,1,90,10|0,0:0|0:0,0:0:0:0:
108,256,109355,6,0,L|16:256,2,90,2|0|0,0:0|0:0|0:0,0:0:0:0:
284,256,109869,1,0,0:0:0:0:
36,256,110041,2,0,L|32:152,1,90,10|0,0:0|0:0,0:0:0:0:
212,168,110384,2,0,L|292:124,1,90,0|0,0:0|0:0,0:0:0:0:
124,124,110726,5,2,0:0:0:0:
232,124,110898,1,0,0:0:0:0:
104,124,111069,1,0,0:0:0:0:
212,124,111241,1,0,0:0:0:0:
392,40,111412,1,10,0:0:0:0:
284,40,111584,1,0,0:0:0:0:
104,44,111755,1,0,0:0:0:0:
212,40,111926,1,0,0:0:0:0:
460,40,112098,6,0,L|472:144,1,90,2|0,0:0|0:0,0:0:0:0:
288,128,112441,1,0,0:0:0:0:
452,128,112612,1,0,0:0:0:0:
180,128,112784,1,10,0:0:0:0:
288,128,112955,2,0,L|192:128,1,90,0|0,0:0|0:0,0:0:0:0:
92,128,113298,1,0,0:0:0:0:
332,308,113469,6,0,L|336:212,1,90,2|0,0:0|0:0,0:0:0:0:
164,216,113812,2,0,L|260:216,1,90,0|0,0:0|0:0,0:0:0:0:
16,216,114155,2,0,L|12:120,1,90,10|0,0:0|0:0,0:0:0:0:
196,128,114498,1,0,0:0:0:0:
40,128,114669,1,0,0:0:0:0:
296,228,114841,5,2,0:0:0:0:
404,228,115012,1,0,0:0:0:0:
280,228,115184,1,0,0:0:0:0:
460,228,115355,1,0,0:0:0:0:
212,228,115526,1,10,0:0:0:0:
320,228,115698,1,0,0:0:0:0:
140,228,115869,2,0,L|136:128,1,90,0|0,0:0|0:0,0:0:0:0:
384,124,116212,5,2,0:0:0:0:
220,124,116384,1,0,0:0:0:0:
56,124,116555,2,0,L|152:124,1,90,0|0,0:0|0:0,0:0:0:0:
384,216,116898,1,10,0:0:0:0:
220,216,117069,2,0,L|116:216,1,90,0|0,0:0|0:0,0:0:0:0:
56,124,117412,1,0,0:0:0:0:
296,124,117584,5,2,0:0:0:0:
404,136,117755,1,0,0:0:0:0:
420,244,117926,1,0,0:0:0:0:
240,244,118098,2,0,B|152:244|152:244|136:336,1,180,0|0,0:0|0:0,0:0:0:0:
452,332,118784,6,0,L|268:332,1,180,2|0,0:0|0:0,0:0:0:0:
452,332,119298,1,0,0:0:0:0:
344,332,119469,1,2,0:0:0:0:
72,332,119641,2,0,L|80:240,1,90,10|0,0:0|0:0,0:0:0:0:
372,192,119984,2,0,L|288:144,1,90,10|0,0:0|0:0,0:0:0:0:
24,148,120326,6,0,L|128:148,2,90,2|0|0,0:0|0:0|0:0,0:0:0:0:
204,148,120841,1,0,0:0:0:0:
452,148,121012,2,0,L|456:44,1,90,10|0,0:0|0:0,0:0:0:0:
276,16,121355,2,0,L|354:59,1,90,0|0,0:0|0:0,0:0:0:0:
172,16,121698,5,2,0:0:0:0:
95,54,121869,1,0,0:0:0:0:
276,104,122041,1,0,0:0:0:0:
352,143,122212,1,0,0:0:0:0:
172,144,122384,1,10,0:0:0:0:
416,144,122555,2,0,L|508:144,2,90,0|0|0,0:0|0:0|0:0,0:0:0:0:
100,248,123069,6,0,L|88:144,1,90,2|0,0:0|0:0,0:0:0:0:
272,248,123412,2,0,L|384:248,1,90,0|0,0:0|0:0,0:0:0:0:
120,248,123755,1,10,0:0:0:0:
228,248,123926,2,0,L|236:144,1,90,0|0,0:0|0:0,0:0:0:0:
128,160,124269,1,0,0:0:0:0:
308,160,124441,6,0,L|408:160,1,90,2|0,0:0|0:0,0:0:0:0:
128,160,124784,2,0,L|120:252,1,90,0|0,0:0|0:0,0:0:0:0:
305,293,125126,2,0,L|221:244,1,90,10|0,0:0|0:0,0:0:0:0:
464,248,125469,1,10,0:0:0:0:
304,248,125641,1,2,0:0:0:0:
60,340,125812,5,2,0:0:0:0:
168,340,125984,1,0,0:0:0:0:
276,340,126155,1,0,0:0:0:0:
96,340,126326,1,0,0:0:0:0:
364,340,126498,1,10,0:0:0:0:
256,340,126669,1,0,0:0:0:0:
432,340,126841,2,0,L|436:240,1,90,0|0,0:0|0:0,0:0:0:0:
192,252,127184,6,0,L|304:252,1,90,2|0,0:0|0:0,0:0:0:0:
120,168,127526,2,0,L|216:168,1,90,0|0,0:0|0:0,0:0:0:0:
448,168,127869,1,10,0:0:0:0:
320,168,128041,2,0,L|412:168,1,90,0|0,0:0|0:0,0:0:0:0:
284,168,128384,1,0,0:0:0:0:
48,168,128555,5,2,0:0:0:0:
36,60,128726,1,0,0:0:0:0:
144,48,128898,1,0,0:0:0:0:
328,48,129069,2,0,L|332:144,1,90,0|10,0:0|0:0,0:0:0:0:
60,168,129412,2,0,L|172:168,1,90,0|0,0:0|0:0,0:0:0:0:
260,168,129755,1,0,0:0:0:0:
24,256,129926,5,2,0:0:0:0:
188,256,130098,1,0,0:0:0:0:
352,256,130269,1,0,0:0:0:0:
108,340,130441,2,0,B|244:340|244:340|108:340,1,270.000010299683,10|0,0:0|0:0,0:0:0:0:
364,340,130955,2,0,L|480:340,1,90,10|0,0:0|0:0,0:0:0:0:
160,340,131298,6,0,L|64:340,2,90,2|0|0,0:0|0:0|0:0,0:0:0:0:
404,340,131812,1,0,0:0:0:0:
240,340,131984,1,10,0:0:0:0:
348,340,132155,1,0,0:0:0:0:
224,340,132326,1,0,0:0:0:0:
96,340,132498,1,0,0:0:0:0:
332,192,132669,5,2,0:0:0:0:
255,154,132841,1,0,0:0:0:0:
428,192,133012,1,0,0:0:0:0:
504,153,133184,1,0,0:0:0:0:
255,154,133355,1,10,0:0:0:0:
363,154,133526,2,0,L|455:154,1,90,0|0,0:0|0:0,0:0:0:0:
284,156,133869,1,0,0:0:0:0:
48,64,134041,6,0,L|36:168,1,90,2|0,0:0|0:0,0:0:0:0:
220,64,134384,2,0,L|332:64,1,90,0|0,0:0|0:0,0:0:0:0:
68,64,134726,1,10,0:0:0:0:
176,64,134898,2,0,L|184:168,1,90,0|0,0:0|0:0,0:0:0:0:
76,152,135241,1,0,0:0:0:0:
316,152,135412,6,0,L|416:152,1,90,2|0,0:0|0:0,0:0:0:0:
224,244,135755,2,0,L|124:244,1,90,0|0,0:0|0:0,0:0:0:0:
372,244,136098,2,0,L|280:244,1,90,10|0,0:0|0:0,0:0:0:0:
44,244,136441,2,0,L|136:244,1,90,0|0,0:0|0:0,0:0:0:0:
388,336,136784,5,2,0:0:0:0:
280,336,136955,1,0,0:0:0:0:
172,336,137126,1,0,0:0:0:0:
352,336,137298,1,0,0:0:0:0:
84,336,137469,1,10,0:0:0:0:
192,336,137641,1,0,0:0:0:0:
12,336,137812,2,0,L|20:240,1,90,0|0,0:0|0:0,0:0:0:0:
256,248,138155,6,0,L|144:248,1,90,2|0,0:0|0:0,0:0:0:0:
348,168,138498,2,0,L|252:168,1,90,0|0,0:0|0:0,0:0:0:0:
20,168,138841,1,10,0:0:0:0:
128,168,139012,2,0,L|224:168,1,90,0|0,0:0|0:0,0:0:0:0:
92,168,139355,1,0,0:0:0:0:
360,168,139526,5,2,0:0:0:0:
372,60,139698,1,0,0:0:0:0:
264,48,139869,1,0,0:0:0:0:
448,60,140041,2,0,L|452:156,1,90,0|10,0:0|0:0,0:0:0:0:
180,180,140384,2,0,L|88:180,1,90,0|0,0:0|0:0,0:0:0:0:
196,180,140726,1,0,0:0:0:0:
352,184,140898,5,0,0:0:0:0:
180,180,141069,1,2,0:0:0:0:
368,184,141241,1,10,0:0:0:0:
72,180,141412,1,0,0:0:0:0:
32,280,141584,1,2,0:0:0:0:
132,320,141755,1,2,0:0:0:0:
368,320,141926,1,10,0:0:0:0:
88,320,142098,1,0,0:0:0:0:
196,320,142269,6,0,P|184:240|88:176,1,202.500007724762,4|0,0:0|0:0,0:0:0:0:
312,176,143298,1,2,0:0:0:0:
188,176,143984,2,0,L|184:108,1,67.5000025749208,0|0,0:0|0:0,0:0:0:0:
344,108,144326,2,0,L|416:108,1,67.5000025749208,2|0,0:0|0:0,0:0:0:0:
204,108,145012,5,4,0:0:0:0:
284,108,145184,2,0,B|352:108|352:108|360:192,1,135.000005149842,0|0,0:0|0:0,0:0:0:0:
136,172,146041,1,2,0:0:0:0:
352,172,146726,2,0,L|280:172,1,67.5000025749208,0|0,0:0|0:0,0:0:0:0:
392,172,147069,2,0,L|400:264,1,67.5000025749208,2|0,0:0|0:0,0:0:0:0:
288,240,147412,2,0,L|368:240,1,67.5000025749208,2|2,0:0|0:0,0:0:0:0:
288,240,147755,5,4,0:0:0:0:
128,240,147926,2,0,P|112:184|128:108,1,135.000005149842,0|0,0:0|0:0,0:0:0:0:
356,112,148784,1,2,0:0:0:0:
112,112,149469,1,0,0:0:0:0:
208,112,149641,1,0,0:0:0:0:
48,112,149812,2,0,L|44:204,1,67.5000025749208,2|0,0:0|0:0,0:0:0:0:
272,180,150498,6,0,L|64:180,1,202.500007724762,4|0,0:0|0:0,0:0:0:0:
312,180,151526,1,2,0:0:0:0:
112,180,152212,2,0,L|104:248,1,67.5000025749208,0|0,0:0|0:0,0:0:0:0:
220,248,152555,2,0,L|228:316,1,67.5000025749208,2|0,0:0|0:0,0:0:0:0:
344,248,152898,2,0,L|336:316,1,67.5000025749208,2|2,0:0|0:0,0:0:0:0:
180,316,153241,5,4,0:0:0:0:
260,316,153412,2,0,B|328:316|328:316|328:248,1,135.000005149842
192,192,155984,5,2,0:0:0:0:
272,192,156155,2,0,L|276:56,1,135.000005149842,0|0,0:0|0:0,0:0:0:0:
60,56,158726,5,4,0:0:0:0:
140,56,158898,2,0,B|208:56|208:56|208:128,1,135.000005149842,0|0,0:0|0:0,0:0:0:0:
428,192,161469,5,2,0:0:0:0:
348,192,161641,2,0,L|208:192,1,135.000005149842,0|0,0:0|0:0,0:0:0:0:
256,192,164212,12,2,170641,0:0:0:0:
