osu file format v14

[General]
AudioFilename: audio.mp3
AudioLeadIn: 0
PreviewTime: 24241
Countdown: 0
SampleSet: Soft
StackLeniency: 0.7
Mode: 2
LetterboxInBreaks: 0
WidescreenStoryboard: 1

[Editor]
Bookmarks: 2383,13355,24326,46269,70955,92898,98384,120326,142269,153241
DistanceSpacing: 1.1
BeatDivisor: 4
GridSize: 32
TimelineZoom: 2.1

[Metadata]
Title:8BIT FAIRY TALE
TitleUnicode:8BIT FAIRY TALE
Artist:LukHash
ArtistUnicode:LukHash
Creator:Ascendance
Version:Cup
Source:osu!
Tags:other side electronic jbhyperion jbh rocma no492_shaymin _asriel -_magic_bomb_- mbomb osu_gangster ster chara -plus- bunnrei mappers guild fruit factory fairytale
BeatmapID:2184876
BeatmapSetID:1045131

[Difficulty]
HPDrainRate:3
CircleSize:2.4
OverallDifficulty:6
ApproachRate:6
SliderMultiplier:1.2
SliderTickRate:1

[Events]
//Background and Video events
0,0,"glitch-2717630_1920.jpg",0,0
//Break Periods
2,93098,97334
//Storyboard Layer 0 (Background)
//Storyboard Layer 1 (Fail)
//Storyboard Layer 2 (Pass)
//Storyboard Layer 3 (Foreground)
//Storyboard Layer 4 (Overlay)
//Storyboard Sound Samples

[TimingPoints]
2384,342.857142857143,4,2,50,55,1,0
13355,-100,4,2,50,60,0,0
21584,-100,4,2,50,62,0,0
22955,-100,4,2,50,64,0,0
23641,-100,4,2,50,66,0,0
24326,-100,4,2,1,90,0,0
43526,-100,4,2,50,75,0,0
46269,-100,4,2,1,82,0,0
68212,-100,4,2,1,60,0,0
70955,-100,4,2,1,90,0,0
90155,-100,4,2,50,75,0,0
92898,-100,4,2,2,50,0,0
93069,-100,4,2,2,40,0,0
98384,-100,4,2,1,82,0,0
117584,-100,4,2,2,70,0,0
119641,-100,4,2,1,82,0,0
142269,-100,4,2,2,70,0,0
142441,-100,4,2,2,65,0,0
142612,-100,4,2,2,60,0,0
142784,-100,4,2,2,55,0,0
143298,-100,4,2,2,50,0,0
143984,-100,4,2,2,35,0,0
158726,-100,4,2,2,25,0,0
161469,-100,4,2,2,15,0,0
164212,-100,4,2,2,8,0,0
166612,-100,4,2,2,6,0,0

[Colours]
Combo1 : 240,90,150
Combo2 : 40,20,130
Combo3 : 220,20,90
Combo4 : 120,100,230

[HitObjects]
103,322,13355,6,0,L|104:175,1,120,2|10,0:0|0:0,0:0:0:0:
236,199,14041,2,0,L|377:198,1,120,0|10,0:0|0:0,0:0:0:0:
223,196,14726,2,0,L|219:337,1,120,2|10,0:0|0:0,0:0:0:0:
341,328,15412,2,0,L|342:191,1,120,0|10,0:0|0:0,0:0:0:0:
223,206,16098,6,0,L|79:207,1,120,2|10,0:0|0:0,0:0:0:0:
235,207,16784,2,0,L|373:207,1,120,0|10,0:0|0:0,0:0:0:0:
237,219,17469,2,0,L|234:361,1,120,2|10,0:0|0:0,0:0:0:0:
102,354,18155,2,0,L|106:213,1,120,0|14,0:0|0:0,0:0:0:0:
234,264,18841,5,2,0:0:0:0:
349,200,19184,1,10,0:0:0:0:
374,70,19526,1,0,0:0:0:0:
255,12,19869,1,10,0:0:0:0:
123,26,20212,6,0,L|110:169,1,120,2|10,0:0|0:0,0:0:0:0:
228,170,20898,2,0,L|240:318,1,120,0|10,0:0|0:0,0:0:0:0:
108,322,21584,5,2,0:0:0:0:
20,223,21926,1,10,0:0:0:0:
49,94,22269,1,0,0:0:0:0:
168,36,22612,1,10,0:0:0:0:
323,40,22955,6,0,L|328:179,1,120,10|10,0:0|0:0,0:0:0:0:
263,177,23469,1,2,0:0:0:0:
198,191,23641,1,2,0:0:0:0:
67,210,23984,1,0,0:0:0:0:
236,192,24326,6,0,L|426:226,2,180,6|0|10,0:1|0:0|0:0,0:0:0:0:
92,229,25698,1,2,0:0:0:0:
218,190,26041,2,0,L|221:120,2,60,10|2|0,0:0|0:0|0:0,0:0:0:0:
92,229,26726,1,10,0:0:0:0:
248,225,27069,6,0,L|451:225,2,180,6|0|10,0:0|0:0|0:0,0:0:0:0:
92,229,28441,1,2,0:0:0:0:
224,230,28784,1,10,0:0:0:0:
355,234,29126,1,0,0:0:0:0:
378,103,29469,1,10,0:0:0:0:
222,96,29812,6,0,L|20:97,2,180,6|0|10,0:0|0:0|0:0,0:0:0:0:
347,138,31184,2,0,L|351:-9,1,120,2|10,0:0|0:0,0:0:0:0:
218,30,31869,1,0,0:0:0:0:
85,31,32212,1,10,0:0:0:0:
236,37,32555,6,0,L|438:22,2,180,6|0|10,0:0|0:0|0:0,0:0:0:0:
368,94,33926,2,0,L|330:227,1,120,6|10,0:0|0:0,0:0:0:0:
199,175,34612,2,0,L|215:312,1,120,4|10,0:0|0:0,0:0:0:0:
62,336,35298,6,0,L|260:363,2,180,6|0|10,0:1|0:0|0:0,0:0:0:0:
185,288,36669,1,2,0:0:0:0:
317,291,37012,2,0,L|396:305,2,60,10|2|0,0:0|0:0|0:0,0:0:0:0:
186,267,37698,1,10,0:0:0:0:
333,215,38041,6,0,L|517:203,2,180,6|0|10,0:0|0:0|0:0,0:0:0:0:
201,222,39412,2,0,L|188:98,1,120,2|10,0:0|0:0,0:0:0:0:
58,127,40098,2,0,L|43:-2,1,120,0|10,0:0|0:0,0:0:0:0:
192,57,40784,6,0,L|380:72,2,180,6|0|10,0:0|0:0|0:0,0:0:0:0:
61,77,42155,1,2,0:0:0:0:
93,204,42498,1,10,0:0:0:0:
237,217,42841,1,0,0:0:0:0:
332,282,43184,1,10,0:0:0:0:
200,280,43526,5,2,0:0:0:0:
200,280,44041,1,0,0:0:0:0:
456,309,44898,5,0,0:0:0:0:
326,335,45241,1,0,0:0:0:0:
326,335,45584,1,0,0:0:0:0:
62,346,46269,6,0,P|11:263|105:166,1,240,2|10,0:0|0:0,0:0:0:0:
225,167,47298,1,0,0:0:0:0:
356,174,47641,2,0,L|369:42,1,120,2|0,0:0|0:0,0:0:0:0:
224,38,48326,2,0,L|207:160,1,120,10|0,0:0|0:0,0:0:0:0:
339,161,49012,6,0,P|427:197|420:338,1,240,2|10,0:0|0:0,0:0:0:0:
297,343,50041,1,0,0:0:0:0:
165,343,50384,2,0,L|19:343,1,120,2|0,0:0|0:0,0:0:0:0:
200,338,51069,1,10,0:0:0:0:
356,340,51412,1,10,0:0:0:0:
223,342,51755,6,0,P|151:262|253:179,1,240,2|10,0:0|0:0,0:0:0:0:
356,178,52784,1,0,0:0:0:0:
487,177,53126,2,0,L|343:177,1,120,2|0,0:0|0:0,0:0:0:0:
242,222,53812,2,0,L|240:79,1,120,10|0,0:0|0:0,0:0:0:0:
114,59,54498,6,0,L|360:47,1,240,2|10,0:0|0:0,0:0:0:0:
222,33,55526,1,0,0:0:0:0:
89,30,55869,2,0,L|83:157,1,120,2|0,0:0|0:0,0:0:0:0:
160,164,56384,1,10,0:0:0:0:
315,166,56726,2,0,L|320:238,1,60,0|10,0:0|0:0,0:0:0:0:
186,220,57241,6,0,P|103:292|192:380,1,240,2|10,0:0|0:0,0:0:0:0:
296,350,58269,1,0,0:0:0:0:
427,360,58612,2,0,L|434:218,1,120,2|0,0:0|0:0,0:0:0:0:
278,217,59298,2,0,L|265:89,1,120,10|0,0:0|0:0,0:0:0:0:
121,72,59984,6,0,P|50:124|97:255,1,240,2|10,0:0|0:0,0:0:0:0:
235,278,61012,1,0,0:0:0:0:
366,285,61355,2,0,L|231:283,1,120,2|0,0:0|0:0,0:0:0:0:
89,283,62041,1,10,0:0:0:0:
220,288,62384,1,0,0:0:0:0:
351,290,62726,6,0,P|406:259|349:117,1,240,2|10,0:0|0:0,0:0:0:0:
227,112,63755,1,0,0:0:0:0:
368,140,64098,2,0,L|365:266,1,120,2|0,0:0|0:0,0:0:0:0:
224,230,64784,2,0,L|223:372,1,120,10|0,0:0|0:0,0:0:0:0:
353,326,65469,6,0,P|436:264|382:146,1,240,2|10,0:0|0:0,0:0:0:0:
261,149,66498,1,0,0:0:0:0:
128,145,66841,2,0,L|389:125,2,240,0|2|4,0:0|0:0|0:1,0:0:0:0:
256,192,68555,12,0,70612,0:0:0:0:
234,317,70955,6,0,L|33:317,2,180,6|0|10,0:1|0:0|0:0,0:0:0:0:
365,321,72326,1,2,0:0:0:0:
232,321,72669,2,0,L|161:320,2,60,10|2|0,0:0|0:0|0:0,0:0:0:0:
365,321,73355,1,10,0:0:0:0:
212,288,73698,6,0,L|419:289,2,180,6|0|10,0:0|0:0|0:0,0:0:0:0:
80,281,75069,1,2,0:0:0:0:
212,280,75412,1,10,0:0:0:0:
344,281,75755,2,0,L|353:162,1,120,0|10,0:0|0:0,0:0:0:0:
200,125,76441,6,0,L|16:110,2,180,6|0|10,0:0|0:0|0:0,0:0:0:0:
320,71,77812,2,0,L|323:206,1,120,2|10,0:0|0:0,0:0:0:0:
190,186,78498,2,0,L|191:324,1,120,0|10,0:0|0:0,0:0:0:0:
346,322,79184,6,0,L|159:344,2,180,6|0|10,0:0|0:0|0:0,0:0:0:0:
216,298,80555,2,0,L|214:158,1,120,6|10,0:0|0:0,0:0:0:0:
82,184,81241,2,0,L|75:52,1,120,4|10,0:0|0:0,0:0:0:0:
231,49,81926,6,0,L|411:75,2,180,6|0|10,0:1|0:0|0:0,0:0:0:0:
101,74,83298,1,2,0:0:0:0:
226,114,83641,2,0,L|308:126,2,60,10|2|0,0:0|0:0|0:0,0:0:0:0:
99,151,84326,1,10,0:0:0:0:
246,101,84669,6,0,L|437:101,2,180,6|0|10,0:0|0:0|0:0,0:0:0:0:
113,100,86041,1,2,0:0:0:0:
245,97,86384,1,10,0:0:0:0:
376,95,86726,1,0,0:0:0:0:
426,216,87069,1,10,0:0:0:0:
274,253,87412,6,0,L|78:268,2,180,6|0|10,0:0|0:0|0:0,0:0:0:0:
405,236,88784,2,0,L|419:98,1,120,2|10,0:0|0:0,0:0:0:0:
285,107,89469,1,0,0:0:0:0:
416,111,89812,1,10,0:0:0:0:
284,114,90155,5,2,0:0:0:0:
284,114,90669,1,0,0:0:0:0:
45,95,91526,5,2,0:0:0:0:
45,95,91869,1,10,0:0:0:0:
177,98,92212,1,0,0:0:0:0:
465,100,92898,5,0,0:0:0:0:
381,343,98384,6,0,P|458:273|381:167,1,240,2|10,0:0|0:0,0:0:0:0:
271,137,99412,1,0,0:0:0:0:
138,137,99755,2,0,L|265:137,1,120,2|0,0:0|0:0,0:0:0:0:
390,137,100441,2,0,L|252:136,1,120,10|0,0:0|0:0,0:0:0:0:
118,99,101126,6,0,P|49:144|120:267,1,240,2|10,0:0|0:0,0:0:0:0:
237,264,102155,1,0,0:0:0:0:
368,272,102498,2,0,L|369:139,1,120,2|0,0:0|0:0,0:0:0:0:
213,166,103184,2,0,L|75:167,1,120,10|10,0:0|0:0,0:0:0:0:
248,159,103869,6,0,P|317:191|246:308,1,240,2|10,0:0|0:0,0:0:0:0:
125,307,104898,1,0,0:0:0:0:
257,308,105241,2,0,L|393:310,1,120,2|0,0:0|0:0,0:0:0:0:
222,291,105926,2,0,L|217:163,1,120,10|0,0:0|0:0,0:0:0:0:
63,200,106612,6,0,P|54:128|191:47,1,240,2|10,0:0|0:0,0:0:0:0:
311,38,107641,1,0,0:0:0:0:
179,33,107984,2,0,L|169:165,1,120,2|0,0:0|0:0,0:0:0:0:
244,174,108498,1,10,0:0:0:0:
399,188,108841,2,0,L|405:271,1,60,0|10,0:0|0:0,0:0:0:0:
250,278,109355,6,0,P|146:257|131:130,1,240,2|10,0:0|0:0,0:0:0:0:
257,126,110384,1,0,0:0:0:0:
388,126,110726,2,0,L|242:125,1,120,2|0,0:0|0:0,0:0:0:0:
111,133,111412,2,0,L|107:264,1,120,10|0,0:0|0:0,0:0:0:0:
259,291,112098,6,0,P|330:209|237:125,1,240,2|10,0:0|0:0,0:0:0:0:
124,124,113126,1,0,0:0:0:0:
256,126,113469,2,0,L|391:126,1,120,2|0,0:0|0:0,0:0:0:0:
219,128,114155,2,0,L|78:128,1,120,10|0,0:0|0:0,0:0:0:0:
254,108,114841,6,0,P|327:145|268:280,1,240,2|10,0:0|0:0,0:0:0:0:
157,291,115869,1,0,0:0:0:0:
289,293,116212,2,0,L|436:295,1,120,2|0,0:0|0:0,0:0:0:0:
278,270,116898,2,0,L|132:270,1,120,10|0,0:0|0:0,0:0:0:0:
25,280,117584,6,0,L|26:210,1,60,2|0,0:0|0:0,0:0:0:0:
157,205,118098,2,0,L|285:250,2,120,0|0|2,0:0|0:0|0:0,0:0:0:0:
24,206,119126,2,0,L|99:206,1,60,0|0,0:0|0:0,0:0:0:0:
252,209,119641,2,0,L|392:209,1,120,10|10,0:0|0:0,0:0:0:0:
215,270,120326,6,0,P|144:197|227:103,1,240,2|10,0:0|0:0,0:0:0:0:
360,103,121355,1,0,0:0:0:0:
215,107,121698,2,0,L|204:244,1,120,2|0,0:0|0:0,0:0:0:0:
362,287,122384,1,10,0:0:0:0:
220,312,122726,1,0,0:0:0:0:
80,277,123069,6,0,L|70:142,1,120,2|0,0:0|0:0,0:0:0:0:
211,191,123755,2,0,L|342:184,2,120,10|0|2,0:0|0:0|0:0,0:0:0:0:
70,156,124784,1,0,0:0:0:0:
213,146,125126,1,10,0:0:0:0:
69,160,125469,1,10,0:0:0:0:
213,146,125812,6,0,P|284:214|212:317,1,240,2|10,0:0|0:0,0:0:0:0:
94,303,126841,1,0,0:0:0:0:
237,307,127184,2,0,L|373:308,1,120,2|0,0:0|0:0,0:0:0:0:
216,277,127869,2,0,L|213:140,1,120,10|0,0:0|0:0,0:0:0:0:
70,175,128555,6,0,L|64:45,1,120,2|0,0:0|0:0,0:0:0:0:
232,43,129241,1,10,0:0:0:0:
376,41,129584,1,0,0:0:0:0:
232,46,129926,6,0,L|228:177,1,120,2|0,0:0|0:0,0:0:0:0:
310,186,130441,1,10,0:0:0:0:
476,208,130784,2,0,L|484:290,1,60,0|10,0:0|0:0,0:0:0:0:
313,263,131298,6,0,L|64:263,1,240,2|10,0:0|0:0,0:0:0:0:
215,242,132326,1,0,0:0:0:0:
359,244,132669,2,0,L|365:113,1,120,2|0,0:0|0:0,0:0:0:0:
231,181,133355,2,0,L|230:46,1,120,10|0,0:0|0:0,0:0:0:0:
62,40,134041,5,2,0:0:0:0:
230,40,134384,1,0,0:0:0:0:
397,42,134726,1,10,0:0:0:0:
269,193,135069,1,0,0:0:0:0:
125,200,135412,2,0,L|112:335,1,120,2|0,0:0|0:0,0:0:0:0:
254,286,136098,2,0,L|124:262,1,120,10|0,0:0|0:0,0:0:0:0:
275,300,136784,6,0,P|379:291|434:168,1,240,2|10,0:0|0:0,0:0:0:0:
283,176,137812,1,0,0:0:0:0:
139,188,138155,2,0,L|126:323,1,120,2|0,0:0|0:0,0:0:0:0:
281,238,138841,2,0,L|293:96,1,120,10|0,0:0|0:0,0:0:0:0:
147,128,139526,6,0,L|19:119,2,120,2|0|10,0:0|0:0|0:0,0:0:0:0:
219,135,140384,1,0,0:0:0:0:
361,153,140726,1,0,0:0:0:0:
217,158,141069,2,0,L|202:234,1,60,2|10,0:0|0:0,0:0:0:0:
349,232,141584,2,0,L|357:367,1,120,2|10,0:0|0:0,0:0:0:0:
290,356,142098,1,0,0:0:0:0:
224,359,142269,5,4,0:0:0:0:
71,311,142783,1,0,0:0:0:0:
220,241,143297,1,2,0:0:0:0:
440,252,143983,2,0,L|314:232,1,120,0|2,0:0|0:0,0:0:0:0:
127,343,145012,6,0,L|311:327,2,180,4|0|2,0:0|0:0|0:0,0:0:0:0:
300,230,146726,1,0,0:0:0:0:
166,216,147069,1,2,0:0:0:0:
153,155,147411,1,2,0:0:0:0:
281,74,147755,6,0,L|456:136,2,180,4|0|2,0:0|0:0|0:0,0:0:0:0:
152,202,149469,2,0,L|286:180,1,120,0|2,0:0|0:0,0:0:0:0:
448,273,150497,6,0,L|246:249,2,180,4|0|2,0:0|0:0|0:0,0:0:0:0:
242,340,152212,2,0,L|111:357,2,120,0|2|2,0:0|0:0|0:0,0:0:0:0:
363,358,153240,6,0,L|371:169,1,180,4|0,0:0|0:0,0:0:0:0:
208,279,155983,2,0,P|160:211|232:145,1,180,2|0,0:0|0:0,0:0:0:0:
383,143,158726,6,0,L|217:55,1,180,4|0,0:0|0:0,0:0:0:0:
130,141,161469,6,0,L|289:56,1,180,4|0,0:0|0:0,0:0:0:0:
256,192,164211,12,2,170640,0:0:0:0:
