osu file format v14

[General]
AudioFilename: audio.mp3
AudioLeadIn: 0
PreviewTime: 32812
Countdown: 0
SampleSet: Soft
StackLeniency: 0.6
Mode: 0
LetterboxInBreaks: 0
EpilepsyWarning: 1
WidescreenStoryboard: 1

[Editor]
Bookmarks: 11492,33823,81688
DistanceSpacing: 1.1
BeatDivisor: 8
GridSize: 4
TimelineZoom: 1.5

[Metadata]
Title:Teopacito feat. Will Stetson
TitleUnicode:Teopacito feat. Will Stetson
Artist:Luis Fonsi, Omoi & R3 Music Box
ArtistUnicode:Luis Fonsi, Omoi & R3 Music Box
Creator:Kroytz
Version:Kalibe's Insane
Source:
Tags:Teo Despacito Mashup Remix Edit Sakurai Kimura GoldenWolf Noffy Ralsei Renumi DakiniBrave Shunao shogunmoon xChorse Canderos FoxyGrandpa SnowNiNo_ Hakura Kalibe A r M i N MashaSG CrazyrabbitKGE
BeatmapID:1668947
BeatmapSetID:794585

[Difficulty]
HPDrainRate:5
CircleSize:4
OverallDifficulty:8
ApproachRate:9
SliderMultiplier:3.59999990463257
SliderTickRate:1

[Events]
//Background and Video events
0,0,"bG.jpg",0,0
//Break Periods
//Storyboard Layer 0 (Background)
//Storyboard Layer 1 (Fail)
//Storyboard Layer 2 (Pass)
//Storyboard Layer 3 (Foreground)
//Storyboard Sound Samples

[TimingPoints]
790,674.157303370787,4,2,1,50,1,0
790,-200,4,2,1,50,0,0
11155,-142.857142857143,4,2,2,5,0,0
11239,-142.857142857143,4,2,1,70,0,0
11576,-117.647058823529,4,2,1,70,0,0
18570,-117.647058823529,4,2,2,5,0,0
18655,-117.647058823529,4,2,1,70,0,0
22363,-100,4,2,1,70,0,0
22615,-100,4,2,2,5,0,0
22700,-100,4,2,1,70,0,0
23964,-100,4,2,2,5,0,0
24048,-100,4,2,1,70,0,0
25312,-100,4,2,2,5,0,0
25396,-100,4,2,1,70,0,0
31801,-333.333333333333,4,2,1,70,0,0
32138,-333.333333333333,4,2,1,15,0,0
32475,-333.333333333333,4,2,1,70,0,0
32812,-333.333333333333,4,2,1,30,0,0
33065,-333.333333333333,4,2,2,5,0,0
33149,-83.3333333333333,4,2,1,70,0,1
35761,-83.3333333333333,4,2,1,70,0,1
35846,-83.3333333333333,4,2,1,70,0,1
36098,-83.3333333333333,4,2,2,5,0,1
36183,-83.3333333333333,4,2,1,70,0,1
37868,-66.6666666666667,4,2,1,70,0,1
38542,-83.3333333333333,4,2,1,70,0,1
41155,-83.3333333333333,4,2,1,70,0,1
41239,-83.3333333333333,4,2,1,70,0,1
41492,-83.3333333333333,4,2,2,5,0,1
41576,-83.3333333333333,4,2,1,70,0,1
42587,-83.3333333333333,4,2,1,70,0,0
43261,-166.666666666667,4,2,1,70,0,0
43514,-83.3333333333333,4,2,1,70,0,0
43598,-83.3333333333333,4,2,1,70,0,0
43936,-83.3333333333333,4,2,1,70,0,1
44188,-83.3333333333333,4,2,2,5,0,1
44273,-83.3333333333333,4,2,1,70,0,1
44525,-83.3333333333333,4,2,1,70,0,1
44610,-83.3333333333333,4,2,1,70,0,1
46211,-83.3333333333333,4,2,2,5,0,1
46295,-83.3333333333333,4,2,1,70,0,1
48907,-83.3333333333333,4,2,2,5,0,1
48992,-83.3333333333333,4,2,1,70,0,1
51688,-166.666666666667,4,2,1,70,0,1
51941,-83.3333333333333,4,2,2,5,0,1
52025,-83.3333333333333,4,2,1,70,0,1
53374,-142.857142857143,4,2,1,70,0,0
54722,-83.3333333333333,4,2,1,70,0,1
54975,-83.3333333333333,4,2,2,5,0,1
55059,-83.3333333333333,4,2,1,70,0,1
56323,-83.3333333333333,4,2,2,5,0,1
56407,-83.3333333333333,4,2,1,70,0,1
57419,-66.6666666666667,4,2,1,70,0,1
57672,-83.3333333333333,4,2,2,5,0,1
57756,-83.3333333333333,4,2,1,70,0,1
59020,-83.3333333333333,4,2,2,5,0,1
59104,-83.3333333333333,4,2,1,70,0,1
60368,-83.3333333333333,4,2,2,5,0,1
60452,-83.3333333333333,4,2,1,70,0,1
63065,-83.3333333333333,4,2,2,5,0,1
63149,-83.3333333333333,4,2,1,70,0,1
63739,-83.3333333333333,4,2,2,5,0,1
63823,-83.3333333333333,4,2,1,70,0,1
65424,-83.3333333333333,4,2,1,70,0,0
65509,-83.3333333333333,4,2,1,70,0,1
67110,-83.3333333333333,4,2,2,5,0,1
67194,-83.3333333333333,4,2,1,70,0,1
71155,-83.3333333333333,4,2,2,5,0,1
71239,-83.3333333333333,4,2,1,70,0,1
72503,-83.3333333333333,4,2,2,5,0,1
72587,-83.3333333333333,4,2,1,70,0,1
75874,-83.3333333333333,4,2,2,5,0,1
75958,-58.8235294117647,4,2,1,70,0,1
76211,-58.8235294117647,4,2,2,5,0,1
76295,-100,4,2,1,50,0,0
81014,-200,4,2,1,50,0,0

[Colours]
Combo1 : 169,233,150
Combo2 : 165,220,35
Combo3 : 0,255,128
Combo4 : 163,221,98

[HitObjects]
43,204,790,6,0,P|79:197|143:194,1,90,6|2,0:0|0:0,0:0:0:0:
174,130,1295,2,0,P|222:172|238:241,1,135,2|2,0:0|0:0,0:0:0:0:
455,38,2475,5,2,0:0:0:0:
379,11,2643,2,0,P|382:120|384:156,1,135,2|2,0:0|0:0,0:0:0:0:
456,167,3318,2,0,L|514:180,1,45,0|2,0:0|0:0,0:0:0:0:
511,192,3823,5,0,0:0:0:0:
457,249,3992,2,0,P|402:257|338:304,1,135,2|2,0:0|0:0,0:0:0:0:
183,379,4834,6,0,P|194:333|221:295,1,90,0|2,0:0|0:0,0:0:0:0:
162,242,5340,2,0,P|103:226|68:157,1,135,2|2,0:0|0:0,0:0:0:0:
51,67,6014,2,0,L|66:7,1,45,0|2,0:0|0:0,0:0:0:0:
88,12,6520,5,0,0:0:0:0:
160,44,6688,2,0,P|206:38|303:32,1,135,2|2,0:0|0:0,0:0:0:0:
280,59,7531,6,0,P|323:53|383:48,1,90,0|2,0:0|0:0,0:0:0:0:
466,152,8037,2,0,P|377:135|320:131,1,135,2|2,0:0|0:0,0:0:0:0:
195,152,8879,6,0,P|170:181|174:241,1,90,2|0,0:0|0:0,0:0:0:0:
132,318,9385,2,0,P|172:308|232:301,1,90,2|0,0:0|0:0,0:0:0:0:
275,252,9891,1,2,0:0:0:0:
275,252,10565,1,2,0:0:0:0:
347,281,10733,1,2,0:0:0:0:
353,261,11239,5,2,0:0:0:0:
220,301,11407,1,2,0:0:0:0:
389,379,11576,5,2,1:3:0:0:
389,379,11913,1,2,0:3:0:0:
498,284,12082,1,2,0:3:0:0:
498,284,12250,2,0,P|446:275|408:264,1,76.5000014591217,8|0,0:0|0:0,0:0:0:0:
422,123,12587,2,0,P|459:114|496:108,1,76.5000014591217,2|2,0:3|0:3,0:0:0:0:
360,194,12924,6,0,P|389:86|356:47,1,153.000002918243,2|2,1:3|0:3,0:0:0:0:
174,233,13430,2,0,P|145:341|178:380,1,153.000002918243,0|2,1:0|0:3,0:0:0:0:
256,259,13936,1,2,0:3:0:0:
274,187,14104,1,2,0:3:0:0:
346,384,14273,6,0,P|341:364|334:257,1,114.750002188683,2|0,1:3|0:0,0:0:0:0:
353,265,14610,2,0,P|361:233|384:177,1,76.5000014591217,2|2,1:3|1:3,0:0:0:0:
252,360,14947,2,0,P|238:324|228:287,1,76.5000014591217,8|0,0:0|0:0,0:0:0:0:
439,348,15284,2,0,P|452:312|462:275,1,76.5000014591217,2|2,0:3|0:3,0:0:0:0:
342,117,15621,5,2,1:3:0:0:
196,33,15874,5,0,1:0:0:0:
196,33,15958,1,2,1:3:0:0:
148,106,16127,5,2,0:3:0:0:
192,210,16295,5,8,0:0:0:0:
192,210,16632,1,8,0:0:0:0:
52,354,16801,1,0,3:0:0:0:
35,320,16885,1,0,3:0:0:0:
46,303,16969,2,0,P|70:296|171:360,1,153.000002918243,2|2,1:3|0:3,0:0:0:0:
355,270,17475,5,2,0:3:0:0:
420,317,17643,2,0,P|434:282|430:155,1,153.000002918243,8|2,0:0|0:3,0:0:0:0:
238,272,18149,5,2,0:3:0:0:
172,233,18318,2,0,P|162:203|180:110,1,114.750002188683,2|0,1:3|0:0,0:0:0:0:
173,122,18655,1,2,0:3:0:0:
235,70,18823,1,2,0:3:0:0:
124,10,18992,1,8,0:0:0:0:
56,43,19160,1,0,0:0:0:0:
81,134,19329,1,2,0:3:0:0:
12,166,19497,1,2,0:3:0:0:
34,267,19666,5,2,1:3:0:0:
34,267,20003,1,2,0:3:0:0:
86,326,20172,2,0,P|112:327|185:347,1,76.5000014591217,2|8,0:3|0:0,0:0:0:0:
336,169,20509,2,0,P|310:170|237:190,1,76.5000014591217,0|2,0:0|0:3,0:0:0:0:
148,236,20846,5,2,0:3:0:0:
343,328,21014,1,8,0:0:0:0:
243,384,21183,5,0,3:0:0:0:
243,384,21267,1,0,3:0:0:0:
243,384,21351,1,8,3:2:0:0:
306,215,21520,1,0,3:0:0:0:
306,215,21604,1,0,3:0:0:0:
306,215,21688,1,8,3:2:0:0:
356,68,21857,1,0,3:0:0:0:
356,68,21941,1,0,3:0:0:0:
356,68,22025,5,8,3:2:0:0:
317,49,22110,1,8,3:2:0:0:
275,52,22194,1,8,3:2:0:0:
239,73,22278,1,8,3:2:0:0:
211,115,22363,1,6,1:2:0:0:
211,115,22700,1,8,0:0:0:0:
122,161,22868,6,0,P|117:125|121:49,1,90,2|2,0:3|1:3,0:0:0:0:
347,200,23205,1,0,1:0:0:0:
416,161,23374,2,0,P|425:199|412:274,1,90,8|2,0:0|0:3,0:0:0:0:
268,133,23711,2,0,P|278:64|286:-34,1,135,2|0,1:2|0:0,0:0:0:0:
284,0,24048,1,8,0:0:0:0:
361,26,24216,1,2,0:3:0:0:
342,133,24385,1,2,1:3:0:0:
411,164,24554,1,0,1:0:0:0:
437,294,24722,1,8,0:0:0:0:
280,356,24891,5,2,0:3:0:0:
184,213,25059,2,0,P|175:282|161:356,1,135,2|0,1:2|0:0,0:0:0:0:
163,346,25396,1,8,0:0:0:0:
91,371,25565,1,2,0:3:0:0:
2,250,25733,1,2,1:3:0:0:
73,268,25902,1,0,1:0:0:0:
197,129,26070,1,8,0:0:0:0:
126,147,26239,1,2,0:3:0:0:
37,171,26407,5,2,1:2:0:0:
217,218,26576,1,0,3:0:0:0:
217,218,26660,1,0,3:0:0:0:
217,218,26745,1,8,3:2:0:0:
48,189,26913,1,8,0:2:0:0:
449,35,27250,5,0,3:0:0:0:
445,65,27334,1,0,3:0:0:0:
441,102,27419,1,8,3:2:0:0:
393,324,27587,5,0,3:0:0:0:
403,271,27672,1,0,3:0:0:0:
408,245,27756,2,0,P|348:254|303:257,1,90,2|0,1:2|0:0,0:0:0:0:
170,370,28093,2,0,P|161:310|158:265,1,90,8|2,0:0|0:3,0:0:0:0:
45,135,28430,2,0,P|105:126|150:123,1,90,2|0,1:3|1:0,0:0:0:0:
283,10,28767,2,0,P|292:70|295:115,1,90,8|2,0:0|0:3,0:0:0:0:
231,192,29104,5,2,1:2:0:0:
223,214,29441,5,8,0:0:0:0:
316,251,29610,1,2,0:3:0:0:
316,162,29778,5,2,1:3:0:0:
231,295,29947,1,0,1:0:0:0:
392,367,30115,5,8,0:0:0:0:
312,336,30284,1,0,3:2:0:0:
312,336,30368,1,0,3:2:0:0:
312,336,30452,1,8,3:2:0:0:
149,283,30621,5,0,3:2:0:0:
149,238,30705,1,0,3:2:0:0:
144,193,30789,1,8,3:2:0:0:
433,76,30958,5,8,3:2:0:0:
274,0,31127,1,0,3:0:0:0:
262,43,31211,1,0,3:0:0:0:
267,87,31295,1,0,3:0:0:0:
258,131,31379,1,0,3:0:0:0:
264,175,31464,1,8,3:2:0:0:
218,265,31632,5,0,0:0:0:0:
254,331,31801,6,0,L|245:395,1,53.9999983520508,2|0,0:0|0:0,0:0:0:0:
272,124,32475,5,4,3:0:0:0:
268,104,32559,1,4,3:0:0:0:
276,73,32643,1,8,3:0:0:0:
262,43,32728,1,8,3:0:0:0:
262,43,33149,6,0,B|170:16|193:113|32:78,1,215.999993408203,6|2,1:2|0:0,0:0:0:0:
75,329,33655,1,8,0:0:0:0:
143,292,33823,1,2,0:0:0:0:
249,225,33992,1,0,0:0:0:0:
141,123,34160,1,8,0:0:0:0:
122,200,34329,1,2,0:0:0:0:
214,372,34497,5,2,1:2:0:0:
284,334,34666,1,0,0:0:0:0:
361,349,34834,1,2,0:0:0:0:
470,268,35003,1,8,0:0:0:0:
294,191,35172,2,0,B|418:184|374:122|502:114,1,215.999987686158,2|8,0:0|0:0,0:0:0:0:
347,271,35677,5,0,0:0:0:0:
481,349,35846,2,0,B|397:336|407:389|320:383,1,161.999995056153,2|0,1:2|0:0,0:0:0:0:
326,383,36183,1,2,0:0:0:0:
390,126,36351,1,8,0:0:0:0:
320,157,36520,1,2,0:0:0:0:
389,338,36688,1,0,0:0:0:0:
422,271,36857,1,8,0:0:0:0:
277,226,37025,1,2,0:0:0:0:
251,299,37194,5,2,1:2:0:0:
430,195,37363,1,0,0:0:0:0:
390,126,37531,1,2,0:0:0:0:
289,372,37700,1,8,0:0:0:0:
152,265,37868,5,2,1:2:0:0:
430,195,38093,5,2,1:2:0:0:
137,119,38318,5,2,1:2:0:0:
299,48,38542,5,2,1:2:0:0:
286,59,38879,1,2,0:0:0:0:
349,244,39048,1,8,0:0:0:0:
241,141,39216,5,2,0:0:0:0:
240,236,39385,1,0,0:0:0:0:
385,35,39554,1,8,0:0:0:0:
476,264,39722,1,2,0:0:0:0:
149,185,39891,5,2,1:2:0:0:
126,257,40059,1,0,0:0:0:0:
192,333,40228,1,2,0:0:0:0:
218,263,40396,1,8,0:0:0:0:
231,118,40565,6,0,B|121:114|147:191|31:201,1,215.999993408203,2|8,0:0|0:0,0:0:0:0:
285,36,41070,2,0,L|367:45,1,53.9999983520508,2|2,0:0|0:0,0:0:0:0:
370,29,41239,2,0,P|405:50|405:165,1,161.999995056153,2|0,1:2|0:0,0:0:0:0:
390,178,41576,1,0,0:0:0:0:
210,93,41745,1,8,0:0:0:0:
337,125,41913,5,2,0:0:0:0:
262,149,42082,1,0,0:0:0:0:
38,200,42250,5,8,0:0:0:0:
208,255,42419,1,2,0:0:0:0:
226,384,42587,5,0,1:2:0:0:
226,384,43261,2,0,L|249:258,1,107.999993843079,4|0,3:0|0:0,0:0:0:0:
512,87,43936,6,0,P|460:26|382:13,1,161.999995056153,2|0,1:2|0:0,0:0:0:0:
356,28,44273,1,2,0:0:0:0:
372,300,44441,2,0,P|375:273|388:249,1,53.9999983520508,8|0,0:0|0:0,0:0:0:0:
487,193,44610,5,2,0:0:0:0:
392,141,44778,1,0,0:0:0:0:
357,384,44947,5,8,0:0:0:0:
452,332,45115,1,2,0:0:0:0:
294,215,45284,1,2,1:2:0:0:
276,288,45452,1,0,0:0:0:0:
388,249,45621,1,2,0:0:0:0:
127,159,45789,5,8,0:0:0:0:
26,234,45958,2,0,P|3:187|32:84,1,161.999990764618,2|0,0:0|0:0,0:0:0:0:
103,18,46295,2,0,P|130:25|182:33,1,53.9999969215394,8|2,0:0|0:0,0:0:0:0:
257,110,46464,2,0,P|222:121|201:126,1,53.9999969215394,2|2,0:0|0:0,0:0:0:0:
106,181,46632,1,2,1:2:0:0:
332,64,46969,5,2,0:0:0:0:
361,216,47138,1,8,0:0:0:0:
392,141,47306,5,2,0:0:0:0:
181,207,47475,1,0,0:0:0:0:
212,133,47643,1,8,0:0:0:0:
361,216,47812,1,2,0:0:0:0:
201,300,47981,5,2,1:2:0:0:
310,95,48149,1,0,0:0:0:0:
212,133,48318,1,2,0:0:0:0:
332,298,48486,1,8,0:0:0:0:
275,180,48655,5,2,1:2:0:0:
73,256,48879,5,2,1:2:0:0:
262,383,49104,5,2,1:2:0:0:
474,271,49329,6,0,P|472:243|475:47,1,215.999993408203,2|2,1:2|0:0,0:0:0:0:
342,335,49834,1,8,0:0:0:0:
275,250,50003,2,0,P|288:197|288:125,1,107.999996704102,2|0,0:0|0:0,0:0:0:0:
501,267,50340,2,0,P|499:213|486:160,1,107.999996704102,8|2,0:0|0:0,0:0:0:0:
199,36,50677,5,2,1:2:0:0:
88,73,50846,1,0,0:0:0:0:
67,150,51014,1,2,0:0:0:0:
255,237,51183,1,8,0:0:0:0:
27,347,51351,5,2,0:0:0:0:
129,258,51520,1,0,0:0:0:0:
15,119,51688,6,0,P|10:72|-1:24,1,80.9999975280763,8|0,0:0|0:0,0:0:0:0:
78,40,52025,2,0,B|203:34|145:113|268:122,1,215.999987686158,2|2,1:2|0:0,0:0:0:0:
360,90,52531,1,8,0:0:0:0:
347,9,52700,5,2,0:0:0:0:
317,229,52868,1,0,0:0:0:0:
267,121,53037,5,8,0:0:0:0:
420,201,53205,1,2,0:0:0:0:
263,328,53374,1,2,1:2:0:0:
374,17,53711,5,0,0:0:0:0:
299,38,53879,1,0,0:0:0:0:
231,91,54048,5,0,0:0:0:0:
346,133,54216,1,0,0:0:0:0:
396,207,54385,5,0,0:0:0:0:
206,275,54554,1,0,0:0:0:0:
232,371,54722,6,0,P|200:305|80:283,1,161.999995056153,6|0,1:2|0:0,0:0:0:0:
82,302,55059,1,2,0:0:0:0:
293,181,55228,6,0,B|416:154|353:256|497:261,1,215.999993408203,8|0,0:0|0:0,0:0:0:0:
292,66,55733,1,8,0:0:0:0:
191,127,55902,1,2,0:0:0:0:
31,59,56070,6,0,P|42:105|44:232,1,161.999995056153,2|0,1:2|0:0,0:0:0:0:
45,219,56407,1,2,0:0:0:0:
176,276,56576,1,8,0:0:0:0:
243,104,56745,5,2,1:2:0:0:
406,52,56913,1,0,0:0:0:0:
444,259,57082,5,8,0:0:0:0:
326,211,57250,1,2,0:0:0:0:
200,367,57419,6,0,B|327:389|274:303|414:337,1,202.500007724762,2|0,1:2|0:0,0:0:0:0:
422,368,57756,1,2,0:0:0:0:
484,232,57924,1,8,0:0:0:0:
307,106,58093,5,2,1:2:0:0:
242,290,58261,1,0,0:0:0:0:
354,242,58430,1,8,0:0:0:0:
252,177,58598,1,2,0:0:0:0:
159,21,58767,6,0,P|96:23|20:110,1,161.999995056153,2|0,1:2|0:0,0:0:0:0:
0,128,59104,1,2,0:0:0:0:
147,251,59273,6,0,B|276:227|223:322|333:332,1,215.999993408203,8|0,0:0|0:0,0:0:0:0:
264,104,59778,1,8,0:0:0:0:
236,180,59947,1,2,0:0:0:0:
407,66,60115,2,0,P|354:31|247:27,1,161.999995056153,2|0,1:2|0:0,0:0:0:0:
210,10,60452,1,2,0:0:0:0:
326,251,60621,6,0,P|347:194|332:112,1,107.999996704102,8|2,0:0|1:2,0:0:0:0:
98,67,60958,2,0,P|77:124|92:206,1,107.999996704102,0|8,0:0|0:0,0:0:0:0:
39,262,61295,2,0,P|87:192|226:185,1,215.999993408203,2|0,0:0|0:0,0:0:0:0:
262,118,61801,5,2,0:0:0:0:
220,17,61969,1,8,0:0:0:0:
148,266,62138,5,2,1:2:0:0:
250,308,62306,1,0,0:0:0:0:
161,96,62475,5,8,0:0:0:0:
79,170,62643,1,2,0:0:0:0:
342,383,62812,6,0,P|386:330|340:219,1,161.999995056153,2|0,1:2|0:0,0:0:0:0:
310,193,63149,2,0,P|270:246|279:297,1,107.999996704102,2|8,0:0|0:0,0:0:0:0:
470,48,63486,6,0,P|417:4|306:50,1,161.999995056153,2|0,1:2|0:0,0:0:0:0:
280,80,63823,2,0,P|333:119|384:110,1,107.999996704102,8|2,0:0|0:0,0:0:0:0:
371,116,64160,6,0,B|290:87|267:205|132:156,1,215.999993408203,2|2,1:2|0:0,0:0:0:0:
99,12,64666,5,8,0:0:0:0:
280,104,64834,5,2,1:2:0:0:
183,76,65003,1,0,0:0:0:0:
188,292,65172,5,8,0:0:0:0:
321,247,65341,1,2,0:0:0:0:
168,165,65509,5,6,1:2:0:0:
94,266,65677,2,0,P|153:259|264:373,1,215.999987686158,0|8,3:0|0:0,0:0:0:0:
349,308,66183,1,2,1:2:0:0:
342,232,66351,2,0,L|451:250,1,107.999993843079,0|8,0:0|0:0,0:0:0:0:
314,39,66688,1,2,0:0:0:0:
210,95,66857,2,0,B|148:104|148:104|110:126|110:126|24:140,1,161.999990764618,2|0,1:2|0:0,0:0:0:0:
55,134,67194,5,2,0:2:0:0:
169,185,67363,1,8,0:0:0:0:
250,255,67531,5,2,1:2:0:0:
342,232,67700,1,0,0:0:0:0:
438,211,67868,5,8,0:0:0:0:
512,236,68037,1,2,0:0:0:0:
292,350,68205,5,2,1:2:0:0:
175,384,68374,2,0,B|189:333|189:333|189:269,1,107.999996704102
407,380,68711,2,0,B|393:329|393:329|393:265,1,107.999996704102,8|2,0:0|1:2,0:0:0:0:
283,39,69048,5,0,0:0:0:0:
173,131,69216,1,8,0:0:0:0:
288,218,69385,1,2,0:0:0:0:
407,137,69554,1,2,1:2:0:0:
407,137,69891,5,2,0:0:0:0:
494,218,70059,2,0,B|379:199|408:290|280:260,1,215.999987686158,8|0,0:0|0:0,0:0:0:0:
219,317,70565,1,8,0:0:0:0:
142,259,70733,1,2,0:0:0:0:
11,336,70902,2,0,P|24:279|32:228,1,107.999993843079,2|0,1:2|0:0,0:0:0:0:
105,134,71239,5,2,0:0:0:0:
219,86,71407,1,8,0:0:0:0:
333,39,71576,1,2,1:2:0:0:
236,234,71745,5,0,0:0:0:0:
207,118,71913,1,8,0:0:0:0:
178,0,72082,1,2,0:0:0:0:
327,142,72250,6,0,P|399:149|513:165,1,161.999990764618,2|0,1:2|0:0,0:0:0:0:
508,177,72587,1,2,0:0:0:0:
375,237,72756,1,8,0:0:0:0:
307,327,72924,5,2,1:2:0:0:
405,360,73093,1,0,0:0:0:0:
332,159,73261,5,8,0:0:0:0:
209,198,73430,1,2,0:0:0:0:
172,384,73598,5,2,1:2:0:0:
104,360,73767,2,0,B|86:312|86:312|118:260,1,107.999993843079,2|0,0:0|0:0,0:0:0:0:
307,47,74104,5,8,0:0:0:0:
177,109,74273,5,2,1:2:0:0:
203,14,74441,1,0,0:0:0:0:
427,16,74610,5,8,0:0:0:0:
460,134,74778,1,2,0:0:0:0:
363,345,74947,5,2,1:2:0:0:
279,204,75115,1,0,0:0:0:0:
354,183,75284,1,2,0:0:0:0:
286,332,75452,1,8,0:0:0:0:
78,146,75621,6,0,P|127:145|206:227,1,161.999995056153,0|0,1:2|0:0,0:0:0:0:
255,130,75958,6,0,P|206:129|128:304,1,229.500004377365,8|0,0:0|0:0,0:0:0:0:
181,383,76295,1,6,1:2:0:0:
181,383,76632,1,2,0:3:0:0:
240,330,76801,2,0,B|321:338|420:355|420:355,1,180,2|0,0:3|0:0,0:0:0:0:
346,262,77306,2,0,B|391:249|438:243|438:243,1,90,2|2,0:3|0:3,0:0:0:0:
512,187,77643,6,0,P|477:145|325:153,1,180,2|2,0:3|0:3,0:0:0:0:
83,90,78149,2,0,P|118:48|270:56,1,180,2|2,0:3|0:3,0:0:0:0:
284,98,78655,1,2,0:3:0:0:
265,192,78823,1,2,0:3:0:0:
243,309,78992,5,2,0:3:0:0:
243,309,79329,1,2,0:0:0:0:
343,250,79497,5,2,0:0:0:0:
351,325,79666,1,2,0:0:0:0:
246,219,79834,5,2,0:0:0:0:
411,167,80003,1,2,0:0:0:0:
420,241,80172,1,2,0:0:0:0:
243,309,80340,5,2,0:0:0:0:
332,129,80509,1,2,0:0:0:0:
343,250,80677,1,2,0:0:0:0:
224,108,80846,1,2,0:0:0:0:
319,37,81014,6,0,P|345:41|388:50,2,67.4999982118607,2|2|2,0:0|0:0|0:0,0:0:0:0:
319,37,81688,1,2,0:0:0:0:
