osu file format v14

[General]
AudioFilename: audio.mp3
AudioLeadIn: 0
PreviewTime: 61831
Countdown: 1
SampleSet: Soft
StackLeniency: 0.7
Mode: 0
LetterboxInBreaks: 0
WidescreenStoryboard: 0

[Editor]
Bookmarks: 182168,225315
DistanceSpacing: 2
BeatDivisor: 8
GridSize: 4
TimelineZoom: 2

[Metadata]
Title:Despacito
TitleUnicode:Despacito
Artist:Luis Fonsi ft. Daddy Yankee
ArtistUnicode:Luis Fonsi ft. Daddy Yankee
Creator:Nitronic Techno
Version:Despacito!
Source:
Tags:Luis Fonsi Daddy Yankee Slow DNB Beat Nitro Nitronic Techno
BeatmapID:1405916
BeatmapSetID:664289

[Difficulty]
HPDrainRate:7
CircleSize:4.7
OverallDifficulty:8
ApproachRate:9
SliderMultiplier:2
SliderTickRate:1

[Events]
//Background and Video events
0,0,"Despacito.jpg",0,0
//Break Periods
//Storyboard Layer 0 (Background)
//Storyboard Layer 1 (Fail)
//Storyboard Layer 2 (Pass)
//Storyboard Layer 3 (Foreground)
//Storyboard Sound Samples

[TimingPoints]
8910,674.157303370787,4,2,0,60,1,0
17169,-66.6666666666667,4,2,0,60,0,0
18517,-125,4,2,0,40,0,0
19866,-166.666666666667,4,2,0,30,0,0
30652,-111.111111111111,4,1,0,50,0,0
41439,-83.3333333333333,4,2,0,60,0,0
52225,-66.6666666666667,4,1,0,70,0,0
61663,-200,4,2,0,30,0,0
63517,-55.5555555555556,4,1,0,80,0,0
72955,-111.111111111111,4,2,0,80,0,0
74809,-55.5555555555556,4,1,0,80,0,0
83742,-111.111111111111,4,1,0,80,0,0
84079,-111.111111111111,4,2,0,80,0,0
85089,-47.6190476190476,4,1,0,85,0,1
104977,-95.2380952380952,4,1,0,60,0,0
105483,-95.2380952380952,4,2,0,50,0,0
106663,-83.3333333333333,4,1,0,60,0,0
113068,-27.7777777777778,4,1,0,60,0,0
113910,-111.111111111111,4,2,0,40,0,0
114753,-83.3333333333333,4,1,0,60,0,0
115764,-66.6666666666667,4,1,0,60,0,0
116776,-111.111111111111,4,2,0,50,0,0
117450,-66.6666666666667,4,1,0,75,0,0
118798,-33.3333333333333,4,1,0,75,0,0
119304,-66.6666666666667,4,1,0,75,0,0
121495,-33.3333333333333,4,1,0,75,0,0
122169,-66.6666666666667,4,1,0,75,0,0
126887,-133.333333333333,4,1,0,75,0,0
127562,-133.333333333333,4,1,0,80,0,0
128236,-57.1428571428571,4,1,0,80,0,0
137675,-133.333333333333,4,1,0,80,0,0
138349,-133.333333333333,4,2,0,60,0,0
139023,-111.111111111111,4,2,0,50,0,0
148461,-111.111111111111,4,2,0,40,0,0
151158,-55.5555555555556,4,1,0,80,0,0
160596,-111.111111111111,4,1,0,80,0,0
161944,-111.111111111111,4,2,0,50,0,0
162450,-55.5555555555556,4,1,0,80,0,0
171382,-111.111111111111,4,1,0,80,0,0
171718,-111.111111111111,4,2,0,80,0,0
172730,-47.6190476190476,4,1,0,85,0,1
192617,-95.2380952380952,4,2,0,75,0,0
194304,-133.333333333333,4,2,0,75,0,0
203742,-333.333333333333,4,2,0,75,0,0
204248,-66.6666666666667,4,1,0,75,0,0
205089,-47.6190476190476,4,1,0,75,0,1
215876,-95.2380952380952,4,2,0,75,0,0
217224,-133.333333333333,4,2,0,75,0,0
217898,-95.2380952380951,4,2,0,75,0,0

[HitObjects]
157,83,8909,5,0,0:0:0:0:
157,83,9079,1,2,0:0:0:0:
355,301,9416,1,0,0:0:0:0:
149,142,9753,5,2,0:0:0:0:
362,241,10090,1,0,0:0:0:0:
161,189,10427,5,2,0:0:0:0:
350,194,10764,1,0,0:0:0:0:
185,219,11102,5,2,0:0:0:0:
231,200,11270,1,2,0:0:0:0:
278,183,11439,1,2,0:0:0:0:
326,164,11607,1,2,0:0:0:0:
369,138,11776,5,2,0:0:0:0:
143,246,12113,1,0,0:0:0:0:
406,185,12450,5,2,0:0:0:0:
105,198,12787,1,0,0:0:0:0:
424,255,13124,5,2,0:0:0:0:
87,128,13461,1,0,0:0:0:0:
413,340,13797,5,2,0:0:0:0:
303,237,13967,1,2,0:0:0:0:
194,134,14135,1,2,0:0:0:0:
98,43,14304,1,2,0:0:0:0:
92,192,14472,6,0,P|98:254|179:302,1,150,2|0,0:0|0:0,0:0:0:0:
240,292,15146,2,0,P|209:248|160:230,1,100,2|0,0:0|0:0,0:0:0:0:
344,153,15821,2,0,P|299:133|272:92,1,100,2|0,0:0|0:0,0:0:0:0:
256,20,16495,5,2,0:0:0:0:
153,128,16663,1,2,0:0:0:0:
359,256,16832,1,2,0:0:0:0:
256,364,17000,1,2,0:0:0:0:
153,316,17169,6,0,L|119:283,1,37.5000014305115,2|0,0:0|0:0,0:0:0:0:
276,278,17422,2,0,L|232:240,1,37.5000014305115
397,237,17675,1,0,0:0:0:0:
369,211,17759,1,0,0:0:0:0:
340,186,17842,1,2,0:0:0:0:
231,81,18012,2,0,L|158:102,2,75.0000028610231
424,32,18517,6,0,P|384:56|350:141,1,120,2|0,0:0|0:0,0:0:0:0:
431,125,19191,2,0,P|413:178|391:200,1,80
339,210,19697,1,0,0:0:0:0:
319,213,19781,1,0,0:0:0:0:
297,216,19866,6,0,P|265:243|240:254,1,59.9999981689454,8|0,0:0|0:0,0:0:0:0:
158,95,20708,2,0,L|133:131,2,29.9999990844727
216,80,21214,2,0,L|270:80,2,44.999998626709
159,59,21888,2,0,L|137:59,1,14.9999995422363
85,72,22141,2,0,P|69:100|72:118,1,44.999998626709
88,169,22562,6,8,P|110:203|162:234,2,89.9999972534181
136,133,24248,1,8,0:0:0:0:
183,96,24922,1,8,0:0:0:0:
226,54,25259,5,2,0:0:0:0:
286,330,25596,1,2,0:0:0:0:
184,113,25933,5,2,0:0:0:0:
327,270,26270,1,2,0:0:0:0:
180,167,26607,5,2,0:0:0:0:
331,216,26944,1,2,0:0:0:0:
197,204,27281,5,2,0:0:0:0:
314,179,27618,2,2,P|338:157|344:141,1,44.999998626709
102,57,28292,6,8,P|93:95|104:186,1,119.999996337891
410,327,29472,1,0,0:0:0:0:
410,327,29641,5,0,0:0:0:0:
296,140,30483,1,2,0:0:0:0:
272,121,30567,1,2,0:0:0:0:
257,104,30652,6,0,P|195:95|151:117,1,89.9999972534181,4|0,0:0|0:0,0:0:0:0:
131,126,31158,1,0,0:0:0:0:
77,198,31495,1,2,0:0:0:0:
76,287,31663,1,2,0:0:0:0:
166,286,31832,1,2,0:0:0:0:
167,196,32000,2,8,L|239:243,2,67.4999979400636
168,108,32675,2,8,L|240:61,2,67.4999979400636
250,144,33349,6,2,P|298:155|338:138,1,89.9999972534181
290,88,33853,2,2,P|336:71|406:144,1,134.999995880127
341,234,34697,2,0,L|374:325,1,89.9999972534181
255,247,35371,2,0,L|255:341,1,89.9999972534181
169,234,36045,5,8,0:0:0:0:
343,150,36382,1,8,0:0:0:0:
135,183,36719,5,8,0:0:0:0:
376,200,37056,1,8,0:0:0:0:
131,107,37394,5,8,0:0:0:0:
380,276,37731,1,8,0:0:0:0:
173,22,38068,5,8,0:0:0:0:
338,361,38405,1,8,0:0:0:0:
338,361,38573,2,2,P|385:337|431:243,1,134.999995880127
354,103,39416,2,0,P|295:92|263:104,1,89.9999972534181
256,192,40089,12,4,41438,0:0:0:0:
181,58,41776,5,2,0:0:0:0:
155,143,41944,1,0,0:0:0:0:
239,110,42113,2,0,L|303:77,1,59.9999981689454
250,184,42450,2,0,L|184:222,1,59.9999981689454,2|0,0:0|0:0,0:0:0:0:
290,247,42787,1,0,0:0:0:0:
112,189,42955,1,0,0:0:0:0:
191,231,43124,2,0,P|228:211|280:193,1,89.9999972534181,2|0,0:0|0:0,0:0:0:0:
394,255,43630,2,0,P|343:272|283:273,1,89.9999972534181
291,231,44135,5,2,0:0:0:0:
199,75,44472,1,0,0:0:0:0:
256,144,44641,1,0,0:0:0:0:
313,75,44809,2,0,L|377:75,1,59.9999981689454,2|0,0:0|0:0,0:0:0:0:
493,141,45146,2,0,L|433:141,1,59.9999981689454
397,169,45399,1,0,0:0:0:0:
357,190,45483,2,0,L|285:190,1,59.9999981689454,2|0,0:0|0:0,0:0:0:0:
195,101,45821,2,0,P|180:143|185:199,1,89.9999972534181
290,268,46326,2,0,P|298:204|294:182,1,59.9999981689454
236,182,46832,5,2,0:0:0:0:
63,132,47169,1,0,0:0:0:0:
130,191,47337,1,0,0:0:0:0:
205,239,47506,2,0,L|205:302,1,59.9999981689454,2|0,0:0|0:0,0:0:0:0:
261,204,47843,2,0,L|261:136,1,59.9999981689454
329,225,48180,2,0,L|329:295,1,59.9999981689454,2|0,0:0|0:0,0:0:0:0:
369,155,48601,2,0,L|293:155,1,59.9999981689454
441,185,49023,2,0,L|441:129,1,29.9999990844727
311,108,49360,2,2,P|262:132|202:105,1,119.999996337891
172,192,49866,5,0,0:0:0:0:
256,276,50034,1,0,0:0:0:0:
342,192,50202,1,2,0:0:0:0:
340,192,50540,1,0,0:0:0:0:
256,108,50708,1,0,0:0:0:0:
170,192,50877,1,2,0:0:0:0:
256,83,51214,5,0,0:0:0:0:
319,279,51382,1,0,0:0:0:0:
152,158,51551,1,2,0:0:0:0:
358,158,51719,1,0,0:0:0:0:
191,279,51888,1,2,0:0:0:0:
256,193,52225,5,4,0:0:0:0:
106,191,52562,2,0,L|196:227,1,75.0000028610231,2|0,0:0|0:0,0:0:0:0:
159,292,52899,1,0,0:0:0:0:
303,334,53068,1,0,0:0:0:0:
249,235,53236,1,2,0:0:0:0:
195,135,53405,1,0,0:0:0:0:
333,191,53573,5,0,0:0:0:0:
443,214,53742,1,0,0:0:0:0:
314,137,53910,5,2,0:0:0:0:
447,117,54079,2,0,P|389:91|301:66,1,150.000005722046
241,202,54584,1,2,0:0:0:0:
385,163,54753,1,0,0:0:0:0:
241,117,54922,5,0,0:0:0:0:
256,341,55259,2,0,L|219:261,1,75.0000028610231,2|0,0:0|0:0,0:0:0:0:
180,169,55596,1,0,0:0:0:0:
254,112,55764,1,0,0:0:0:0:
331,165,55933,1,2,0:0:0:0:
303,255,56101,1,0,0:0:0:0:
210,257,56270,5,0,0:0:0:0:
60,243,56439,1,0,0:0:0:0:
233,195,56607,5,2,0:0:0:0:
62,145,56776,1,0,0:0:0:0:
270,142,56944,6,0,P|324:155|415:109,1,150.000005722046,0|2,0:0|0:0,0:0:0:0:
329,83,57450,1,0,0:0:0:0:
367,229,57618,5,0,0:0:0:0:
145,192,57954,2,0,L|237:192,1,75.0000028610231,2|0,0:0|0:0,0:0:0:0:
256,85,58292,1,0,0:0:0:0:
348,138,58461,1,0,0:0:0:0:
348,245,58630,1,2,0:0:0:0:
256,299,58798,1,0,0:0:0:0:
163,245,58967,5,0,0:0:0:0:
299,94,59135,1,0,0:0:0:0:
278,296,59304,1,2,0:0:0:0:
176,120,59472,1,0,0:0:0:0:
362,203,59641,2,0,P|323:232|202:237,1,150.000005722046,0|2,0:0|0:0,0:0:0:0:
362,203,60146,1,0,0:0:0:0:
324,66,60315,2,0,P|364:133|357:217,1,150.000005722046,0|2,0:0|0:0,0:0:0:0:
227,246,60821,1,0,0:0:0:0:
149,218,60989,2,0,P|190:177|284:181,1,150.000005722046,0|2,0:0|0:0,0:0:0:0:
256,284,61832,5,4,0:0:0:0:
256,100,63517,5,8,0:0:0:0:
256,100,63854,5,8,0:0:0:0:
256,190,64023,1,0,0:0:0:0:
345,190,64191,1,2,0:0:0:0:
345,99,64360,1,0,0:0:0:0:
295,24,64528,5,2,0:0:0:0:
254,199,64697,1,0,0:0:0:0:
428,245,64866,1,2,0:0:0:0:
308,111,65034,5,0,0:0:0:0:
141,180,65202,1,2,0:0:0:0:
342,164,65371,5,0,0:0:0:0:
118,134,65540,1,8,0:0:0:0:
122,151,65877,5,8,0:0:0:0:
126,168,66214,5,8,0:0:0:0:
386,216,66551,5,8,0:0:0:0:
331,144,66719,1,0,0:0:0:0:
255,193,66888,1,2,0:0:0:0:
435,174,67057,5,0,0:0:0:0:
464,75,67225,1,2,0:0:0:0:
364,46,67394,1,0,0:0:0:0:
331,144,67562,1,2,0:0:0:0:
413,107,67731,5,0,0:0:0:0:
255,192,67898,1,2,0:0:0:0:
435,205,68068,5,0,0:0:0:0:
238,99,68236,1,8,0:0:0:0:
223,109,68572,5,8,0:0:0:0:
208,119,68910,5,8,0:0:0:0:
304,265,69248,5,8,0:0:0:0:
324,177,69416,1,0,0:0:0:0:
349,90,69585,1,2,0:0:0:0:
304,265,69753,5,0,0:0:0:0:
171,236,69922,1,2,0:0:0:0:
199,104,70090,1,0,0:0:0:0:
67,71,70259,5,2,0:0:0:0:
36,202,70427,1,0,0:0:0:0:
132,108,70596,5,2,0:0:0:0:
108,206,70764,1,0,0:0:0:0:
212,96,70932,5,8,0:0:0:0:
205,112,71270,5,8,0:0:0:0:
199,129,71607,6,2,P|213:178|404:168,1,269.999991760254
306,136,72281,2,2,L|255:321,2,179.999994506836,2|2|2,0:0|0:0|1:0,0:0:0:0:
136,193,74304,5,2,0:0:0:0:
148,174,74472,1,2,0:0:0:0:
161,155,74641,1,2,0:0:0:0:
176,132,74808,5,4,0:0:0:0:
308,103,74978,1,2,0:0:0:0:
225,34,75146,5,0,0:0:0:0:
311,192,75314,1,2,0:0:0:0:
476,123,75483,1,0,0:0:0:0:
386,47,75652,5,2,0:0:0:0:
412,225,75821,1,0,0:0:0:0:
316,84,75989,5,2,0:0:0:0:
336,217,76158,1,0,0:0:0:0:
236,56,76326,5,8,0:0:0:0:
241,73,76663,5,8,0:0:0:0:
244,90,77000,5,8,0:0:0:0:
268,294,77336,5,8,0:0:0:0:
119,192,77506,1,0,0:0:0:0:
226,46,77674,1,2,0:0:0:0:
92,78,77843,5,0,0:0:0:0:
286,192,78012,1,2,0:0:0:0:
461,52,78180,1,0,0:0:0:0:
477,136,78349,5,2,0:0:0:0:
255,99,78517,1,0,0:0:0:0:
424,182,78686,5,2,0:0:0:0:
290,159,78854,1,0,0:0:0:0:
456,248,79023,5,8,0:0:0:0:
421,239,79360,5,8,0:0:0:0:
386,230,79697,5,8,0:0:0:0:
126,154,80034,5,8,0:0:0:0:
203,107,80203,1,0,0:0:0:0:
292,101,80371,1,2,0:0:0:0:
204,204,80540,6,0,L|257:228,2,44.999998626709,0|0|2,0:0|0:0|0:0,0:0:0:0:
204,68,80877,1,0,0:0:0:0:
338,68,81045,1,2,0:0:0:0:
72,149,81214,6,0,L|97:47,1,89.9999972534181,0|2,0:0|0:0,0:0:0:0:
177,167,81551,2,0,L|156:265,1,89.9999972534181,0|2,0:0|0:0,0:0:0:0:
258,127,81888,1,0,0:0:0:0:
357,17,82057,1,2,0:0:0:0:
341,164,82225,1,0,0:0:0:0:
267,35,82394,1,2,0:0:0:0:
403,96,82562,1,0,0:0:0:0:
431,191,82731,5,8,0:0:0:0:
219,265,82899,1,0,0:0:0:0:
363,157,83068,5,8,0:0:0:0:
243,198,83236,1,0,0:0:0:0:
317,112,83405,5,8,0:0:0:0:
249,135,83573,1,0,0:0:0:0:
267,75,83742,5,4,0:0:0:0:
267,75,84078,5,2,0:0:0:0:
298,191,84248,1,0,0:0:0:0:
181,223,84416,1,2,0:0:0:0:
150,106,84585,1,0,0:0:0:0:
267,75,84753,6,2,L|304:85,3,22.4999993133545
319,88,85090,5,8,0:0:0:0:
255,288,85259,1,0,0:0:0:0:
367,164,85427,5,8,0:0:0:0:
335,264,85596,1,0,0:0:0:0:
428,244,85764,6,0,B|390:220|390:220|286:220|286:220|225:197,1,209.999993591309,8|0,0:0|0:0,0:0:0:0:
69,59,86270,1,0,0:0:0:0:
157,46,86439,2,0,P|147:110|7:124,1,209.999993591309,8|0,0:0|0:0,0:0:0:0:
254,45,86944,1,0,0:0:0:0:
490,137,87112,2,0,P|391:137|355:46,1,209.999993591309,8|0,0:0|0:0,0:0:0:0:
256,100,87618,1,0,0:0:0:0:
256,121,87703,1,0,0:0:0:0:
256,141,87787,1,8,0:0:0:0:
256,284,87955,5,0,0:0:0:0:
256,263,88040,1,0,0:0:0:0:
256,243,88124,1,0,0:0:0:0:
256,141,88292,1,0,0:0:0:0:
162,81,88460,2,0,P|225:52|361:91,1,209.999993591309,8|0,0:0|0:0,0:0:0:0:
153,146,88967,1,0,0:0:0:0:
359,146,89134,2,0,L|408:255,1,104.999996795654,8|0,0:0|0:0,0:0:0:0:
109,241,89472,2,0,L|153:146,1,104.999996795654
254,120,89809,5,8,0:0:0:0:
299,249,89978,1,0,0:0:0:0:
215,251,90146,1,0,0:0:0:0:
323,167,90315,1,0,0:0:0:0:
186,171,90483,2,0,B|140:214|90:204|90:204|29:199|-30:250,1,209.999993591309,8|0,0:0|0:0,0:0:0:0:
48,127,90989,1,0,0:0:0:0:
144,262,91157,2,0,P|207:295|359:249,2,209.999993591309,8|0|8,0:0|0:0|0:0,0:0:0:0:
86,188,92000,1,0,0:0:0:0:
374,189,92169,1,0,0:0:0:0:
228,121,92337,2,0,P|247:60|382:68,1,209.999993591309
164,77,92843,1,0,0:0:0:0:
284,165,93012,2,0,P|265:226|130:218,2,209.999993591309
131,126,93854,5,8,0:0:0:0:
276,85,94023,1,2,0:0:0:0:
317,231,94191,1,2,0:0:0:0:
171,271,94360,1,2,0:0:0:0:
131,126,94528,5,8,0:0:0:0:
229,181,94697,1,2,0:0:0:0:
173,280,94865,1,2,0:0:0:0:
75,224,95034,1,2,0:0:0:0:
131,126,95203,5,8,0:0:0:0:
152,204,95370,1,2,0:0:0:0:
71,229,95540,1,2,0:0:0:0:
50,151,95707,1,2,0:0:0:0:
133,126,95877,5,8,0:0:0:0:
284,83,96045,1,0,0:0:0:0:
75,126,96214,5,8,0:0:0:0:
192,124,96382,1,0,0:0:0:0:
48,105,96551,5,8,0:0:0:0:
133,126,96719,1,0,0:0:0:0:
162,204,96888,2,0,P|223:217|361:153,1,209.999993591309,0|8,0:0|0:0,0:0:0:0:
236,55,97394,1,0,0:0:0:0:
148,118,97562,2,0,P|246:143|340:56,1,209.999993591309,0|8,0:0|0:0,0:0:0:0:
227,53,98068,5,0,0:0:0:0:
155,192,98236,1,0,0:0:0:0:
93,337,98405,1,0,0:0:0:0:
37,248,98573,2,0,P|99:245|202:355,1,209.999993591309,8|0,0:0|0:0,0:0:0:0:
312,341,99079,2,0,P|373:259|475:248,1,209.999993591309
419,337,99585,1,0,0:0:0:0:
299,234,99753,1,0,0:0:0:0:
345,140,99922,2,0,P|279:129|257:324,1,314.999990386963,8|0,0:0|0:0,0:0:0:0:
289,227,100595,2,0,L|98:83,2,209.999993591309,8|0|8,0:1|0:1|0:1,0:1:0:0:
347,139,101439,5,0,0:0:0:0:
316,324,101607,1,0,0:0:0:0:
220,175,101776,1,0,0:0:0:0:
221,70,101944,2,0,P|150:83|125:227,1,209.999993591309,8|0,0:0|0:0,0:0:0:0:
291,314,102618,2,0,P|362:301|387:157,1,209.999993591309,8|0,0:0|0:0,0:0:0:0:
299,210,103124,1,0,0:0:0:0:
143,191,103292,1,8,0:0:0:0:
256,80,103461,1,0,0:0:0:0:
362,126,103630,5,0,0:0:0:0:
123,140,103798,1,0,0:0:0:0:
341,203,103967,5,8,0:0:0:0:
161,197,104135,1,0,0:0:0:0:
322,259,104304,5,8,0:0:0:0:
187,266,104472,1,0,0:0:0:0:
316,326,104641,5,8,0:0:0:0:
214,322,104809,1,0,0:0:0:0:
269,260,104977,1,4,0:0:0:0:
256,64,105483,5,0,0:0:0:0:
346,101,105652,1,2,0:0:0:0:
384,192,105821,1,0,0:0:0:0:
346,282,105989,1,2,0:0:0:0:
255,320,106158,1,0,0:0:0:0:
165,282,106326,1,2,0:0:0:0:
127,191,106495,1,0,0:0:0:0:
165,101,106663,6,0,L|216:143,1,59.9999981689454,8|0,0:0|0:0,0:0:0:0:
247,167,106916,1,2,0:0:0:0:
192,302,107169,1,0,0:0:0:0:
133,224,107337,1,2,0:0:0:0:
366,256,107506,1,0,0:0:0:0:
288,315,107674,1,2,0:0:0:0:
190,303,107843,1,0,0:0:0:0:
131,222,108011,6,0,L|131:143,1,59.9999981689454,8|0,0:0|0:0,0:0:0:0:
127,117,108264,1,2,0:0:0:0:
257,82,108517,1,0,0:0:0:0:
443,166,108686,1,2,0:0:0:0:
261,150,108854,1,0,0:0:0:0:
386,193,109023,1,2,0:0:0:0:
269,212,109191,1,0,0:0:0:0:
338,236,109360,6,0,L|397:285,1,59.9999981689454,8|0,0:0|0:0,0:0:0:0:
413,309,109612,1,2,0:0:0:0:
148,326,109866,6,0,L|127:250,1,59.9999981689454,0|2,0:0|0:0,0:0:0:0:
149,126,110203,2,0,L|166:184,2,59.9999981689454,0|2|0,0:0|0:0|0:0,0:0:0:0:
249,221,110708,2,0,L|266:290,1,59.9999981689454,8|0,0:0|0:0,0:0:0:0:
275,322,110961,1,2,0:0:0:0:
237,62,111214,5,0,0:0:0:0:
237,62,111382,1,8,0:0:0:0:
176,278,111551,1,0,0:0:0:0:
288,104,111719,5,8,0:0:0:0:
242,266,111888,1,0,0:0:0:0:
352,76,112057,5,2,0:0:0:0:
321,191,112225,1,0,0:0:0:0:
292,307,112394,1,2,0:0:0:0:
354,306,112562,5,0,0:0:0:0:
321,191,112731,1,2,0:0:0:0:
291,76,112899,1,0,0:0:0:0:
149,50,113068,6,8,L|132:248,1,179.999994506836
149,50,113405,5,4,0:0:0:0:
131,225,113742,1,4,0:0:0:0:
381,159,114416,5,0,0:0:0:0:
381,159,114753,5,2,0:0:0:0:
155,242,114922,1,0,0:0:0:0:
355,214,115090,5,2,0:0:0:0:
177,183,115259,1,0,0:0:0:0:
322,243,115427,5,2,0:0:0:0:
218,156,115596,1,0,0:0:0:0:
275,244,115764,6,8,L|263:143,1,75.0000028610231
275,244,116101,5,4,0:0:0:0:
263,167,116439,1,4,0:0:0:0:
263,167,116776,2,2,L|297:151,7,22.4999993133545
317,141,117450,5,4,0:0:0:0:
209,109,117618,1,0,0:0:0:0:
113,169,117786,1,0,0:0:0:0:
107,281,117955,1,8,0:0:0:0:
201,343,118124,1,8,0:0:0:0:
308,311,118292,1,0,0:0:0:0:
210,269,118461,5,2,0:0:0:0:
343,229,118629,1,0,0:0:0:0:
409,194,118798,6,2,P|292:290|311:166,1,300.000011444092
128,147,119472,6,0,L|139:93,1,37.5000014305115,8|0,0:0|0:0,0:0:0:0:
146,250,119724,2,0,L|156:201,1,37.5000014305115,8|0,0:0|0:0,0:0:0:0:
176,347,119978,1,8,0:0:0:0:
183,310,120062,1,0,0:0:0:0:
192,273,120146,5,8,0:0:0:0:
260,88,120315,1,0,0:0:0:0:
313,277,120483,1,2,0:0:0:0:
159,156,120652,1,8,0:0:0:0:
355,164,120821,1,10,0:0:0:0:
313,277,120989,1,0,0:0:0:0:
191,273,121158,1,2,0:0:0:0:
159,156,121326,1,0,0:0:0:0:
260,88,121495,6,2,P|363:46|425:197,2,300.000011444092,2|2|8,0:0|0:0|0:0,0:0:0:0:
161,247,122337,1,0,0:0:0:0:
258,140,122506,5,8,0:0:0:0:
208,219,122674,1,0,0:0:0:0:
279,216,122843,5,8,0:0:0:0:
151,145,123012,1,0,0:0:0:0:
276,70,123180,2,0,L|165:80,1,75.0000028610231
130,146,123517,5,8,0:0:0:0:
73,241,123686,1,0,0:0:0:0:
182,242,123854,2,0,L|227:156,1,75.0000028610231
191,71,124190,2,0,P|133:46|80:122,1,150.000005722046,8|0,0:0|0:0,0:0:0:0:
157,192,124697,1,0,0:0:0:0:
191,312,124866,2,0,P|124:336|78:282,2,150.000005722046,8|0|8,0:0|0:0|0:0,0:0:0:0:
345,77,125792,6,2,L|323:141,1,37.5000014305115
292,217,126045,1,2,0:0:0:0:
353,311,126214,1,2,0:0:0:0:
400,140,126382,5,2,0:0:0:0:
371,218,126550,1,2,0:0:0:0:
416,289,126718,1,2,0:0:0:0:
433,218,126887,6,4,L|515:218,1,75.0000028610231
433,218,127562,5,8,0:0:0:0:
433,218,128236,6,0,P|400:262|228:192,1,262.500002503395,8|0,0:0|0:0,0:0:0:0:
171,44,128910,5,8,0:0:0:0:
231,209,129079,1,0,0:0:0:0:
128,104,129248,5,8,0:0:0:0:
158,187,129415,1,0,0:0:0:0:
187,268,129585,2,0,P|244:302|347:243,1,175.00000166893,8|0,0:0|0:0,0:0:0:0:
258,223,130090,1,0,0:0:0:0:
187,170,130259,5,8,0:0:0:0:
317,169,130427,1,0,0:0:0:0:
128,116,130596,5,8,0:0:0:0:
371,114,130764,1,0,0:0:0:0:
254,74,130933,2,0,P|189:89|210:189,1,175.00000166893,8|0,0:0|0:0,0:0:0:0:
318,192,131439,1,0,0:0:0:0:
424,251,131607,6,0,P|424:305|300:300,1,175.00000166893,8|0,0:0|0:0,0:0:0:0:
256,250,132113,1,2,0:0:0:0:
188,331,132281,2,0,P|107:330|88:251,1,175.00000166893,8|0,0:0|0:0,0:0:0:0:
194,192,132786,1,2,0:0:0:0:
256,107,132955,5,8,0:0:0:0:
389,220,133124,1,0,0:0:0:0:
232,160,133292,5,8,0:0:0:0:
331,244,133461,1,0,0:0:0:0:
200,256,133629,2,0,P|104:302|40:240,1,175.00000166893,8|0,0:0|0:0,0:0:0:0:
117,155,134135,1,0,0:0:0:0:
206,58,134304,5,8,0:0:0:0:
188,187,134472,1,0,0:0:0:0:
264,84,134641,5,8,0:0:0:0:
250,180,134809,1,0,0:0:0:0:
334,132,134977,1,8,0:0:0:0:
334,132,135061,2,0,P|382:158|399:240,1,131.250001251698,2|2,0:0|0:0,0:0:0:0:
305,223,135483,1,0,0:0:0:0:
246,146,135652,5,8,0:0:0:0:
149,148,135821,1,0,0:0:0:0:
284,92,135988,5,8,0:0:0:0:
114,95,136158,1,0,0:0:0:0:
195,64,136326,2,2,P|200:119|254:186,2,131.250001251698
276,96,137000,5,8,0:0:0:0:
171,164,137169,1,0,0:0:0:0:
239,269,137337,1,8,0:0:0:0:
344,201,137506,1,0,0:0:0:0:
276,96,137675,5,4,0:0:0:0:
276,96,138349,5,4,0:0:0:0:
276,96,139023,5,4,0:0:0:0:
187,109,139359,1,0,0:0:0:0:
164,147,139527,1,0,0:0:0:0:
141,186,139696,5,2,0:0:0:0:
141,316,139865,1,0,0:0:0:0:
172,172,140033,5,2,0:0:0:0:
172,329,140202,1,0,0:0:0:0:
205,159,140370,6,2,L|205:267,1,89.9999972534181
434,125,141044,5,2,0:0:0:0:
309,178,141213,1,0,0:0:0:0:
452,84,141381,5,2,0:0:0:0:
272,160,141550,1,0,0:0:0:0:
304,40,141718,6,2,P|240:36|203:42,1,89.9999972534181
256,119,142224,1,8,0:0:0:0:
174,157,142393,2,2,P|167:191|225:220,1,89.9999972534181
256,119,142898,1,8,0:0:0:0:
338,157,143067,2,2,P|345:191|287:220,1,89.9999972534181
256,298,143572,1,8,0:0:0:0:
179,249,143741,6,0,L|161:198,1,44.999998626709,2|0,0:0|0:0,0:0:0:0:
333,249,144078,2,0,L|351:198,1,44.999998626709,2|0,0:0|0:0,0:0:0:0:
423,156,144415,2,0,P|421:119|376:80,1,89.9999972534181,2|0,0:0|0:0,0:0:0:0:
305,125,144921,2,0,P|267:140|227:132,1,67.4999979400635
218,127,145258,1,0,0:0:0:0:
191,94,145426,1,2,0:0:0:0:
163,58,145595,1,0,0:0:0:0:
126,82,145763,2,0,P|93:112|89:156,1,89.9999972534181,2|0,0:0|0:0,0:0:0:0:
256,192,146439,12,4,148461,0:0:0:0:
123,88,149808,5,4,0:0:0:0:
389,296,151157,5,8,0:0:0:0:
353,119,151494,5,0,0:0:0:0:
317,205,151662,1,0,0:0:0:0:
305,73,151831,5,2,0:0:0:0:
252,199,151999,1,0,0:0:0:0:
378,251,152168,1,2,0:0:0:0:
431,125,152336,1,0,0:0:0:0:
380,80,152505,5,2,0:0:0:0:
313,237,152673,1,0,0:0:0:0:
300,92,152842,5,2,0:0:0:0:
266,170,153010,1,0,0:0:0:0:
240,36,153179,5,8,0:0:0:0:
235,53,153516,5,8,0:0:0:0:
230,70,153853,5,8,0:0:0:0:
282,314,154359,5,0,0:0:0:0:
282,224,154527,5,2,0:0:0:0:
146,224,154696,1,0,0:0:0:0:
316,160,154865,5,2,0:0:0:0:
111,160,155034,1,0,0:0:0:0:
146,77,155202,6,0,L|243:35,1,89.9999972534181,2|0,0:0|0:0,0:0:0:0:
148,170,155539,2,0,L|58:212,1,89.9999972534181,2|0,0:0|0:0,0:0:0:0:
233,193,155876,5,8,0:0:0:0:
262,172,156213,5,8,0:0:0:0:
292,152,156550,5,8,0:0:0:0:
94,336,157056,5,0,0:0:0:0:
94,336,157224,5,2,0:0:0:0:
98,259,157393,1,0,0:0:0:0:
175,264,157561,1,2,0:0:0:0:
170,340,157730,1,0,0:0:0:0:
98,259,157898,5,2,0:0:0:0:
183,180,158067,1,0,0:0:0:0:
260,268,158235,1,2,0:0:0:0:
173,343,158404,1,0,0:0:0:0:
183,180,158572,5,8,0:0:0:0:
202,149,158910,5,8,0:0:0:0:
223,119,159247,6,2,P|279:97|380:253,1,269.999991760254
297,193,159921,2,2,L|412:40,2,179.999994506836
213,189,161943,5,2,0:0:0:0:
198,206,162112,1,2,0:0:0:0:
184,223,162280,1,2,0:0:0:0:
170,240,162449,1,2,0:0:0:0:
108,305,162617,5,8,0:0:0:0:
93,214,162786,1,0,0:0:0:0:
164,155,162954,1,2,0:0:0:0:
262,165,163123,1,0,0:0:0:0:
140,104,163292,5,2,0:0:0:0:
292,119,163461,1,0,0:0:0:0:
112,56,163629,5,2,0:0:0:0:
340,78,163798,1,0,0:0:0:0:
80,12,163966,5,8,0:0:0:0:
115,19,164303,5,8,0:0:0:0:
150,27,164640,5,8,0:0:0:0:
362,357,165145,5,0,0:0:0:0:
362,357,165314,5,2,0:0:0:0:
296,375,165483,1,0,0:0:0:0:
236,341,165651,1,2,0:0:0:0:
217,275,165820,1,0,0:0:0:0:
206,185,165988,5,2,0:0:0:0:
256,271,166157,1,0,0:0:0:0:
169,321,166325,1,2,0:0:0:0:
119,235,166494,1,0,0:0:0:0:
134,101,166662,5,8,0:0:0:0:
131,136,166999,5,8,0:0:0:0:
126,171,167336,5,8,0:0:0:0:
386,213,167842,5,0,0:0:0:0:
325,279,168011,6,0,L|286:366,1,89.9999972534181,2|0,0:0|0:0,0:0:0:0:
309,254,168263,1,0,0:0:0:0:
304,225,168348,2,0,L|358:138,1,89.9999972534181,2|0,0:0|0:0,0:0:0:0:
237,246,168685,5,2,0:0:0:0:
204,138,168853,1,0,0:0:0:0:
312,104,169022,1,2,0:0:0:0:
345,213,169190,1,0,0:0:0:0:
204,138,169359,6,8,L|41:44,2,179.999994506836
257,17,170370,5,2,0:0:0:0:
183,229,170538,1,0,0:0:0:0:
291,85,170707,5,2,0:0:0:0:
249,205,170875,1,0,0:0:0:0:
336,131,171044,5,2,0:0:0:0:
313,199,171212,1,0,0:0:0:0:
373,181,171381,5,4,0:0:0:0:
311,103,171718,5,2,0:0:0:0:
357,216,171887,1,0,0:0:0:0:
263,296,172056,1,2,0:0:0:0:
159,231,172224,1,0,0:0:0:0:
188,112,172393,6,2,L|180:77,3,22.4999993133545
193,88,172730,5,8,0:0:0:0:
257,288,172899,1,0,0:0:0:0:
145,164,173067,5,8,0:0:0:0:
177,264,173236,1,0,0:0:0:0:
84,244,173404,6,0,B|122:220|122:220|226:220|226:220|287:197,1,209.999993591309,8|0,0:0|0:0,0:0:0:0:
362,263,173910,1,0,0:0:0:0:
460,235,174078,2,0,P|453:314|324:343,1,209.999993591309,8|0,0:0|0:0,0:0:0:0:
150,263,174584,1,0,0:0:0:0:
52,235,174752,2,0,P|59:314|188:343,1,209.999993591309,8|0,0:0|0:0,0:0:0:0:
256,284,175258,1,0,0:0:0:0:
256,263,175343,1,0,0:0:0:0:
256,243,175427,1,8,0:0:0:0:
256,100,175595,5,0,0:0:0:0:
256,121,175680,1,0,0:0:0:0:
256,141,175764,1,0,0:0:0:0:
256,243,175932,1,0,0:0:0:0:
160,302,176101,2,0,B|256:350|256:350|366:297,1,209.999993591309,8|0,0:0|0:0,0:0:0:0:
432,227,176606,1,0,0:0:0:0:
357,138,176775,2,0,L|307:37,1,104.999996795654,8|0,0:0|0:0,0:0:0:0:
155,138,177112,2,0,L|205:37,1,104.999996795654
256,145,177449,5,8,0:0:0:0:
374,248,177617,1,0,0:0:0:0:
256,208,177786,1,0,0:0:0:0:
138,248,177954,1,0,0:0:0:0:
255,142,178123,2,0,L|255:33,2,104.999996795654,8|0|0,0:0|0:0|0:0,0:0:0:0:
254,240,178629,1,0,0:0:0:0:
140,348,178797,2,0,P|87:311|91:170,2,209.999993591309,8|0|8,0:0|0:0|0:0,0:0:0:0:
176,249,179640,1,0,0:0:0:0:
336,249,179808,1,0,0:0:0:0:
372,347,179977,2,0,P|443:276|426:176,1,209.999993591309
336,249,180483,1,0,0:0:0:0:
256,320,180651,2,0,L|256:99,2,209.999993591309
150,314,181494,5,8,0:0:0:0:
116,173,181662,1,2,0:0:0:0:
239,97,181831,1,2,0:0:0:0:
349,191,181999,1,2,0:0:0:0:
243,188,182168,5,8,0:0:0:0:
299,95,182336,1,2,0:0:0:0:
405,120,182505,1,2,0:0:0:0:
413,228,182673,1,2,0:0:0:0:
360,188,182842,5,8,0:0:0:0:
439,168,183010,1,2,0:0:0:0:
481,237,183179,1,2,0:0:0:0:
428,299,183347,1,2,0:0:0:0:
340,357,183516,5,8,0:0:0:0:
205,131,183685,1,0,0:0:0:0:
268,320,183853,5,8,0:0:0:0:
200,207,184022,1,0,0:0:0:0:
200,320,184190,5,8,0:0:0:0:
166,263,184359,1,0,0:0:0:0:
136,207,184527,2,0,P|86:157|169:50,1,209.999993591309,0|8,0:0|0:0,0:0:0:0:
255,89,185033,1,0,0:0:0:0:
366,51,185202,2,0,P|430:125|376:207,1,209.999993591309,0|8,0:0|0:0,0:0:0:0:
256,245,185707,5,0,0:0:0:0:
181,347,185876,1,0,0:0:0:0:
331,347,186044,1,0,0:0:0:0:
362,224,186213,2,0,L|300:21,1,209.999993591309,8|0,0:0|0:0,0:0:0:0:
211,23,186718,2,0,L|150:224,2,209.999993591309
99,82,187561,5,8,0:0:0:0:
173,156,187730,1,0,0:0:0:0:
339,156,187898,1,8,0:0:0:0:
413,82,188067,1,0,0:0:0:0:
256,48,188235,6,0,L|256:273,2,209.999993591309,8|0|8,0:0|0:0|0:0,0:0:0:0:
344,104,189078,1,0,0:0:0:0:
256,163,189247,1,0,0:0:0:0:
168,104,189415,2,0,P|137:182|224:283,1,209.999993591309
256,192,189921,1,0,0:0:0:0:
344,104,190258,2,0,P|375:182|288:283,1,209.999993591309,8|0,0:0|0:0,0:0:0:0:
255,367,190763,1,0,0:0:0:0:
204,277,190932,2,0,P|139:200|168:104,1,209.999993591309,8|0,0:0|0:0,0:0:0:0:
256,46,191438,1,0,0:0:0:0:
344,102,191606,5,8,0:0:0:0:
168,102,191775,1,0,0:0:0:0:
320,176,191943,5,8,0:0:0:0:
188,176,192112,1,0,0:0:0:0:
304,252,192280,5,8,0:0:0:0:
205,252,192449,1,0,0:0:0:0:
256,329,192617,5,4,0:0:0:0:
256,329,192954,5,4,0:0:0:0:
66,168,194303,6,2,P|76:125|136:81,1,104.999996795654
257,145,194977,2,2,L|294:146,1,37.5000014305115
233,202,195314,2,2,L|180:202,1,37.5000014305115
289,245,195651,5,8,0:0:0:0:
388,297,195820,1,0,0:0:0:0:
288,296,195988,1,8,0:0:0:0:
387,244,196157,1,0,0:0:0:0:
447,191,196325,6,8,P|440:151|417:121,1,75.0000028610231
390,99,196831,2,10,P|363:89|315:108,1,75.0000028610231
297,132,197336,1,0,0:0:0:0:
184,144,197674,5,2,0:0:0:0:
167,206,197842,1,0,0:0:0:0:
222,241,198011,1,2,0:0:0:0:
272,200,198179,1,0,0:0:0:0:
249,134,198348,6,8,L|213:96,1,37.5000014305115
312,126,198685,2,8,P|333:145|372:151,1,56.2500021457673
332,67,199190,2,8,P|302:61|271:63,1,56.2500021457673
225,189,199696,2,8,L|256:224,1,37.5000014305115
206,133,200370,5,2,0:0:0:0:
315,142,200539,1,0,0:0:0:0:
306,251,200707,1,2,0:0:0:0:
197,242,200876,1,0,0:0:0:0:
263,95,201044,5,2,0:0:0:0:
352,199,201213,1,0,0:0:0:0:
159,184,201381,1,2,0:0:0:0:
248,288,201550,1,0,0:0:0:0:
261,95,201718,6,8,P|289:123|302:151,2,56.2500021457673
261,95,202561,1,4,0:0:0:0:
256,192,202645,12,4,203741,0:0:0:0:
256,221,204247,5,0,0:0:0:0:
114,268,204415,2,0,P|117:318|213:340,1,150.000005722046,8|0,0:0|0:0,0:0:0:0:
256,295,204921,1,0,0:0:0:0:
310,347,205089,2,0,P|375:337|367:214,2,209.999993591309,8|0|8,0:0|0:0|0:0,0:0:0:0:
107,288,205932,1,0,0:0:0:0:
284,288,206101,5,8,0:0:0:0:
182,258,206270,1,0,0:0:0:0:
266,223,206438,2,0,P|254:166|114:140,1,209.999993591309,8|0,0:0|0:0,0:0:0:0:
122,133,207112,5,8,0:0:0:0:
168,337,207280,1,0,0:0:0:0:
184,148,207449,5,8,0:0:0:0:
218,301,207617,1,0,0:0:0:0:
245,158,207786,2,0,P|305:156|256:256,1,209.999993591309,8|0,0:0|0:0,0:0:0:0:
194,192,208292,1,2,0:0:0:0:
96,230,208460,2,0,P|103:294|232:320,1,209.999993591309,8|0,0:0|0:0,0:0:0:0:
256,192,208966,1,2,0:0:0:0:
284,60,209134,2,0,P|383:60|416:154,1,209.999993591309,8|2,0:0|0:0,0:0:0:0:
390,309,209640,1,2,0:0:0:0:
367,221,209808,5,2,0:0:0:0:
312,310,209977,1,0,0:0:0:0:
320,160,210145,5,2,0:0:0:0:
237,293,210314,1,0,0:0:0:0:
248,114,210483,2,0,P|178:102|109:217,1,209.999993591309,2|0,0:0|0:0,0:0:0:0:
203,192,210988,1,0,0:0:0:0:
307,183,211157,2,0,P|258:273|136:262,2,209.999993591309,8|0|8,0:0|0:0|0:0,0:0:0:0:
256,91,211999,1,0,0:0:0:0:
131,110,212168,1,2,0:0:0:0:
36,192,212336,1,0,0:0:0:0:
97,302,212505,6,0,P|165:326|255:230,2,209.999993591309,8|0|8,0:0|0:0|0:0,0:0:0:0:
166,247,213348,5,0,0:0:0:0:
256,118,213516,1,2,0:0:0:0:
346,247,213685,1,0,0:0:0:0:
346,311,213853,5,8,0:0:0:0:
283,248,214023,1,2,0:0:0:0:
346,185,214191,1,2,0:0:0:0:
409,248,214360,1,2,0:0:0:0:
283,248,214527,5,8,0:0:0:0:
283,136,214697,1,2,0:0:0:0:
394,136,214865,1,2,0:0:0:0:
394,248,215033,1,2,0:0:0:0:
283,138,215202,6,0,P|207:110|139:211,1,209.999993591309,8|0,0:3|0:0,0:0:0:0:
227,238,215707,1,2,0:0:0:0:
317,280,215877,2,2,P|275:318|220:312,1,104.999996795654,10|2,1:0|1:0,1:0:0:0:
114,139,216550,5,2,0:0:0:0:
87,267,216718,1,0,0:0:0:0:
164,164,216887,5,2,0:0:0:0:
143,260,217055,1,0,0:0:0:0:
208,184,217224,2,8,L|193:269,1,75.0000028610231
307,147,217898,5,2,0:0:0:0:
380,256,218067,1,0,0:0:0:0:
285,171,218235,5,2,0:0:0:0:
402,228,218404,1,0,0:0:0:0:
282,199,218572,2,8,L|403:193,1,104.999996795654
256,104,219078,1,2,0:0:0:0:
158,64,219247,6,8,P|148:103|185:181,1,104.999996795654
257,216,219752,1,2,0:0:0:0:
344,163,219921,2,8,P|363:114|354:64,1,104.999996795654
256,104,220426,1,2,0:0:0:0:
218,210,220595,2,2,P|261:226|303:203,2,78.7499975967408
112,213,221269,2,2,L|108:235,1,13.1249995994568
157,289,221438,2,2,P|193:224|169:131,1,157.499995193482
374,67,222280,6,8,L|355:184,1,104.999996795654
307,281,222786,1,2,0:0:0:0:
186,268,222954,1,2,0:0:0:0:
161,149,223123,1,2,0:0:0:0:
266,89,223292,1,2,0:0:0:0:
356,172,223460,2,2,P|414:200|447:196,2,78.7499975967408
256,137,224134,5,8,0:0:0:0:
131,305,224471,2,2,L|167:253,1,52.4999983978272
381,305,224808,2,2,L|345:253,1,52.4999983978272
255,77,225314,5,4,0:0:0:0:
257,193,226662,5,8,0:0:0:0:
257,193,226999,5,8,0:0:0:0:
