osu file format v14

[General]
AudioFilename: audio.mp3
AudioLeadIn: 0
PreviewTime: 48730
Countdown: 0
SampleSet: Soft
StackLeniency: 0.7
Mode: 1
LetterboxInBreaks: 0
EpilepsyWarning: 1
WidescreenStoryboard: 1

[Editor]
Bookmarks: 7207,15934,33389,50843,68298,94480
DistanceSpacing: 1.7
BeatDivisor: 8
GridSize: 16
TimelineZoom: 3.199999

[Metadata]
Title:Calypso
TitleUnicode:Calypso
Artist:Luis Fonsi feat. Stefflon Don
ArtistUnicode:Luis Fonsi feat. Stefflon Don
Creator:Tatan
Version:Ulqui's Oni
Source:
Tags:reggaeton universal music latina latino latin pop puerto rico underground Crissa [-Crissaegrim-] TheShadowOfDark newton- Ulqui
BeatmapID:1709421
BeatmapSetID:802789

[Difficulty]
HPDrainRate:5
CircleSize:3.8
OverallDifficulty:5
ApproachRate:9.3
SliderMultiplier:1.4
SliderTickRate:1

[Events]
//Background and Video events
0,0,"bgtaiko1.jpg",0,30
//Break Periods
//Storyboard Layer 0 (Background)
//Storyboard Layer 1 (Fail)
//Storyboard Layer 2 (Pass)
//Storyboard Layer 3 (Foreground)
//Storyboard Sound Samples

[TimingPoints]
683,545.454545454546,4,2,0,30,1,0
683,-66.6666666666667,4,2,0,30,0,0
2183,-90.9090909090909,4,2,0,60,0,0
2864,-90.9090909090909,4,2,0,60,0,0
6137,-90.9090909090909,4,2,0,30,0,0
7228,-86.9565217391304,4,2,0,60,0,0
15137,-86.9565217391304,4,2,0,60,0,0
15410,-83.3333333333333,4,2,0,60,0,0
15683,-80,4,2,0,60,0,0
15819,-76.9230769230769,4,2,0,60,0,0
15955,-74.0740740740741,4,2,0,80,0,0
16092,-71.4285714285714,4,2,0,80,0,0
23864,-50,4,2,0,80,0,0
24137,-55.5555555555556,4,2,0,80,0,0
24410,-62.5,4,2,0,80,0,0
24683,-71.4285714285714,4,2,0,80,0,0
32592,-50,4,2,0,80,0,0
32864,-55.5555555555556,4,2,0,80,0,0
33137,-62.5,4,2,0,80,0,0
33410,-71.4285714285714,4,2,0,80,0,0
41319,-50,4,2,0,80,0,0
41592,-55.5555555555556,4,2,0,80,0,0
41864,-62.5,4,2,0,80,0,0
42137,-71.4285714285714,4,2,0,80,0,0
48683,-100,4,2,0,30,0,0
48955,-100,4,2,0,30,0,0
49228,-93.3333333333333,4,2,0,30,0,0
49501,-87.5,4,2,0,30,0,0
49773,-82.3529411764706,4,2,0,30,0,0
50046,-77.7777777777778,4,2,0,30,0,0
50319,-73.6842105263158,4,2,0,30,0,0
50592,-70,4,2,0,30,0,0
50864,-66.6666666666667,4,2,0,80,0,1
66137,-66.6666666666667,4,2,0,80,0,0
66205,-66.6666666666667,4,2,0,30,0,0
68319,-66.6666666666667,4,2,0,80,0,1
68728,-69.7674418604651,4,2,0,80,0,1
68864,-73.1707317073171,4,2,0,80,0,1
69137,-76.9230769230769,4,2,0,80,0,1
69410,-81.0810810810811,4,2,0,80,0,1
69819,-86.9565217391304,4,2,0,80,0,1
69955,-81.0810810810811,4,2,0,80,0,1
70228,-73.1707317073171,4,2,0,80,0,1
70501,-66.6666666666667,4,2,0,80,0,1
70910,-69.7674418604651,4,2,0,80,0,1
71046,-73.1707317073171,4,2,0,80,0,1
71319,-76.9230769230769,4,2,0,80,0,1
71592,-81.0810810810811,4,2,0,80,0,1
72001,-86.9565217391304,4,2,0,80,0,1
72137,-81.0810810810811,4,2,0,80,0,1
72410,-73.1707317073171,4,2,0,80,0,1
72683,-66.6666666666667,4,2,0,80,0,1
73092,-69.7674418604651,4,2,0,80,0,1
73228,-73.1707317073171,4,2,0,80,0,1
73501,-76.9230769230769,4,2,0,80,0,1
73773,-81.0810810810811,4,2,0,80,0,1
74183,-86.9565217391304,4,2,0,80,0,1
74319,-81.0810810810811,4,2,0,80,0,1
74592,-73.1707317073171,4,2,0,80,0,1
74864,-66.6666666666667,4,2,0,80,0,1
75137,-70.4225352112676,4,2,0,80,0,1
75273,-74.6268656716418,4,2,0,80,0,1
75410,-79.3650793650794,4,2,0,80,0,1
75683,-84.7457627118644,4,2,0,80,0,1
75955,-90.9090909090909,4,2,0,80,0,0
76364,-83.3333333333333,4,2,0,80,0,0
76501,-76.9230769230769,4,2,0,80,0,0
76773,-71.4285714285714,4,2,0,80,0,0
77046,-66.6666666666667,4,2,0,80,0,1
84683,-66.6666666666667,4,2,0,80,0,0
85773,-66.6666666666667,4,2,0,80,0,1
92319,-66.6666666666667,4,2,0,80,0,1
92455,-68.7022900763359,4,2,0,74,0,1
92728,-70.8661417322835,4,2,0,69,0,1
92864,-73.1707317073171,4,2,0,63,0,1
93137,-75.6302521008403,4,2,0,58,0,1
93410,-78.2608695652174,4,2,0,52,0,1
93819,-81.0810810810811,4,2,0,47,0,1
93955,-84.1121495327103,4,2,0,41,0,1
94228,-87.378640776699,4,2,0,36,0,1
94501,-90.9090909090909,4,2,0,30,0,0

[Colours]
Combo1 : 207,159,255
Combo2 : 255,128,255
Combo3 : 255,128,192
Combo4 : 255,0,255
Combo5 : 128,255,255
Combo6 : 255,128,64

[HitObjects]
256,192,683,12,0,2046,0:0:0:0:
161,144,2183,5,8,0:0:0:0:
161,144,2319,1,8,0:0:0:0:
161,144,2592,1,8,0:0:0:0:
161,144,3001,1,0,0:0:0:0:
161,144,3273,1,8,0:0:0:0:
161,144,3546,1,8,0:0:0:0:
157,155,3683,1,0,0:0:0:0:
162,165,4228,1,8,0:0:0:0:
162,165,4773,1,0,0:0:0:0:
162,165,5183,1,0,0:0:0:0:
162,165,5455,1,8,0:0:0:0:
162,165,5728,1,8,0:0:0:0:
162,165,5864,1,0,0:0:0:0:
256,192,6137,12,0,7092,0:0:0:0:
158,161,7228,5,0,0:0:0:0:
148,133,7364,1,0,0:0:0:0:
158,118,7637,1,8,0:0:0:0:
185,127,7910,1,8,0:0:0:0:
185,127,8046,1,0,0:0:0:0:
185,127,8592,1,8,0:0:0:0:
185,127,9137,1,0,0:0:0:0:
185,127,9546,1,0,0:0:0:0:
172,161,9819,1,8,0:0:0:0:
172,161,10092,1,8,0:0:0:0:
172,161,10228,1,0,0:0:0:0:
172,161,10773,1,8,0:0:0:0:
172,161,11319,1,0,0:0:0:0:
177,167,11728,1,8,0:0:0:0:
169,106,12001,1,8,0:0:0:0:
169,106,12273,1,8,0:0:0:0:
169,106,12410,1,0,0:0:0:0:
169,106,12955,1,8,0:0:0:0:
169,106,13501,1,0,0:0:0:0:
185,165,15137,5,8,0:0:0:0:
185,165,15410,1,0,0:0:0:0:
185,165,15683,1,8,0:0:0:0:
185,165,15819,1,8,0:0:0:0:
185,165,15955,1,0,0:0:0:0:
197,152,16092,1,0,0:0:0:0:
196,147,16364,1,8,0:0:0:0:
198,146,16637,1,0,0:0:0:0:
198,146,16773,1,8,0:0:0:0:
201,152,17319,1,8,0:0:0:0:
244,67,17455,1,0,0:0:0:0:
201,152,17592,1,8,0:0:0:0:
201,152,17864,1,0,0:0:0:0:
201,152,18137,1,0,0:0:0:0:
201,152,18273,1,0,0:0:0:0:
201,152,18546,1,8,0:0:0:0:
201,152,18819,1,0,0:0:0:0:
201,152,18955,1,8,0:0:0:0:
201,152,19228,1,0,0:0:0:0:
201,152,19364,1,0,0:0:0:0:
201,152,19501,1,8,0:0:0:0:
260,68,19637,1,0,0:0:0:0:
201,152,19773,1,8,0:0:0:0:
186,49,19842,1,8,0:0:0:0:
201,152,20046,1,8,0:0:0:0:
201,152,20319,1,0,0:0:0:0:
202,94,20455,1,0,0:0:0:0:
191,108,20728,1,8,0:0:0:0:
191,109,21001,1,8,0:0:0:0:
191,109,21137,1,0,0:0:0:0:
147,117,21683,1,8,0:0:0:0:
224,120,21819,1,0,0:0:0:0:
169,85,21955,1,8,0:0:0:0:
169,85,22228,1,8,0:0:0:0:
172,89,22501,1,0,0:0:0:0:
172,89,22637,1,0,0:0:0:0:
169,85,22910,1,8,0:0:0:0:
224,67,23046,1,8,0:0:0:0:
169,85,23114,1,8,0:0:0:0:
166,86,23319,1,8,0:0:0:0:
151,162,23864,1,12,0:0:0:0:
151,162,24137,1,12,0:0:0:0:
151,162,24410,1,12,0:0:0:0:
151,162,24683,1,0,0:0:0:0:
171,143,24819,1,0,0:0:0:0:
250,180,25092,1,8,0:0:0:0:
250,180,25364,1,0,0:0:0:0:
250,180,25501,1,8,0:0:0:0:
222,85,25773,1,0,0:0:0:0:
230,77,25910,1,0,0:0:0:0:
230,77,26046,1,8,0:0:0:0:
174,93,26319,1,8,0:0:0:0:
174,93,26592,1,0,0:0:0:0:
176,101,26864,1,0,0:0:0:0:
174,101,27001,1,0,0:0:0:0:
174,101,27273,1,8,0:0:0:0:
174,101,27546,1,0,0:0:0:0:
176,101,27683,1,8,0:0:0:0:
222,92,27955,1,0,0:0:0:0:
222,92,28092,1,0,0:0:0:0:
189,90,28228,1,8,0:0:0:0:
189,90,28364,1,0,0:0:0:0:
189,90,28501,1,8,0:0:0:0:
218,102,28569,1,8,0:0:0:0:
218,99,28773,1,8,0:0:0:0:
211,67,29046,1,0,0:0:0:0:
209,133,29183,1,0,0:0:0:0:
209,133,29455,1,8,0:0:0:0:
170,132,29728,1,8,0:0:0:0:
170,132,29864,1,0,0:0:0:0:
170,132,30410,1,8,0:0:0:0:
168,123,30546,1,0,0:0:0:0:
168,122,30683,1,8,0:0:0:0:
166,89,30955,1,8,0:0:0:0:
166,89,31228,1,0,0:0:0:0:
183,100,31364,1,8,0:0:0:0:
161,111,31637,1,0,0:0:0:0:
171,63,31773,1,8,0:0:0:0:
166,89,31842,1,8,0:0:0:0:
161,113,32046,1,8,0:0:0:0:
196,138,32592,1,12,0:0:0:0:
196,138,32864,1,12,0:0:0:0:
196,138,33137,1,12,0:0:0:0:
196,138,33410,1,0,0:0:0:0:
171,164,33546,1,0,0:0:0:0:
171,164,33819,1,8,0:0:0:0:
171,164,33955,1,0,0:0:0:0:
197,117,34092,1,0,0:0:0:0:
171,164,34228,1,8,0:0:0:0:
181,174,34501,1,0,0:0:0:0:
181,174,34773,1,8,0:0:0:0:
181,174,34910,1,0,0:0:0:0:
181,174,35046,1,8,0:0:0:0:
181,174,35592,1,0,0:0:0:0:
146,147,35728,5,0,0:0:0:0:
146,147,36001,1,8,0:0:0:0:
157,153,36137,1,8,0:0:0:0:
225,102,36273,1,0,0:0:0:0:
146,147,36410,1,8,0:0:0:0:
146,147,36683,1,0,0:0:0:0:
157,153,36819,1,0,0:0:0:0:
157,153,36955,1,8,0:0:0:0:
157,153,37092,1,0,0:0:0:0:
157,153,37228,1,8,0:0:0:0:
163,162,37773,1,0,0:0:0:0:
166,119,37910,1,0,0:0:0:0:
166,119,38183,1,8,0:0:0:0:
166,119,38319,1,0,0:0:0:0:
211,87,38455,1,0,0:0:0:0:
166,119,38592,1,8,0:0:0:0:
166,119,38864,1,0,0:0:0:0:
170,128,39137,1,8,0:0:0:0:
170,129,39273,1,0,0:0:0:0:
170,129,39410,1,8,0:0:0:0:
180,97,39683,1,8,0:0:0:0:
180,99,39819,1,8,0:0:0:0:
170,128,39955,1,0,0:0:0:0:
202,82,40092,1,8,0:0:0:0:
170,128,40228,1,0,0:0:0:0:
168,135,40364,1,0,0:0:0:0:
168,135,40501,1,8,0:0:0:0:
256,97,40569,1,8,0:0:0:0:
194,103,40773,1,8,0:0:0:0:
241,87,41319,1,12,0:0:0:0:
241,87,41592,1,12,0:0:0:0:
235,97,41864,1,12,0:0:0:0:
191,97,42137,1,0,0:0:0:0:
212,143,42273,1,0,0:0:0:0:
212,143,42546,1,8,0:0:0:0:
212,143,42683,1,0,0:0:0:0:
212,143,42819,1,0,0:0:0:0:
212,143,42955,1,8,0:0:0:0:
221,156,43228,1,0,0:0:0:0:
221,155,43501,1,8,0:0:0:0:
221,155,43637,1,0,0:0:0:0:
220,154,43773,1,8,0:0:0:0:
221,155,44319,1,0,0:0:0:0:
221,155,44455,1,0,0:0:0:0:
220,154,44728,1,0,0:0:0:0:
221,156,44864,1,8,0:0:0:0:
221,156,45001,1,8,0:0:0:0:
221,155,45137,1,0,0:0:0:0:
221,155,45410,1,8,0:0:0:0:
235,174,45546,1,0,0:0:0:0:
220,154,45683,1,8,0:0:0:0:
221,156,45819,1,0,0:0:0:0:
216,152,45955,1,8,0:0:0:0:
256,74,46023,1,8,0:0:0:0:
232,179,46228,1,8,0:0:0:0:
232,179,46501,1,0,0:0:0:0:
232,179,46637,1,0,0:0:0:0:
228,143,46910,1,8,0:0:0:0:
226,137,47046,1,0,0:0:0:0:
228,143,47183,1,0,0:0:0:0:
228,143,47319,1,8,0:0:0:0:
228,143,47592,1,0,0:0:0:0:
225,135,47864,1,8,0:0:0:0:
226,137,48001,1,0,0:0:0:0:
224,134,48137,1,8,0:0:0:0:
200,61,48410,1,8,0:0:0:0:
185,168,48955,1,8,0:0:0:0:
185,168,49228,1,0,0:0:0:0:
185,168,49501,1,8,0:0:0:0:
185,168,49773,1,8,0:0:0:0:
185,168,50046,1,0,0:0:0:0:
185,168,50319,1,0,0:0:0:0:
185,168,50592,1,8,0:0:0:0:
153,242,50864,5,0,0:0:0:0:
153,242,51001,1,0,0:0:0:0:
153,242,51273,1,8,0:0:0:0:
153,242,51410,1,0,0:0:0:0:
181,274,51546,1,0,0:0:0:0:
153,242,51683,1,8,0:0:0:0:
153,242,51955,1,0,0:0:0:0:
174,228,52228,1,8,0:0:0:0:
192,68,52364,1,0,0:0:0:0:
174,228,52501,1,8,0:0:0:0:
174,228,52773,1,8,0:0:0:0:
180,152,53046,1,0,0:0:0:0:
180,152,53183,1,0,0:0:0:0:
180,152,53455,1,8,0:0:0:0:
180,152,53592,1,8,0:0:0:0:
180,152,53728,1,0,0:0:0:0:
180,152,53864,1,8,0:0:0:0:
180,152,54137,1,0,0:0:0:0:
180,152,54410,1,8,0:0:0:0:
166,76,54546,1,0,0:0:0:0:
180,152,54683,1,8,0:0:0:0:
174,151,54955,1,8,0:0:0:0:
172,148,55228,1,0,0:0:0:0:
172,148,55364,1,0,0:0:0:0:
172,146,55637,1,0,0:0:0:0:
174,151,55773,1,8,0:0:0:0:
174,151,55910,1,8,0:0:0:0:
172,148,56046,1,0,0:0:0:0:
172,148,56319,1,0,0:0:0:0:
172,146,56592,1,8,0:0:0:0:
178,65,56728,1,0,0:0:0:0:
171,141,56864,1,8,0:0:0:0:
171,140,57137,1,8,0:0:0:0:
172,146,57410,1,0,0:0:0:0:
171,138,57546,1,0,0:0:0:0:
171,141,57819,1,8,0:0:0:0:
171,140,57955,1,8,0:0:0:0:
171,140,58092,1,0,0:0:0:0:
171,136,58228,1,8,0:0:0:0:
171,138,58501,1,0,0:0:0:0:
171,141,58773,1,8,0:0:0:0:
171,140,59046,1,8,0:0:0:0:
166,178,59228,1,8,0:0:0:0:
166,178,59410,1,8,0:0:0:0:
166,178,59592,1,0,0:0:0:0:
165,163,59728,1,0,0:0:0:0:
165,166,60001,1,8,0:0:0:0:
164,171,60137,1,0,0:0:0:0:
162,165,60273,1,0,0:0:0:0:
164,171,60410,1,8,0:0:0:0:
181,123,60683,1,0,0:0:0:0:
181,123,60955,1,8,0:0:0:0:
181,123,61092,1,0,0:0:0:0:
181,123,61228,1,8,0:0:0:0:
191,135,61410,1,8,0:0:0:0:
191,137,61592,1,8,0:0:0:0:
191,137,61773,1,0,0:0:0:0:
174,163,61910,1,0,0:0:0:0:
174,163,62183,1,8,0:0:0:0:
174,163,62319,1,8,0:0:0:0:
174,163,62455,1,0,0:0:0:0:
174,163,62592,1,8,0:0:0:0:
186,162,62864,1,0,0:0:0:0:
201,82,63001,1,8,0:0:0:0:
186,162,63137,1,0,0:0:0:0:
235,55,63273,1,0,0:0:0:0:
189,162,63410,1,8,0:0:0:0:
220,158,63592,1,8,0:0:0:0:
220,158,63773,1,8,0:0:0:0:
220,158,63955,1,0,0:0:0:0:
189,176,64092,1,0,0:0:0:0:
188,178,64364,1,8,0:0:0:0:
189,176,64501,1,0,0:0:0:0:
189,176,64637,1,8,0:0:0:0:
189,176,64773,1,8,0:0:0:0:
204,170,65046,1,0,0:0:0:0:
204,170,65455,1,8,0:0:0:0:
203,169,65592,1,8,0:0:0:0:
157,68,65864,1,8,0:0:0:0:
157,68,66137,1,0,0:0:0:0:
118,262,66683,1,8,0:0:0:0:
132,271,67228,1,0,0:0:0:0:
132,271,67637,1,8,0:0:0:0:
132,271,67773,1,8,0:0:0:0:
132,271,68046,1,8,0:0:0:0:
177,132,68319,1,4,0:0:0:0:
181,136,68728,1,8,0:0:0:0:
166,148,68864,1,0,0:0:0:0:
181,136,69137,1,8,0:0:0:0:
167,166,69410,1,0,0:0:0:0:
192,143,69819,1,8,0:0:0:0:
192,143,69955,1,8,0:0:0:0:
192,143,70228,1,8,0:0:0:0:
192,143,70501,1,4,0:0:0:0:
181,136,70910,1,8,0:0:0:0:
193,150,71046,1,0,0:0:0:0:
182,135,71319,1,8,0:0:0:0:
193,150,71592,1,0,0:0:0:0:
193,150,72001,1,8,0:0:0:0:
193,150,72137,1,8,0:0:0:0:
193,150,72410,1,8,0:0:0:0:
193,150,72683,1,4,0:0:0:0:
185,131,73092,1,8,0:0:0:0:
193,150,73228,1,0,0:0:0:0:
186,133,73501,1,8,0:0:0:0:
193,150,73773,1,0,0:0:0:0:
193,150,74183,1,8,0:0:0:0:
193,150,74319,1,8,0:0:0:0:
193,150,74592,1,8,0:0:0:0:
193,150,74864,1,4,0:0:0:0:
186,131,75137,1,8,0:0:0:0:
186,131,75273,1,8,0:0:0:0:
193,150,75410,1,0,0:0:0:0:
186,131,75683,1,8,0:0:0:0:
197,154,75955,1,0,0:0:0:0:
197,154,76364,1,8,0:0:0:0:
197,154,76501,1,8,0:0:0:0:
197,154,76773,1,8,0:0:0:0:
197,154,77046,1,0,0:0:0:0:
153,150,77183,1,0,0:0:0:0:
153,150,77455,1,8,0:0:0:0:
153,150,77592,1,0,0:0:0:0:
216,121,77728,1,0,0:0:0:0:
153,150,77864,1,8,0:0:0:0:
153,150,78137,1,0,0:0:0:0:
153,150,78273,1,0,0:0:0:0:
153,150,78546,1,8,0:0:0:0:
153,150,78683,1,0,0:0:0:0:
188,137,78955,1,8,0:0:0:0:
188,137,79228,1,0,0:0:0:0:
188,137,79364,1,0,0:0:0:0:
188,137,79637,1,0,0:0:0:0:
185,144,79773,1,8,0:0:0:0:
216,120,79910,1,8,0:0:0:0:
184,145,80046,1,0,0:0:0:0:
188,137,80319,1,8,0:0:0:0:
188,137,80455,1,0,0:0:0:0:
184,137,80728,1,0,0:0:0:0:
184,137,80864,1,8,0:0:0:0:
188,137,81137,1,0,0:0:0:0:
188,137,81410,1,8,0:0:0:0:
184,137,81546,1,8,0:0:0:0:
184,137,81819,1,8,0:0:0:0:
181,133,81955,1,0,0:0:0:0:
203,118,82092,1,8,0:0:0:0:
181,133,82228,1,8,0:0:0:0:
186,127,82501,1,8,0:0:0:0:
186,127,82637,1,0,0:0:0:0:
186,127,82910,1,0,0:0:0:0:
190,127,83046,1,8,0:0:0:0:
186,127,83319,1,0,0:0:0:0:
192,125,83592,1,8,0:0:0:0:
192,125,83728,1,8,0:0:0:0:
190,127,84001,1,8,0:0:0:0:
192,125,84137,1,8,0:0:0:0:
196,110,84273,1,0,0:0:0:0:
192,125,84410,1,8,0:0:0:0:
192,125,84683,1,0,0:0:0:0:
179,117,85501,1,0,0:0:0:0:
179,117,85637,1,0,0:0:0:0:
191,138,85773,1,8,0:0:0:0:
176,63,85910,1,0,0:0:0:0:
171,117,86183,1,0,0:0:0:0:
171,117,86319,1,8,0:0:0:0:
201,69,86455,1,8,0:0:0:0:
171,117,86592,1,0,0:0:0:0:
171,117,86864,1,8,0:0:0:0:
171,117,87001,1,8,0:0:0:0:
171,117,87137,1,0,0:0:0:0:
171,117,87273,1,0,0:0:0:0:
171,117,87410,1,8,0:0:0:0:
181,133,87683,1,0,0:0:0:0:
181,133,87819,1,0,0:0:0:0:
181,133,87955,1,8,0:0:0:0:
208,81,88092,1,0,0:0:0:0:
181,133,88364,1,0,0:0:0:0:
181,133,88501,1,8,0:0:0:0:
203,102,88773,1,0,0:0:0:0:
203,102,88910,1,0,0:0:0:0:
203,102,89046,1,8,0:0:0:0:
203,102,89183,1,0,0:0:0:0:
203,102,89319,1,0,0:0:0:0:
191,42,89455,1,8,0:0:0:0:
203,102,89592,1,0,0:0:0:0:
191,114,89864,1,8,0:0:0:0:
225,109,90001,1,8,0:0:0:0:
191,115,90137,1,0,0:0:0:0:
163,92,90273,1,8,0:0:0:0:
184,77,90546,1,8,0:0:0:0:
191,141,90683,1,0,0:0:0:0:
184,76,90955,1,0,0:0:0:0:
184,76,91092,1,8,0:0:0:0:
184,76,91228,1,8,0:0:0:0:
184,77,91364,1,0,0:0:0:0:
211,25,91637,1,0,0:0:0:0:
184,77,91773,1,8,0:0:0:0:
223,68,92046,1,8,0:0:0:0:
189,68,92319,1,0,0:0:0:0:
198,104,92455,1,0,0:0:0:0:
197,112,92728,1,8,0:0:0:0:
197,112,92864,1,0,0:0:0:0:
197,112,93137,1,8,0:0:0:0:
197,112,93410,1,0,0:0:0:0:
186,102,93819,1,8,0:0:0:0:
186,102,93955,1,8,0:0:0:0:
186,102,94228,1,8,0:0:0:0:
