osu file format v14

[General]
AudioFilename: audio.mp3
AudioLeadIn: 0
PreviewTime: 48730
Countdown: 0
SampleSet: Soft
StackLeniency: 0.7
Mode: 1
LetterboxInBreaks: 0
EpilepsyWarning: 1
WidescreenStoryboard: 1

[Editor]
Bookmarks: 7207,15934,33389,50843,68298,94480
DistanceSpacing: 1.7
BeatDivisor: 4
GridSize: 16
TimelineZoom: 2.799999

[Metadata]
Title:Calypso
TitleUnicode:Calypso
Artist:Luis Fonsi feat. Stefflon Don
ArtistUnicode:Luis Fonsi feat. Stefflon Don
Creator:Tatan
Version:Ulqui's Muzukashii
Source:
Tags:reggaeton universal music latina latino latin pop puerto rico underground Crissa [-Crissaegrim-] TheShadowOfDark newton- Ulqui
BeatmapID:1710129
BeatmapSetID:802789

[Difficulty]
HPDrainRate:6
CircleSize:3.8
OverallDifficulty:4.5
ApproachRate:9.3
SliderMultiplier:1.4
SliderTickRate:1

[Events]
//Background and Video events
0,0,"bgtaiko2.jpg",0,120
//Break Periods
//Storyboard Layer 0 (Background)
//Storyboard Layer 1 (Fail)
//Storyboard Layer 2 (Pass)
//Storyboard Layer 3 (Foreground)
//Storyboard Sound Samples

[TimingPoints]
683,545.454545454546,4,2,0,30,1,0
683,-83.3333333333333,4,2,0,30,0,0
2864,-100,4,2,0,60,0,0
6137,-100,4,2,0,30,0,0
7228,-100,4,2,0,60,0,0
15137,-95.2380952380952,4,2,0,60,0,0
15410,-90.9090909090909,4,2,0,60,0,0
15683,-86.9565217391304,4,2,0,60,0,0
15955,-83.3333333333333,4,2,0,80,0,0
23864,-66.6666666666667,4,2,0,80,0,0
24137,-71.4285714285714,4,2,0,80,0,0
24410,-76.9230769230769,4,2,0,80,0,0
24683,-83.3333333333333,4,2,0,80,0,0
32592,-66.6666666666667,4,2,0,80,0,0
32864,-71.4285714285714,4,2,0,80,0,0
33137,-76.9230769230769,4,2,0,80,0,0
33410,-83.3333333333333,4,2,0,80,0,0
41319,-66.6666666666667,4,2,0,80,0,0
41592,-71.4285714285714,4,2,0,80,0,0
41864,-76.9230769230769,4,2,0,80,0,0
42137,-83.3333333333333,4,2,0,80,0,0
50864,-80,4,2,0,80,0,1
66137,-80,4,2,0,80,0,0
68319,-80,4,2,0,80,0,1
68864,-83.3333333333333,4,2,0,80,0,1
69410,-86.9565217391304,4,2,0,80,0,1
69819,-90.9090909090909,4,2,0,80,0,1
70501,-80,4,2,0,80,0,1
71046,-83.3333333333333,4,2,0,80,0,1
71592,-86.9565217391304,4,2,0,80,0,1
72001,-90.9090909090909,4,2,0,80,0,1
72683,-80,4,2,0,80,0,1
73228,-83.3333333333333,4,2,0,80,0,1
73773,-86.9565217391304,4,2,0,80,0,1
74183,-90.9090909090909,4,2,0,80,0,1
74864,-80,4,2,0,80,0,1
75410,-83.3333333333333,4,2,0,80,0,1
75955,-90.9090909090909,4,2,0,80,0,0
77046,-80,4,2,0,80,0,1
84683,-80,4,2,0,80,0,0
85773,-80,4,2,0,80,0,1
92319,-80,4,2,0,80,0,1
92864,-80,4,2,0,63,0,1
93410,-80,4,2,0,52,0,1
93819,-80,4,2,0,47,0,1
93955,-80,4,2,0,41,0,1
94228,-80,4,2,0,36,0,1
94501,-80,4,2,0,30,0,0

[Colours]
Combo1 : 207,159,255
Combo2 : 255,128,255
Combo3 : 255,128,192
Combo4 : 255,0,255
Combo5 : 128,255,255
Combo6 : 255,128,64

[HitObjects]
256,192,683,12,0,2183,0:0:0:0:
177,55,3001,5,0,0:0:0:0:
177,55,3273,1,8,0:0:0:0:
179,72,3546,1,0,0:0:0:0:
189,64,3683,1,0,0:0:0:0:
148,113,4228,1,8,0:0:0:0:
148,113,4773,1,0,0:0:0:0:
148,113,5183,1,0,0:0:0:0:
148,113,5455,1,8,0:0:0:0:
148,113,5728,1,0,0:0:0:0:
148,113,5864,1,0,0:0:0:0:
256,192,6137,12,0,7092,0:0:0:0:
148,107,7228,5,0,0:0:0:0:
162,69,7364,1,0,0:0:0:0:
176,115,7637,1,8,0:0:0:0:
95,164,7910,1,0,0:0:0:0:
155,116,8046,1,0,0:0:0:0:
155,116,8592,1,8,0:0:0:0:
155,116,9137,1,0,0:0:0:0:
174,84,9546,1,0,0:0:0:0:
158,76,9819,1,8,0:0:0:0:
181,127,10092,1,0,0:0:0:0:
157,60,10228,1,0,0:0:0:0:
169,68,10773,1,8,0:0:0:0:
174,99,11319,1,0,0:0:0:0:
200,93,11728,1,0,0:0:0:0:
174,99,12001,1,8,0:0:0:0:
181,127,12273,1,8,0:0:0:0:
174,99,12410,1,0,0:0:0:0:
171,88,12955,1,8,0:0:0:0:
197,100,13501,1,0,0:0:0:0:
159,125,15137,1,8,0:0:0:0:
159,125,15410,1,8,0:0:0:0:
159,125,15683,1,8,0:0:0:0:
159,125,15955,1,4,0:0:0:0:
132,98,16364,1,8,0:0:0:0:
132,98,16773,1,8,0:0:0:0:
195,90,17319,1,8,0:0:0:0:
195,90,17592,1,8,0:0:0:0:
235,110,18137,1,0,0:0:0:0:
182,81,18546,1,8,0:0:0:0:
182,81,18955,1,8,0:0:0:0:
171,78,19228,1,0,0:0:0:0:
181,91,19501,1,8,0:0:0:0:
181,91,19773,1,8,0:0:0:0:
208,128,20319,1,0,0:0:0:0:
200,127,20728,1,8,0:0:0:0:
200,127,21137,1,8,0:0:0:0:
199,120,21683,1,8,0:0:0:0:
199,120,21955,1,8,0:0:0:0:
242,130,22501,1,0,0:0:0:0:
153,62,22910,1,8,0:0:0:0:
248,123,23046,1,8,0:0:0:0:
138,136,23319,1,8,0:0:0:0:
172,97,23864,1,12,0:0:0:0:
172,97,24137,1,12,0:0:0:0:
172,97,24410,1,12,0:0:0:0:
172,97,24683,1,0,0:0:0:0:
172,97,25092,1,8,0:0:0:0:
172,97,25501,1,8,0:0:0:0:
178,96,26046,1,8,0:0:0:0:
178,96,26319,1,8,0:0:0:0:
209,89,26864,1,0,0:0:0:0:
209,89,27273,1,8,0:0:0:0:
200,79,27683,1,8,0:0:0:0:
206,47,28228,1,0,0:0:0:0:
201,100,28501,1,8,0:0:0:0:
195,63,28773,1,8,0:0:0:0:
195,63,29046,1,0,0:0:0:0:
198,117,29455,1,8,0:0:0:0:
151,143,29864,1,8,0:0:0:0:
156,106,30410,1,8,0:0:0:0:
156,106,30683,1,8,0:0:0:0:
156,106,31228,1,0,0:0:0:0:
171,144,31637,1,8,0:0:0:0:
185,46,31773,1,8,0:0:0:0:
171,144,32046,1,8,0:0:0:0:
190,102,32592,1,12,0:0:0:0:
190,102,32864,1,12,0:0:0:0:
190,102,33137,1,12,0:0:0:0:
190,102,33410,1,0,0:0:0:0:
179,126,33819,1,8,0:0:0:0:
164,139,33955,1,0,0:0:0:0:
180,109,34228,1,8,0:0:0:0:
208,82,34501,1,0,0:0:0:0:
231,96,34773,1,8,0:0:0:0:
192,87,35046,1,8,0:0:0:0:
192,88,35592,1,0,0:0:0:0:
192,87,36001,1,8,0:0:0:0:
183,91,36137,1,0,0:0:0:0:
174,83,36410,1,8,0:0:0:0:
173,117,36683,1,0,0:0:0:0:
138,54,36955,1,0,0:0:0:0:
138,54,37228,1,8,0:0:0:0:
161,102,37773,1,0,0:0:0:0:
214,55,38183,1,8,0:0:0:0:
161,102,38319,1,0,0:0:0:0:
195,95,38592,1,8,0:0:0:0:
162,77,38864,1,0,0:0:0:0:
161,102,39137,1,0,0:0:0:0:
161,102,39410,1,8,0:0:0:0:
172,96,39955,1,0,0:0:0:0:
174,96,40228,1,0,0:0:0:0:
170,81,40501,1,8,0:0:0:0:
170,81,40773,1,8,0:0:0:0:
170,81,41319,1,12,0:0:0:0:
170,81,41592,1,12,0:0:0:0:
170,81,41864,1,12,0:0:0:0:
170,81,42137,1,0,0:0:0:0:
188,136,42546,1,8,0:0:0:0:
162,92,42683,1,0,0:0:0:0:
179,77,42955,1,8,0:0:0:0:
216,91,43228,1,0,0:0:0:0:
216,91,43501,1,8,0:0:0:0:
216,91,43773,1,8,0:0:0:0:
216,91,44319,1,0,0:0:0:0:
179,97,44728,1,8,0:0:0:0:
209,102,44864,1,0,0:0:0:0:
171,92,45137,1,8,0:0:0:0:
209,102,45410,1,0,0:0:0:0:
209,102,45683,1,8,0:0:0:0:
209,102,45819,1,8,0:0:0:0:
209,102,45955,1,8,0:0:0:0:
168,132,46501,1,0,0:0:0:0:
165,77,46910,1,8,0:0:0:0:
168,132,47046,1,0,0:0:0:0:
162,87,47319,1,8,0:0:0:0:
168,132,47592,1,0,0:0:0:0:
168,132,47864,1,8,0:0:0:0:
168,132,48137,1,8,0:0:0:0:
205,107,50864,1,4,0:0:0:0:
203,84,51273,1,8,0:0:0:0:
193,108,51410,1,8,0:0:0:0:
198,156,51683,1,8,0:0:0:0:
193,108,51955,1,0,0:0:0:0:
198,156,52501,1,8,0:0:0:0:
198,156,53046,1,0,0:0:0:0:
190,94,53455,1,8,0:0:0:0:
199,162,53592,1,8,0:0:0:0:
199,162,53864,1,8,0:0:0:0:
199,162,54137,1,0,0:0:0:0:
201,90,54410,1,0,0:0:0:0:
199,162,54683,1,8,0:0:0:0:
199,162,55228,1,0,0:0:0:0:
166,93,55364,1,0,0:0:0:0:
170,108,55637,1,8,0:0:0:0:
199,162,55773,1,8,0:0:0:0:
199,162,56046,1,8,0:0:0:0:
199,162,56319,1,0,0:0:0:0:
206,165,56864,1,8,0:0:0:0:
205,171,57410,1,0,0:0:0:0:
186,87,57819,1,8,0:0:0:0:
205,171,57955,1,8,0:0:0:0:
205,171,58228,1,8,0:0:0:0:
205,171,58501,1,0,0:0:0:0:
205,171,58773,1,0,0:0:0:0:
205,171,59046,1,8,0:0:0:0:
205,172,59592,1,0,0:0:0:0:
181,161,60001,1,8,0:0:0:0:
181,161,60410,1,8,0:0:0:0:
181,161,60955,1,0,0:0:0:0:
181,161,61228,1,8,0:0:0:0:
192,116,61773,1,0,0:0:0:0:
192,116,62183,1,8,0:0:0:0:
192,116,62592,1,8,0:0:0:0:
192,116,63137,1,0,0:0:0:0:
192,116,63410,1,8,0:0:0:0:
192,116,63955,1,0,0:0:0:0:
192,116,64364,1,8,0:0:0:0:
192,116,64773,1,8,0:0:0:0:
199,109,65046,1,0,0:0:0:0:
192,116,65455,1,8,0:0:0:0:
186,108,65592,1,8,0:0:0:0:
179,115,65864,1,8,0:0:0:0:
181,118,66137,1,0,0:0:0:0:
187,185,68319,5,4,0:0:0:0:
187,185,68864,1,4,0:0:0:0:
187,185,69410,1,4,0:0:0:0:
187,185,69819,1,8,0:0:0:0:
187,185,69955,1,8,0:0:0:0:
187,185,70228,1,8,0:0:0:0:
127,170,70501,1,4,0:0:0:0:
127,170,71046,1,4,0:0:0:0:
131,175,71592,1,4,0:0:0:0:
134,180,72001,1,8,0:0:0:0:
134,180,72137,1,8,0:0:0:0:
134,180,72410,1,0,0:0:0:0:
134,180,72683,1,12,0:0:0:0:
134,180,73228,1,12,0:0:0:0:
134,180,73773,1,12,0:0:0:0:
134,180,74183,1,8,0:0:0:0:
134,180,74319,1,8,0:0:0:0:
134,180,74592,1,0,0:0:0:0:
134,180,74864,1,12,0:0:0:0:
134,180,75410,1,12,0:0:0:0:
134,180,75955,1,8,0:0:0:0:
237,145,77046,1,0,0:0:0:0:
166,144,77319,1,8,0:0:0:0:
221,178,77592,1,0,0:0:0:0:
221,178,78137,1,0,0:0:0:0:
226,169,78546,1,8,0:0:0:0:
226,169,78683,1,8,0:0:0:0:
226,169,78955,1,0,0:0:0:0:
198,72,79228,1,8,0:0:0:0:
188,174,79501,1,0,0:0:0:0:
198,72,79773,1,8,0:0:0:0:
195,93,80319,1,8,0:0:0:0:
195,93,80728,1,8,0:0:0:0:
195,93,80864,1,8,0:0:0:0:
195,93,81137,1,8,0:0:0:0:
195,93,81410,1,0,0:0:0:0:
170,164,81683,1,8,0:0:0:0:
195,93,81955,1,0,0:0:0:0:
195,93,82501,1,0,0:0:0:0:
195,93,82910,1,8,0:0:0:0:
195,93,83046,1,8,0:0:0:0:
195,93,83319,1,0,0:0:0:0:
195,93,83592,1,8,0:0:0:0:
189,130,83864,1,0,0:0:0:0:
195,93,84137,1,8,0:0:0:0:
195,93,84683,1,8,0:0:0:0:
167,196,85773,1,0,0:0:0:0:
167,196,86046,1,8,0:0:0:0:
167,196,86319,1,0,0:0:0:0:
208,100,86455,1,0,0:0:0:0:
208,100,86592,1,0,0:0:0:0:
167,196,86864,1,8,0:0:0:0:
166,188,87273,1,8,0:0:0:0:
166,188,87410,1,8,0:0:0:0:
166,188,87683,1,0,0:0:0:0:
166,188,87955,1,8,0:0:0:0:
166,188,88228,1,0,0:0:0:0:
166,188,88501,1,8,0:0:0:0:
199,77,88637,1,8,0:0:0:0:
199,77,88773,1,8,0:0:0:0:
166,188,89046,1,0,0:0:0:0:
166,188,89455,1,8,0:0:0:0:
166,188,89592,1,8,0:0:0:0:
166,188,89864,1,8,0:0:0:0:
166,188,90137,1,0,0:0:0:0:
166,188,90410,1,8,0:0:0:0:
166,188,90683,1,0,0:0:0:0:
208,43,90819,1,0,0:0:0:0:
166,188,90955,1,0,0:0:0:0:
166,188,91228,1,8,0:0:0:0:
166,188,91637,1,8,0:0:0:0:
166,188,91773,1,8,0:0:0:0:
166,188,92046,1,0,0:0:0:0:
166,188,92319,1,8,0:0:0:0:
166,188,92864,1,8,0:0:0:0:
166,188,93410,1,0,0:0:0:0:
166,188,93819,1,8,0:0:0:0:
166,188,93955,1,8,0:0:0:0:
166,188,94228,1,8,0:0:0:0:
