osu file format v14

[General]
AudioFilename: audio.mp3
AudioLeadIn: 0
PreviewTime: 48730
Countdown: 0
SampleSet: Soft
StackLeniency: 0.6
Mode: 0
LetterboxInBreaks: 0
EpilepsyWarning: 1
WidescreenStoryboard: 1

[Editor]
DistanceSpacing: 1.2
BeatDivisor: 8
GridSize: 32
TimelineZoom: 2.799999

[Metadata]
Title:Calypso
TitleUnicode:Calypso
Artist:Luis Fonsi feat. Stefflon Don
ArtistUnicode:Luis Fonsi feat. Stefflon Don
Creator:Tatan
Version:TheShadow's Normal
Source:
Tags:reggaeton universal music latina latino latin pop puerto rico underground Crissa [-Crissaegrim-] TheShadowOfDark newton- Ulqui
BeatmapID:1687473
BeatmapSetID:802789

[Difficulty]
HPDrainRate:4
CircleSize:3
OverallDifficulty:4
ApproachRate:5.5
SliderMultiplier:1.4
SliderTickRate:1

[Events]
//Background and Video events
0,0,"bgshadow.jpg",0,0
//Break Periods
//Storyboard Layer 0 (Background)
//Storyboard Layer 1 (Fail)
//Storyboard Layer 2 (Pass)
//Storyboard Layer 3 (Foreground)
//Storyboard Sound Samples

[TimingPoints]
683,545.454545454546,4,2,1,50,1,0
48955,-100,4,2,1,50,0,0
50864,-100,4,2,2,65,0,1
66137,-100,4,2,2,35,0,0
68319,-100,4,2,2,65,0,1
75955,-100,4,2,2,65,0,0
93410,-100,4,2,2,45,0,0
93819,-100,4,2,2,35,0,0
94228,-100,4,2,2,25,0,0

[Colours]
Combo1 : 207,159,255
Combo2 : 255,128,255
Combo3 : 255,128,192
Combo4 : 255,0,255
Combo5 : 128,255,255
Combo6 : 255,128,64

[HitObjects]
0,169,3001,5,0,0:0:0:0:
60,226,3273,1,8,0:0:0:0:
137,193,3546,1,0,0:0:0:0:
137,193,3683,2,0,P|200:214|279:201,1,140,0|0,0:0|0:0,0:0:0:0:
433,159,4773,1,0,0:0:0:0:
459,281,5183,6,0,P|414:284|381:274,2,70,0|8|0,0:0|0:0|0:0,0:0:0:0:
500,272,5864,1,0,0:0:0:0:
230,5,7228,6,0,P|220:56|227:91,1,70,10|0,0:0|0:0,0:0:0:0:
233,113,7637,1,0,0:0:0:0:
296,168,7910,1,0,0:0:0:0:
335,155,8046,2,0,P|402:143|471:169,2,140,0|8|0,0:0|0:0|0:0,0:0:0:0:
277,216,9410,6,0,L|184:207,1,70,8|0,0:0|0:0,0:0:0:0:
165,204,9819,1,0,0:0:0:0:
91,163,10092,1,0,0:0:0:0:
91,163,10228,2,0,P|125:127|222:142,1,140,0|8,0:0|0:0,0:0:0:0:
359,209,11319,1,0,0:0:0:0:
441,191,11592,6,0,L|457:90,1,70,8|0,0:0|0:0,0:0:0:0:
443,80,12001,2,0,P|407:66|370:64,1,70,0|0,0:0|0:0,0:0:0:0:
335,50,12410,2,0,L|195:65,2,140,0|8|8,0:0|0:0|0:0,0:0:0:0:
406,94,13773,6,0,P|423:139|415:195,1,93.3333333333333,0|0,0:0|0:0,0:0:0:0:
161,343,15137,2,0,L|67:353,2,70,0|0|0,0:0|0:0|0:0,0:0:0:0:
218,281,15955,6,0,P|232:220|229:194,1,70,2|0,0:0|0:0,0:0:0:0:
226,171,16364,2,0,P|230:111|246:83,1,70,12|0,0:0|0:0,0:0:0:0:
270,82,16773,2,0,P|375:62|419:70,2,140,4|0|0,0:0|0:0|0:0,0:0:0:0:
187,99,18137,6,0,L|97:103,1,70,2|0,0:0|0:0,0:0:0:0:
75,106,18546,1,12,0:0:0:0:
86,22,18819,1,0,0:0:0:0:
86,22,18955,2,0,B|259:14,2,140,12|4|0,0:0|0:0|0:0,0:0:0:0:
16,69,20319,5,2,0:0:0:0:
75,179,20728,1,12,0:0:0:0:
29,249,21001,1,0,0:0:0:0:
29,249,21137,2,0,P|96:262|157:191,2,140,4|4|0,0:0|0:0|0:0,0:0:0:0:
75,179,22501,6,0,L|93:66,1,105,2|12,0:0|0:0,0:0:0:0:
163,30,23183,1,0,0:0:0:0:
163,30,23319,2,0,P|236:46|309:23,1,140,4|6,0:0|0:0,0:0:0:0:
378,53,24137,2,0,L|477:41,1,70,6|6,0:0|0:0,0:0:0:0:
506,105,24683,5,2,0:0:0:0:
464,223,25092,2,0,P|418:231|381:221,1,70,12|0,0:0|0:0,0:0:0:0:
354,216,25501,2,0,B|287:206|287:206|196:220,1,140,4|0,0:0|0:0,0:0:0:0:
133,199,26319,1,4,0:0:0:0:
65,249,26592,1,0,0:0:0:0:
60,332,26864,6,0,P|129:307|146:265,1,105,2|12,0:0|0:0,0:0:0:0:
133,199,27546,1,0,0:0:0:0:
133,199,27683,2,0,P|112:129|151:51,2,140,4|4|0,0:0|0:0|0:0,0:0:0:0:
207,238,29046,5,2,0:0:0:0:
330,262,29455,1,12,0:0:0:0:
401,218,29728,1,0,0:0:0:0:
401,218,29864,2,0,P|340:179|271:203,2,140,4|4|0,0:0|0:0|0:0,0:0:0:0:
330,262,31228,6,0,P|268:279|221:255,1,105,2|12,0:0|0:0,0:0:0:0:
189,190,31910,1,0,0:0:0:0:
212,155,32046,2,0,P|221:81|187:13,1,140,4|6,0:0|0:0,0:0:0:0:
277,3,32864,2,0,L|374:9,1,70,0|6,0:0|0:0,0:0:0:0:
422,44,33410,6,0,L|427:128,1,70,10|0,0:0|0:0,0:0:0:0:
425,156,33819,2,0,L|434:235,1,70,4|0,0:0|0:0,0:0:0:0:
407,259,34228,2,0,P|368:286|338:289,1,70,4|8,0:0|0:0,0:0:0:0:
262,286,34773,1,4,0:0:0:0:
184,252,35046,2,0,L|88:263,1,70,12|0,0:0|0:0,0:0:0:0:
51,316,35592,6,0,P|29:267|43:223,1,70,10|0,0:0|0:0,0:0:0:0:
32,210,36001,1,4,0:0:0:0:
61,131,36273,1,0,0:0:0:0:
93,104,36410,2,0,P|155:77|230:89,1,140,4|4,0:0|0:0,0:0:0:0:
308,73,37228,2,0,P|306:113|279:147,1,70,12|0,0:0|0:0,0:0:0:0:
253,213,37773,6,0,L|267:335,1,105,10|4,0:0|0:0,0:0:0:0:
187,349,38455,1,0,0:0:0:0:
187,349,38592,2,0,L|22:334,1,140,4|4,0:0|0:0,0:0:0:0:
23,255,39410,1,12,0:0:0:0:
54,176,39683,1,0,0:0:0:0:
136,160,39955,6,0,P|203:174|286:157,1,140,10|8,0:0|0:0,0:0:0:0:
285,79,40773,1,4,0:0:0:0:
352,135,41046,2,0,P|352:193|284:243,1,140,8|14,0:0|0:0,0:0:0:0:
210,262,41864,1,6,0:0:0:0:
128,281,42137,6,0,P|131:229|180:184,1,105,10|4,0:0|0:0,0:0:0:0:
237,148,42819,1,0,0:0:0:0:
277,158,42955,2,0,P|337:165|423:130,1,140,4|4,0:0|0:0,0:0:0:0:
476,85,43773,2,0,P|450:64|399:59,1,70,12|0,0:0|0:0,0:0:0:0:
331,45,44319,5,6,0:0:0:0:
207,22,44728,2,0,P|204:64|227:110,1,70,4|0,0:0|0:0,0:0:0:0:
231,127,45137,2,0,L|218:279,1,140,4|4,0:0|0:0,0:0:0:0:
156,322,45955,2,0,L|66:333,1,70,12|0,0:0|0:0,0:0:0:0:
28,268,46501,5,6,0:0:0:0:
58,145,46910,1,4,0:0:0:0:
21,69,47183,1,0,0:0:0:0:
21,69,47319,2,0,P|96:69|137:116,1,140,4|4,0:0|0:0,0:0:0:0:
128,191,48137,2,0,L|225:168,1,70,12|4,0:0|0:0,0:0:0:0:
359,131,48955,6,0,L|456:108,2,70,0|8|0,0:0|0:0|0:0,0:0:0:0:
313,201,49773,2,0,L|324:286,1,70,8|0,0:0|0:0,0:0:0:0:
287,347,50319,1,8,0:0:0:0:
203,355,50592,1,0,0:0:0:0:
151,289,50864,6,0,P|167:215|139:152,1,140,6|2,0:0|0:0,0:0:0:0:
76,105,51683,1,8,0:0:0:0:
11,158,51955,2,0,P|46:187|92:186,1,70,2|12,0:0|0:0,0:0:0:0:
143,157,52501,2,0,L|234:148,1,70,12|0,0:0|0:0,0:0:0:0:
275,93,53046,6,0,B|355:88|355:88|428:111,1,140,6|2,0:0|0:0,0:0:0:0:
467,169,53864,1,8,0:0:0:0:
444,250,54137,2,0,L|351:257,1,70,2|12,0:0|0:0,0:0:0:0:
307,306,54683,2,0,L|214:313,1,70,12|0,0:0|0:0,0:0:0:0:
164,352,55228,6,0,P|154:299|227:228,1,140,6|2,0:0|0:0,0:0:0:0:
284,212,56046,1,8,0:0:0:0:
360,245,56319,2,0,L|446:237,2,70,2|12|12,0:0|0:0|0:0,0:0:0:0:
284,212,57137,1,0,0:0:0:0:
295,128,57410,6,0,L|441:114,1,140,6|2,0:0|0:0,0:0:0:0:
487,180,58228,1,8,0:0:0:0:
445,253,58501,2,0,L|454:337,2,70,2|12|12,0:0|0:0|0:0,0:0:0:0:
302,162,59592,6,0,P|238:215|248:264,1,140,6|2,0:0|0:0,0:0:0:0:
291,334,60410,1,8,0:0:0:0:
371,358,60683,2,0,L|459:349,2,70,2|12|12,0:0|0:0|0:0,0:0:0:0:
209,311,61773,6,0,L|60:330,1,140,6|2,0:0|0:0,0:0:0:0:
21,259,62592,1,8,0:0:0:0:
33,176,62864,2,0,L|124:163,1,70,2|12,0:0|0:0,0:0:0:0:
185,151,63410,1,12,0:0:0:0:
308,37,63955,6,0,P|353:81|376:168,1,140,6|2,0:0|0:0,0:0:0:0:
344,230,64773,1,8,0:0:0:0:
276,279,65046,2,0,P|229:292|173:277,1,105,2|0,0:0|0:0,0:0:0:0:
141,253,65592,1,0,0:0:0:0:
106,176,65864,1,0,0:0:0:0:
145,101,66137,6,0,P|222:109|286:86,2,140,2|0|0,0:0|0:0|0:0,0:0:0:0:
29,50,67637,1,0,0:0:0:0:
29,50,67773,2,0,P|21:109|32:138,1,70,0|0,0:0|0:0,0:0:0:0:
43,200,68319,5,6,0:0:0:0:
117,349,68864,1,6,0:0:0:0:
282,319,69410,1,6,0:0:0:0:
401,357,69819,1,8,0:0:0:0:
401,357,69955,2,0,P|401:299|386:266,1,70,2|8,0:0|0:0,0:0:0:0:
365,210,70501,6,0,B|424:189|458:231|510:201,2,140,6|6|6,0:0|0:0|0:0,0:0:0:0:
244,246,72001,1,8,0:0:0:0:
244,246,72137,2,0,P|205:256|149:246,1,70,2|8,0:0|0:0,0:0:0:0:
91,244,72683,5,6,0:0:0:0:
22,87,73228,1,6,0:0:0:0:
175,18,73773,1,6,0:0:0:0:
289,70,74183,1,8,0:0:0:0:
289,70,74319,2,0,P|323:79|379:60,1,70,2|8,0:0|0:0,0:0:0:0:
434,40,74864,6,0,P|447:103|436:179,2,140,6|6|6,0:0|0:0|0:0,0:0:0:0:
184,3,76773,1,0,0:0:0:0:
157,82,77046,6,0,P|146:130|161:190,1,105,6|8,0:0|0:0,0:0:0:0:
179,219,77592,1,2,0:0:0:0:
253,257,77864,1,8,0:0:0:0:
336,246,78137,2,0,L|458:236,1,105,2|0,0:0|0:0,0:0:0:0:
478,217,78683,2,0,P|489:168|483:138,1,70,12|0,0:0|0:0,0:0:0:0:
487,64,79228,6,0,B|437:78|437:78|361:71,1,105,6|8,0:0|0:0,0:0:0:0:
346,55,79773,2,0,L|254:60,1,70,2|8,0:0|0:0,0:0:0:0:
191,64,80319,1,2,0:0:0:0:
69,30,80728,1,0,0:0:0:0:
69,30,80864,2,0,P|64:80|73:104,1,70,12|0,0:0|0:0,0:0:0:0:
101,176,81410,5,6,0:0:0:0:
62,294,81819,1,8,0:0:0:0:
62,294,81955,2,0,P|103:305|140:297,2,70,2|8|2,0:0|0:0|0:0,0:0:0:0:
109,176,82910,1,0,0:0:0:0:
109,176,83046,2,0,L|189:169,1,70,12|0,0:0|0:0,0:0:0:0:
260,191,83592,6,0,L|384:180,1,105,6|8,0:0|0:0,0:0:0:0:
404,194,84137,1,2,0:0:0:0:
438,270,84410,1,8,0:0:0:0:
380,331,84683,2,0,L|233:345,2,140,6|0|6,0:0|0:0|0:0,0:0:0:0:
478,252,86183,5,8,0:0:0:0:
478,252,86319,2,0,P|485:213|470:168,1,70,2|8,0:0|0:0,0:0:0:0:
441,108,86864,2,0,P|389:76|331:82,1,105,2|0,0:0|0:0,0:0:0:0:
305,84,87410,1,12,0:0:0:0:
222,66,87683,1,0,0:0:0:0:
150,22,87955,6,0,P|137:72|167:127,1,105,6|8,0:0|0:0,0:0:0:0:
177,156,88501,2,0,P|183:216|177:245,1,70,2|8,0:0|0:0,0:0:0:0:
164,307,89046,1,2,0:0:0:0:
275,369,89455,1,0,0:0:0:0:
316,376,89592,2,0,L|413:367,1,70,12|0,0:0|0:0,0:0:0:0:
450,316,90137,6,0,B|465:271|435:249|456:206,1,105,6|8,0:0|0:0,0:0:0:0:
458,170,90683,2,0,P|393:174|371:165,1,70,2|8,0:0|0:0,0:0:0:0:
321,123,91228,2,0,L|196:130,1,105,2|0,0:0|0:0,0:0:0:0:
174,135,91773,1,12,0:0:0:0:
136,210,92046,1,0,0:0:0:0:
167,288,92319,6,0,L|280:283,1,105,6|0,0:0|0:0,0:0:0:0:
307,260,92864,2,0,L|401:255,1,70,6|0,0:0|0:0,0:0:0:0:
460,248,93410,1,4,0:0:0:0:
504,130,93819,1,0,0:0:0:0:
504,130,93955,1,0,0:0:0:0:
461,57,94228,1,0,0:0:0:0:
