osu file format v14

[General]
AudioFilename: audio.mp3
AudioLeadIn: 0
PreviewTime: 48730
Countdown: 0
SampleSet: Soft
StackLeniency: 0.7
Mode: 0
LetterboxInBreaks: 0
EpilepsyWarning: 1
WidescreenStoryboard: 1

[Editor]
Bookmarks: 7207,15934,33389,50843,66116,77025,92298
DistanceSpacing: 0.9
BeatDivisor: 4
GridSize: 16
TimelineZoom: 2.799999

[Metadata]
Title:Calypso
TitleUnicode:Calypso
Artist:Luis Fonsi feat. Stefflon Don
ArtistUnicode:Luis Fonsi feat. Stefflon Don
Creator:Tatan
Version:Fiesta Tropical
Source:
Tags:reggaeton universal music latina latino latin pop puerto rico underground Crissa [-Crissaegrim-] TheShadowOfDark newton- Ulqui
BeatmapID:1685118
BeatmapSetID:802789

[Difficulty]
HPDrainRate:6.5
CircleSize:3.8
OverallDifficulty:8.6
ApproachRate:9.3
SliderMultiplier:1.4
SliderTickRate:1

[Events]
//Background and Video events
0,0,"calypso.jpg",0,0
//Break Periods
//Storyboard Layer 0 (Background)
//Storyboard Layer 1 (Fail)
//Storyboard Layer 2 (Pass)
//Storyboard Layer 3 (Foreground)
//Storyboard Sound Samples

[TimingPoints]
683,545.454545454546,4,2,1,50,1,0
3137,-100,4,2,1,5,0,0
3273,-100,4,2,1,50,0,0
5319,-100,4,2,1,5,0,0
5455,-100,4,2,1,50,0,0
7228,-66.6666666666667,4,2,1,50,0,0
7364,-66.6666666666667,4,2,1,5,0,0
7500,-66.6666666666667,4,2,1,50,0,0
8796,-66.6666666666667,4,2,1,5,0,0
8864,-66.6666666666667,4,2,1,50,0,0
9614,-66.6666666666667,4,2,1,5,0,0
9683,-66.6666666666667,4,2,1,50,0,0
10023,-66.6666666666667,4,2,1,5,0,0
10092,-66.6666666666667,4,2,1,50,0,0
10978,-66.6666666666667,4,2,1,5,0,0
11047,-66.6666666666667,4,2,1,50,0,0
11251,-66.6666666666667,4,2,1,5,0,0
11320,-66.6666666666667,4,2,1,50,0,0
11796,-66.6666666666667,4,2,1,5,0,0
11865,-66.6666666666667,4,2,1,50,0,0
12887,-66.6666666666667,4,2,1,5,0,0
12956,-66.6666666666667,4,2,1,50,0,0
13160,-66.6666666666667,4,2,1,5,0,0
13229,-66.6666666666667,4,2,1,50,0,0
13433,-66.6666666666667,4,2,1,5,0,0
13502,-66.6666666666667,4,2,1,50,0,0
15342,-66.6666666666667,4,2,1,5,0,0
15411,-66.6666666666667,4,2,1,50,0,0
15614,-66.6666666666667,4,2,1,5,0,0
15683,-66.6666666666667,4,2,1,50,0,0
15887,-66.6666666666667,4,2,1,5,0,0
15956,-66.6666666666667,4,2,1,50,0,0
16160,-66.6666666666667,4,2,1,5,0,0
16229,-66.6666666666667,4,2,1,50,0,0
16569,-66.6666666666667,4,2,1,5,0,0
16638,-66.6666666666667,4,2,1,50,0,0
16978,-66.6666666666667,4,2,1,5,0,0
17047,-66.6666666666667,4,2,1,50,0,0
17387,-66.6666666666667,4,2,1,5,0,0
17456,-66.6666666666667,4,2,1,50,0,0
19433,-66.6666666666667,4,2,1,5,0,0
19502,-66.6666666666667,4,2,1,50,0,0
19978,-66.6666666666667,4,2,1,5,0,0
20047,-66.6666666666667,4,2,1,50,0,0
22160,-66.6666666666667,4,2,1,5,0,0
22229,-66.6666666666667,4,2,1,50,0,0
22433,-66.6666666666667,4,2,1,5,0,0
22502,-66.6666666666667,4,2,1,50,0,0
22842,-66.6666666666667,4,2,1,5,0,0
22911,-66.6666666666667,4,2,1,50,0,0
23114,-66.6666666666667,4,2,1,5,0,0
23183,-66.6666666666667,4,2,1,50,0,0
24069,-66.6666666666667,4,2,1,5,0,0
24137,-60.6060606060606,4,2,1,50,0,0
24342,-66.6666666666667,4,2,1,5,0,0
24410,-54.054054054054,4,2,1,50,0,0
24614,-54.054054054054,4,2,1,5,0,0
24683,-66.6666666666667,4,2,1,50,0,0
24887,-66.6666666666667,4,2,1,5,0,0
24955,-66.6666666666667,4,2,1,50,0,0
25296,-66.6666666666667,4,2,1,5,0,0
25364,-66.6666666666667,4,2,1,50,0,0
25705,-66.6666666666667,4,2,1,5,0,0
25773,-66.6666666666667,4,2,1,50,0,0
26114,-66.6666666666667,4,2,1,5,0,0
26182,-66.6666666666667,4,2,1,50,0,0
26523,-66.6666666666667,4,2,1,5,0,0
26591,-66.6666666666667,4,2,1,50,0,0
27478,-66.6666666666667,4,2,1,5,0,0
27546,-66.6666666666667,4,2,1,50,0,0
28160,-66.6666666666667,4,2,1,5,0,0
28228,-66.6666666666667,4,2,1,50,0,0
28705,-66.6666666666667,4,2,1,5,0,0
28773,-66.6666666666667,4,2,1,50,0,0
29387,-66.6666666666667,4,2,1,5,0,0
29455,-66.6666666666667,4,2,1,50,0,0
29660,-66.6666666666667,4,2,1,5,0,0
29728,-66.6666666666667,4,2,1,50,0,0
30887,-66.6666666666667,4,2,1,5,0,0
30955,-66.6666666666667,4,2,1,50,0,0
31160,-66.6666666666667,4,2,1,5,0,0
31228,-66.6666666666667,4,2,1,50,0,0
31569,-66.6666666666667,4,2,1,5,0,0
31637,-66.6666666666667,4,2,1,50,0,0
31842,-66.6666666666667,4,2,1,5,0,0
31910,-66.6666666666667,4,2,1,50,0,0
32592,-55.5555555555556,4,2,1,50,0,0
32796,-55.5555555555556,4,2,1,5,0,0
32864,-55.5555555555556,4,2,1,50,0,0
33342,-66.6666666666667,4,2,1,5,0,0
33410,-58.8235294117647,4,2,1,50,0,0
34978,-58.8235294117647,4,2,1,5,0,0
35046,-58.8235294117647,4,2,1,50,0,0
36205,-58.8235294117647,4,2,1,5,0,0
36273,-58.8235294117647,4,2,1,50,0,0
37160,-58.8235294117647,4,2,1,5,0,0
37228,-58.8235294117647,4,2,1,50,0,0
38114,-58.8235294117647,4,2,1,5,0,0
38182,-58.8235294117647,4,2,1,50,0,0
38796,-58.8235294117647,4,2,1,5,0,0
38864,-58.8235294117647,4,2,1,50,0,0
40842,-58.8235294117647,4,2,1,40,0,0
40910,-58.8235294117647,4,2,1,30,0,0
40978,-58.8235294117647,4,2,1,15,0,0
41046,-58.8235294117647,4,2,1,5,0,0
41319,-58.8235294117647,4,2,1,20,0,0
41592,-55.5555555555556,4,2,1,35,0,0
41864,-52.6315789473684,4,2,1,50,0,0
42137,-52.6315789473684,4,2,1,65,0,0
42342,-52.6315789473684,4,2,1,5,0,0
42410,-52.6315789473684,4,2,1,65,0,0
42751,-52.6315789473684,4,2,1,5,0,0
42819,-52.6315789473684,4,2,1,65,0,0
43978,-52.6315789473684,4,2,1,5,0,0
44046,-52.6315789473684,4,2,1,65,0,0
44387,-52.6315789473684,4,2,1,5,0,0
44455,-52.6315789473684,4,2,1,65,0,0
44933,-52.6315789473684,4,2,1,5,0,0
45001,-52.6315789473684,4,2,1,65,0,0
46160,-52.6315789473684,4,2,1,5,0,0
46228,-52.6315789473684,4,2,1,65,0,0
46569,-52.6315789473684,4,2,1,5,0,0
46637,-52.6315789473684,4,2,1,65,0,0
47114,-52.6315789473684,4,2,1,5,0,0
47182,-52.6315789473684,4,2,1,65,0,0
48069,-52.6315789473684,4,2,1,5,0,0
48137,-52.6315789473684,4,2,1,65,0,0
50796,-52.6315789473684,4,2,1,5,0,0
50864,-52.6315789473684,4,2,2,65,0,1
52705,-52.6315789473684,4,2,2,5,0,1
52773,-52.6315789473684,4,2,2,65,0,1
54887,-52.6315789473684,4,2,2,5,0,1
54955,-52.6315789473684,4,2,2,65,0,1
57069,-52.6315789473684,4,2,2,5,0,1
57137,-52.6315789473684,4,2,2,65,0,1
58433,-52.6315789473684,4,2,2,5,0,1
58501,-52.6315789473684,4,2,2,65,0,1
60614,-52.6315789473684,4,2,2,5,0,1
60682,-52.6315789473684,4,2,2,65,0,1
63069,-52.6315789473684,4,2,2,5,0,1
63137,-52.6315789473684,4,2,2,65,0,1
65864,-58.8235294117647,4,2,2,40,0,1
65932,-58.8235294117647,4,2,2,30,0,1
66069,-58.8235294117647,4,2,2,30,0,0
68319,-45.4545454545455,4,2,2,65,0,1
75955,-106.382978723404,4,2,2,65,0,1
76364,-47.6190476190476,4,2,2,65,0,0
77046,-40,4,2,2,65,0,0
77455,-33.3333333333333,4,2,2,65,0,0
77864,-66.6666666666667,4,2,2,65,0,0
78683,-40,4,2,2,65,0,0
79228,-40,4,2,2,65,0,0
79637,-33.3333333333333,4,2,2,65,0,0
80046,-66.6666666666667,4,2,2,65,0,0
80864,-40,4,2,2,65,0,0
81410,-40,4,2,2,65,0,0
81819,-33.3333333333333,4,2,2,65,0,0
82228,-66.6666666666667,4,2,2,65,0,0
83046,-40,4,2,2,65,0,0
83592,-40,4,2,2,65,0,0
84001,-33.3333333333333,4,2,2,65,0,0
84410,-66.6666666666667,4,2,2,65,0,0
84614,-66.6666666666667,4,2,2,5,0,0
84683,-66.6666666666667,4,2,2,65,0,0
86796,-66.6666666666667,4,2,2,5,0,0
86864,-66.6666666666667,4,2,2,65,0,0
87887,-66.6666666666667,4,2,2,5,0,0
87955,-66.6666666666667,4,2,2,65,0,0
92319,-66.6666666666667,4,2,2,45,0,0
92728,-66.6666666666667,4,2,2,35,0,0
92864,-76.9230769230769,4,2,2,25,0,0
93273,-76.9230769230769,4,2,2,20,0,0
93955,-90.9090909090909,4,2,2,20,0,0

[Colours]
Combo1 : 207,159,255
Combo2 : 255,128,255
Combo3 : 255,128,192
Combo4 : 255,0,255
Combo5 : 128,255,255
Combo6 : 255,128,64

[HitObjects]
256,192,683,12,0,2183,0:0:0:0:
198,104,3001,6,0,P|208:144|208:160,1,35
140,203,3273,2,0,P|133:257|139:296,1,70,8|0,0:0|0:0,0:0:0:0:
188,333,3683,1,0,0:0:0:0:
202,316,4228,1,0,0:0:0:0:
294,344,4773,1,0,0:0:0:0:
310,328,5183,6,0,P|325:282|326:265,1,35,0|0,0:0|0:0,0:0:0:0:
316,202,5455,2,0,L|218:210,1,70,8|0,0:0|0:0,0:0:0:0:
148,216,5864,1,0,0:0:0:0:
148,216,7228,6,0,P|135:164|139:118,1,52.5000020027161,10|0,0:0|0:0,0:0:0:0:
243,115,7501,2,0,P|238:140|230:165,1,52.5000020027161,0|0,0:0|0:0,0:0:0:0:
112,66,7773,2,0,L|204:61,1,52.5000020027161,8|0,0:0|0:0,0:0:0:0:
264,27,8046,2,0,L|356:32,1,52.5000020027161,0|0,0:0|0:0,0:0:0:0:
446,44,8319,5,8,0:0:0:0:
333,142,8455,1,0,0:0:0:0:
333,142,8592,2,0,P|323:200|334:240,1,78.7500030040742,8|0,0:0|0:0,0:0:0:0:
349,262,8864,2,0,P|291:243|241:251,1,105.000004005432,8|0,0:0|0:0,0:0:0:0:
141,309,9410,6,0,L|150:220,1,78.7500030040742,8|0,0:0|0:0,0:0:0:0:
152,205,9683,1,0,0:0:0:0:
53,358,9819,2,0,L|44:269,1,78.7500030040742,0|0,0:0|0:0,0:0:0:0:
42,254,10092,1,0,0:0:0:0:
51,237,10364,5,0,0:0:0:0:
166,193,10501,2,0,P|185:150|174:105,1,52.5000020027161,0|0,0:0|0:0,0:0:0:0:
24,145,10773,2,0,L|110:143,1,78.7500030040742,8|0,0:0|0:0,0:0:0:0:
191,71,11046,2,0,L|277:73,1,78.7500030040742,8|0,0:0|0:0,0:0:0:0:
298,75,11319,1,0,0:0:0:0:
321,77,11592,6,0,P|334:132|332:176,1,78.7500030040742,8|0,0:0|0:0,0:0:0:0:
318,194,11864,1,0,0:0:0:0:
437,200,12001,2,0,L|502:202,1,52.5000020027161,0|8,0:0|0:0,0:0:0:0:
355,296,12273,2,0,L|302:297,1,52.5000020027161,0|0,0:0|0:0,0:0:0:0:
463,305,12546,1,0,0:0:0:0:
412,186,12683,6,0,P|371:168|321:175,1,78.7500030040742,8|0,0:0|0:0,0:0:0:0:
299,198,12955,2,0,P|258:216|208:209,1,78.7500030040742,8|0,0:0|0:0,0:0:0:0:
185,198,13228,2,0,L|186:295,1,78.7500030040742,8|0,0:0|0:0,0:0:0:0:
187,318,13501,1,8,0:0:0:0:
145,164,15137,6,0,P|182:189|223:197,1,78.7500030040742,0|0,0:0|0:0,0:0:0:0:
259,204,15410,2,0,P|218:223|190:255,1,78.7500030040742,0|0,0:0|0:0,0:0:0:0:
167,282,15683,2,0,P|169:237|156:197,1,78.7500030040742,0|0,0:0|0:0,0:0:0:0:
145,164,15955,6,0,P|142:119|155:79,1,78.7500030040742,2|0,0:0|0:0,0:0:0:0:
165,56,16228,1,0,0:0:0:0:
270,245,16364,2,0,P|232:270|191:278,1,78.7500030040742,12|0,0:0|0:0,0:0:0:0:
167,282,16637,1,0,0:0:0:0:
277,96,16773,2,0,P|317:115|345:147,1,78.7500030040742,4|0,0:0|0:0,0:0:0:0:
361,166,17046,1,0,0:0:0:0:
145,164,17183,2,0,P|142:119|155:79,1,78.7500030040742,0|0,0:0|0:0,0:0:0:0:
165,56,17456,1,0,0:0:0:0:
202,233,17592,6,0,P|150:255|134:255,1,52.5000020027161,4|0,0:0|0:0,0:0:0:0:
97,142,17864,2,0,P|122:149|144:163,1,52.5000020027161,0|0,0:0|0:0,0:0:0:0:
82,339,18137,2,0,L|75:217,1,105.000004005432,2|0,0:0|0:0,0:0:0:0:
146,110,18546,2,0,L|143:179,1,52.5000020027161,12|0,0:0|0:0,0:0:0:0:
34,109,18819,1,0,0:0:0:0:
34,109,18955,2,0,L|31:56,1,52.5000020027161,12|0,0:0|0:0,0:0:0:0:
214,78,19228,6,0,P|265:95|291:91,1,78.7500030040742,0|0,0:0|0:0,0:0:0:0:
321,79,19501,1,4,0:0:0:0:
220,235,19773,2,0,P|209:182|192:161,1,78.7500030040742,4|0,0:0|0:0,0:0:0:0:
167,141,20046,1,0,0:0:0:0:
346,166,20319,5,2,0:0:0:0:
343,279,20455,2,0,P|361:322|361:348,1,52.5000020027161,0|0,0:0|0:0,0:0:0:0:
429,210,20728,2,0,P|434:184|447:161,1,52.5000020027161,12|0,0:0|0:0,0:0:0:0:
474,330,21001,1,0,0:0:0:0:
361,327,21137,1,4,0:0:0:0:
349,309,21410,5,0,0:0:0:0:
491,255,21546,1,0,0:0:0:0:
354,209,21683,1,4,0:0:0:0:
458,173,21819,1,0,0:0:0:0:
376,124,21955,2,0,L|289:129,1,78.7500030040742,4|0,0:0|0:0,0:0:0:0:
254,133,22228,2,0,P|246:185|255:222,1,78.7500030040742,0|0,0:0|0:0,0:0:0:0:
261,237,22501,1,2,0:0:0:0:
278,39,22637,6,0,P|224:41|190:64,1,78.7500030040742,0|0,0:0|0:0,0:0:0:0:
179,76,22910,2,0,P|207:121|244:139,1,78.7500030040742,12|0,0:0|0:0,0:0:0:0:
263,139,23183,1,0,0:0:0:0:
123,160,23319,2,0,P|108:215|116:271,1,105.000004005432,4|0,0:0|0:0,0:0:0:0:
116,273,23864,6,0,P|148:258|196:256,1,78.7500030040742,6|0,0:0|0:0,0:0:0:0:
215,178,24137,2,0,P|247:193|296:195,1,86.6250008261204,6|0,0:0|0:0,0:0:0:0:
378,279,24410,2,0,P|371:231|382:184,1,97.1249996294976,6|0,0:0|0:0,0:0:0:0:
405,167,24683,6,0,L|501:159,1,78.7500030040742,2|0,0:0|0:0,0:0:0:0:
512,135,24955,1,0,0:0:0:0:
357,73,25092,2,0,L|315:160,1,78.7500030040742,12|0,0:0|0:0,0:0:0:0:
331,181,25364,1,0,0:0:0:0:
462,78,25501,2,0,L|407:-1,1,78.7500030040742,4|0,0:0|0:0,0:0:0:0:
381,1,25773,1,0,0:0:0:0:
405,167,25910,2,0,L|501:159,1,78.7500030040742,0|0,0:0|0:0,0:0:0:0:
512,135,26182,1,0,0:0:0:0:
420,255,26319,6,0,P|412:290|419:344,1,78.7500030040742,4|0,0:0|0:0,0:0:0:0:
431,360,26592,2,0,L|358:357,1,52.5000020027161,0|0,0:0|0:0,0:0:0:0:
263,247,26864,1,2,0:0:0:0:
280,374,27001,2,0,P|301:339|305:304,1,52.5000020027161
212,321,27273,2,0,L|121:311,1,78.7500030040742,12|0,0:0|0:0,0:0:0:0:
99,307,27546,1,0,0:0:0:0:
263,247,27683,1,4,0:0:0:0:
189,182,27819,1,0,0:0:0:0:
189,182,27955,6,0,P|136:172|102:180,1,78.7500030040742,0|0,0:0|0:0,0:0:0:0:
74,189,28228,1,4,0:0:0:0:
58,23,28501,2,0,P|111:33|145:25,1,78.7500030040742,4|0,0:0|0:0,0:0:0:0:
173,16,28774,1,0,0:0:0:0:
194,0,29046,1,2,0:0:0:0:
280,102,29183,6,0,P|341:117|368:110,1,78.7500030040742,0|0,0:0|0:0,0:0:0:0:
386,103,29455,2,0,P|447:88|474:95,1,78.7500030040742,12|0,0:0|0:0,0:0:0:0:
491,111,29728,1,0,0:0:0:0:
352,205,29864,1,4,0:0:0:0:
360,213,30137,5,0,0:0:0:0:
490,124,30273,1,0,0:0:0:0:
454,246,30410,1,4,0:0:0:0:
388,90,30546,1,0,0:0:0:0:
262,175,30683,2,0,P|255:219|269:271,1,78.7500030040742,4|0,0:0|0:0,0:0:0:0:
291,280,30955,2,0,L|193:281,1,78.7500030040742,0|0,0:0|0:0,0:0:0:0:
166,282,31228,1,2,0:0:0:0:
197,101,31364,6,0,P|235:80|276:79,1,78.7500030040742,0|0,0:0|0:0,0:0:0:0:
310,86,31637,2,0,P|340:110|358:144,1,78.7500030040742,12|0,0:0|0:0,0:0:0:0:
350,175,31910,1,0,0:0:0:0:
383,0,32046,1,4,0:0:0:0:
369,189,32592,6,0,P|420:196|483:184,1,94.499997116089,6|0,0:0|0:0,0:0:0:0:
511,173,32864,2,0,P|478:213|457:274,1,94.499997116089,0|0,0:0|0:0,0:0:0:0:
454,304,33137,2,0,P|435:255|392:207,1,94.499997116089,6|0,0:0|0:0,0:0:0:0:
369,189,33410,6,0,L|293:184,1,59.5000011348725,10|0,0:0|0:0,0:0:0:0:
229,275,33683,1,0,0:0:0:0:
229,275,33819,2,0,L|305:270,1,59.5000011348725,4|8,0:0|0:0,0:0:0:0:
164,214,34092,1,0,0:0:0:0:
164,214,34228,2,0,P|144:252|143:281,1,59.5000011348725,4|0,0:0|0:0,0:0:0:0:
251,198,34501,2,0,P|240:159|218:127,1,59.5000011348725,8|0,0:0|0:0,0:0:0:0:
146,96,34773,2,0,L|242:94,1,89.2500017023087,4|0,0:0|0:0,0:0:0:0:
261,96,35046,1,12,0:0:0:0:
290,101,35319,5,0,0:0:0:0:
290,101,35455,2,0,P|300:133|300:170,1,59.5000011348725,0|10,0:0|0:0,0:0:0:0:
187,204,35728,2,0,P|188:174|198:146,1,59.5000011348725
261,288,36001,2,0,L|163:293,1,89.2500017023087,4|0,0:0|0:0,0:0:0:0:
146,295,36273,1,0,0:0:0:0:
172,147,36410,2,0,P|186:183|185:216,1,59.5000011348725,4|0,0:0|0:0,0:0:0:0:
101,93,36683,2,0,P|87:129|88:162,1,59.5000011348725,8|0,0:0|0:0,0:0:0:0:
235,9,36955,2,0,L|142:3,1,89.2500017023087,4|0,0:0|0:0,0:0:0:0:
115,1,37228,1,12,0:0:0:0:
323,128,37501,5,0,0:0:0:0:
323,128,37637,2,0,P|338:96|340:66,1,59.5000011348725,0|10,0:0|0:0,0:0:0:0:
225,210,37910,2,0,L|335:214,1,89.2500017023087,0|0,0:0|0:0,0:0:0:0:
349,217,38183,2,0,P|365:261|364:296,1,59.5000011348725,4|8,0:0|0:0,0:0:0:0:
256,320,38455,1,0,0:0:0:0:
225,210,38592,2,0,L|229:100,1,89.2500017023087,4|0,0:0|0:0,0:0:0:0:
232,90,38864,2,0,P|288:96|315:89,1,59.5000011348725,8|0,0:0|0:0,0:0:0:0:
352,32,39137,2,0,P|408:26|435:33,1,59.5000011348725,4|0,0:0|0:0,0:0:0:0:
481,78,39410,1,12,0:0:0:0:
125,45,39683,6,0,P|181:39|208:46,1,59.5000011348725,0|0,0:0|0:0,0:0:0:0:
245,103,39956,2,0,P|301:109|328:102,1,59.5000011348725,10|0,0:0|0:0,0:0:0:0:
365,45,40228,2,0,P|421:39|448:46,1,59.5000011348725,0|4,0:0|0:0,0:0:0:0:
494,91,40501,1,8,0:0:0:0:
389,161,40773,6,0,L|387:137,8,14.8750002837181,4|0|0|0|0|0|0|0|8,0:0|0:0|0:0|0:0|0:0|0:0|0:0|0:0|0:0,0:0:0:0:
312,202,41319,6,0,L|306:131,1,59.5000011348725,6|0,0:0|0:0,0:0:0:0:
235,70,41592,6,0,L|229:134,1,62.9999980773926,14|0,0:0|0:0,0:0:0:0:
158,203,41864,6,0,L|151:127,1,66.4999982242585,6|0,0:0|0:0,0:0:0:0:
62,46,42137,6,0,L|71:160,1,99.7499973363877,10|0,0:0|0:0,0:0:0:0:
74,168,42410,1,0,0:0:0:0:
224,256,42546,2,0,P|173:241|128:256,1,66.4999982242585,4|0,0:0|0:0,0:0:0:0:
56,305,42819,1,0,0:0:0:0:
255,337,42955,6,0,P|319:304|328:287,1,66.4999982242585,4|0,0:0|0:0,0:0:0:0:
309,157,43228,2,0,P|305:228|315:245,1,66.4999982242585,8|0,0:0|0:0,0:0:0:0:
438,294,43501,2,0,P|377:255|358:255,1,66.4999982242585,4|0,0:0|0:0,0:0:0:0:
385,374,43773,2,0,L|494:377,1,99.7499973363877,12|0,0:0|0:0,0:0:0:0:
508,375,44046,1,0,0:0:0:0:
354,142,44183,6,0,L|352:243,1,66.4999982242585,0|6,0:0|0:0,0:0:0:0:
507,259,44455,2,0,P|514:226|512:193,1,66.4999982242585
445,43,44728,2,0,L|341:37,1,66.4999982242585,4|0,0:0|0:0,0:0:0:0:
250,34,45001,1,0,0:0:0:0:
311,182,45137,2,0,L|290:105,1,66.4999982242585,4|0,0:0|0:0,0:0:0:0:
171,58,45410,2,0,L|150:135,1,66.4999982242585,8|0,0:0|0:0,0:0:0:0:
237,247,45683,2,0,L|216:170,1,66.4999982242585,4|0,0:0|0:0,0:0:0:0:
168,295,45955,2,0,P|211:323|288:320,1,99.7499973363877,12|0,0:0|0:0,0:0:0:0:
280,319,46228,1,0,0:0:0:0:
440,180,46364,6,0,L|433:274,1,66.4999982242585,0|6,0:0|0:0,0:0:0:0:
379,342,46637,2,0,P|339:345|307:337,1,66.4999982242585
237,113,46910,2,0,L|240:206,1,66.4999982242585,4|2,0:0|0:0,0:0:0:0:
248,285,47183,1,0,0:0:0:0:
323,97,47319,2,0,P|299:43|276:28,1,66.4999982242585,4|0,0:0|0:0,0:0:0:0:
167,53,47592,2,0,P|151:86|153:122,1,66.4999982242585,8|0,0:0|0:0,0:0:0:0:
242,236,47864,2,0,L|237:136,1,99.7499973363877,4|0,0:0|0:0,0:0:0:0:
237,113,48137,1,12,0:0:0:0:
394,206,48410,5,4,0:0:0:0:
385,213,48955,6,0,P|330:178|305:180,1,66.4999982242585,0|0,0:0|0:0,0:0:0:0:
300,315,49228,2,0,P|314:251|303:228,1,66.4999982242585,8|0,0:0|0:0,0:0:0:0:
209,69,49501,6,0,P|206:134|221:155,1,66.4999982242585,0|0,0:0|0:0,0:0:0:0:
340,92,49774,2,0,P|278:112|263:132,1,66.4999982242585,8|0,0:0|0:0,0:0:0:0:
173,293,50046,6,0,P|231:263|241:240,1,66.4999982242585,0|0,0:0|0:0,0:0:0:0:
127,168,50319,2,0,P|175:212|200:214,1,66.4999982242585,8|0,0:0|0:0,0:0:0:0:
397,195,50592,6,0,P|342:160|287:168,1,99.7499973363877,0|0,0:0|0:0,0:0:0:0:
277,171,50864,5,6,0:0:0:0:
409,292,51001,2,0,L|505:289,1,66.4999982242585,0|0,0:0|0:0,0:0:0:0:
320,255,51273,1,8,0:0:0:0:
446,367,51410,2,0,L|542:364,1,66.4999982242585,2|0,0:0|0:0,0:0:0:0:
309,265,51683,2,0,L|213:262,1,66.4999982242585,8|0,0:0|0:0,0:0:0:0:
422,118,51955,6,0,L|419:22,1,66.4999982242585,2|0,0:0|0:0,0:0:0:0:
238,189,52228,2,0,L|235:285,1,66.4999982242585,12|0,0:0|0:0,0:0:0:0:
301,111,52501,2,0,P|237:89|188:104,1,99.7499973363877,12|0,0:0|0:0,0:0:0:0:
167,113,52773,1,0,0:0:0:0:
151,123,53046,5,6,0:0:0:0:
63,294,53183,2,0,P|29:295|0:282,1,66.4999982242585,0|0,0:0|0:0,0:0:0:0:
156,220,53455,1,8,0:0:0:0:
143,378,53592,2,0,L|230:374,1,66.4999982242585,2|0,0:0|0:0,0:0:0:0:
356,235,53864,2,0,L|269:231,1,66.4999982242585,8|0,0:0|0:0,0:0:0:0:
82,283,54137,2,0,L|169:279,1,66.4999982242585,2|0,0:0|0:0,0:0:0:0:
295,140,54409,2,0,L|208:136,1,66.4999982242585,12|0,0:0|0:0,0:0:0:0:
373,209,54683,2,0,P|398:150|391:91,1,99.7499973363877,12|0,0:0|0:0,0:0:0:0:
388,71,54955,1,0,0:0:0:0:
374,62,55228,6,0,L|289:58,1,66.4999982242585,6|0,0:0|0:0,0:0:0:0:
129,143,55501,1,0,0:0:0:0:
343,213,55637,2,0,P|357:167|349:131,1,66.4999982242585,8|2,0:0|0:0,0:0:0:0:
178,225,55910,1,0,0:0:0:0:
222,29,56046,2,0,L|130:32,1,66.4999982242585,8|0,0:0|0:0,0:0:0:0:
20,136,56319,6,0,L|112:139,1,66.4999982242585,2|0,0:0|0:0,0:0:0:0:
308,109,56592,2,0,L|216:112,1,66.4999982242585,12|0,0:0|0:0,0:0:0:0:
106,216,56865,2,0,L|218:219,1,99.7499973363877,12|0,0:0|0:0,0:0:0:0:
250,223,57137,1,0,0:0:0:0:
281,224,57410,5,6,0:0:0:0:
382,102,57546,2,0,P|417:78|462:78,1,66.4999982242585,0|0,0:0|0:0,0:0:0:0:
486,234,57819,1,8,0:0:0:0:
336,276,57955,2,0,P|303:269|277:249,1,66.4999982242585,2|0,0:0|0:0,0:0:0:0:
354,29,58228,2,0,P|369:101|355:148,1,99.7499973363877,8|0,0:0|0:0,0:0:0:0:
400,150,58501,2,0,P|385:222|399:269,1,99.7499973363877,2|0,0:0|0:0,0:0:0:0:
381,291,58773,1,12,0:0:0:0:
369,314,59046,6,0,P|327:334|299:330,1,44.3333321495057,12|0,0:0|0:0,0:0:0:0:
250,237,59228,6,0,P|271:244|288:257,1,44.3333321495057,0|0,0:0|0:0,0:0:0:0:
212,336,59410,5,0,0:0:0:0:
200,345,59592,6,0,L|128:344,1,66.4999982242585,6|0,0:0|0:0,0:0:0:0:
60,225,59864,1,0,0:0:0:0:
210,170,60001,2,0,P|221:235|201:271,1,66.4999982242585,8|2,0:0|0:0,0:0:0:0:
84,135,60273,1,0,0:0:0:0:
177,27,60410,2,0,L|304:35,1,99.7499973363877,8|0,0:0|0:0,0:0:0:0:
310,37,60683,2,0,P|340:81|343:115,1,66.4999982242585,2|0,0:0|0:0,0:0:0:0:
210,170,60955,2,0,P|220:139|242:114,1,66.4999982242585,12|0,0:0|0:0,0:0:0:0:
346,196,61228,6,0,L|263:198,1,44.3333321495057,12|0,0:0|0:0,0:0:0:0:
227,274,61410,6,0,L|310:276,1,44.3333321495057,0|0,0:0|0:0,0:0:0:0:
323,345,61592,5,0,0:0:0:0:
344,339,61773,6,0,P|370:285|364:256,1,66.4999982242585,6|0,0:0|0:0,0:0:0:0:
284,173,62046,1,0,0:0:0:0:
200,356,62183,2,0,L|188:252,1,66.4999982242585,8|2,0:0|0:0,0:0:0:0:
127,173,62455,1,0,0:0:0:0:
53,370,62592,2,0,L|65:266,1,66.4999982242585,8|0,0:0|0:0,0:0:0:0:
142,184,62864,2,0,P|69:206|27:195,1,99.7499973363877,2|0,0:0|0:0,0:0:0:0:
11,187,63137,2,0,P|9:134|24:102,1,66.4999982242585,12|0,0:0|0:0,0:0:0:0:
126,78,63410,6,0,L|194:74,1,44.3333321495057,12|0,0:0|0:0,0:0:0:0:
292,147,63592,6,0,L|248:144,1,44.3333321495057,0|0,0:0|0:0,0:0:0:0:
357,60,63773,5,0,0:0:0:0:
371,51,63955,6,0,L|366:148,1,66.4999982242585,6|0,0:0|0:0,0:0:0:0:
448,254,64228,1,0,0:0:0:0:
512,112,64364,2,0,P|473:98|435:105,1,66.4999982242585,8|2,0:0|0:0,0:0:0:0:
357,221,64637,1,0,0:0:0:0:
237,95,64773,2,0,L|232:-1,1,66.4999982242585,8|0,0:0|0:0,0:0:0:0:
204,301,65046,1,2,0:0:0:0:
322,368,65455,5,0,0:0:0:0:
440,313,65591,1,0,0:0:0:0:
204,301,65864,2,0,L|190:300,6,14.8750002837181,0|0|0|0|0|0|0,0:0|0:0|0:0|0:0|0:0|0:0|0:0,0:0:0:0:
322,246,66137,1,2,0:0:0:0:
40,186,68319,6,0,B|74:166|93:118|93:118|88:189|115:263,1,231.000007049561,6|8,0:0|0:0,0:0:0:0:
208,144,68864,2,0,B|255:115|282:159|273:203|210:221|210:221|257:217|281:233,1,231.000007049561,6|0,0:0|0:0,0:0:0:0:
391,159,69410,2,0,B|398:150|410:147|420:151|420:151|429:155|436:165|435:176|435:176|434:187|425:196|414:198|414:198|429:203|437:218|435:233|435:233|432:249|418:260|403:261|403:261|387:261|374:251|370:236,1,231.000007049561,6|8,0:0|0:0,0:0:0:0:
288,128,69955,1,2,0:0:0:0:
512,256,70228,1,8,0:0:0:0:
160,160,70501,6,0,B|250:87|250:87|340:160,1,231.000007049561,6|8,0:0|0:0,0:0:0:0:
176,256,71046,2,0,B|67:213|67:213|85:99,1,231.000007049561,6|0,0:0|0:0,0:0:0:0:
252,195,71592,2,0,B|269:310|269:310|161:351,1,231.000007049561,6|8,0:0|0:0,0:0:0:0:
160,160,72137,1,2,0:0:0:0:
384,224,72410,1,8,0:0:0:0:
199,247,72683,6,0,P|214:334|256:256,1,231.000007049561,6|8,0:0|0:0,0:0:0:0:
191,132,73228,2,0,P|141:59|225:86,1,231.000007049561,6|0,0:0|0:0,0:0:0:0:
352,192,73773,2,0,P|419:134|331:137,1,231.000007049561,6|8,0:0|0:0,0:0:0:0:
268,324,74319,1,2,0:0:0:0:
224,85,74592,1,8,0:0:0:0:
320,176,74864,6,0,B|373:168|414:229|414:229|353:270|306:243,1,231.000007049561,6|8,0:0|0:0,0:0:0:0:
202,130,75410,2,0,B|168:85|200:20|200:20|266:51|266:106,1,231.000007049561,6|0,0:0|0:0,0:0:0:0:
223,254,75955,6,0,B|202:303|128:309|128:309|123:235|170:208,1,230.299996485901,6|0,0:0|0:0,0:0:0:0:
112,112,77046,6,0,B|183:110|183:110|208:129|208:129|280:127,1,175,6|0,0:0|0:0,0:0:0:0:
240,224,77455,6,0,B|173:225|173:225|143:203,1,105.000004005432,8|2,0:0|0:0,0:0:0:0:
366,15,77728,1,0,0:0:0:0:
375,27,77864,6,0,L|369:162,1,105.000004005432,8|2,0:0|0:0,0:0:0:0:
493,326,78410,5,12,0:0:0:0:
444,212,78546,1,0,0:0:0:0:
394,363,78683,2,0,B|346:362|315:328|315:328|284:294|237:294,1,175,12|0,0:0|0:0,0:0:0:0:
0,208,79228,6,0,B|46:206|77:172|77:172|108:138|155:138,1,175,6|0,0:0|0:0,0:0:0:0:
165,335,79637,6,0,P|149:287|159:231,1,105.000004005432,8|2,0:0|0:0,0:0:0:0:
231,77,79910,1,0,0:0:0:0:
240,96,80046,6,0,B|256:144|256:144|256:144|246:200,1,105.000004005432,8|2,0:0|0:0,0:0:0:0:
82,261,80592,5,12,0:0:0:0:
39,154,80728,1,0,0:0:0:0:
7,345,80864,2,0,L|181:351,1,175,12|0,0:0|0:0,0:0:0:0:
400,242,81410,6,0,B|363:234|344:198|344:198|361:267|352:331,1,175,6|0,0:0|0:0,0:0:0:0:
512,114,81819,6,0,P|480:146|407:156,1,105.000004005432,8|2,0:0|0:0,0:0:0:0:
368,2,82092,1,0,0:0:0:0:
400,34,82228,6,0,L|407:177,1,105.000004005432,8|2,0:0|0:0,0:0:0:0:
412,354,82773,5,12,0:0:0:0:
372,234,82910,1,0,0:0:0:0:
270,333,83046,2,0,B|220:365|220:365|91:358,1,175,12|0,0:0|0:0,0:0:0:0:
192,144,83592,6,0,P|188:219|164:177,1,175,6|0,0:0|0:0,0:0:0:0:
299,91,84001,2,0,P|331:171|315:251,1,105.000004005432,8|2,0:0|0:0,0:0:0:0:
188,45,84273,1,0,0:0:0:0:
204,13,84410,6,0,L|300:8,1,78.7500030040742,8|0,0:0|0:0,0:0:0:0:
327,6,84683,2,0,P|367:37|376:61,1,52.5000020027161,6|0,0:0|0:0,0:0:0:0:
368,144,84955,2,0,P|326:178|290:180,1,52.5000020027161,0|0,0:0|0:0,0:0:0:0:
305,301,85228,2,0,P|296:248|312:216,1,52.5000020027161,0|0,0:0|0:0,0:0:0:0:
200,167,85501,2,0,P|250:185|270:215,1,52.5000020027161,0|0,0:0|0:0,0:0:0:0:
122,253,85773,5,6,0:0:0:0:
85,126,85910,1,0,0:0:0:0:
195,326,86046,1,0,0:0:0:0:
231,199,86183,1,8,0:0:0:0:
103,343,86319,5,2,0:0:0:0:
267,380,86455,1,0,0:0:0:0:
126,234,86592,2,0,L|48:243,1,78.7500030040742,8|0,0:0|0:0,0:0:0:0:
10,248,86864,1,2,0:0:0:0:
301,236,87137,5,12,0:0:0:0:
237,108,87273,1,0,0:0:0:0:
220,312,87409,1,12,0:0:0:0:
128,32,87683,6,0,L|227:28,1,78.7500030040742
243,31,87955,5,6,0:0:0:0:
212,206,88092,1,0,0:0:0:0:
334,3,88228,1,0,0:0:0:0:
390,180,88365,1,8,0:0:0:0:
256,19,88501,5,2,0:0:0:0:
412,3,88637,1,0,0:0:0:0:
173,108,88773,1,8,0:0:0:0:
364,146,88910,1,0,0:0:0:0:
268,32,89046,5,2,0:0:0:0:
325,242,89183,1,0,0:0:0:0:
448,96,89319,2,0,L|517:94,1,52.5000020027161,12|0,0:0|0:0,0:0:0:0:
256,160,89592,2,0,L|147:156,1,105.000004005432,12|0,0:0|0:0,0:0:0:0:
128,176,90137,5,6,0:0:0:0:
160,320,90273,1,0,0:0:0:0:
32,192,90410,1,0,0:0:0:0:
192,112,90546,2,0,L|244:113,1,52.5000020027161,8|2,0:0|0:0,0:0:0:0:
128,320,90819,2,0,L|75:318,1,52.5000020027161,0|8,0:0|0:0,0:0:0:0:
112,160,91092,5,0,0:0:0:0:
208,288,91228,2,0,L|201:352,1,52.5000020027161,2|0,0:0|0:0,0:0:0:0:
96,144,91501,2,0,L|90:91,1,52.5000020027161,12|0,0:0|0:0,0:0:0:0:
256,224,91773,2,0,L|244:329,1,105.000004005432,12|0,0:0|0:0,0:0:0:0:
178,152,92319,6,0,P|263:120|329:147,1,157.500006008148,6|0,0:0|0:0,0:0:0:0:
416,224,92864,2,0,L|408:79,1,136.499993751526,6|2,0:0|0:0,0:0:0:0:
334,241,93410,2,0,P|382:305|437:308,1,136.499993751526,4|0,0:0|0:0,0:0:0:0:
475,295,93955,1,0,0:0:0:0:
416,224,94228,1,0,0:0:0:0:
