osu file format v14

[General]
AudioFilename: audio.mp3
AudioLeadIn: 0
PreviewTime: 61537
Countdown: 0
SampleSet: Soft
StackLeniency: 0.7
Mode: 0
LetterboxInBreaks: 0
WidescreenStoryboard: 0

[Editor]
DistanceSpacing: 2.8
BeatDivisor: 4
GridSize: 4
TimelineZoom: 1

[Metadata]
Title:Despacito
TitleUnicode:Despacito
Artist:Luis Fonsi Ft. Daddy Yankee
ArtistUnicode:Luis Fonsi Ft. Daddy Yankee
Creator:samplefish
Version:Slowly
Source:
Tags:
BeatmapID:1183291
BeatmapSetID:559503

[Difficulty]
HPDrainRate:7
CircleSize:4
OverallDifficulty:6
ApproachRate:9
SliderMultiplier:1.6
SliderTickRate:1

[Events]
//Background and Video events
0,0,"Konachan.com - 222608 clouds dress flowers grass haraguroi_you ibara_kasen orange_hair red_eyes scenic sunset touhou.jpg",0,0
//Break Periods
2,105305,106023
2,138982,149169
2,222775,224671
//Storyboard Layer 0 (Background)
//Storyboard Layer 1 (Fail)
//Storyboard Layer 2 (Pass)
//Storyboard Layer 3 (Foreground)
//Storyboard Sound Samples

[TimingPoints]
7689,337.078651685393,4,2,1,40,1,0
7689,-133.333333333333,4,2,1,40,0,0
11733,-133.333333333333,4,2,1,45,0,0
14430,-133.333333333333,4,2,1,50,0,0
17127,-133.333333333333,4,2,1,55,0,0
19823,-133.333333333333,4,2,1,50,0,0
30610,-133.333333333333,4,2,1,60,0,0
41396,-200,4,2,1,50,0,0
51509,-166.666666666667,4,2,1,60,0,0
51846,-142.857142857143,4,2,1,80,0,0
52183,-125,4,2,1,80,0,0
61623,923.076923076923,4,2,1,30,1,0
63478,337.078651685393,4,2,1,70,1,0
63478,-100,4,2,1,70,0,0
72916,674.157303370787,4,2,1,40,1,0
74264,337.078651685393,4,2,1,70,1,0
74264,-200,4,2,1,70,0,0
74938,-100,4,2,1,70,0,0
83702,674.157303370787,4,2,1,50,1,0
85050,337.078651685393,4,2,1,80,1,1
85050,-83.3333333333333,4,2,1,80,0,1
105274,-100,4,2,1,60,0,0
149769,674.157303370787,4,2,1,60,1,0
151117,337.078651685393,4,2,1,60,1,0
160555,674.157303370787,4,2,1,60,1,0
161903,337.078651685393,4,2,1,60,1,0
161903,-200,4,2,1,60,0,0
162577,-100,4,2,1,60,0,0
171341,674.157303370787,4,2,1,60,1,0
172689,337.078651685393,4,2,1,80,1,1
172689,-83.3333333333333,4,2,1,80,0,1
192913,674.157303370787,4,2,1,60,1,0
192913,-100,4,2,1,60,0,0
194261,674.157303370787,4,2,1,30,1,0
194261,-200,4,2,1,30,0,0
205047,337.078651685393,4,2,1,80,1,1
205047,-83.3333333333333,4,2,1,80,0,1
215833,-100,4,2,1,60,0,0
225271,-200,4,2,1,60,0,0

[Colours]
Combo1 : 255,166,188
Combo2 : 255,182,108
Combo3 : 255,228,136
Combo4 : 198,255,170

[HitObjects]
112,204,9037,6,0,P|124:272|140:324,1,120.000004577637,2|0,0:0|0:0,0:0:0:0:
224,300,9542,1,2,0:0:0:0:
300,136,9881,1,0,0:0:0:0:
348,60,10048,2,0,P|392:112|384:164,1,120.000004577637,2|0,0:0|0:0,0:0:0:0:
386,159,10892,5,0,0:0:0:0:
380,248,11061,2,0,L|456:240,1,60.0000022888184,2|2,0:0|0:0,0:0:0:0:
288,248,11398,2,0,L|212:240,1,60.0000022888184,2|2,0:0|0:0,0:0:0:0:
336,320,11735,6,0,L|344:188,1,120.000004577637,2|0,0:0|0:0,0:0:0:0:
348,112,12239,1,0,0:0:0:0:
204,220,12576,2,0,P|176:184|88:192,2,120.000004577637
204,220,13587,5,0,0:0:0:0:
284,180,13756,2,0,L|296:112,1,60.0000022888184,2|0,0:0|0:0,0:0:0:0:
204,220,14093,2,0,L|216:288,1,60.0000022888184,2|0,0:0|0:0,0:0:0:0:
200,136,14430,2,0,P|172:100|84:108,1,120.000004577637,2|0,0:0|0:0,0:0:0:0:
144,224,14936,2,0,P|204:220|264:216,1,120.000004577637
332,156,15441,2,0,P|355:136|392:116,2,60.0000022888184
488,248,16115,6,0,P|496:196|504:124,1,120.000004577637,0|2,0:0|0:0,0:0:0:0:
456,52,16621,1,0,0:0:0:0:
372,88,16790,2,0,P|348:92|288:96,1,60.0000022888184,2|0,0:0|0:0,0:0:0:0:
212,56,17127,6,0,B|204:108|224:148|224:148|136:172|152:260|152:260|192:312|256:328|256:328|272:280|224:224,1,480.000018310548,0|2,0:0|0:0,0:0:0:0:
227,227,18981,2,0,P|220:260|216:304,1,60.0000022888184,2|2,0:0|0:0,0:0:0:0:
216,286,19655,1,2,0:0:0:0:
284,344,19823,6,0,P|326:337|432:328,1,120.000004577637,2|0,0:0|0:0,0:0:0:0:
340,148,20835,1,2,0:0:0:0:
432,264,21509,1,2,0:0:0:0:
244,168,22183,1,2,0:0:0:0:
160,328,22520,6,0,P|112:322|40:316,1,120.000004577637,0|2,0:0|0:0,0:0:0:0:
264,284,23531,1,2,0:0:0:0:
160,132,24205,1,2,0:0:0:0:
184,244,24880,1,2,0:0:0:0:
244,112,25217,6,0,P|216:64|136:52,1,120.000004577637,2|0,0:0|0:0,0:0:0:0:
272,200,25891,2,0,P|320:172|332:92,1,120.000004577637,2|0,0:0|0:0,0:0:0:0:
176,188,26565,2,0,P|178:242|184:308,1,120.000004577637,2|2,0:0|0:0,0:0:0:0:
332,208,27239,2,0,P|336:148|339:88,1,120.000004577637,2|2,0:0|0:0,0:0:0:0:
269,94,27745,6,0,P|297:30|397:46,1,180.000006866455,2|2,0:0|0:0,0:0:0:0:
381,236,28924,1,2,0:0:0:0:
228,192,29430,1,0,0:0:0:0:
228,192,29599,2,0,B|187:188|150:210|150:210|117:113|150:62|150:62|172:109|163:146,1,300.000011444092,2|0,0:0|0:0,0:0:0:0:
208,282,30610,6,0,P|268:278|351:275,1,120.000004577637,4|0,0:0|0:0,0:0:0:0:
410,309,31115,1,0,0:0:0:0:
429,129,31453,2,0,P|437:95|449:59,2,60.0000022888184,0|2|0,0:0|0:0|0:0,0:0:0:0:
334,164,31958,6,0,P|335:125|342:85,2,80.0000030517579,2|0|0,0:0|0:0|0:0,0:0:0:0:
406,246,32632,2,0,P|446:255|506:275,2,80.0000030517579,2|0|0,0:0|0:0|0:0,0:0:0:0:
291,276,33306,6,0,P|252:259|182:308,1,120.000004577637,2|0,0:0|0:0,0:0:0:0:
115,346,33812,2,0,P|102:273|86:203,1,120.000004577637,2|0,0:0|0:0,0:0:0:0:
7,198,34318,2,0,B|44:146|44:146|119:134,1,120.000004577637,2|0,0:0|0:0,0:0:0:0:
229,296,34992,5,2,0:0:0:0:
395,225,35666,1,2,0:0:0:0:
288,170,36003,6,0,P|290:123|304:36,1,120.000004577637,2|0,0:0|0:0,0:0:0:0:
408,172,36677,2,0,P|417:232|422:292,1,120.000004577637,2|0,0:0|0:0,0:0:0:0:
279,297,37351,2,0,P|226:313|161:279,1,120.000004577637,2|0,0:0|0:0,0:0:0:0:
228,105,38026,2,0,P|229:171|230:229,1,120.000004577637,2|0,0:0|0:0,0:0:0:0:
123,150,38531,6,0,B|78:162|43:187|43:187|31:248|43:285,1,180.000006866455,2|0,0:0|0:0,0:0:0:0:
265,197,39711,2,0,P|296:201|348:198,1,60.0000022888184
387,134,40048,6,0,P|377:82|351:6,1,120.000004577637,2|0,0:0|0:0,0:0:0:0:
279,70,40554,1,2,0:0:0:0:
325,202,40722,2,0,P|385:223|453:193,1,120.000004577637,2|0,0:0|0:0,0:0:0:0:
387,134,41228,1,2,0:0:0:0:
371,253,41396,6,0,P|366:298|363:338,1,80,2|2,0:0|0:0,0:0:0:0:
363,332,41902,1,0,0:0:0:0:
264,280,42071,2,0,P|220:271|179:270,1,80,0|2,0:0|0:0,0:0:0:0:
185,269,42576,1,0,0:0:0:0:
52,184,42745,6,0,P|96:175|137:174,1,80,0|2,0:0|0:0,0:0:0:0:
130,173,43250,1,0,0:0:0:0:
244,172,43419,2,0,L|258:107,2,53.3333333333333,0|0|2,0:0|0:0|0:0,0:0:0:0:
192,60,44093,6,0,P|220:38|273:34,1,80,0|2,0:0|0:0,0:0:0:0:
263,31,44599,1,0,0:0:0:0:
352,100,44767,2,0,L|443:93,1,80,0|2,0:0|0:0,0:0:0:0:
431,93,45273,1,0,0:0:0:0:
380,192,45441,6,0,L|297:183,1,80,0|2,0:0|0:0,0:0:0:0:
300,183,45947,1,0,0:0:0:0:
188,176,46115,2,0,P|191:223|202:258,1,80,0|2,0:0|0:0,0:0:0:0:
200,254,46621,1,0,0:0:0:0:
280,332,46790,6,0,L|372:323,1,80,0|2,0:0|0:0,0:0:0:0:
359,324,47295,1,0,0:0:0:0:
464,288,47464,2,0,P|462:322|457:372,1,80,0|2,0:0|0:0,0:0:0:0:
457,367,47969,1,0,0:0:0:0:
372,236,48138,2,0,P|374:202|379:152,1,80,0|2,0:0|0:0,0:0:0:0:
378,156,48643,1,0,0:0:0:0:
240,92,48812,2,0,P|243:125|252:179,1,80,0|2,0:0|0:0,0:0:0:0:
160,88,49318,6,0,P|165:156|177:217,1,120,0|2,0:0|0:0,0:0:0:0:
225,348,50160,2,0,L|311:336,1,80,0|2,0:0|0:0,0:0:0:0:
374,195,50835,6,0,P|391:235|399:275,1,80,0|2,0:0|0:0,0:0:0:0:
287,139,51509,2,0,P|310:127|350:114,1,47.9999985351563
172,145,51846,2,0,P|177:121|204:80,1,55.9999982910157
149,248,52183,6,0,P|85:235|16:226,1,128,4|0,0:0|0:0,0:0:0:0:
269,342,52857,1,2,0:0:0:0:
318,267,53026,1,0,0:0:0:0:
397,314,53194,2,0,P|404:280|414:227,1,64
416,138,53531,5,2,0:0:0:0:
416,138,53700,1,0,0:0:0:0:
364,32,53868,1,0,0:0:0:0:
364,32,54037,2,0,P|335:3|239:17,1,128
312,132,54542,2,0,P|302:90|292:45,1,64
156,84,54880,6,0,P|151:135|154:229,1,128,2|0,0:0|0:0,0:0:0:0:
312,346,55554,1,2,0:0:0:0:
416,308,55722,1,0,0:0:0:0:
280,352,55891,1,0,0:0:0:0:
344,248,56059,1,0,0:0:0:0:
224,232,56228,6,0,L|136:240,1,64,2|0,0:0|0:0,0:0:0:0:
205,112,56565,2,0,L|210:20,1,64
164,216,56902,2,0,L|36:222,1,128,2|0,0:0|0:0,0:0:0:0:
108,128,57408,1,0,0:0:0:0:
200,232,57576,6,0,L|276:228,1,64,2|0,0:0|0:0,0:0:0:0:
236,132,57913,2,0,P|231:111|231:56,1,64
320,32,58250,2,0,P|325:53|325:108,1,64,2|0,0:0|0:0,0:0:0:0:
312,176,58587,1,0,0:0:0:0:
400,212,58756,1,0,0:0:0:0:
456,118,58924,5,2,0:0:0:0:
500,212,59093,1,0,0:0:0:0:
440,296,59262,1,2,0:0:0:0:
340,276,59430,1,0,0:0:0:0:
292,193,59599,2,0,P|298:254|301:343,1,128,2|0,0:0|0:0,0:0:0:0:
216,268,60104,2,0,P|172:252|124:324,1,128
196,352,60610,1,0,0:0:0:0:
96,376,60778,1,0,0:0:0:0:
28,296,60947,2,0,P|20:236|15:151,1,128,2|0,0:0|0:0,0:0:0:0:
259,96,61623,6,0,B|267:120|265:139|265:139|203:192|263:266,1,160,2|2,0:0|0:0,0:0:0:0:
246,242,63478,6,0,B|324:228|324:228|278:307,1,160,4|0,0:3|0:0,0:0:0:0:
151,174,63983,1,0,0:0:0:0:
255,82,64152,2,0,L|245:255,1,160,8|0,0:0|0:0,0:0:0:0:
336,159,64657,1,0,0:0:0:0:
230,340,64826,6,0,P|147:337|119:264,1,160,8|0,0:0|0:0,0:0:0:0:
192,171,65331,1,0,0:0:0:0:
42,89,65500,2,0,L|58:190,1,80,8|0,0:0|0:0,0:0:0:0:
185,9,65837,2,0,L|169:110,1,80,8|0,0:0|0:0,0:0:0:0:
157,227,66174,6,0,P|222:220|332:212,1,160,4|0,0:3|0:0,0:0:0:0:
461,230,66680,1,0,0:0:0:0:
396,66,66848,2,0,L|400:163,1,80,8|0,0:0|0:0,0:0:0:0:
422,310,67185,1,0,0:0:0:0:
422,310,67354,1,0,0:0:0:0:
278,240,67522,6,0,P|253:234|198:226,1,80,8|0,0:0|0:0,0:0:0:0:
56,334,67860,2,0,P|77:320|122:287,1,80
43,84,68197,2,0,P|65:183|120:188,1,160,8|0,0:0|0:0,0:0:0:0:
224,68,68702,1,0,0:0:0:0:
291,210,68871,6,0,B|368:232|368:232|461:193,1,160,4|0,0:3|0:0,0:0:0:0:
291,116,69376,1,0,0:0:0:0:
254,290,69545,2,0,L|340:314,1,80,8|0,0:0|0:0,0:0:0:0:
456,221,69882,2,0,L|432:317,1,80
383,148,70219,1,8,0:0:0:0:
488,102,70388,1,0,0:0:0:0:
465,200,70556,1,0,0:0:0:0:
385,132,70725,1,0,0:0:0:0:
505,92,70893,2,0,P|500:137|491:191,1,80,8|0,0:0|0:0,0:0:0:0:
417,309,71230,2,0,P|379:334|332:361,1,80,8|0,0:0|0:0,0:0:0:0:
156,363,71567,6,0,L|129:187,1,160,4|0,0:3|0:0,0:0:0:0:
49,287,72073,1,0,0:0:0:0:
43,125,72242,2,0,B|56:107|91:92|91:92|147:108|211:65,1,160,8|0,0:0|0:0,0:0:0:0:
422,65,72916,6,0,P|352:109|365:116,1,160,8|0,0:0|0:0,0:0:0:0:
348,105,74264,2,0,P|358:147|364:189,1,80
308,256,74769,1,0,0:0:0:0:
176,144,74938,6,0,L|184:60,1,80,4|0,0:3|0:0,0:0:0:0:
192,168,75275,1,0,0:0:0:0:
80,96,75443,1,0,0:0:0:0:
64,236,75612,2,0,P|66:270|76:332,1,80,8|0,0:0|0:0,0:0:0:0:
200,312,75949,2,0,P|228:331|283:360,1,80
424,284,76286,2,0,P|421:321|412:380,1,80,8|0,0:0|0:0,0:0:0:0:
284,239,76623,2,0,P|278:199|275:159,1,80,8|0,0:0|0:0,0:0:0:0:
427,50,76960,6,0,B|440:130|440:130|410:225,1,160,4|0,0:3|0:0,0:0:0:0:
325,113,77466,1,0,0:0:0:0:
239,229,77634,2,0,L|156:220,1,80,8|0,0:0|0:0,0:0:0:0:
51,154,77971,1,0,0:0:0:0:
121,242,78140,1,0,0:0:0:0:
246,150,78308,6,0,L|163:141,1,80,8|0,0:0|0:0,0:0:0:0:
58,75,78645,1,0,0:0:0:0:
128,163,78814,1,0,0:0:0:0:
294,50,78983,2,0,P|257:51|185:66,1,80,8|0,0:0|0:0,0:0:0:0:
420,115,79320,2,0,L|435:26,1,80
307,172,79657,6,0,L|326:337,1,160,4|0,0:3|0:0,0:0:0:0:
401,228,80162,1,0,0:0:0:0:
236,270,80331,2,0,L|246:356,1,80,8|0,0:0|0:0,0:0:0:0:
86,270,80668,2,0,P|113:290|161:328,1,80
19,202,81005,5,8,0:0:0:0:
94,127,81174,1,0,0:0:0:0:
106,277,81342,1,0,0:0:0:0:
13,97,81511,1,0,0:0:0:0:
146,30,81679,2,0,L|135:123,1,80,8|0,0:0|0:0,0:0:0:0:
28,294,82016,2,0,P|60:289|116:272,1,80,8|0,0:0|0:0,0:0:0:0:
263,260,82353,6,0,P|338:283|328:355,1,160,4|0,0:3|0:0,0:0:0:0:
196,336,82859,1,0,0:0:0:0:
100,233,83028,1,8,0:0:0:0:
113,326,83196,1,0,0:0:0:0:
230,220,83365,1,0,0:0:0:0:
114,139,83533,1,0,0:0:0:0:
278,101,83702,6,0,B|281:126|270:157|270:157|322:188|296:268,1,160,2|2,0:0|0:0,0:0:0:0:
301,247,85050,6,0,P|357:239|409:233,1,95.9999970703126,4|0,0:0|0:0,0:0:0:0:
230,335,85387,2,0,P|191:319|149:244,1,95.9999970703126
223,65,85724,2,0,B|250:120|260:182|260:182|231:267,1,191.999994140625,8|0,0:0|0:0,0:0:0:0:
114,124,86229,1,0,0:0:0:0:
114,124,86398,6,0,P|119:179|129:245,1,95.9999970703126,8|0,0:0|0:0,0:0:0:0:
356,168,86735,2,0,P|362:120|366:72,1,95.9999970703126
216,56,87072,1,8,0:0:0:0:
333,188,87241,1,0,0:0:0:0:
216,208,87409,1,8,0:0:0:0:
316,44,87578,1,0,0:0:0:0:
440,224,87746,6,0,B|448:156|431:91|431:91|464:108|515:123,1,191.999994140625,4|0,0:3|0:0,0:0:0:0:
352,172,88252,1,0,0:0:0:0:
403,322,88420,2,0,P|468:326|528:320,1,95.9999970703126,8|0,0:0|0:0,0:0:0:0:
248,188,88757,2,0,P|283:242|324:286,1,95.9999970703126
321,72,89094,5,8,0:0:0:0:
374,190,89263,1,0,0:0:0:0:
253,248,89432,1,0,0:0:0:0:
393,178,89600,1,0,0:0:0:0:
212,125,89769,2,0,P|172:134|111:152,1,95.9999970703126,8|0,0:0|0:0,0:0:0:0:
373,271,90106,2,0,P|384:224|393:177,1,95.9999970703126
234,295,90443,6,0,P|166:343|56:291,1,191.999994140625,4|0,0:3|0:0,0:0:0:0:
24,186,90948,1,0,0:0:0:0:
159,173,91117,2,0,P|209:176|265:191,1,95.9999970703126,8|0,0:0|0:0,0:0:0:0:
74,101,91454,2,0,P|64:55|54:-2,1,95.9999970703126
189,84,91791,5,8,0:0:0:0:
184,205,91960,1,0,0:0:0:0:
350,119,92128,1,0,0:0:0:0:
288,250,92297,1,0,0:0:0:0:
161,199,92465,2,0,P|155:151|152:103,1,95.9999970703126,8|0,0:0|0:0,0:0:0:0:
288,250,92802,2,0,P|315:244|381:216,1,95.9999970703126,8|0,0:0|0:0,0:0:0:0:
405,27,93139,6,0,L|376:228,1,191.999994140625,4|0,0:3|0:0,0:0:0:0:
472,146,93645,1,0,0:0:0:0:
275,83,93814,1,8,0:0:0:0:
324,220,93982,1,0,0:0:0:0:
215,237,94151,1,0,0:0:0:0:
254,325,94319,1,0,0:0:0:0:
251,97,94488,5,8,0:0:0:0:
305,220,94656,1,0,0:0:0:0:
192,244,94825,1,0,0:0:0:0:
240,342,94993,1,0,0:0:0:0:
386,293,95162,2,0,P|431:295|502:308,1,95.9999970703126,8|0,0:0|0:0,0:0:0:0:
292,211,95499,2,0,P|281:166|274:100,1,95.9999970703126,8|0,0:0|0:0,0:0:0:0:
445,28,95836,6,0,L|436:145,1,95.9999970703126,4|0,0:0|0:0,0:0:0:0:
319,80,96173,1,0,0:0:0:0:
355,205,96342,1,0,0:0:0:0:
217,172,96510,2,0,P|222:213|233:302,1,95.9999970703126,8|0,0:0|0:0,0:0:0:0:
71,185,96847,2,0,P|76:135|115:81,1,95.9999970703126
349,148,97184,6,0,L|142:168,1,191.999994140625,4|0,0:3|0:0,0:0:0:0:
266,53,97690,1,0,0:0:0:0:
443,106,97858,2,0,P|441:155|429:223,1,95.9999970703126,8|0,0:0|0:0,0:0:0:0:
286,307,98196,2,0,P|278:259|277:211,1,95.9999970703126,8|0,0:0|0:0,0:0:0:0:
347,50,98533,6,0,P|321:-3|200:6,1,191.999994140625,4|0,0:3|0:0,0:0:0:0:
84,127,99038,1,0,0:0:0:0:
239,203,99207,2,0,P|284:197|374:170,1,95.9999970703126,8|0,0:0|0:0,0:0:0:0:
115,247,99544,2,0,P|123:286|143:366,1,95.9999970703126
389,340,99881,5,8,0:0:0:0:
250,295,100049,1,0,0:0:0:0:
340,177,100218,1,0,0:0:0:0:
308,365,100387,1,0,0:0:0:0:
424,211,100555,2,0,P|429:172|437:94,1,95.9999970703126,8|0,0:0|0:0,0:0:0:0:
214,68,100892,2,0,P|219:115|225:163,1,95.9999970703126
317,278,101229,6,0,P|330:193|343:86,1,191.999994140625,4|0,0:3|0:0,0:0:0:0:
238,237,101735,1,0,0:0:0:0:
411,199,101903,2,0,P|421:148|424:90,1,95.9999970703126,8|0,0:0|0:0,0:0:0:0:
306,360,102241,2,0,P|258:364|210:363,1,95.9999970703126
78,167,102578,5,8,0:0:0:0:
42,288,102746,1,0,0:0:0:0:
181,116,102915,1,0,0:0:0:0:
249,252,103083,1,0,0:0:0:0:
55,165,103252,2,0,L|46:55,1,95.9999970703126,8|0,0:0|0:0,0:0:0:0:
178,229,103589,2,0,L|187:119,1,95.9999970703126,8|0,0:0|0:0,0:0:0:0:
264,336,103926,6,0,B|322:297|322:297|468:319,1,191.999994140625,4|0,0:3|0:0,0:0:0:0:
452,132,104432,1,0,0:0:0:0:
368,272,104600,1,8,0:0:0:0:
292,88,104769,1,0,0:0:0:0:
191,231,104937,2,0,P|155:229|72:225,1,95.9999970703126
244,232,106623,6,0,P|256:284|260:320,1,80,4|0,0:0|0:0,0:0:0:0:
252,352,106875,2,0,P|304:340|384:344,1,120
480,212,107297,2,0,L|468:124,1,80,8|0,0:0|0:0,0:0:0:0:
284,112,107634,2,0,L|376:96,1,80
176,76,107971,6,0,P|176:116|188:164,1,80,4|0,0:3|0:0,0:0:0:0:
192,216,108224,2,0,P|140:172|68:192,1,120
192,312,108645,2,0,P|234:308|288:296,1,80,8|0,0:0|0:0,0:0:0:0:
120,248,108982,2,0,P|80:252|24:264,1,80,8|0,0:0|0:0,0:0:0:0:
216,224,109319,6,0,L|228:136,1,80,4|0,0:3|0:0,0:0:0:0:
232,104,109572,2,0,B|268:92|268:92|328:108|328:108|368:96,1,120
464,40,109993,2,0,P|456:84|448:136,1,80,8|0,0:0|0:0,0:0:0:0:
488,224,110330,1,0,0:0:0:0:
488,224,110499,1,0,0:0:0:0:
340,208,110667,6,0,P|312:208|248:212,1,80,4|0,0:3|0:0,0:0:0:0:
216,224,110920,2,0,P|212:164|144:160,1,120
276,296,111342,1,8,0:0:0:0:
128,240,111510,1,0,0:0:0:0:
196,352,111679,1,8,0:0:0:0:
248,160,111847,1,0,0:0:0:0:
364,324,112016,6,0,L|452:312,1,80,4|0,0:3|0:0,0:0:0:0:
408,140,112353,2,0,P|392:176|388:224,1,80
360,40,112690,1,8,0:0:0:0:
428,140,112858,1,0,0:0:0:0:
252,172,113027,1,0,0:0:0:0:
368,232,113196,1,0,0:0:0:0:
240,68,113364,6,0,P|193:71|148:76,1,80,8|0,0:0|0:0,0:0:0:0:
348,133,113701,2,0,P|394:136|440:141,1,80,8|0,0:0|0:0,0:0:0:0:
427,139,114375,2,0,P|420:176|460:260,1,120
496,292,114712,6,0,P|464:288|408:292,1,80,4|0,0:3|0:0,0:0:0:0:
236,328,115049,2,0,L|336:344,1,80
280,180,115387,1,8,0:0:0:0:
332,276,115555,1,0,0:0:0:0:
384,160,115724,1,0,0:0:0:0:
332,64,115892,1,0,0:0:0:0:
264,188,116061,6,0,P|268:233|280:292,1,80,8|0,0:0|0:0,0:0:0:0:
400,156,116398,2,0,P|406:116|410:76,1,80,8|0,0:0|0:0,0:0:0:0:
328,24,116735,1,0,0:0:0:0:
232,16,116903,1,0,0:0:0:0:
172,88,117072,1,0,0:0:0:0:
200,180,117241,1,0,0:0:0:0:
300,184,117409,6,0,P|289:145|276:107,1,80,4|0,0:3|0:0,0:0:0:0:
120,176,117746,2,0,L|224:180,1,80
328,84,118083,1,8,0:0:0:0:
284,200,118252,1,0,0:0:0:0:
392,168,118420,1,0,0:0:0:0:
228,112,118589,1,0,0:0:0:0:
176,264,118757,6,0,P|254:250|348:240,1,160,4|0,0:3|0:0,0:0:0:0:
463,241,119263,1,0,0:0:0:0:
386,342,119432,2,0,L|319:344,1,40,8|0,0:0|0:0,0:0:0:0:
220,354,119684,2,0,L|241:302,1,40,0|8,0:0|0:0,0:0:0:0:
289,197,119937,2,0,L|309:258,1,40
323,263,120106,6,0,P|362:256|423:251,1,80,4|0,0:3|0:0,0:0:0:0:
486,178,120443,2,0,P|492:158|503:86,1,80
376,89,120780,1,8,0:0:0:0:
467,190,120948,1,0,0:0:0:0:
355,113,121117,1,0,0:0:0:0:
351,233,121285,1,0,0:0:0:0:
320,108,121454,6,0,P|285:103|211:94,1,80,4|0,0:3|0:0,0:0:0:0:
159,175,121791,2,0,P|119:169|79:164,1,80
16,103,122128,1,8,0:0:0:0:
47,223,122297,1,0,0:0:0:0:
173,62,122465,1,0,0:0:0:0:
152,214,122634,1,0,0:0:0:0:
291,131,122802,5,4,0:3:0:0:
344,276,122971,1,0,0:0:0:0:
385,151,123139,1,0,0:0:0:0:
253,309,123308,1,0,0:0:0:0:
408,356,123476,2,0,L|497:347,1,80,8|0,0:0|0:0,0:0:0:0:
344,276,123814,2,0,L|255:267,1,80
121,342,124151,6,0,B|135:289|135:289|87:168,1,160,4|0,0:3|0:0,0:0:0:0:
20,96,124656,1,0,0:0:0:0:
161,32,124825,2,0,L|148:136,1,80,8|0,0:0|0:0,0:0:0:0:
263,111,125162,2,0,L|250:215,1,80,8|0,0:0|0:0,0:0:0:0:
179,275,125499,6,0,B|256:315|256:315|343:273,1,160,4|0,0:3|0:0,0:0:0:0:
397,162,126005,1,0,0:0:0:0:
491,258,126173,2,0,P|505:218|519:172,1,80,8|0,0:0|0:0,0:0:0:0:
384,175,126510,2,0,P|348:170|284:159,1,80
396,56,126847,6,0,P|446:45|455:140,1,160,4|0,0:3|0:0,0:0:0:0:
294,23,127353,1,0,0:0:0:0:
229,111,127521,2,0,L|137:103,1,80,2|0,0:0|0:0,0:0:0:0:
274,15,127858,1,0,0:0:0:0:
332,140,128027,1,0,0:0:0:0:
205,205,128196,6,0,L|25:188,1,160,4|0,0:3|0:0,0:0:0:0:
127,158,128701,1,0,0:0:0:0:
194,291,128870,2,0,P|238:282|291:278,1,80,8|0,0:0|0:0,0:0:0:0:
91,342,129207,2,0,P|79:308|60:236,1,80
143,142,129544,6,0,P|140:92|43:76,1,160,4|0,0:3|0:0,0:0:0:0:
164,37,130049,1,0,0:0:0:0:
60,159,130218,2,0,P|68:198|78:239,1,80,8|0,0:0|0:0,0:0:0:0:
234,188,130555,2,0,P|243:149|251:109,1,80,8|0,0:0|0:0,0:0:0:0:
204,288,130892,6,0,B|245:294|276:281|276:281|315:292|367:286,1,160,4|0,0:3|0:0,0:0:0:0:
493,288,131398,1,0,0:0:0:0:
429,145,131566,2,0,P|401:156|370:218,1,80,8|0,0:0|0:0,0:0:0:0:
476,303,131903,1,0,0:0:0:0:
510,200,132072,1,0,0:0:0:0:
419,116,132241,6,0,P|363:108|234:95,1,160,4|0,0:3|0:0,0:0:0:0:
177,172,132746,1,0,0:0:0:0:
86,106,132915,2,0,P|87:73|98:5,1,80,8|0,0:0|0:0,0:0:0:0:
84,202,133252,2,0,P|51:200|-17:190,1,80
177,172,133589,6,0,P|219:237|154:306,1,160,4|0,0:3|0:0,0:0:0:0:
84,202,134094,1,0,0:0:0:0:
185,92,134263,2,0,P|180:142|171:197,1,80,8|0,0:0|0:0,0:0:0:0:
68,45,134600,1,0,0:0:0:0:
185,92,134769,1,0,0:0:0:0:
290,18,134937,6,0,P|337:52|315:146,1,160,4|0,0:3|0:0,0:0:0:0:
413,36,135443,1,0,0:0:0:0:
264,88,135611,2,0,P|230:89|158:93,1,80,8|0,0:0|0:0,0:0:0:0:
306,184,135948,2,0,P|340:183|412:179,1,80,8|0,0:0|0:0,0:0:0:0:
498,132,136285,6,0,L|490:243,1,80,4|0,0:3|0:0,0:0:0:0:
370,256,136623,2,0,L|392:358,1,80
261,339,136960,2,0,L|159:346,1,80,8|0,0:0|0:0,0:0:0:0:
83,244,137297,1,0,0:0:0:0:
153,364,137465,1,0,0:0:0:0:
208,136,137634,5,4,0:3:0:0:
224,168,138308,1,0,0:0:0:0:
163,218,149769,6,0,B|192:219|228:244|228:244|252:192|329:180,1,160,2|2,0:0|0:0,0:0:0:0:
295,188,151117,6,0,P|306:126|328:24,1,160,4|0,0:3|0:0,0:0:0:0:
398,146,151622,1,0,0:0:0:0:
230,45,151791,2,0,P|186:55|129:74,1,80,8|0,0:0|0:0,0:0:0:0:
180,174,152128,2,0,P|141:197|92:232,1,80
282,275,152465,5,4,0:3:0:0:
422,240,152633,1,0,0:0:0:0:
371,335,152802,1,0,0:0:0:0:
318,176,152970,1,0,0:0:0:0:
218,279,153139,2,0,P|225:338|234:380,1,80,8|0,0:0|0:0,0:0:0:0:
389,323,153476,2,0,P|395:295|405:222,1,80,8|0,0:0|0:0,0:0:0:0:
301,146,153813,6,0,P|350:95|439:135,1,160,4|0,0:3|0:0,0:0:0:0:
383,236,154319,1,0,0:0:0:0:
314,334,154487,2,0,P|283:333|220:331,1,80,8|0,0:0|0:0,0:0:0:0:
109,353,154824,1,0,0:0:0:0:
109,353,154993,1,0,0:0:0:0:
50,177,155161,6,0,L|54:283,1,80,4|0,0:3|0:0,0:0:0:0:
172,206,155499,2,0,P|208:190|238:159,1,80
87,20,155836,2,0,P|109:119|164:124,1,160,8|0,0:0|0:0,0:0:0:0:
225,55,156341,1,0,0:0:0:0:
237,216,156510,6,0,B|133:235|133:235|67:199,1,160,4|0,0:3|0:0,0:0:0:0:
166,323,157015,1,0,0:0:0:0:
306,306,157184,2,0,P|347:330|378:353,1,80,8|0,0:0|0:0,0:0:0:0:
470,210,157521,2,0,P|456:251|446:306,1,80
368,174,157858,5,4,0:3:0:0:
454,300,158027,1,0,0:0:0:0:
299,248,158195,1,0,0:0:0:0:
349,346,158364,1,0,0:0:0:0:
183,343,158532,2,0,P|176:303|172:263,1,80,8|0,0:0|0:0,0:0:0:0:
342,139,158869,2,0,P|337:189|323:246,1,80,8|0,0:0|0:0,0:0:0:0:
110,197,159206,6,0,P|184:170|253:218,1,160,4|0,0:3|0:0,0:0:0:0:
39,298,159712,1,0,0:0:0:0:
164,358,159881,2,0,B|177:340|212:325|212:325|268:341|332:298,1,160,8|0,0:0|0:0,0:0:0:0:
255,58,160555,6,0,B|254:90|274:127|274:127|262:156|262:156|276:186|270:224,1,160,2|2,0:0|0:0,0:0:0:0:
271,210,161903,2,0,P|316:201|363:214,1,80
402,278,162408,1,0,0:0:0:0:
163,250,162577,6,0,P|163:216|171:166,1,80,4|0,0:3|0:0,0:0:0:0:
277,100,162914,1,0,0:0:0:0:
331,209,163082,1,0,0:0:0:0:
194,92,163251,2,0,P|188:52|185:12,1,80,8|0,0:0|0:0,0:0:0:0:
314,27,163588,2,0,P|347:51|362:91,1,80
345,213,163925,2,0,P|381:218|441:221,1,80,8|0,0:0|0:0,0:0:0:0:
273,99,164262,2,0,P|233:93|193:91,1,80,8|0,0:0|0:0,0:0:0:0:
85,205,164599,6,0,P|76:286|68:380,1,160,4|0,0:3|0:0,0:0:0:0:
206,238,165105,1,0,0:0:0:0:
224,133,165273,2,0,P|216:101|196:56,1,80,8|0,0:0|0:0,0:0:0:0:
107,129,165610,1,0,0:0:0:0:
189,245,165779,1,0,0:0:0:0:
296,176,165947,6,0,P|312:142|336:75,1,80,4|0,0:3|0:0,0:0:0:0:
227,22,166284,1,0,0:0:0:0:
213,149,166453,1,0,0:0:0:0:
401,152,166622,2,0,P|426:149|502:147,1,80,8|0,0:0|0:0,0:0:0:0:
461,273,166959,2,0,P|435:275|360:278,1,80
237,242,167296,6,0,P|278:308|201:350,1,160,4|0,0:3|0:0,0:0:0:0:
134,223,167801,1,0,0:0:0:0:
217,113,167970,2,0,P|222:142|227:199,1,80,8|0,0:0|0:0,0:0:0:0:
284,323,168307,2,0,P|257:343|209:381,1,80
92,306,168644,5,4,0:3:0:0:
145,198,168813,1,0,0:0:0:0:
209,275,168981,1,0,0:0:0:0:
262,159,169150,1,0,0:0:0:0:
347,253,169318,2,0,L|323:361,1,80,8|0,0:0|0:0,0:0:0:0:
280,148,169655,2,0,P|309:132|368:126,1,80,8|0,0:0|0:0,0:0:0:0:
234,247,169992,6,0,P|159:224|139:144,1,160,4|0,0:3|0:0,0:0:0:0:
243,52,170498,1,0,0:0:0:0:
315,196,170667,1,8,0:0:0:0:
362,59,170835,1,0,0:0:0:0:
216,173,171004,1,0,0:0:0:0:
331,289,171172,1,0,0:0:0:0:
455,185,171341,6,0,B|456:145|478:93|478:93|456:101|456:101|477:72|481:34,1,160,2|2,0:0|0:0,0:0:0:0:
474,64,172689,6,0,P|444:67|372:79,1,95.9999970703126,4|0,2:0|0:0,0:0:0:0:
212,168,173026,2,0,P|203:139|184:52,1,95.9999970703126
388,224,173363,2,0,P|368:319|286:297,1,191.999994140625,8|0,0:0|0:0,0:0:0:0:
91,191,173868,1,0,0:0:0:0:
91,191,174037,6,0,P|96:246|106:312,1,95.9999970703126,4|0,0:3|0:0,0:0:0:0:
224,160,174374,2,0,P|272:150|347:163,1,95.9999970703126
443,308,174711,2,0,P|448:277|458:174,1,95.9999970703126,8|0,0:0|0:0,0:0:0:0:
492,48,175048,2,0,P|464:32|372:-15,1,95.9999970703126,8|0,0:0|0:0,0:0:0:0:
264,148,175385,6,0,P|355:138|470:131,1,191.999994140625,4|0,0:3|0:0,0:0:0:0:
264,20,175891,1,0,0:0:0:0:
152,128,176059,2,0,P|148:170|148:238,1,95.9999970703126,8|0,0:0|0:0,0:0:0:0:
335,322,176396,2,0,P|339:280|339:212,1,95.9999970703126
178,350,176733,5,4,0:3:0:0:
321,337,176902,1,0,0:0:0:0:
248,172,177071,1,0,0:0:0:0:
416,352,177239,1,0,0:0:0:0:
404,196,177408,2,0,P|392:149|383:102,1,95.9999970703126,8|0,0:0|0:0,0:0:0:0:
212,28,177745,2,0,P|226:72|240:130,1,95.9999970703126
280,276,178082,6,0,P|214:252|155:340,1,191.999994140625,4|0,0:3|0:0,0:0:0:0:
380,356,178587,1,0,0:0:0:0:
400,204,178756,2,0,P|409:166|415:63,1,95.9999970703126,8|0,0:0|0:0,0:0:0:0:
229,18,179093,2,0,P|234:65|244:112,1,95.9999970703126
367,221,179430,5,4,0:3:0:0:
263,120,179599,1,0,0:0:0:0:
291,305,179767,1,0,0:0:0:0:
396,200,179936,1,0,0:0:0:0:
177,216,180104,2,0,P|185:305|197:345,1,95.9999970703126,8|0,0:0|0:0,0:0:0:0:
360,384,180441,2,0,L|470:368,1,95.9999970703126,8|0,0:0|0:0,0:0:0:0:
396,200,180778,6,0,B|381:123|401:71|401:71|433:71|453:115,1,191.999994140625,4|0,0:3|0:0,0:0:0:0:
432,272,181284,1,0,0:0:0:0:
248,220,181453,1,8,0:0:0:0:
440,172,181621,1,0,0:0:0:0:
288,116,181790,1,0,0:0:0:0:
340,328,181958,1,0,0:0:0:0:
204,240,182127,5,4,0:3:0:0:
464,160,182295,1,0,0:0:0:0:
272,88,182464,1,0,0:0:0:0:
336,360,182632,1,0,0:0:0:0:
160,256,182801,2,0,L|44:284,1,95.9999970703126,8|0,0:0|0:0,0:0:0:0:
20,160,183138,2,0,P|9:115|2:49,1,95.9999970703126
183,12,183475,6,0,L|174:129,1,95.9999970703126,4|0,0:0|0:0,0:0:0:0:
249,213,183812,1,0,0:0:0:0:
90,145,183981,1,0,0:0:0:0:
261,98,184149,2,0,P|271:140|277:228,1,95.9999970703126,8|0,0:0|0:0,0:0:0:0:
76,328,184486,2,0,P|81:280|91:233,1,95.9999970703126,8|0,0:0|0:0,0:0:0:0:
276,192,184823,6,0,P|199:252|274:317,1,191.999994140625,4|0,0:3|0:0,0:0:0:0:
400,324,185329,1,0,0:0:0:0:
463,135,185497,2,0,P|470:87|471:39,1,95.9999970703126,8|0,0:0|0:0,0:0:0:0:
341,160,185835,2,0,P|342:207|350:255,1,95.9999970703126,8|0,0:0|0:0,0:0:0:0:
450,372,186172,6,0,P|424:319|303:328,1,191.999994140625,4|0,0:3|0:0,0:0:0:0:
158,367,186677,1,0,0:0:0:0:
171,213,186846,2,0,P|216:207|306:180,1,95.9999970703126,8|0,0:0|0:0,0:0:0:0:
383,96,187183,2,0,P|408:130|411:215,1,95.9999970703126
292,60,187520,5,4,0:3:0:0:
228,276,187688,1,0,0:0:0:0:
192,130,187857,1,0,0:0:0:0:
371,251,188026,1,0,0:0:0:0:
465,109,188194,2,0,P|470:70|478:-8,1,95.9999970703126,8|0,0:0|0:0,0:0:0:0:
277,114,188531,2,0,P|282:161|288:209,1,95.9999970703126
410,332,188868,6,0,P|327:323|181:317,1,191.999994140625,4|0,0:3|0:0,0:0:0:0:
102,350,189374,1,0,0:0:0:0:
13,225,189542,2,0,P|2:169|26:116,1,95.9999970703126,8|0,0:0|0:0,0:0:0:0:
168,124,189880,2,0,P|179:68|155:15,1,95.9999970703126
92,177,190217,5,4,0:3:0:0:
228,260,190385,1,0,0:0:0:0:
176,136,190554,1,0,0:0:0:0:
174,338,190722,1,0,0:0:0:0:
330,204,190891,2,0,L|321:94,1,95.9999970703126
504,24,191228,2,0,L|497:120,1,95.9999970703126,8|0,0:0|0:0,0:0:0:0:
354,29,191565,6,0,B|296:-10|296:-10|150:12,1,191.999994140625,4|0,0:3|0:0,0:0:0:0:
309,146,192071,1,0,0:0:0:0:
115,109,192239,1,8,0:0:0:0:
255,63,192408,1,0,0:0:0:0:
353,231,192576,2,0,P|352:270|346:362,1,95.9999970703126
153,238,192913,6,0,B|135:229|103:249|103:249|102:175|47:167,1,160,2|2,0:0|0:0,0:0:0:0:
50,167,194261,6,0,P|51:146|63:113,1,40,4|2,0:0|0:0,0:0:0:0:
177,58,194935,2,0,P|181:77|183:97,1,40,0|2,0:0|0:0,0:0:0:0:
137,217,195609,2,0,P|132:236|130:256,1,40,0|2,0:0|0:0,0:0:0:0:
229,348,196283,2,0,L|297:342,1,40,0|2,0:0|0:0,0:0:0:0:
335,226,196957,6,0,L|340:171,1,40,0|2,0:0|0:0,0:0:0:0:
226,108,197631,2,0,L|281:104,1,40,0|2,0:0|0:0,0:0:0:0:
362,9,198305,2,0,L|358:48,1,40,0|2,0:0|0:0,0:0:0:0:
470,126,198980,2,0,L|430:122,1,40,0|2,0:0|0:0,0:0:0:0:
260,78,199654,6,0,P|240:79|203:83,1,40,0|2,0:0|0:0,0:0:0:0:
112,163,200328,2,0,P|132:164|169:168,1,40,0|2,0:0|0:0,0:0:0:0:
258,250,201002,2,0,P|277:249|297:247,1,40,0|2,0:0|0:0,0:0:0:0:
141,251,201676,2,0,P|146:279|155:304,1,40,0|2,0:0|0:0,0:0:0:0:
256,192,202350,6,0,B|276:184|300:192|300:192|336:136|408:160,1,160,0|2,0:0|0:0,0:0:0:0:
436,176,204373,1,2,0:0:0:0:
464,204,205047,6,0,P|463:257|452:312,1,95.9999970703126,4|0,0:3|0:0,0:0:0:0:
324,356,205384,2,0,P|315:308|315:260,1,95.9999970703126
364,88,205721,1,8,0:0:0:0:
392,244,205889,1,0,0:0:0:0:
284,144,206058,1,8,0:0:0:0:
436,152,206226,1,0,0:0:0:0:
292,236,206395,6,0,B|224:216|224:216|160:232|160:232|88:200,1,191.999994140625,4|0,0:3|0:0,0:0:0:0:
152,104,206900,1,0,0:0:0:0:
220,312,207069,2,0,L|328:340,1,95.9999970703126,8|0,0:0|0:0,0:0:0:0:
448,240,207406,2,0,P|440:295|428:368,1,95.9999970703126,8|0,0:0|0:0,0:0:0:0:
316,200,207743,6,0,P|320:116|424:116,1,191.999994140625,4|0,0:3|0:0,0:0:0:0:
456,220,208249,1,0,0:0:0:0:
312,300,208417,2,0,B|264:304|264:304|212:272,1,95.9999970703126,8|0,0:0|0:0,0:0:0:0:
192,120,208754,1,0,0:0:0:0:
76,236,208923,1,0,0:0:0:0:
76,236,209091,6,0,P|64:160|32:36,1,191.999994140625,8|0,0:2|0:0,0:0:0:0:
24,176,209597,1,0,0:0:0:0:
188,156,209766,2,0,P|182:202|172:272,1,95.9999970703126,8|0,0:0|0:0,0:0:0:0:
286,77,210103,2,0,P|295:129|302:197,1,95.9999970703126,8|0,0:0|0:0,0:0:0:0:
167,44,210440,6,0,P|90:64|78:172,1,191.999994140625,4|0,0:3|0:0,0:0:0:0:
182,236,210945,1,0,0:0:0:0:
61,343,211114,2,0,P|101:340|175:338,1,95.9999970703126,8|0,0:0|0:0,0:0:0:0:
345,341,211451,2,0,P|304:338|231:336,1,95.9999970703126
169,187,211788,5,4,0:3:0:0:
226,348,211957,1,0,0:0:0:0:
285,101,212125,1,0,0:0:0:0:
271,248,212294,1,0,0:0:0:0:
161,90,212462,2,0,P|105:100|46:116,1,95.9999970703126,8|0,0:0|0:0,0:0:0:0:
156,246,212799,2,0,P|200:221|275:239,1,95.9999970703126,8|0,0:0|0:0,0:0:0:0:
371,325,213136,6,0,B|399:324|428:318|428:318|413:254|456:167,1,191.999994140625,4|0,0:3|0:0,0:0:0:0:
497,59,213642,1,0,0:0:0:0:
334,114,213811,2,0,L|357:243,2,95.9999970703126,8|0|0,0:0|0:0|0:0,0:0:0:0:
216,60,214316,1,0,0:0:0:0:
257,206,214485,2,0,L|234:335,2,95.9999970703126,4|0|0,0:3|0:0|0:0,0:0:0:0:
181,79,214990,1,0,0:0:0:0:
112,250,215159,2,0,L|92:375,1,95.9999970703126,8|0,0:0|0:0,0:0:0:0:
21,187,215496,2,0,L|5:92,1,95.9999970703126,8|0,0:0|0:0,0:0:0:0:
130,159,215833,6,0,B|156:172|211:163|211:163|238:184|238:184|253:179|286:171,1,160,4|0,0:0|0:0,0:0:0:0:
367,131,216339,1,0,0:0:0:0:
437,195,216507,2,0,P|433:233|424:288,1,80,2|0,0:0|0:0,0:0:0:0:
309,325,216844,2,0,P|302:277|300:241,1,80,2|0,0:0|0:0,0:0:0:0:
206,161,217181,6,0,L|194:327,1,160,2|0,0:0|0:0,0:0:0:0:
136,83,217855,2,0,P|98:71|32:63,1,80,2|0,0:0|0:0,0:0:0:0:
120,183,218193,2,0,L|215:170,1,80,2|0,0:0|0:0,0:0:0:0:
269,57,218530,6,0,P|346:59|354:143,1,160,2|0,0:0|0:0,0:0:0:0:
405,61,219035,1,0,0:0:0:0:
279,135,219204,2,0,P|285:177|306:306,1,160,2|0,0:0|0:0,0:0:0:0:
396,339,219709,1,0,0:0:0:0:
474,270,219878,6,0,P|485:244|495:168,2,80,2|0|0,0:0|0:0|0:0,0:0:0:0:
378,312,220384,1,0,0:0:0:0:
310,233,220552,2,0,P|249:223|187:300,1,160,2|0,0:0|0:0,0:0:0:0:
107,356,221058,2,0,P|102:309|83:196,1,160,2|0,0:0|0:0,0:0:0:0:
45,101,221563,2,0,L|23:0,2,80,2|0|0,0:0|0:0|0:0,0:0:0:0:
132,44,222069,1,0,0:0:0:0:
206,116,222238,2,0,L|296:119,1,80,2|0,0:0|0:0,0:0:0:0:
378,70,222575,5,2,0:0:0:0:
378,70,225271,6,0,B|401:125|410:175|410:175|391:195|381:220,2,160,2|2|2,0:0|0:0|0:0,0:0:0:0:
311,150,226957,1,2,0:0:0:0:
