osu file format v14

[General]
AudioFilename: audio.mp3
AudioLeadIn: 0
PreviewTime: 61537
Countdown: 1
SampleSet: Soft
StackLeniency: 0.7
Mode: 0
LetterboxInBreaks: 0
WidescreenStoryboard: 0

[Editor]
DistanceSpacing: 1.2
BeatDivisor: 4
GridSize: 4
TimelineZoom: 1

[Metadata]
Title:Despacito
TitleUnicode:Despacito
Artist:Luis Fonsi Ft. Daddy Yankee
ArtistUnicode:Luis Fonsi Ft. Daddy Yankee
Creator:samplefish
Version:Extra Slowly
Source:
Tags:
BeatmapID:1356117
BeatmapSetID:559503

[Difficulty]
HPDrainRate:7.3
CircleSize:4
OverallDifficulty:8
ApproachRate:9.3
SliderMultiplier:2
SliderTickRate:1

[Events]
//Background and Video events
0,0,"Konachan.com - 222608 clouds dress flowers grass haraguroi_you ibara_kasen orange_hair red_eyes scenic sunset touhou.jpg",0,0
//Break Periods
2,105305,106023
2,138982,149169
2,222775,224671
//Storyboard Layer 0 (Background)
//Storyboard Layer 1 (Fail)
//Storyboard Layer 2 (Pass)
//Storyboard Layer 3 (Foreground)
//Storyboard Sound Samples

[TimingPoints]
7689,337.078651685393,4,2,1,40,1,0
7689,-133.333333333333,4,2,1,40,0,0
11733,-133.333333333333,4,2,1,45,0,0
14430,-133.333333333333,4,2,1,50,0,0
17127,-133.333333333333,4,2,1,55,0,0
19823,-133.333333333333,4,2,1,50,0,0
30610,-133.333333333333,4,2,1,60,0,0
41396,-200,4,2,1,50,0,0
51509,-166.666666666667,4,2,1,60,0,0
51846,-142.857142857143,4,2,1,80,0,0
52183,-125,4,2,1,80,0,0
61623,923.076923076923,4,2,1,30,1,0
63478,337.078651685393,4,2,1,70,1,0
63478,-100,4,2,1,70,0,0
72916,674.157303370787,4,2,1,40,1,0
74264,337.078651685393,4,2,1,70,1,0
74264,-200,4,2,1,70,0,0
74938,-100,4,2,1,70,0,0
83702,674.157303370787,4,2,1,50,1,0
85050,337.078651685393,4,2,1,80,1,1
85050,-83.3333333333333,4,2,1,80,0,1
105274,-100,4,2,1,60,0,0
149769,674.157303370787,4,2,1,60,1,0
151117,337.078651685393,4,2,1,60,1,0
160555,674.157303370787,4,2,1,60,1,0
161903,337.078651685393,4,2,1,60,1,0
161903,-200,4,2,1,60,0,0
162577,-100,4,2,1,60,0,0
171341,674.157303370787,4,2,1,60,1,0
172689,337.078651685393,4,2,1,80,1,1
172689,-83.3333333333333,4,2,1,80,0,1
192913,674.157303370787,4,2,1,60,1,0
192913,-100,4,2,1,60,0,0
194261,674.157303370787,4,2,1,30,1,0
194261,-200,4,2,1,30,0,0
205047,337.078651685393,4,2,1,80,1,1
205047,-83.3333333333333,4,2,1,80,0,1
215833,-100,4,2,1,60,0,0
225271,-200,4,2,1,60,0,0

[Colours]
Combo1 : 255,166,188
Combo2 : 255,182,108
Combo3 : 255,228,136
Combo4 : 198,255,170

[HitObjects]
263,129,9037,6,0,P|352:159|364:215,1,150.000005722046,2|0,0:0|0:0,0:0:0:0:
157,173,9542,2,0,P|146:131|127:20,1,150.000005722046,2|0,0:0|0:0,0:0:0:0:
282,208,10048,2,0,P|270:282|252:354,1,150.000005722046,2|0,0:0|0:0,0:0:0:0:
406,84,10892,5,0,0:0:0:0:
333,168,11061,2,0,L|254:150,1,75.0000028610231,2|2,0:0|0:0,0:0:0:0:
130,37,11398,2,0,P|132:74|140:122,1,75.0000028610231,2|2,0:0|0:0,0:0:0:0:
199,355,11735,6,0,P|186:269|176:202,1,150.000005722046,2|0,0:0|0:0,0:0:0:0:
67,277,12239,1,0,0:0:0:0:
278,159,12576,2,0,B|307:95|307:95|276:-2,2,150.000005722046,0|0|0,0:0|0:0|0:0,0:0:0:0:
150,359,13587,5,0,0:0:0:0:
270,320,13756,2,0,P|275:288|276:223,1,75.0000028610231,2|0,0:0|0:0,0:0:0:0:
120,163,14093,2,0,P|121:200|127:237,1,75.0000028610231,2|0,0:0|0:0,0:0:0:0:
204,121,14430,2,0,P|176:85|58:92,1,150.000005722046,2|0,0:0|0:0,0:0:0:0:
317,195,14936,2,0,P|321:146|325:29,1,150.000005722046,0|0,0:0|0:0,0:0:0:0:
204,121,15441,1,0,0:0:0:0:
203,246,15610,2,0,P|214:282|232:327,1,75.0000028610231,0|0,0:0|0:0,0:0:0:0:
483,293,16115,6,0,P|491:241|491:132,1,150.000005722046,0|2,0:0|0:0,0:0:0:0:
454,37,16621,1,0,0:0:0:0:
373,115,16790,1,2,0:0:0:0:
261,100,16958,1,0,0:0:0:0:
151,58,17127,6,0,B|123:88|123:88|150:108|161:140|161:140|51:152|52:256|52:256|110:340|203:345|203:345|214:257|133:222,1,600.000022888185,0|2,0:0|0:0,0:0:0:0:
151,231,18981,2,0,P|144:264|143:323,1,75.0000028610231,2|2,0:0|0:0,0:0:0:0:
141,305,19655,1,2,0:0:0:0:
205,147,19823,6,0,L|34:149,1,150.000005722046,2|0,0:0|0:0,0:0:0:0:
190,246,20835,1,2,0:0:0:0:
307,219,21509,1,2,0:0:0:0:
326,97,22183,1,2,0:0:0:0:
218,55,22520,6,0,P|219:103|226:208,1,150.000005722046,0|2,0:0|0:0,0:0:0:0:
331,292,23531,1,2,0:0:0:0:
173,320,24205,1,2,0:0:0:0:
105,194,24880,1,2,0:0:0:0:
253,61,25217,6,0,P|246:139|238:233,1,150.000005722046,2|0,0:0|0:0,0:0:0:0:
272,130,25891,2,0,P|286:206|304:299,1,150.000005722046,2|0,0:0|0:0,0:0:0:0:
121,51,26565,2,0,B|99:121|99:121|90:213,1,150.000005722046,2|2,0:0|0:0,0:0:0:0:
136,129,27239,2,0,B|136:202|136:202|156:292,1,150.000005722046,2|2,0:0|0:0,0:0:0:0:
225,209,27745,6,0,P|253:145|391:184,1,225.000008583069,2|2,0:0|0:0,0:0:0:0:
250,303,28924,1,2,0:0:0:0:
133,180,29430,1,0,0:0:0:0:
133,180,29599,2,0,B|92:185|43:203|43:203|12:103|69:22|69:22|98:89|87:131,1,375.000014305115,2|0,0:0|0:0,0:0:0:0:
115,271,30610,6,0,P|176:269|277:271,1,150.000005722046,4|0,0:0|0:0,0:0:0:0:
359,360,31115,1,0,0:0:0:0:
474,168,31453,2,0,P|466:134|445:83,2,75.0000028610231,0|2|0,0:0|0:0|0:0,0:0:0:0:
354,159,31958,6,0,P|312:152|228:140,2,100.000003814697,2|0|0,0:0|0:0|0:0,0:0:0:0:
404,285,32632,2,0,P|445:291|530:304,2,100.000003814697,2|0|0,0:0|0:0|0:0,0:0:0:0:
202,276,33306,6,0,P|264:247|314:326,1,150.000005722046,2|0,0:0|0:0,0:0:0:0:
108,339,33812,2,0,B|61:310|61:310|55:259|70:194,1,150.000005722046,2|0,0:0|0:0,0:0:0:0:
208,126,34318,2,0,P|206:202|201:286,1,150.000005722046,2|0,0:0|0:0,0:0:0:0:
69,57,34992,5,2,0:0:0:0:
253,85,35666,1,2,0:0:0:0:
155,212,36003,6,0,P|96:200|9:182,1,150.000005722046,2|0,0:0|0:0,0:0:0:0:
253,85,36677,2,0,P|312:73|399:55,1,150.000005722046,2|0,0:0|0:0,0:0:0:0:
224,267,37351,2,0,P|165:255|78:237,1,150.000005722046,2|0,0:0|0:0,0:0:0:0:
375,191,38026,2,0,P|374:256|371:365,1,150.000005722046,2|0,0:0|0:0,0:0:0:0:
294,152,38531,6,0,P|390:107|465:182,1,225.000008583069,2|0,0:0|0:0,0:0:0:0:
102,260,39711,2,0,L|113:336,1,75.0000028610231,0|0,0:0|0:0,0:0:0:0:
208,234,40048,6,0,L|222:77,1,150.000005722046,2|0,0:0|0:0,0:0:0:0:
208,234,40554,1,2,0:0:0:0:
349,174,40722,2,0,L|363:17,1,150.000005722046,2|0,0:0|0:0,0:0:0:0:
349,174,41228,1,2,0:0:0:0:
488,39,41396,6,0,L|496:143,1,100,2|2,0:0|0:0,0:0:0:0:
495,138,41902,1,0,0:0:0:0:
413,222,42071,2,0,L|421:326,1,100,0|2,0:0|0:0,0:0:0:0:
420,321,42577,1,0,0:0:0:0:
180,320,42745,6,0,P|233:310|292:304,1,100,0|2,0:0|0:0,0:0:0:0:
278,304,43250,1,0,0:0:0:0:
70,218,43419,2,0,P|123:208|182:202,1,100,0|2,0:0|0:0,0:0:0:0:
168,202,43924,1,0,0:0:0:0:
349,213,44093,6,0,L|333:97,1,100,0|2,0:0|0:0,0:0:0:0:
335,113,44599,1,0,0:0:0:0:
209,168,44767,2,0,L|193:52,1,100,0|2,0:0|0:0,0:0:0:0:
195,68,45273,1,0,0:0:0:0:
432,91,45441,6,0,P|386:99|328:114,1,100,0|2,0:0|0:0,0:0:0:0:
334,112,45947,1,0,0:0:0:0:
512,225,46115,2,0,P|466:214|407:205,1,100,0|2,0:0|0:0,0:0:0:0:
413,206,46621,1,0,0:0:0:0:
260,213,46790,6,0,L|281:325,1,100,0|2,0:0|0:0,0:0:0:0:
278,311,47295,1,0,0:0:0:0:
142,141,47464,2,0,L|145:254,1,100,0|2,0:0|0:0,0:0:0:0:
144,240,47969,1,0,0:0:0:0:
201,87,48138,6,0,P|165:63|98:80,1,100,0|2,0:0|0:0,0:0:0:0:
110,70,48644,1,0,0:0:0:0:
266,177,48812,2,0,P|314:185|356:160,1,100,0|2,0:0|0:0,0:0:0:0:
356,159,49318,1,0,0:0:0:0:
485,69,49486,6,0,L|476:171,1,100,0|2,0:0|0:0,0:0:0:0:
476,168,49992,1,0,0:0:0:0:
370,341,50160,2,0,L|361:239,1,100,0|2,0:0|0:0,0:0:0:0:
361,241,50666,1,0,0:0:0:0:
364,99,50835,6,0,P|327:89|251:91,1,100,0|2,0:0|0:0,0:0:0:0:
265,88,51340,1,0,0:0:0:0:
122,128,51509,2,0,P|113:103|105:70,1,59.9999981689454,0|0,0:0|0:0,0:0:0:0:
318,252,51846,2,0,P|311:281|301:309,1,59.9999981689454,0|0,0:0|0:0,0:0:0:0:
163,250,52183,6,0,P|99:237|3:228,1,160,4|0,0:0|0:0,0:0:0:0:
269,342,52857,1,2,0:0:0:0:
255,205,53026,1,0,0:0:0:0:
412,291,53194,2,0,P|408:340|398:384,1,80,0|0,0:0|0:0,0:0:0:0:
255,205,53531,5,2,0:0:0:0:
269,342,53700,1,0,0:0:0:0:
255,205,53868,1,0,0:0:0:0:
269,342,54037,2,0,P|208:328|84:308,1,160,0|0,0:0|0:0,0:0:0:0:
355,200,54542,2,0,L|342:287,1,80,0|0,0:0|0:0,0:0:0:0:
163,171,54880,6,0,P|169:98|180:1,1,160,2|0,0:0|0:0,0:0:0:0:
54,215,55554,1,2,0:0:0:0:
205,284,55722,1,0,0:0:0:0:
93,330,55891,1,0,0:0:0:0:
163,171,56059,1,0,0:0:0:0:
290,347,56228,6,0,L|191:359,1,80,2|0,0:0|0:0,0:0:0:0:
400,279,56565,2,0,L|479:288,1,80,0|0,0:0|0:0,0:0:0:0:
255,217,56902,2,0,L|94:223,1,160,2|0,0:0|0:0,0:0:0:0:
160,115,57408,1,0,0:0:0:0:
373,36,57576,6,0,P|369:76|362:118,1,80,2|0,0:0|0:0,0:0:0:0:
170,194,57913,2,0,P|163:154|159:114,1,80,0|0,0:0|0:0,0:0:0:0:
296,83,58250,1,2,0:0:0:0:
256,250,58419,1,0,0:0:0:0:
159,114,58587,1,0,0:0:0:0:
256,250,58756,1,0,0:0:0:0:
414,225,58924,6,0,P|419:190|420:145,1,80,2|0,0:0|0:0,0:0:0:0:
296,83,59262,1,2,0:0:0:0:
414,225,59430,1,0,0:0:0:0:
308,349,59599,2,0,P|237:374|144:309,1,160,2|0,0:0|0:0,0:0:0:0:
180,169,60104,1,0,0:0:0:0:
180,169,60273,2,0,P|251:144|344:209,1,160,2|0,0:0|0:0,0:0:0:0:
64,216,60778,1,0,0:0:0:0:
64,216,60947,2,0,P|62:156|65:35,1,160,2|0,0:0|0:0,0:0:0:0:
374,187,61623,6,0,B|275:217|274:139|160:174,1,200,2|2,0:0|0:0,0:0:0:0:
179,168,63478,6,0,P|192:216|209:263,1,100,4|0,0:3|0:0,0:0:0:0:
372,120,63815,1,0,0:0:0:0:
207,86,63983,1,0,0:0:0:0:
313,204,64152,1,8,0:0:0:0:
279,25,64320,1,0,0:0:0:0:
313,204,64489,1,0,0:0:0:0:
279,25,64657,1,0,0:0:0:0:
411,180,64826,6,0,L|404:298,1,100,8|0,0:0|0:0,0:0:0:0:
324,360,65163,1,0,0:0:0:0:
504,288,65331,1,0,0:0:0:0:
315,188,65500,2,0,P|267:187|185:196,1,100,8|0,0:0|0:0,0:0:0:0:
129,355,65837,2,0,P|178:354|228:351,1,100,8|0,0:0|0:0,0:0:0:0:
120,136,66174,6,0,P|40:132|8:244,1,200,4|0,0:3|0:0,0:0:0:0:
129,355,66680,1,0,0:0:0:0:
256,141,66848,1,8,0:0:0:0:
226,318,67017,1,0,0:0:0:0:
256,141,67185,1,0,0:0:0:0:
226,318,67354,1,0,0:0:0:0:
99,137,67522,6,0,L|-2:157,1,100,8|0,0:0|0:0,0:0:0:0:
192,90,67860,1,0,0:0:0:0:
102,236,68028,1,0,0:0:0:0:
290,254,68197,2,0,L|302:151,1,100,8|0,0:0|0:0,0:0:0:0:
245,25,68534,1,0,0:0:0:0:
198,221,68702,1,0,0:0:0:0:
350,36,68871,6,0,B|453:43|453:43|527:143,1,200,4|0,0:3|0:0,0:0:0:0:
256,147,69376,1,0,0:0:0:0:
411,276,69545,2,0,L|529:261,1,100,8|0,0:0|0:0,0:0:0:0:
268,284,69882,2,0,P|263:334|261:411,1,100,0|0,0:0|0:0,0:0:0:0:
256,147,70219,5,8,0:0:0:0:
431,75,70388,1,0,0:0:0:0:
386,258,70556,1,0,0:0:0:0:
256,147,70725,1,0,0:0:0:0:
509,223,70893,2,0,P|511:277|490:348,1,100,8|0,0:0|0:0,0:0:0:0:
263,245,71230,2,0,P|252:196|255:146,1,100,8|0,0:0|0:0,0:0:0:0:
412,28,71567,6,0,L|391:231,1,200,4|0,0:3|0:0,0:0:0:0:
512,130,72073,1,0,0:0:0:0:
276,46,72242,2,0,P|200:30|89:87,1,200,8|0,0:0|0:0,0:0:0:0:
253,355,72916,6,0,P|326:317|256:273,1,200,8|0,0:0|0:0,0:0:0:0:
256,273,74264,2,0,L|243:162,1,100,0|0,0:0|0:0,0:0:0:0:
345,332,74769,1,0,0:0:0:0:
146,326,74938,6,0,P|80:322|17:326,1,100,4|0,0:3|0:0,0:0:0:0:
229,349,75275,1,0,0:0:0:0:
79,179,75443,1,0,0:0:0:0:
146,326,75612,1,8,0:0:0:0:
213,144,75780,1,0,0:0:0:0:
146,326,75949,1,0,0:0:0:0:
213,144,76117,1,0,0:0:0:0:
365,262,76286,2,0,P|362:299|346:384,1,100,8|0,0:0|0:0,0:0:0:0:
213,144,76623,2,0,P|204:94|199:45,1,100,8|0,0:0|0:0,0:0:0:0:
491,58,76960,6,0,P|483:155|466:277,1,200,4|0,0:3|0:0,0:0:0:0:
328,88,77466,1,0,0:0:0:0:
224,268,77634,2,0,L|337:275,1,100,8|0,0:0|0:0,0:0:0:0:
188,164,77971,1,0,0:0:0:0:
244,352,78140,1,0,0:0:0:0:
368,176,78308,5,8,0:0:0:0:
144,288,78477,1,0,0:0:0:0:
256,160,78645,1,0,0:0:0:0:
368,284,78814,1,0,0:0:0:0:
156,152,78983,2,0,P|144:120|140:48,1,100,8|0,0:0|0:0,0:0:0:0:
368,176,79320,2,0,P|366:225|351:273,1,100,0|0,0:0|0:0,0:0:0:0:
56,296,79657,6,0,B|120:276|120:276|252:304,1,200,4|0,0:3|0:0,0:0:0:0:
416,364,80162,1,0,0:0:0:0:
328,180,80331,1,8,0:0:0:0:
468,268,80499,1,0,0:0:0:0:
472,88,80668,1,0,0:0:0:0:
336,296,80837,1,0,0:0:0:0:
231,131,81005,5,8,0:0:0:0:
192,288,81174,1,0,0:0:0:0:
328,180,81342,1,0,0:0:0:0:
104,220,81511,1,0,0:0:0:0:
336,296,81679,2,0,L|455:279,1,100,8|0,0:0|0:0,0:0:0:0:
260,368,82016,1,8,0:0:0:0:
328,180,82185,1,0,0:0:0:0:
160,248,82353,6,0,B|112:185|112:185|136:49,1,200,4|0,0:3|0:0,0:0:0:0:
248,200,82859,1,0,0:0:0:0:
32,136,83028,1,8,0:0:0:0:
64,284,83196,1,0,0:0:0:0:
200,128,83365,1,0,0:0:0:0:
160,348,83533,1,0,0:0:0:0:
336,200,83702,6,0,B|366:211|398:243|398:243|446:183|530:203,1,200,2|2,0:0|0:0,0:0:0:0:
507,199,85050,6,0,P|456:204|392:244,1,119.999996337891,4|0,0:0|0:0,0:0:0:0:
260,368,85387,1,0,0:0:0:0:
495,303,85555,1,0,0:0:0:0:
300,132,85724,2,0,P|311:23|420:26,1,239.999992675781,8|0,0:0|0:0,0:0:0:0:
379,306,86229,1,0,0:0:0:0:
379,306,86398,6,0,P|339:307|244:300,1,119.999996337891,8|0,0:0|0:0,0:0:0:0:
34,141,86735,1,0,0:0:0:0:
261,203,86903,1,0,0:0:0:0:
85,352,87072,1,8,0:0:0:0:
176,132,87241,1,0,0:0:0:0:
236,339,87409,1,8,0:0:0:0:
22,253,87578,1,0,0:0:0:0:
368,112,87746,6,0,P|362:182|352:261,1,119.999996337891,4|0,0:3|0:0,0:0:0:0:
155,203,88083,1,0,0:0:0:0:
236,339,88252,1,0,0:0:0:0:
13,372,88420,2,0,L|22:245,1,119.999996337891,8|0,0:0|0:0,0:0:0:0:
196,36,88757,2,0,P|224:112|228:176,1,119.999996337891,0|0,0:0|0:0,0:0:0:0:
72,120,89094,5,8,0:0:0:0:
228,150,89263,1,0,0:0:0:0:
72,236,89432,1,0,0:0:0:0:
312,216,89600,1,0,0:0:0:0:
116,368,89769,2,0,P|61:356|-24:332,1,119.999996337891,8|0,0:0|0:0,0:0:0:0:
312,216,90106,2,0,P|366:227|452:252,1,119.999996337891,0|0,0:0|0:0,0:0:0:0:
72,236,90443,6,0,P|-5:175|17:44,1,239.999992675781,4|0,0:3|0:0,0:0:0:0:
248,56,90948,1,0,0:0:0:0:
208,264,91117,2,0,P|217:329|232:420,1,119.999996337891,8|0,0:0|0:0,0:0:0:0:
412,200,91454,2,0,P|421:140|429:81,1,119.999996337891,0|0,0:0|0:0,0:0:0:0:
280,220,91791,5,8,0:0:0:0:
108,80,91960,1,0,0:0:0:0:
332,96,92128,1,0,0:0:0:0:
132,224,92297,1,0,0:0:0:0:
208,8,92465,2,0,P|224:76|235:141,1,119.999996337891,8|0,0:0|0:0,0:0:0:0:
164,324,92802,2,0,P|124:344|20:318,1,119.999996337891,8|0,0:0|0:0,0:0:0:0:
308,224,93139,6,0,P|407:217|512:304,1,239.999992675781,4|0,0:3|0:0,0:0:0:0:
264,364,93645,1,0,0:0:0:0:
388,84,93814,1,8,0:0:0:0:
368,288,93982,1,0,0:0:0:0:
216,84,94151,1,0,0:0:0:0:
248,296,94319,1,0,0:0:0:0:
404,48,94488,5,8,0:0:0:0:
364,312,94656,1,0,0:0:0:0:
204,40,94825,1,0,0:0:0:0:
248,324,94993,1,0,0:0:0:0:
476,136,95162,2,0,P|496:88|506:11,1,119.999996337891,8|0,0:0|0:0,0:0:0:0:
296,112,95499,1,8,0:0:0:0:
480,280,95667,1,0,0:0:0:0:
164,348,95836,6,0,L|15:332,1,119.999996337891,4|0,0:0|0:0,0:0:0:0:
224,148,96173,1,0,0:0:0:0:
296,304,96342,1,0,0:0:0:0:
80,220,96510,2,0,P|72:172|68:96,1,119.999996337891,8|0,0:0|0:0,0:0:0:0:
300,144,96847,1,0,0:0:0:0:
152,288,97016,1,0,0:0:0:0:
192,60,97184,6,0,P|248:53|340:48,1,119.999996337891,4|0,0:3|0:0,0:0:0:0:
352,252,97521,1,0,0:0:0:0:
204,152,97690,1,0,0:0:0:0:
476,112,97858,2,0,P|474:161|456:248,1,119.999996337891,8|0,0:0|0:0,0:0:0:0:
228,376,98196,2,0,P|220:328|220:256,1,119.999996337891,8|0,0:0|0:0,0:0:0:0:
356,88,98533,6,0,P|330:35|164:44,1,239.999992675781,4|0,0:3|0:0,0:0:0:0:
264,224,99038,1,0,0:0:0:0:
472,208,99207,2,0,P|475:160|480:76,1,119.999996337891,8|0,0:0|0:0,0:0:0:0:
264,224,99544,2,0,P|266:283|271:343,1,119.999996337891,0|0,0:0|0:0,0:0:0:0:
488,320,99881,5,8,0:0:0:0:
208,296,100049,1,0,0:0:0:0:
380,136,100218,1,0,0:0:0:0:
344,384,100387,1,0,0:0:0:0:
492,144,100555,2,0,P|497:105|484:4,1,119.999996337891,8|0,0:0|0:0,0:0:0:0:
271,141,100892,1,0,0:0:0:0:
420,256,101061,1,0,0:0:0:0:
243,378,101229,6,0,P|247:290|271:138,1,239.999992675781,4|0,0:3|0:0,0:0:0:0:
140,288,101735,1,0,0:0:0:0:
380,192,101903,1,8,0:0:0:0:
172,172,102072,1,0,0:0:0:0:
356,288,102241,1,0,0:0:0:0:
224,76,102409,1,0,0:0:0:0:
232,348,102578,5,8,0:0:0:0:
40,248,102746,1,0,0:0:0:0:
264,132,102915,1,0,0:0:0:0:
232,348,103083,1,0,0:0:0:0:
36,160,103252,2,0,P|26:105|16:24,1,119.999996337891,8|0,0:0|0:0,0:0:0:0:
248,60,103589,1,8,0:0:0:0:
152,232,103757,1,0,0:0:0:0:
392,64,103926,6,0,B|460:44|460:44|428:216,1,239.999992675781,4|0,0:3|0:0,0:0:0:0:
284,80,104432,1,0,0:0:0:0:
276,320,104600,1,8,0:0:0:0:
429,210,104769,1,0,0:0:0:0:
128,184,104937,2,0,P|92:182|9:178,1,95.9999970703126,0|0,0:0|0:0,0:0:0:0:
144,120,106623,6,0,P|156:172|136:216,1,100,4|0,0:0|0:0,0:0:0:0:
52,264,106875,2,0,L|216:252,1,150,0|0,0:0|0:0,0:0:0:0:
402,361,107297,2,0,P|402:329|382:249,1,100,8|0,0:0|0:0,0:0:0:0:
384,116,107634,2,0,P|425:100|498:102,1,100,0|0,0:0|0:0,0:0:0:0:
240,171,107971,6,0,L|231:64,1,100,4|0,0:3|0:0,0:0:0:0:
160,136,108224,2,0,P|113:162|36:112,1,150,0|0,0:0|0:0,0:0:0:0:
360,152,108645,2,0,P|362:200|356:264,1,100,8|0,0:0|0:0,0:0:0:0:
230,358,108982,1,8,0:0:0:0:
78,223,109151,1,0,0:0:0:0:
241,93,109319,6,0,P|241:133|233:205,1,100,4|0,0:3|0:0,0:0:0:0:
188,260,109572,2,0,B|224:248|224:248|289:261|289:261|340:246,1,150,0|0,0:0|0:0,0:0:0:0:
491,123,109993,1,8,0:0:0:0:
470,275,110162,1,0,0:0:0:0:
355,103,110330,1,0,0:0:0:0:
383,316,110499,1,0,0:0:0:0:
220,151,110667,6,0,B|171:154|171:154|88:187,1,100,4|0,0:3|0:0,0:0:0:0:
101,262,110920,2,0,P|97:202|10:185,1,150,0|0,0:0|0:0,0:0:0:0:
184,352,111342,1,8,0:0:0:0:
304,232,111510,1,0,0:0:0:0:
168,172,111679,1,8,0:0:0:0:
312,340,111847,1,0,0:0:0:0:
460,208,112016,6,0,L|472:72,1,100,4|0,0:3|0:0,0:0:0:0:
280,32,112353,2,0,P|236:32|164:48,1,100,0|0,0:0|0:0,0:0:0:0:
168,172,112690,1,8,0:0:0:0:
348,196,112858,1,0,0:0:0:0:
480,96,113027,1,0,0:0:0:0:
412,288,113196,1,0,0:0:0:0:
267,160,113364,6,0,P|220:163|163:172,1,100,8|0,0:0|0:0,0:0:0:0:
116,304,113701,2,0,P|66:307|16:315,1,100,8|0,0:0|0:0,0:0:0:0:
16,315,114375,2,0,P|8:256|24:160,1,150,0|0,0:0|0:0,0:0:0:0:
56,144,114712,6,0,P|44:96|40:36,1,100,4|0,0:3|0:0,0:0:0:0:
240,184,115049,2,0,P|235:233|223:282,1,100,0|0,0:0|0:0,0:0:0:0:
16,315,115387,1,8,0:0:0:0:
56,144,115555,1,0,0:0:0:0:
156,356,115724,1,0,0:0:0:0:
312,252,115892,1,0,0:0:0:0:
155,133,116061,6,0,L|43:145,1,100,8|0,0:0|0:0,0:0:0:0:
384,124,116398,2,0,P|390:84|392:20,1,100,8|0,0:0|0:0,0:0:0:0:
244,136,116735,1,0,0:0:0:0:
444,188,116903,1,0,0:0:0:0:
280,32,117072,1,0,0:0:0:0:
344,252,117241,1,0,0:0:0:0:
160,276,117409,6,0,L|48:284,1,100,4|0,0:3|0:0,0:0:0:0:
244,136,117746,2,0,L|356:144,1,100,0|0,0:0|0:0,0:0:0:0:
256,300,118083,1,8,0:0:0:0:
108,176,118252,1,0,0:0:0:0:
160,352,118420,1,0,0:0:0:0:
244,136,118589,1,0,0:0:0:0:
416,208,118757,6,0,P|432:124|404:8,1,200,4|0,0:3|0:0,0:0:0:0:
264,164,119263,1,0,0:0:0:0:
384,336,119432,2,0,L|472:324,1,50,8|0,0:0|0:0,0:0:0:0:
264,164,119684,2,0,L|249:211,1,50,0|8,0:0|0:0,0:0:0:0:
488,136,119937,2,0,L|496:48,1,50,0|0,0:0|0:0,0:0:0:0:
392,16,120106,6,0,P|353:9|280:64,1,100,4|0,0:3|0:0,0:0:0:0:
360,252,120443,2,0,P|366:232|380:136,1,100,0|0,0:0|0:0,0:0:0:0:
232,84,120780,1,8,0:0:0:0:
360,252,120948,1,0,0:0:0:0:
368,72,121117,1,0,0:0:0:0:
272,272,121285,1,0,0:0:0:0:
152,24,121454,6,0,P|140:64|160:156,1,100,4|0,0:3|0:0,0:0:0:0:
272,272,121791,2,0,L|292:144,1,100,0|0,0:0|0:0,0:0:0:0:
24,136,122128,1,8,0:0:0:0:
100,352,122297,1,0,0:0:0:0:
184,136,122465,1,0,0:0:0:0:
0,260,122634,1,0,0:0:0:0:
272,272,122802,5,4,0:3:0:0:
304,100,122971,1,0,0:0:0:0:
184,296,123139,1,0,0:0:0:0:
188,64,123308,1,0,0:0:0:0:
100,352,123476,2,0,P|88:308|76:240,1,100,8|0,0:0|0:0,0:0:0:0:
304,100,123814,1,0,0:0:0:0:
184,204,123982,1,0,0:0:0:0:
46,57,124151,6,0,P|57:148|82:273,1,200,4|0,0:3|0:0,0:0:0:0:
224,120,124656,1,0,0:0:0:0:
312,316,124825,2,0,L|180:328,1,100,8|0,0:0|0:0,0:0:0:0:
476,204,125162,2,0,P|472:256|452:336,1,100,8|0,0:0|0:0,0:0:0:0:
224,120,125499,6,0,P|306:113|362:234,1,200,4|0,0:3|0:0,0:0:0:0:
344,8,126005,1,0,0:0:0:0:
488,128,126173,2,0,P|500:84|508:20,1,100,8|0,0:0|0:0,0:0:0:0:
272,196,126510,2,0,P|278:245|291:293,1,100,0|0,0:0|0:0,0:0:0:0:
344,12,126847,6,0,P|270:20|132:40,1,200,4|0,0:3|0:0,0:0:0:0:
0,136,127353,1,0,0:0:0:0:
164,288,127521,2,0,P|168:240|168:172,1,100,2|0,0:0|0:0,0:0:0:0:
0,136,127858,1,0,0:0:0:0:
64,328,128027,1,0,0:0:0:0:
280,264,128196,6,0,P|272:168|244:48,1,200,4|0,0:3|0:0,0:0:0:0:
156,192,128701,1,0,0:0:0:0:
376,104,128870,2,0,P|434:109|500:120,1,100,8|0,0:0|0:0,0:0:0:0:
308,359,129207,2,0,P|296:325|272:227,1,100,0|0,0:0|0:0,0:0:0:0:
244,60,129544,6,0,P|160:44|80:120,1,200,4|0,0:3|0:0,0:0:0:0:
192,244,130049,1,0,0:0:0:0:
368,120,130218,2,0,P|377:71|380:-4,1,100,8|0,0:0|0:0,0:0:0:0:
179,145,130555,2,0,P|182:194|191:243,1,100,8|0,0:0|0:0,0:0:0:0:
436,332,130892,6,0,P|352:336|212:348,1,200,4|0,0:3|0:0,0:0:0:0:
76,364,131398,1,0,0:0:0:0:
191,244,131566,2,0,L|207:128,1,100,8|0,0:0|0:0,0:0:0:0:
144,32,131903,1,0,0:0:0:0:
332,212,132072,1,0,0:0:0:0:
84,136,132241,6,0,P|28:145|40:271,1,200,4|0,0:3|0:0,0:0:0:0:
204,312,132746,1,0,0:0:0:0:
272,136,132915,2,0,P|267:90|260:35,1,100,8|0,0:0|0:0,0:0:0:0:
104,24,133252,1,0,0:0:0:0:
168,200,133420,1,0,0:0:0:0:
384,128,133589,6,0,P|426:193|344:280,1,200,4|0,0:3|0:0,0:0:0:0:
272,136,134094,1,0,0:0:0:0:
196,312,134263,2,0,P|146:311|80:304,1,100,8|0,0:0|0:0,0:0:0:0:
40,132,134600,1,0,0:0:0:0:
144,232,134769,1,0,0:0:0:0:
272,136,134937,6,0,L|268:32,1,100,4|0,0:3|0:0,0:0:0:0:
168,108,135274,1,0,0:0:0:0:
372,48,135443,1,0,0:0:0:0:
300,236,135611,2,0,P|266:237|176:244,1,100,8|0,0:0|0:0,0:0:0:0:
72,105,135948,2,0,P|116:93|171:110,1,100,8|0,0:0|0:0,0:0:0:0:
300,236,136285,6,0,P|304:288|288:368,1,100,4|0,0:3|0:0,0:0:0:0:
128,280,136623,2,0,L|112:164,1,100,0|0,0:0|0:0,0:0:0:0:
280,44,136960,2,0,L|272:156,1,100,8|0,0:0|0:0,0:0:0:0:
114,180,137297,1,0,0:0:0:0:
208,340,137465,1,0,0:0:0:0:
272,143,137634,5,4,0:3:0:0:
280,116,138308,1,0,0:0:0:0:
96,296,149769,6,0,B|125:297|161:322|161:322|205:262|281:258,1,200,2|2,0:0|0:0,0:0:0:0:
269,258,151117,6,0,P|280:196|312:56,1,200,4|0,0:3|0:0,0:0:0:0:
168,112,151622,1,0,0:0:0:0:
364,224,151791,2,0,P|406:222|476:216,1,100,8|0,0:0|0:0,0:0:0:0:
312,64,152128,2,0,P|273:87|228:162,1,100,0|0,0:0|0:0,0:0:0:0:
320,340,152465,5,4,0:3:0:0:
164,200,152633,1,0,0:0:0:0:
216,368,152802,1,0,0:0:0:0:
320,196,152970,1,0,0:0:0:0:
72,176,153139,2,0,P|79:235|92:296,1,100,8|0,0:0|0:0,0:0:0:0:
272,120,153476,2,0,P|281:70|286:21,1,100,8|0,0:0|0:0,0:0:0:0:
164,200,153813,6,0,P|213:251|344:244,1,200,4|0,0:3|0:0,0:0:0:0:
424,128,154319,1,0,0:0:0:0:
492,264,154487,2,0,P|491:311|488:376,1,100,8|0,0:0|0:0,0:0:0:0:
340,280,154824,1,0,0:0:0:0:
424,128,154993,1,0,0:0:0:0:
260,88,155161,5,4,0:3:0:0:
340,280,155330,1,0,0:0:0:0:
260,88,155499,1,0,0:0:0:0:
340,280,155667,1,0,0:0:0:0:
260,88,155836,2,0,B|188:80|188:80|73:156,1,200,8|0,0:0|0:0,0:0:0:0:
84,8,156341,1,0,0:0:0:0:
236,216,156510,6,0,P|233:265|223:348,1,100,4|0,0:3|0:0,0:0:0:0:
140,152,156847,1,0,0:0:0:0:
352,200,157015,1,0,0:0:0:0:
228,315,157184,1,8,0:0:0:0:
264,96,157352,1,0,0:0:0:0:
228,315,157521,1,0,0:0:0:0:
264,96,157690,1,0,0:0:0:0:
124,240,157858,5,4,0:3:0:0:
372,280,158027,1,0,0:0:0:0:
188,144,158195,1,0,0:0:0:0:
304,344,158364,1,0,0:0:0:0:
424,156,158532,2,0,L|436:44,1,100,8|0,0:0|0:0,0:0:0:0:
192,47,158869,2,0,P|178:100|194:156,1,100,8|0,0:0|0:0,0:0:0:0:
372,280,159206,6,0,P|298:253|204:340,1,200,4|0,0:3|0:0,0:0:0:0:
187,143,159712,1,0,0:0:0:0:
77,359,159881,2,0,P|63:273|41:159,1,200,8|0,0:0|0:0,0:0:0:0:
296,106,160555,6,0,B|354:101|402:132|402:132|431:78|480:66,1,200,2|2,0:0|0:0,0:0:0:0:
464,71,161903,2,0,L|457:183,1,100,0|0,0:0|0:0,0:0:0:0:
372,242,162408,1,0,0:0:0:0:
170,149,162577,6,0,P|204:107|277:92,1,100,4|0,0:3|0:0,0:0:0:0:
390,103,162914,1,0,0:0:0:0:
257,180,163082,1,0,0:0:0:0:
108,41,163251,1,8,0:0:0:0:
168,248,163419,1,0,0:0:0:0:
108,41,163588,1,0,0:0:0:0:
168,248,163756,1,0,0:0:0:0:
365,202,163925,2,0,P|409:206|481:216,1,100,8|0,0:0|0:0,0:0:0:0:
291,362,164262,2,0,P|247:358|175:348,1,100,8|0,0:0|0:0,0:0:0:0:
26,162,164599,6,0,P|17:243|81:361,1,200,4|0,0:3|0:0,0:0:0:0:
220,207,165105,1,0,0:0:0:0:
184,40,165273,2,0,P|132:57|81:91,1,100,8|0,0:0|0:0,0:0:0:0:
220,207,165610,1,0,0:0:0:0:
26,162,165779,1,0,0:0:0:0:
176,331,165947,6,0,L|292:311,1,100,4|0,0:3|0:0,0:0:0:0:
138,98,166284,1,0,0:0:0:0:
98,255,166453,1,0,0:0:0:0:
308,108,166622,2,0,L|282:-35,1,100,8|0,0:0|0:0,0:0:0:0:
438,223,166959,2,0,L|464:80,1,100,0|0,0:0|0:0,0:0:0:0:
238,208,167296,6,0,L|459:224,1,200,4|0,0:3|0:0,0:0:0:0:
294,333,167801,1,0,0:0:0:0:
367,114,167970,1,8,0:0:0:0:
415,306,168138,1,0,0:0:0:0:
367,114,168307,1,0,0:0:0:0:
415,306,168476,1,0,0:0:0:0:
276,211,168644,5,4,0:3:0:0:
488,208,168813,1,0,0:0:0:0:
441,74,168981,1,0,0:0:0:0:
359,320,169150,1,0,0:0:0:0:
189,250,169318,2,0,P|177:216|167:138,1,100,8|0,0:0|0:0,0:0:0:0:
349,20,169655,2,0,L|331:139,1,100,8|0,0:0|0:0,0:0:0:0:
237,344,169992,6,0,P|198:343|103:333,1,100,4|0,0:3|0:0,0:0:0:0:
44,243,170329,1,0,0:0:0:0:
326,227,170498,1,0,0:0:0:0:
26,216,170667,1,8,0:0:0:0:
322,258,170835,1,0,0:0:0:0:
172,101,171004,1,0,0:0:0:0:
185,331,171172,1,0,0:0:0:0:
174,73,171341,6,0,P|244:56|388:91,1,200,2|2,0:0|0:0,0:0:0:0:
368,80,172689,6,0,P|338:83|236:104,1,119.999996337891,4|0,2:0|0:0,0:0:0:0:
97,161,173026,2,0,L|77:37,1,119.999996337891,0|0,0:0|0:0,0:0:0:0:
177,219,173363,2,0,P|77:263|0:160,1,239.999992675781,8|0,0:0|0:0,0:0:0:0:
321,163,173868,1,0,0:0:0:0:
321,164,174037,6,0,P|320:217|316:285,1,119.999996337891,4|0,0:3|0:0,0:0:0:0:
97,161,174374,1,0,0:0:0:0:
199,308,174542,1,0,0:0:0:0:
197,103,174711,1,8,0:0:0:0:
97,321,174880,1,0,0:0:0:0:
10,123,175048,2,0,P|4:89|0:-2,1,119.999996337891,8|0,0:0|0:0,0:0:0:0:
346,184,175385,6,0,P|264:191|106:206,1,239.999992675781,4|0,0:3|0:0,0:0:0:0:
301,337,175891,1,0,0:0:0:0:
479,241,176059,2,0,P|483:190|486:121,1,119.999996337891,8|0,0:0|0:0,0:0:0:0:
242,7,176396,2,0,P|244:66|248:126,1,119.999996337891,0|0,0:0|0:0,0:0:0:0:
452,106,176733,5,4,0:3:0:0:
343,346,176902,1,0,0:0:0:0:
248,126,177071,1,0,0:0:0:0:
479,241,177239,1,0,0:0:0:0:
236,315,177408,2,0,L|97:326,1,119.999996337891,8|0,0:0|0:0,0:0:0:0:
365,77,177745,2,0,P|373:153|381:236,1,119.999996337891,0|0,0:0|0:0,0:0:0:0:
69,87,178082,6,0,P|135:63|188:220,1,239.999992675781,4|0,0:3|0:0,0:0:0:0:
304,40,178587,1,0,0:0:0:0:
127,158,178756,2,0,P|115:213|110:284,1,119.999996337891,8|0,0:0|0:0,0:0:0:0:
326,379,179093,2,0,L|468:357,1,119.999996337891,0|0,0:0|0:0,0:0:0:0:
446,137,179430,5,4,0:3:0:0:
365,293,179599,1,0,0:0:0:0:
316,95,179767,1,0,0:0:0:0:
458,298,179936,1,0,0:0:0:0:
512,40,180104,2,0,P|483:31|366:9,1,119.999996337891,8|0,0:0|0:0,0:0:0:0:
223,243,180441,2,0,P|281:231|339:215,1,119.999996337891,8|0,0:0|0:0,0:0:0:0:
25,45,180778,6,0,P|51:171|96:303,1,239.999992675781,4|0,0:3|0:0,0:0:0:0:
164,102,181284,1,0,0:0:0:0:
265,284,181453,1,8,0:0:0:0:
440,172,181621,1,0,0:0:0:0:
288,116,181790,1,0,0:0:0:0:
415,328,181958,1,0,0:0:0:0:
185,316,182127,5,4,0:3:0:0:
497,153,182295,1,0,0:0:0:0:
221,46,182464,1,0,0:0:0:0:
445,384,182632,1,0,0:0:0:0:
117,362,182801,2,0,P|103:322|90:228,1,119.999996337891,8|0,0:0|0:0,0:0:0:0:
380,248,183138,1,0,0:0:0:0:
271,366,183306,1,0,0:0:0:0:
268,36,183475,6,0,L|261:156,1,119.999996337891,4|0,0:0|0:0,0:0:0:0:
380,248,183812,1,0,0:0:0:0:
126,202,183981,1,0,0:0:0:0:
307,98,184149,1,8,0:0:0:0:
231,325,184318,1,0,0:0:0:0:
55,120,184486,2,0,P|74:55|100:-12,1,119.999996337891,8|0,0:0|0:0,0:0:0:0:
259,175,184823,6,0,P|198:250|29:280,1,239.999992675781,4|0,0:3|0:0,0:0:0:0:
203,33,185329,1,0,0:0:0:0:
481,99,185497,2,0,P|424:98|358:96,1,119.999996337891,8|0,0:0|0:0,0:0:0:0:
83,30,185835,2,0,P|140:31|206:33,1,119.999996337891,8|0,0:0|0:0,0:0:0:0:
279,359,186172,6,0,P|260:230|248:117,1,239.999992675781,4|0,0:3|0:0,0:0:0:0:
393,277,186677,1,0,0:0:0:0:
153,240,186846,2,0,L|132:121,1,119.999996337891,8|0,0:0|0:0,0:0:0:0:
413,34,187183,2,0,P|438:68|421:155,1,119.999996337891,0|0,0:0|0:0,0:0:0:0:
232,27,187520,5,4,0:3:0:0:
318,267,187688,1,0,0:0:0:0:
114,163,187857,1,0,0:0:0:0:
341,280,188026,1,0,0:0:0:0:
503,122,188194,2,0,P|508:83|512:-22,1,119.999996337891,8|0,0:0|0:0,0:0:0:0:
302,74,188531,1,0,0:0:0:0:
491,219,188700,1,0,0:0:0:0:
284,348,188868,6,0,B|164:385|165:291|37:343,1,239.999992675781,4|0,0:3|0:0,0:0:0:0:
186,184,189374,1,0,0:0:0:0:
390,329,189542,2,0,L|404:197,1,119.999996337891,8|0,0:0|0:0,0:0:0:0:
512,4,189880,2,0,P|524:49|481:125,1,119.999996337891,0|0,0:0|0:0,0:0:0:0:
184,25,190217,5,4,0:3:0:0:
294,296,190385,1,0,0:0:0:0:
184,25,190554,1,0,0:0:0:0:
294,296,190722,1,0,0:0:0:0:
56,160,190891,2,0,P|67:103|88:15,1,119.999996337891,0|0,0:0|0:0,0:0:0:0:
212,346,191228,1,8,0:0:0:0:
21,268,191396,1,0,0:0:0:0:
324,143,191565,6,0,P|307:45|177:29,1,239.999992675781,4|0,0:3|0:0,0:0:0:0:
336,334,192071,1,0,0:0:0:0:
466,125,192239,1,8,0:0:0:0:
230,111,192408,1,0,0:0:0:0:
336,334,192576,2,0,L|488:328,1,119.999996337891,0|0,0:0|0:0,0:0:0:0:
122,92,192913,6,0,B|111:197|180:183|155:304,1,200,2|2,0:0|0:0,0:0:0:0:
158,284,194261,6,0,L|229:293,1,50,4|2,0:0|0:0,0:0:0:0:
279,344,194935,2,0,L|328:350,1,50,0|2,0:0|0:0,0:0:0:0:
412,318,195609,2,0,L|421:250,1,50,0|2,0:0|0:0,0:0:0:0:
466,192,196283,2,0,L|475:124,1,50,0|2,0:0|0:0,0:0:0:0:
260,36,196957,6,0,L|266:85,1,50,0|2,0:0|0:0,0:0:0:0:
345,128,197631,2,0,L|351:177,1,50,0|2,0:0|0:0,0:0:0:0:
316,260,198305,2,0,L|309:313,1,50,0|2,0:0|0:0,0:0:0:0:
222,333,198980,2,0,L|215:386,1,50,0|2,0:0|0:0,0:0:0:0:
31,253,199654,6,0,L|92:258,1,50,0|2,0:0|0:0,0:0:0:0:
155,207,200328,2,0,L|216:212,1,50,0|2,0:0|0:0,0:0:0:0:
263,142,201002,2,0,L|324:147,1,50,0|2,0:0|0:0,0:0:0:0:
386,94,201676,2,0,L|447:99,1,50,0|2,0:0|0:0,0:0:0:0:
457,217,202350,6,0,B|411:233|379:207|379:207|353:233|353:233|306:210|261:215,1,200,0|2,0:0|0:0,0:0:0:0:
246,230,204373,1,2,0:0:0:0:
199,261,205047,6,0,P|191:218|181:142,1,119.999996337891,4|0,0:3|0:0,0:0:0:0:
425,169,205384,2,0,P|380:215|295:198,1,119.999996337891,0|0,0:0|0:0,0:0:0:0:
455,54,205721,1,8,0:0:0:0:
403,342,205889,1,0,0:0:0:0:
332,133,206058,1,8,0:0:0:0:
512,255,206226,1,0,0:0:0:0:
268,332,206395,6,0,B|195:302|195:302|106:319|106:319|36:285,1,239.999992675781,4|0,0:3|0:0,0:0:0:0:
37,103,206900,1,0,0:0:0:0:
259,20,207069,2,0,P|280:78|260:168,1,119.999996337891,8|0,0:0|0:0,0:0:0:0:
184,334,207406,2,0,L|327:339,1,119.999996337891,8|0,0:0|0:0,0:0:0:0:
475,183,207743,6,0,P|522:102|385:20,1,239.999992675781,4|0,0:3|0:0,0:0:0:0:
274,135,208249,1,0,0:0:0:0:
372,362,208417,2,0,P|385:303|391:234,1,119.999996337891,8|0,0:0|0:0,0:0:0:0:
146,221,208754,1,0,0:0:0:0:
254,347,208923,1,0,0:0:0:0:
275,135,209091,5,8,0:2:0:0:
254,347,209260,1,0,0:0:0:0:
275,135,209429,1,0,0:0:0:0:
254,347,209597,1,0,0:0:0:0:
138,73,209766,2,0,P|150:136|166:201,1,119.999996337891,8|0,0:0|0:0,0:0:0:0:
394,362,210103,2,0,P|410:323|371:249,1,119.999996337891,8|0,0:0|0:0,0:0:0:0:
15,374,210440,6,0,L|253:347,1,239.999992675781,4|0,0:3|0:0,0:0:0:0:
72,207,210945,1,0,0:0:0:0:
264,48,211114,2,0,L|254:168,1,119.999996337891,8|0,0:0|0:0,0:0:0:0:
383,332,211451,2,0,P|439:324|511:379,1,119.999996337891,0|0,0:0|0:0,0:0:0:0:
273,353,211788,5,4,0:3:0:0:
208,125,211957,1,0,0:0:0:0:
250,358,212125,1,0,0:0:0:0:
293,87,212294,1,0,0:0:0:0:
106,333,212462,2,0,P|60:336|3:283,1,119.999996337891,8|0,0:0|0:0,0:0:0:0:
285,202,212799,2,0,P|337:197|427:195,1,119.999996337891,8|0,0:0|0:0,0:0:0:0:
105,209,213136,6,0,P|90:101|181:6,1,239.999992675781,4|0,0:3|0:0,0:0:0:0:
363,173,213642,1,0,0:0:0:0:
206,97,213811,1,8,0:0:0:0:
306,287,213979,1,0,0:0:0:0:
206,97,214148,1,0,0:0:0:0:
306,287,214316,1,0,0:0:0:0:
309,53,214485,5,4,0:3:0:0:
203,331,214653,1,0,0:0:0:0:
309,53,214822,1,0,0:0:0:0:
203,331,214990,1,0,0:0:0:0:
438,157,215159,2,0,P|432:115|419:27,1,119.999996337891,8|0,0:0|0:0,0:0:0:0:
74,227,215496,2,0,P|80:269|93:357,1,119.999996337891,8|0,0:0|0:0,0:0:0:0:
256,51,215833,6,0,B|213:152|302:153|255:278,1,200,4|0,0:0|0:0,0:0:0:0:
354,109,216339,1,0,0:0:0:0:
164,211,216507,2,0,P|120:209|53:210,1,100,2|0,0:0|0:0,0:0:0:0:
331,331,216844,2,0,P|374:332|442:332,1,100,2|0,0:0|0:0,0:0:0:0:
311,131,217181,6,0,P|321:237|333:351,1,200,2|0,0:0|0:0,0:0:0:0:
180,124,217855,1,2,0:0:0:0:
126,251,218024,1,0,0:0:0:0:
284,235,218193,1,2,0:0:0:0:
180,124,218361,1,0,0:0:0:0:
126,251,218530,6,0,P|188:295|334:329,1,200,2|0,0:0|0:0,0:0:0:0:
452,152,219035,1,0,0:0:0:0:
311,74,219204,2,0,P|317:116|351:269,1,200,2|0,0:0|0:0,0:0:0:0:
467,334,219709,1,0,0:0:0:0:
214,197,219878,6,0,L|228:91,2,100,2|0|0,0:0|0:0|0:0,0:0:0:0:
294,293,220384,1,0,0:0:0:0:
121,133,220552,2,0,P|60:123|8:247,1,200,2|0,0:0|0:0,0:0:0:0:
262,225,221058,6,0,P|241:93|225:15,1,200,2|0,0:0|0:0,0:0:0:0:
366,186,221563,2,0,P|413:190|491:193,1,100,2|0,0:0|0:0,0:0:0:0:
495,31,221900,2,0,P|447:26|370:24,1,100,0|0,0:0|0:0,0:0:0:0:
297,94,222238,5,2,0:0:0:0:
182,127,222406,1,0,0:0:0:0:
96,42,222575,1,2,0:0:0:0:
96,42,225271,6,0,B|201:28|177:106|304:69,2,200,2|2|2,0:0|0:0|0:0,0:0:0:0:
20,137,226957,1,2,0:0:0:0:
