osu file format v14

[General]
AudioFilename: audio.mp3
AudioLeadIn: 0
PreviewTime: 61705
Countdown: 0
SampleSet: Normal
StackLeniency: 0.5
Mode: 1
LetterboxInBreaks: 0
EpilepsyWarning: 1
WidescreenStoryboard: 1

[Editor]
Bookmarks: 19823,41396,61853,74264,85051,95837,106624,128197,151118,161904,172691,183478,194264,205051,215837
DistanceSpacing: 1.6
BeatDivisor: 8
GridSize: 4
TimelineZoom: 2.2

[Metadata]
Title:Despacito ft. Daddy Yankee
TitleUnicode:Despacito ft. Daddy Yankee
Artist:Luis Fonsi
ArtistUnicode:Luis Fonsi
Creator:Monstrata
Version:Chromozzy's Muzukashii
Source:
Tags:realazy linada gero ezek mkguh naotoshi nao tomori frostwich natsu euny snownino_ chromoxx ozzyozrock ascendance spectator starrodkirby86 kirby star rod spanish latin slowly slow reggaeton regueton Despacito & Mis Grandes Éxitos pop puerto rico universal erika ender Ramón Ramon Luis Ayala Rodríguez Rodriguez andres torres mauricio rengifo gangster music smooth romantic blue hair anime girl city sea mexico storyboard
BeatmapID:1416722
BeatmapSetID:665562

[Difficulty]
HPDrainRate:6
CircleSize:2
OverallDifficulty:5
ApproachRate:4
SliderMultiplier:2.8
SliderTickRate:1

[Events]
//Background and Video events
0,0,"R8IfERX.png",0,0
//Break Periods
2,194464,201540
//Storyboard Layer 0 (Background)
Sprite,Background,Centre,"sb/common/pixel.png",320,240 V,0,172691,192916,854,480 F,0,172691,,0.85 F,0,192816,192916,1,0
Sprite,Background,Centre,"sb/common/pixel.png",320,240 V,0,85051,105275,854,480 F,0,85051,,0.85 F,0,105175,105275,1,0
Sprite,Background,Centre,"sb/sprites/fx/00000000.jpg",-103.4417,0 S,0,85051,,0.4447917 L,85051,7 MY,0,0,168,240.1875,242.4836 MY,0,168,252,242.4836,243.5209 MY,0,252,337,243.5209,244.4301 MY,0,337,421,244.4301,245.1763 MY,0,421,505,245.1763,245.7308 MY,0,505,589,245.7308,246.0722 MY,0,589,674,246.0722,246.1875 MY,0,674,758,246.1875,246.0722 MY,0,758,842,246.0722,245.7308 MY,0,842,926,245.7308,245.1763 MY,0,926,1011,245.1763,244.4301 MY,0,1011,1095,244.4301,243.5209 MY,0,1095,1179,243.5209,242.4836 MY,0,1179,1432,242.4836,239.017 MY,0,1432,1601,239.017,236.8541 MY,0,1601,1685,236.8541,235.9449 MY,0,1685,1769,235.9449,235.1987 MY,0,1769,1853,235.1987,234.6442 MY,0,1853,1938,234.6442,234.3028 MY,0,1938,2022,234.3028,234.1875 MY,0,2022,2106,234.1875,234.3028 MY,0,2106,2191,234.3028,234.6442 MY,0,2191,2275,234.6442,235.1987 MY,0,2275,2359,235.1987,235.9449 MY,0,2359,2443,235.9449,236.8541 MY,0,2443,2612,236.8541,239.017 MY,30,103927,105175,239.017,240 F,0,85051,85151,0,1 F,0,105175,105275,1,0
Sprite,Background,Centre,"sb/sprites/fx/00010000.jpg",-96.325,0 S,0,85051,,0.4447917 L,85051,7 MY,0,0,168,240.5015,242.7706 MY,0,168,252,242.7706,243.7775 MY,0,252,337,243.7775,244.6464 MY,0,337,421,244.6464,245.3439 MY,0,421,505,245.3439,245.8434 MY,0,505,589,245.8434,246.1254 MY,0,589,674,246.1254,246.1793 MY,0,674,758,246.1793,246.0029 MY,0,758,842,246.0029,245.603 MY,0,842,926,245.603,244.995 MY,0,926,1011,244.995,244.2023 MY,0,1011,1095,244.2023,243.2553 MY,0,1095,1179,243.2553,242.1903 MY,0,1179,1432,242.1903,238.7106 MY,0,1432,1601,238.7106,236.5975 MY,0,1601,1685,236.5975,235.7286 MY,0,1685,1769,235.7286,235.0311 MY,0,1769,1853,235.0311,234.5316 MY,0,1853,1938,234.5316,234.2496 MY,0,1938,2022,234.2496,234.1957 MY,0,2022,2106,234.1957,234.3721 MY,0,2106,2191,234.3721,234.772 MY,0,2191,2275,234.772,235.38 MY,0,2275,2359,235.38,236.1727 MY,0,2359,2443,236.1727,237.1197 MY,0,2443,2612,237.1197,239.3265 MY,30,103927,105175,239.3265,240 F,0,85051,85151,0,1 F,0,105175,105275,1,0
Sprite,Background,Centre,"sb/sprites/fx/00020000.jpg",-89.20833,0 S,0,85051,,0.4447917 L,85051,7 MY,0,0,168,240.8147,243.0504 MY,0,168,252,243.0504,244.0241 MY,0,252,337,244.0241,244.8504 MY,0,337,421,244.8504,245.4974 MY,0,421,505,245.4974,245.9404 MY,0,505,589,245.9404,246.1623 MY,0,589,674,246.1623,246.1546 MY,0,674,758,246.1546,245.9176 MY,0,758,842,245.9176,245.4604 MY,0,842,926,245.4604,244.8006 MY,0,926,1011,244.8006,243.9634 MY,0,1011,1095,243.9634,242.9812 MY,0,1095,1179,242.9812,241.8916 MY,0,1179,1432,241.8916,238.4082 MY,0,1432,1516,238.4082,237.3246 MY,0,1516,1601,237.3246,236.3509 MY,0,1601,1685,236.3509,235.5246 MY,0,1685,1769,235.5246,234.8776 MY,0,1769,1853,234.8776,234.4346 MY,0,1853,1938,234.4346,234.2127 MY,0,1938,2022,234.2127,234.2204 MY,0,2022,2106,234.2204,234.4574 MY,0,2106,2191,234.4574,234.9146 MY,0,2191,2275,234.9146,235.5744 MY,0,2275,2359,235.5744,236.4116 MY,0,2359,2443,236.4116,237.3938 MY,0,2443,2612,237.3938,239.6385 MY,30,103927,105175,239.6385,240 F,0,85051,85151,0,1 F,0,105175,105275,1,0
Sprite,Background,Centre,"sb/sprites/fx/00030000.jpg",-82.09167,0 S,0,85051,,0.4447917 L,85051,7 MY,0,0,168,241.1261,243.3225 MY,0,168,252,243.3225,244.2603 MY,0,252,337,244.2603,245.0416 MY,0,337,421,245.0416,245.6364 MY,0,421,505,245.6364,246.0217 MY,0,505,589,246.0217,246.1829 MY,0,589,674,246.1829,246.1136 MY,0,674,758,246.1136,245.8167 MY,0,758,842,245.8167,245.3033 MY,0,842,926,245.3033,244.5934 MY,0,926,1011,244.5934,243.7142 MY,0,1011,1179,243.7142,241.5882 MY,0,1179,1432,241.5882,238.1108 MY,0,1432,1516,238.1108,237.0525 MY,0,1516,1601,237.0525,236.1147 MY,0,1601,1685,236.1147,235.3334 MY,0,1685,1769,235.3334,234.7386 MY,0,1769,1853,234.7386,234.3533 MY,0,1853,1938,234.3533,234.1921 MY,0,1938,2022,234.1921,234.2614 MY,0,2022,2106,234.2614,234.5583 MY,0,2106,2191,234.5583,235.0717 MY,0,2191,2275,235.0717,235.7816 MY,0,2275,2359,235.7816,236.6608 MY,0,2359,2443,236.6608,237.6755 MY,0,2443,2612,237.6755,239.9519 MY,30,103927,105175,239.9519,240 F,0,85051,85151,0,1 F,0,105175,105275,1,0
Sprite,Background,Centre,"sb/sprites/fx/00040000.jpg",-74.975,0 S,0,85051,,0.4447917 L,85051,7 MY,0,0,168,241.435,243.5859 MY,0,168,252,243.5859,244.4853 MY,0,252,337,244.4853,245.2195 MY,0,337,421,245.2195,245.7604 MY,0,421,505,245.7604,246.087 MY,0,505,589,246.087,246.187 MY,0,589,674,246.187,246.0564 MY,0,674,758,246.0564,245.7002 MY,0,758,842,245.7002,245.1323 MY,0,842,926,245.1323,244.3742 MY,0,926,1011,244.3742,243.4553 MY,0,1011,1095,243.4553,242.4108 MY,0,1095,1432,242.4108,237.819 MY,0,1432,1516,237.819,236.7891 MY,0,1516,1601,236.7891,235.8897 MY,0,1601,1685,235.8897,235.1555 MY,0,1685,1769,235.1555,234.6146 MY,0,1769,1853,234.6146,234.288 MY,0,1853,1938,234.288,234.188 MY,0,1938,2022,234.188,234.3186 MY,0,2022,2106,234.3186,234.6748 MY,0,2106,2191,234.6748,235.2427 MY,0,2191,2275,235.2427,236.0008 MY,0,2275,2359,236.0008,236.9197 MY,0,2359,2443,236.9197,237.9642 MY,0,2443,2612,237.9642,240.266 MY,30,103927,105175,240.266,240 F,0,85051,85151,0,1 F,0,105175,105275,1,0
Sprite,Background,Centre,"sb/sprites/fx/00050000.jpg",-67.85833,0 S,0,85051,,0.4447917 L,85051,7 MY,0,0,84,241.7404,242.8412 MY,0,84,168,242.8412,243.8401 MY,0,168,252,243.8401,244.6985 MY,0,252,337,244.6985,245.3837 MY,0,337,421,245.3837,245.8691 MY,0,421,505,245.8691,246.1362 MY,0,505,589,246.1362,246.1747 MY,0,589,674,246.1747,245.983 MY,0,674,758,245.983,245.5687 MY,0,758,842,245.5687,244.9476 MY,0,842,926,244.9476,244.1436 MY,0,926,1011,244.1436,243.1875 MY,0,1011,1095,243.1875,242.1161 MY,0,1095,1432,242.1161,237.5338 MY,0,1432,1516,237.5338,236.5349 MY,0,1516,1601,236.5349,235.6765 MY,0,1601,1685,235.6765,234.9913 MY,0,1685,1769,234.9913,234.5059 MY,0,1769,1853,234.5059,234.2388 MY,0,1853,1938,234.2388,234.2003 MY,0,1938,2022,234.2003,234.392 MY,0,2022,2106,234.392,234.8063 MY,0,2106,2191,234.8063,235.4274 MY,0,2191,2275,235.4274,236.2314 MY,0,2275,2359,236.2314,237.1875 MY,0,2359,2443,237.1875,238.2589 MY,0,2443,2612,238.2589,240.5799 MY,30,103927,105175,240.5799,240 F,0,85051,85151,0,1 F,0,105175,105275,1,0
Sprite,Background,Centre,"sb/sprites/fx/00060000.jpg",-60.74167,0 S,0,85051,,0.4447917 L,85051,7 MY,0,0,84,242.0416,243.1192 MY,0,84,168,243.1192,244.0842 MY,0,168,252,244.0842,244.8994 MY,0,252,337,244.8994,245.5335 MY,0,337,421,245.5335,245.9622 MY,0,421,505,245.9622,246.169 MY,0,505,589,246.169,246.1459 MY,0,589,674,246.1459,245.8938 MY,0,674,758,245.8938,245.4225 MY,0,758,842,245.4225,244.7499 MY,0,842,926,244.7499,243.9021 MY,0,926,1011,243.9021,242.9114 MY,0,1011,1095,242.9114,241.8161 MY,0,1095,1348,241.8161,238.3334 MY,0,1348,1432,238.3334,237.2558 MY,0,1432,1516,237.2558,236.2908 MY,0,1516,1601,236.2908,235.4756 MY,0,1601,1685,235.4756,234.8415 MY,0,1685,1769,234.8415,234.4128 MY,0,1769,1853,234.4128,234.206 MY,0,1853,1938,234.206,234.2291 MY,0,1938,2022,234.2291,234.4812 MY,0,2022,2106,234.4812,234.9525 MY,0,2106,2191,234.9525,235.6251 MY,0,2191,2275,235.6251,236.4729 MY,0,2275,2359,236.4729,237.4636 MY,0,2359,2612,237.4636,240.8927 MY,30,103927,105175,240.8927,240 F,0,85051,85151,0,1 F,0,105175,105275,1,0
Sprite,Background,Centre,"sb/sprites/fx/00070000.jpg",-53.625,0 S,0,85051,,0.4447917 L,85051,7 MY,0,0,84,242.3377,243.3892 MY,0,84,168,243.3892,244.3176 MY,0,168,252,244.3176,245.0874 MY,0,252,337,245.0874,245.6688 MY,0,337,421,245.6688,246.0396 MY,0,421,505,246.0396,246.1854 MY,0,505,589,246.1854,246.1008 MY,0,589,674,246.1008,245.789 MY,0,674,758,245.789,245.2619 MY,0,758,842,245.2619,244.5397 MY,0,842,926,244.5397,243.6504 MY,0,926,1095,243.6504,241.5117 MY,0,1095,1348,241.5117,238.0373 MY,0,1348,1432,238.0373,236.9858 MY,0,1432,1516,236.9858,236.0574 MY,0,1516,1601,236.0574,235.2876 MY,0,1601,1685,235.2876,234.7062 MY,0,1685,1769,234.7062,234.3354 MY,0,1769,1853,234.3354,234.1896 MY,0,1853,1938,234.1896,234.2742 MY,0,1938,2022,234.2742,234.586 MY,0,2022,2106,234.586,235.1131 MY,0,2106,2191,235.1131,235.8353 MY,0,2191,2275,235.8353,236.7246 MY,0,2275,2359,236.7246,237.7471 MY,0,2359,2612,237.7471,241.2036 MY,30,103927,105175,241.2036,240 F,0,85051,85151,0,1 F,0,105175,105275,1,0
Sprite,Background,Centre,"sb/sprites/fx/00080000.jpg",-46.50833,0 S,0,85051,,0.4447917 L,85051,7 MY,0,0,84,242.6279,243.6504 MY,0,84,168,243.6504,244.5397 MY,0,168,252,244.5397,245.2619 MY,0,252,337,245.2619,245.789 MY,0,337,421,245.789,246.1008 MY,0,421,505,246.1008,246.1854 MY,0,505,589,246.1854,246.0396 MY,0,589,674,246.0396,245.6688 MY,0,674,758,245.6688,245.0874 MY,0,758,842,245.0874,244.3176 MY,0,842,926,244.3176,243.3892 MY,0,926,1011,243.3892,242.3377 MY,0,1011,1348,242.3377,237.7471 MY,0,1348,1432,237.7471,236.7246 MY,0,1432,1516,236.7246,235.8353 MY,0,1516,1601,235.8353,235.1131 MY,0,1601,1685,235.1131,234.586 MY,0,1685,1769,234.586,234.2742 MY,0,1769,1853,234.2742,234.1896 MY,0,1853,1938,234.1896,234.3354 MY,0,1938,2022,234.3354,234.7062 MY,0,2022,2106,234.7062,235.2876 MY,0,2106,2191,235.2876,236.0574 MY,0,2191,2275,236.0574,236.9858 MY,0,2275,2359,236.9858,238.0373 MY,0,2359,2612,238.0373,241.5117 MY,30,103927,105175,241.5117,240 F,0,85051,85151,0,1 F,0,105175,105275,1,0
Sprite,Background,Centre,"sb/sprites/fx/00090000.jpg",-39.39166,0 S,0,85051,,0.4447917 L,85051,7 MY,0,0,84,242.9114,243.9021 MY,0,84,168,243.9021,244.7499 MY,0,168,252,244.7499,245.4225 MY,0,252,337,245.4225,245.8938 MY,0,337,421,245.8938,246.1459 MY,0,421,505,246.1459,246.169 MY,0,505,589,246.169,245.9622 MY,0,589,674,245.9622,245.5335 MY,0,674,758,245.5335,244.8994 MY,0,758,842,244.8994,244.0842 MY,0,842,926,244.0842,243.1192 MY,0,926,1011,243.1192,242.0416 MY,0,1011,1348,242.0416,237.4636 MY,0,1348,1432,237.4636,236.4729 MY,0,1432,1516,236.4729,235.6251 MY,0,1516,1601,235.6251,234.9525 MY,0,1601,1685,234.9525,234.4812 MY,0,1685,1769,234.4812,234.2291 MY,0,1769,1853,234.2291,234.206 MY,0,1853,1938,234.206,234.4128 MY,0,1938,2022,234.4128,234.8415 MY,0,2022,2106,234.8415,235.4756 MY,0,2106,2191,235.4756,236.2908 MY,0,2191,2275,236.2908,237.2558 MY,0,2275,2359,237.2558,238.3334 MY,0,2359,2612,238.3334,241.8161 MY,30,103927,105175,241.8161,240 F,0,85051,85151,0,1 F,0,105175,105275,1,0
Sprite,Background,Centre,"sb/sprites/fx/000A0000.jpg",-32.27499,0 S,0,85051,,0.4447917 L,85051,7 MY,0,0,84,243.1875,244.1436 MY,0,84,168,244.1436,244.9476 MY,0,168,252,244.9476,245.5687 MY,0,252,337,245.5687,245.983 MY,0,337,421,245.983,246.1747 MY,0,421,505,246.1747,246.1362 MY,0,505,589,246.1362,245.8691 MY,0,589,674,245.8691,245.3837 MY,0,674,758,245.3837,244.6985 MY,0,758,842,244.6985,243.8401 MY,0,842,926,243.8401,242.8412 MY,0,926,1011,242.8412,241.7404 MY,0,1011,1264,241.7404,238.2589 MY,0,1264,1348,238.2589,237.1875 MY,0,1348,1432,237.1875,236.2314 MY,0,1432,1516,236.2314,235.4274 MY,0,1516,1601,235.4274,234.8063 MY,0,1601,1685,234.8063,234.3919 MY,0,1685,1769,234.3919,234.2003 MY,0,1769,1853,234.2003,234.2388 MY,0,1853,1938,234.2388,234.5059 MY,0,1938,2022,234.5059,234.9913 MY,0,2022,2106,234.9913,235.6765 MY,0,2106,2191,235.6765,236.5349 MY,0,2191,2275,236.5349,237.5338 MY,0,2275,2612,237.5338,242.1161 MY,30,103927,105175,242.1161,240 F,0,85051,85151,0,1 F,0,105175,105275,1,0
Sprite,Background,Centre,"sb/sprites/fx/000B0000.jpg",-25.15833,0 S,0,85051,,0.4447917 L,85051,7 MY,0,0,84,243.4553,244.3742 MY,0,84,168,244.3742,245.1323 MY,0,168,252,245.1323,245.7002 MY,0,252,337,245.7002,246.0564 MY,0,337,421,246.0564,246.187 MY,0,421,505,246.187,246.087 MY,0,505,589,246.087,245.7604 MY,0,589,674,245.7604,245.2195 MY,0,674,758,245.2195,244.4853 MY,0,758,842,244.4853,243.5859 MY,0,842,1011,243.5859,241.435 MY,0,1011,1264,241.435,237.9642 MY,0,1264,1348,237.9642,236.9197 MY,0,1348,1432,236.9197,236.0008 MY,0,1432,1516,236.0008,235.2427 MY,0,1516,1601,235.2427,234.6748 MY,0,1601,1685,234.6748,234.3186 MY,0,1685,1769,234.3186,234.188 MY,0,1769,1853,234.188,234.288 MY,0,1853,1938,234.288,234.6146 MY,0,1938,2022,234.6146,235.1555 MY,0,2022,2106,235.1555,235.8897 MY,0,2106,2191,235.8897,236.7891 MY,0,2191,2275,236.7891,237.819 MY,0,2275,2612,237.819,242.4108 MY,30,103927,105175,242.4108,240 F,0,85051,85151,0,1 F,0,105175,105275,1,0
Sprite,Background,Centre,"sb/sprites/fx/000C0000.jpg",-18.04166,0 S,0,85051,,0.4447917 L,85051,7 MY,0,0,84,243.7142,244.5934 MY,0,84,168,244.5934,245.3033 MY,0,168,252,245.3033,245.8167 MY,0,252,337,245.8167,246.1136 MY,0,337,421,246.1136,246.1829 MY,0,421,505,246.1829,246.0217 MY,0,505,589,246.0217,245.6364 MY,0,589,674,245.6364,245.0416 MY,0,674,758,245.0416,244.2603 MY,0,758,842,244.2603,243.3225 MY,0,842,926,243.3225,242.2642 MY,0,926,1264,242.2642,237.6755 MY,0,1264,1348,237.6755,236.6608 MY,0,1348,1432,236.6608,235.7816 MY,0,1432,1516,235.7816,235.0717 MY,0,1516,1601,235.0717,234.5583 MY,0,1601,1685,234.5583,234.2614 MY,0,1685,1769,234.2614,234.1921 MY,0,1769,1853,234.1921,234.3533 MY,0,1853,1938,234.3533,234.7386 MY,0,1938,2022,234.7386,235.3334 MY,0,2022,2106,235.3334,236.1147 MY,0,2106,2191,236.1147,237.0525 MY,0,2191,2275,237.0525,238.1108 MY,0,2275,2612,238.1108,242.6995 MY,30,103927,105175,242.6995,240 F,0,85051,85151,0,1 F,0,105175,105275,1,0
Sprite,Background,Centre,"sb/sprites/fx/000D0000.jpg",-10.925,0 S,0,85051,,0.4447917 L,85051,7 MY,0,0,84,243.9634,244.8006 MY,0,84,168,244.8006,245.4604 MY,0,168,252,245.4604,245.9176 MY,0,252,337,245.9176,246.1546 MY,0,337,421,246.1546,246.1623 MY,0,421,505,246.1623,245.9404 MY,0,505,589,245.9404,245.4974 MY,0,589,674,245.4974,244.8504 MY,0,674,758,244.8504,244.0241 MY,0,758,842,244.0241,243.0504 MY,0,842,926,243.0504,241.9668 MY,0,926,1179,241.9668,238.4834 MY,0,1179,1264,238.4834,237.3938 MY,0,1264,1348,237.3938,236.4116 MY,0,1348,1432,236.4116,235.5744 MY,0,1432,1516,235.5744,234.9146 MY,0,1516,1601,234.9146,234.4574 MY,0,1601,1685,234.4574,234.2204 MY,0,1685,1769,234.2204,234.2127 MY,0,1769,1853,234.2127,234.4346 MY,0,1853,1938,234.4346,234.8776 MY,0,1938,2022,234.8776,235.5246 MY,0,2022,2106,235.5246,236.3509 MY,0,2106,2191,236.3509,237.3246 MY,0,2191,2612,237.3246,242.9812 MY,30,103927,105175,242.9812,240 F,0,85051,85151,0,1 F,0,105175,105275,1,0
Sprite,Background,Centre,"sb/sprites/fx/000E0000.jpg",-3.808335,0 S,0,85051,,0.4447917 L,85051,7 MY,0,0,84,244.2023,244.995 MY,0,84,168,244.995,245.603 MY,0,168,252,245.603,246.0029 MY,0,252,337,246.0029,246.1793 MY,0,337,421,246.1793,246.1254 MY,0,421,505,246.1254,245.8434 MY,0,505,589,245.8434,245.3439 MY,0,589,674,245.3439,244.6464 MY,0,674,758,244.6464,243.7775 MY,0,758,842,243.7775,242.7706 MY,0,842,1179,242.7706,238.1847 MY,0,1179,1264,238.1847,237.1197 MY,0,1264,1348,237.1197,236.1727 MY,0,1348,1432,236.1727,235.38 MY,0,1432,1516,235.38,234.772 MY,0,1516,1601,234.772,234.3721 MY,0,1601,1685,234.3721,234.1957 MY,0,1685,1769,234.1957,234.2496 MY,0,1769,1853,234.2496,234.5316 MY,0,1853,1938,234.5316,235.0311 MY,0,1938,2022,235.0311,235.7286 MY,0,2022,2106,235.7286,236.5975 MY,0,2106,2191,236.5975,237.6044 MY,0,2191,2528,237.6044,242.1903 MY,0,2528,2612,242.1903,243.2553 MY,30,103927,105175,243.2553,240 F,0,85051,85151,0,1 F,0,105175,105275,1,0
Sprite,Background,Centre,"sb/sprites/fx/000F0000.jpg",3.308333,0 S,0,85051,,0.4447917 L,85051,7 MY,0,0,84,244.4301,245.1763 MY,0,84,168,245.1763,245.7308 MY,0,168,252,245.7308,246.0722 MY,0,252,337,246.0722,246.1875 MY,0,337,421,246.1875,246.0722 MY,0,421,505,246.0722,245.7308 MY,0,505,589,245.7308,245.1763 MY,0,589,674,245.1763,244.4301 MY,0,674,758,244.4301,243.5209 MY,0,758,926,243.5209,241.358 MY,0,926,1179,241.358,237.8914 MY,0,1179,1264,237.8914,236.8541 MY,0,1264,1348,236.8541,235.9449 MY,0,1348,1432,235.9449,235.1987 MY,0,1432,1516,235.1987,234.6442 MY,0,1516,1601,234.6442,234.3028 MY,0,1601,1685,234.3028,234.1875 MY,0,1685,1769,234.1875,234.3028 MY,0,1769,1853,234.3028,234.6442 MY,0,1853,1938,234.6442,235.1987 MY,0,1938,2022,235.1987,235.9449 MY,0,2022,2106,235.9449,236.8541 MY,0,2106,2191,236.8541,237.8914 MY,0,2191,2443,237.8914,241.358 MY,0,2443,2612,241.358,243.5209 MY,30,103927,105175,243.5209,240 F,0,85051,85151,0,1 F,0,105175,105275,1,0
Sprite,Background,Centre,"sb/sprites/fx/00100000.jpg",10.425,0 S,0,85051,,0.4447917 L,85051,7 MY,0,0,84,244.6464,245.3439 MY,0,84,168,245.3439,245.8434 MY,0,168,252,245.8434,246.1254 MY,0,252,337,246.1254,246.1793 MY,0,337,421,246.1793,246.0029 MY,0,421,505,246.0029,245.603 MY,0,505,589,245.603,244.995 MY,0,589,674,244.995,244.2023 MY,0,674,758,244.2023,243.2553 MY,0,758,842,243.2553,242.1903 MY,0,842,1179,242.1903,237.6044 MY,0,1179,1264,237.6044,236.5975 MY,0,1264,1348,236.5975,235.7286 MY,0,1348,1432,235.7286,235.0311 MY,0,1432,1516,235.0311,234.5316 MY,0,1516,1601,234.5316,234.2496 MY,0,1601,1685,234.2496,234.1957 MY,0,1685,1769,234.1957,234.3721 MY,0,1769,1853,234.3721,234.772 MY,0,1853,1938,234.772,235.38 MY,0,1938,2022,235.38,236.1727 MY,0,2022,2106,236.1727,237.1197 MY,0,2106,2191,237.1197,238.1847 MY,0,2191,2443,238.1847,241.6644 MY,0,2443,2612,241.6644,243.7775 MY,30,103927,105175,243.7775,240 F,0,85051,85151,0,1 F,0,105175,105275,1,0
Sprite,Background,Centre,"sb/sprites/fx/00110000.jpg",17.54167,0 S,0,85051,,0.4447917 L,85051,7 MY,0,0,84,244.8504,245.4974 MY,0,84,168,245.4974,245.9404 MY,0,168,252,245.9404,246.1623 MY,0,252,337,246.1623,246.1546 MY,0,337,421,246.1546,245.9176 MY,0,421,505,245.9176,245.4604 MY,0,505,589,245.4604,244.8006 MY,0,589,674,244.8006,243.9634 MY,0,674,758,243.9634,242.9812 MY,0,758,842,242.9812,241.8916 MY,0,842,1095,241.8916,238.4082 MY,0,1095,1179,238.4082,237.3245 MY,0,1179,1264,237.3245,236.3509 MY,0,1264,1348,236.3509,235.5246 MY,0,1348,1432,235.5246,234.8776 MY,0,1432,1516,234.8776,234.4346 MY,0,1516,1601,234.4346,234.2127 MY,0,1601,1685,234.2127,234.2204 MY,0,1685,1769,234.2204,234.4574 MY,0,1769,1853,234.4574,234.9146 MY,0,1853,1938,234.9146,235.5744 MY,0,1938,2022,235.5744,236.4116 MY,0,2022,2106,236.4116,237.3938 MY,0,2106,2191,237.3938,238.4834 MY,0,2191,2443,238.4834,241.9668 MY,0,2443,2528,241.9668,243.0504 MY,0,2528,2612,243.0504,244.0241 MY,30,103927,105175,244.0241,240 F,0,85051,85151,0,1 F,0,105175,105275,1,0
Sprite,Background,Centre,"sb/sprites/fx/00120000.jpg",24.65834,0 S,0,85051,,0.4447917 L,85051,7 MY,0,0,84,245.0416,245.6364 MY,0,84,168,245.6364,246.0217 MY,0,168,252,246.0217,246.1829 MY,0,252,337,246.1829,246.1136 MY,0,337,421,246.1136,245.8167 MY,0,421,505,245.8167,245.3033 MY,0,505,589,245.3033,244.5934 MY,0,589,674,244.5934,243.7142 MY,0,674,758,243.7142,242.6995 MY,0,758,1095,242.6995,238.1108 MY,0,1095,1179,238.1108,237.0525 MY,0,1179,1264,237.0525,236.1147 MY,0,1264,1348,236.1147,235.3334 MY,0,1348,1432,235.3334,234.7386 MY,0,1432,1516,234.7386,234.3533 MY,0,1516,1601,234.3533,234.1921 MY,0,1601,1685,234.1921,234.2614 MY,0,1685,1769,234.2614,234.5583 MY,0,1769,1853,234.5583,235.0717 MY,0,1853,1938,235.0717,235.7816 MY,0,1938,2022,235.7816,236.6608 MY,0,2022,2106,236.6608,237.6755 MY,0,2106,2443,237.6755,242.2642 MY,0,2443,2528,242.2642,243.3225 MY,0,2528,2612,243.3225,244.2603 MY,30,103927,105175,244.2603,240 F,0,85051,85151,0,1 F,0,105175,105275,1,0
Sprite,Background,Centre,"sb/sprites/fx/00130000.jpg",31.77501,0 S,0,85051,,0.4447917 L,85051,7 MY,0,0,84,245.2195,245.7604 MY,0,84,168,245.7604,246.087 MY,0,168,252,246.087,246.187 MY,0,252,337,246.187,246.0564 MY,0,337,421,246.0564,245.7002 MY,0,421,505,245.7002,245.1323 MY,0,505,589,245.1323,244.3742 MY,0,589,674,244.3742,243.4553 MY,0,674,758,243.4553,242.4108 MY,0,758,1095,242.4108,237.819 MY,0,1095,1179,237.819,236.7891 MY,0,1179,1264,236.7891,235.8897 MY,0,1264,1348,235.8897,235.1555 MY,0,1348,1432,235.1555,234.6146 MY,0,1432,1516,234.6146,234.288 MY,0,1516,1601,234.288,234.188 MY,0,1601,1685,234.188,234.3186 MY,0,1685,1769,234.3186,234.6748 MY,0,1769,1853,234.6748,235.2427 MY,0,1853,1938,235.2427,236.0008 MY,0,1938,2022,236.0008,236.9197 MY,0,2022,2106,236.9197,237.9642 MY,0,2106,2443,237.9642,242.556 MY,0,2443,2528,242.556,243.5859 MY,0,2528,2612,243.5859,244.4853 MY,30,103927,105175,244.4853,240 F,0,85051,85151,0,1 F,0,105175,105275,1,0
Sprite,Background,Centre,"sb/sprites/fx/00140000.jpg",38.89168,0 S,0,85051,,0.4447917 L,85051,7 MY,0,0,84,245.3837,245.8691 MY,0,84,168,245.8691,246.1362 MY,0,168,252,246.1362,246.1747 MY,0,252,337,246.1747,245.983 MY,0,337,421,245.983,245.5687 MY,0,421,505,245.5687,244.9476 MY,0,505,589,244.9476,244.1436 MY,0,589,674,244.1436,243.1875 MY,0,674,758,243.1875,242.1161 MY,0,758,1095,242.1161,237.5338 MY,0,1095,1179,237.5338,236.5349 MY,0,1179,1264,236.5349,235.6765 MY,0,1264,1348,235.6765,234.9913 MY,0,1348,1432,234.9913,234.5059 MY,0,1432,1516,234.5059,234.2388 MY,0,1516,1601,234.2388,234.2003 MY,0,1601,1685,234.2003,234.392 MY,0,1685,1769,234.392,234.8063 MY,0,1769,1853,234.8063,235.4274 MY,0,1853,1938,235.4274,236.2314 MY,0,1938,2022,236.2314,237.1875 MY,0,2022,2106,237.1875,238.2589 MY,0,2106,2443,238.2589,242.8412 MY,0,2443,2528,242.8412,243.8401 MY,0,2528,2612,243.8401,244.6985 MY,30,103927,105175,244.6985,240 F,0,85051,85151,0,1 F,0,105175,105275,1,0
Sprite,Background,Centre,"sb/sprites/fx/00150000.jpg",46.00833,0 S,0,85051,,0.4447917 L,85051,7 MY,0,0,84,245.5335,245.9622 MY,0,84,168,245.9622,246.169 MY,0,168,252,246.169,246.1459 MY,0,252,337,246.1459,245.8938 MY,0,337,421,245.8938,245.4225 MY,0,421,505,245.4225,244.7499 MY,0,505,589,244.7499,243.9021 MY,0,589,674,243.9021,242.9114 MY,0,674,1011,242.9114,238.3334 MY,0,1011,1095,238.3334,237.2558 MY,0,1095,1179,237.2558,236.2908 MY,0,1179,1264,236.2908,235.4756 MY,0,1264,1348,235.4756,234.8415 MY,0,1348,1432,234.8415,234.4128 MY,0,1432,1516,234.4128,234.206 MY,0,1516,1601,234.206,234.2291 MY,0,1601,1685,234.2291,234.4812 MY,0,1685,1769,234.4812,234.9525 MY,0,1769,1853,234.9525,235.6251 MY,0,1853,1938,235.6251,236.4729 MY,0,1938,2022,236.4729,237.4636 MY,0,2022,2359,237.4636,242.0416 MY,0,2359,2443,242.0416,243.1192 MY,0,2443,2528,243.1192,244.0842 MY,0,2528,2612,244.0842,244.8994 MY,30,103927,105175,244.8994,240 F,0,85051,85151,0,1 F,0,105175,105275,1,0
Sprite,Background,Centre,"sb/sprites/fx/00160000.jpg",53.125,0 S,0,85051,,0.4447917 L,85051,7 MY,0,0,84,245.6688,246.0396 MY,0,84,168,246.0396,246.1854 MY,0,168,252,246.1854,246.1008 MY,0,252,337,246.1008,245.789 MY,0,337,421,245.789,245.2619 MY,0,421,505,245.2619,244.5397 MY,0,505,589,244.5397,243.6504 MY,0,589,674,243.6504,242.6279 MY,0,674,1011,242.6279,238.0373 MY,0,1011,1095,238.0373,236.9858 MY,0,1095,1179,236.9858,236.0574 MY,0,1179,1264,236.0574,235.2876 MY,0,1264,1348,235.2876,234.7062 MY,0,1348,1432,234.7062,234.3354 MY,0,1432,1516,234.3354,234.1896 MY,0,1516,1601,234.1896,234.2742 MY,0,1601,1685,234.2742,234.586 MY,0,1685,1769,234.586,235.1131 MY,0,1769,1853,235.1131,235.8353 MY,0,1853,1938,235.8353,236.7246 MY,0,1938,2022,236.7246,237.7471 MY,0,2022,2359,237.7471,242.3377 MY,0,2359,2443,242.3377,243.3892 MY,0,2443,2528,243.3892,244.3176 MY,0,2528,2612,244.3176,245.0874 MY,30,103927,105175,245.0874,240 F,0,85051,85151,0,1 F,0,105175,105275,1,0
Sprite,Background,Centre,"sb/sprites/fx/00170000.jpg",60.24167,0 S,0,85051,,0.4447917 L,85051,7 MY,0,0,84,245.789,246.1008 MY,0,84,168,246.1008,246.1854 MY,0,168,252,246.1854,246.0396 MY,0,252,337,246.0396,245.6688 MY,0,337,421,245.6688,245.0873 MY,0,421,505,245.0873,244.3176 MY,0,505,589,244.3176,243.3892 MY,0,589,674,243.3892,242.3377 MY,0,674,1011,242.3377,237.7471 MY,0,1011,1095,237.7471,236.7246 MY,0,1095,1179,236.7246,235.8353 MY,0,1179,1264,235.8353,235.1131 MY,0,1264,1348,235.1131,234.586 MY,0,1348,1432,234.586,234.2742 MY,0,1432,1516,234.2742,234.1896 MY,0,1516,1601,234.1896,234.3354 MY,0,1601,1685,234.3354,234.7062 MY,0,1685,1769,234.7062,235.2877 MY,0,1769,1853,235.2877,236.0574 MY,0,1853,1938,236.0574,236.9858 MY,0,1938,2022,236.9858,238.0373 MY,0,2022,2359,238.0373,242.6279 MY,0,2359,2443,242.6279,243.6504 MY,0,2443,2528,243.6504,244.5397 MY,0,2528,2612,244.5397,245.2619 MY,30,103927,105175,245.2619,240 F,0,85051,85151,0,1 F,0,105175,105275,1,0
Sprite,Background,Centre,"sb/sprites/fx/00180000.jpg",67.35834,0 S,0,85051,,0.4447917 L,85051,7 MY,0,0,84,245.8938,246.1459 MY,0,84,168,246.1459,246.169 MY,0,168,252,246.169,245.9622 MY,0,252,337,245.9622,245.5335 MY,0,337,421,245.5335,244.8994 MY,0,421,505,244.8994,244.0842 MY,0,505,589,244.0842,243.1192 MY,0,589,674,243.1192,242.0416 MY,0,674,1011,242.0416,237.4636 MY,0,1011,1095,237.4636,236.4729 MY,0,1095,1179,236.4729,235.6251 MY,0,1179,1264,235.6251,234.9525 MY,0,1264,1348,234.9525,234.4812 MY,0,1348,1432,234.4812,234.2291 MY,0,1432,1516,234.2291,234.206 MY,0,1516,1601,234.206,234.4128 MY,0,1601,1685,234.4128,234.8415 MY,0,1685,1769,234.8415,235.4756 MY,0,1769,1853,235.4756,236.2908 MY,0,1853,1938,236.2908,237.2558 MY,0,1938,2022,237.2558,238.3334 MY,0,2022,2359,238.3334,242.9114 MY,0,2359,2443,242.9114,243.9021 MY,0,2443,2528,243.9021,244.7499 MY,0,2528,2612,244.7499,245.4225 MY,30,103927,105175,245.4225,240 F,0,85051,85151,0,1 F,0,105175,105275,1,0
Sprite,Background,Centre,"sb/sprites/fx/00190000.jpg",74.47501,0 S,0,85051,,0.4447917 L,85051,7 MY,0,0,84,245.983,246.1747 MY,0,84,168,246.1747,246.1362 MY,0,168,252,246.1362,245.8691 MY,0,252,337,245.8691,245.3837 MY,0,337,421,245.3837,244.6985 MY,0,421,505,244.6985,243.8401 MY,0,505,589,243.8401,242.8412 MY,0,589,926,242.8412,238.2589 MY,0,926,1011,238.2589,237.1875 MY,0,1011,1095,237.1875,236.2314 MY,0,1095,1179,236.2314,235.4274 MY,0,1179,1264,235.4274,234.8063 MY,0,1264,1348,234.8063,234.392 MY,0,1348,1432,234.392,234.2003 MY,0,1432,1516,234.2003,234.2388 MY,0,1516,1601,234.2388,234.5059 MY,0,1601,1685,234.5059,234.9913 MY,0,1685,1769,234.9913,235.6765 MY,0,1769,1853,235.6765,236.5349 MY,0,1853,1938,236.5349,237.5338 MY,0,1938,2275,237.5338,242.1161 MY,0,2275,2359,242.1161,243.1875 MY,0,2359,2443,243.1875,244.1436 MY,0,2443,2528,244.1436,244.9476 MY,0,2528,2612,244.9476,245.5687 MY,30,103927,105175,245.5687,240 F,0,85051,85151,0,1 F,0,105175,105275,1,0
Sprite,Background,Centre,"sb/sprites/fx/001A0000.jpg",81.59167,0 S,0,85051,,0.4447917 L,85051,7 MY,0,0,84,246.0564,246.187 MY,0,84,168,246.187,246.087 MY,0,168,252,246.087,245.7604 MY,0,252,337,245.7604,245.2195 MY,0,337,421,245.2195,244.4853 MY,0,421,505,244.4853,243.5859 MY,0,505,674,243.5859,241.435 MY,0,674,926,241.435,237.9642 MY,0,926,1011,237.9642,236.9197 MY,0,1011,1095,236.9197,236.0008 MY,0,1095,1179,236.0008,235.2427 MY,0,1179,1264,235.2427,234.6748 MY,0,1264,1348,234.6748,234.3186 MY,0,1348,1432,234.3186,234.188 MY,0,1432,1516,234.188,234.288 MY,0,1516,1601,234.288,234.6146 MY,0,1601,1685,234.6146,235.1555 MY,0,1685,1769,235.1555,235.8897 MY,0,1769,1853,235.8897,236.7891 MY,0,1853,1938,236.7891,237.819 MY,0,1938,2275,237.819,242.4108 MY,0,2275,2359,242.4108,243.4553 MY,0,2359,2443,243.4553,244.3742 MY,0,2443,2528,244.3742,245.1323 MY,0,2528,2612,245.1323,245.7002 MY,30,103927,105175,245.7002,240 F,0,85051,85151,0,1 F,0,105175,105275,1,0
Sprite,Background,Centre,"sb/sprites/fx/001B0000.jpg",88.70834,0 S,0,85051,,0.4447917 L,85051,7 MY,0,0,84,246.1136,246.1829 MY,0,84,168,246.1829,246.0217 MY,0,168,252,246.0217,245.6364 MY,0,252,337,245.6364,245.0416 MY,0,337,421,245.0416,244.2603 MY,0,421,505,244.2603,243.3225 MY,0,505,589,243.3225,242.2642 MY,0,589,926,242.2642,237.6755 MY,0,926,1011,237.6755,236.6608 MY,0,1011,1095,236.6608,235.7816 MY,0,1095,1179,235.7816,235.0717 MY,0,1179,1264,235.0717,234.5583 MY,0,1264,1348,234.5583,234.2614 MY,0,1348,1432,234.2614,234.1921 MY,0,1432,1516,234.1921,234.3533 MY,0,1516,1601,234.3533,234.7386 MY,0,1601,1685,234.7386,235.3334 MY,0,1685,1769,235.3334,236.1147 MY,0,1769,1853,236.1147,237.0525 MY,0,1853,1938,237.0525,238.1108 MY,0,1938,2191,238.1108,241.5882 MY,0,2191,2359,241.5882,243.7142 MY,0,2359,2443,243.7142,244.5934 MY,0,2443,2528,244.5934,245.3033 MY,0,2528,2612,245.3033,245.8167 MY,30,103927,105175,245.8167,240 F,0,85051,85151,0,1 F,0,105175,105275,1,0
Sprite,Background,Centre,"sb/sprites/fx/001C0000.jpg",95.825,0 S,0,85051,,0.4447917 L,85051,7 MY,0,0,84,246.1546,246.1623 MY,0,84,168,246.1623,245.9404 MY,0,168,252,245.9404,245.4974 MY,0,252,337,245.4974,244.8504 MY,0,337,421,244.8504,244.0241 MY,0,421,505,244.0241,243.0504 MY,0,505,926,243.0504,237.3938 MY,0,926,1011,237.3938,236.4116 MY,0,1011,1095,236.4116,235.5744 MY,0,1095,1179,235.5744,234.9146 MY,0,1179,1264,234.9146,234.4574 MY,0,1264,1348,234.4574,234.2204 MY,0,1348,1432,234.2204,234.2127 MY,0,1432,1516,234.2127,234.4346 MY,0,1516,1601,234.4346,234.8776 MY,0,1601,1685,234.8776,235.5246 MY,0,1685,1769,235.5246,236.3509 MY,0,1769,1853,236.3509,237.3246 MY,0,1853,1938,237.3246,238.4082 MY,0,1938,2191,238.4082,241.8916 MY,0,2191,2275,241.8916,242.9812 MY,0,2275,2359,242.9812,243.9634 MY,0,2359,2443,243.9634,244.8006 MY,0,2443,2528,244.8006,245.4604 MY,0,2528,2612,245.4604,245.9176 MY,30,103927,105175,245.9176,240 F,0,85051,85151,0,1 F,0,105175,105275,1,0
Sprite,Background,Centre,"sb/sprites/fx/001D0000.jpg",102.9417,0 S,0,85051,,0.4447917 L,85051,7 MY,0,0,84,246.1793,246.1254 MY,0,84,168,246.1254,245.8434 MY,0,168,252,245.8434,245.3439 MY,0,252,337,245.3439,244.6464 MY,0,337,421,244.6464,243.7775 MY,0,421,505,243.7775,242.7706 MY,0,505,842,242.7706,238.1847 MY,0,842,926,238.1847,237.1197 MY,0,926,1011,237.1197,236.1727 MY,0,1011,1095,236.1727,235.38 MY,0,1095,1179,235.38,234.772 MY,0,1179,1264,234.772,234.3721 MY,0,1264,1348,234.3721,234.1957 MY,0,1348,1432,234.1957,234.2496 MY,0,1432,1516,234.2496,234.5316 MY,0,1516,1601,234.5316,235.0311 MY,0,1601,1685,235.0311,235.7286 MY,0,1685,1769,235.7286,236.5975 MY,0,1769,1853,236.5975,237.6044 MY,0,1853,2191,237.6044,242.1903 MY,0,2191,2275,242.1903,243.2553 MY,0,2275,2359,243.2553,244.2023 MY,0,2359,2443,244.2023,244.995 MY,0,2443,2528,244.995,245.603 MY,0,2528,2612,245.603,246.0029 MY,30,103927,105175,246.0029,240 F,0,85051,85151,0,1 F,0,105175,105275,1,0
Sprite,Background,Centre,"sb/sprites/fx/001E0000.jpg",110.0583,0 S,0,85051,,0.4447917 L,85051,7 MY,0,0,84,246.1875,246.0722 MY,0,84,168,246.0722,245.7308 MY,0,168,252,245.7308,245.1763 MY,0,252,337,245.1763,244.4301 MY,0,337,421,244.4301,243.5209 MY,0,421,505,243.5209,242.4836 MY,0,505,842,242.4836,237.8914 MY,0,842,926,237.8914,236.8541 MY,0,926,1011,236.8541,235.9449 MY,0,1011,1095,235.9449,235.1987 MY,0,1095,1179,235.1987,234.6442 MY,0,1179,1264,234.6442,234.3028 MY,0,1264,1348,234.3028,234.1875 MY,0,1348,1432,234.1875,234.3028 MY,0,1432,1516,234.3028,234.6442 MY,0,1516,1601,234.6442,235.1987 MY,0,1601,1685,235.1987,235.9449 MY,0,1685,1769,235.9449,236.8541 MY,0,1769,1853,236.8541,237.8914 MY,0,1853,2106,237.8914,241.358 MY,0,2106,2275,241.358,243.5209 MY,0,2275,2359,243.5209,244.4301 MY,0,2359,2443,244.4301,245.1763 MY,0,2443,2528,245.1763,245.7308 MY,0,2528,2612,245.7308,246.0722 MY,30,103927,105175,246.0722,240 F,0,85051,85151,0,1 F,0,105175,105275,1,0
Sprite,Background,Centre,"sb/sprites/fx/001F0000.jpg",117.175,0 S,0,85051,,0.4447917 L,85051,7 MY,0,0,84,246.1793,246.0029 MY,0,84,168,246.0029,245.603 MY,0,168,252,245.603,244.995 MY,0,252,337,244.995,244.2023 MY,0,337,421,244.2023,243.2553 MY,0,421,505,243.2553,242.1903 MY,0,505,842,242.1903,237.6044 MY,0,842,926,237.6044,236.5975 MY,0,926,1011,236.5975,235.7286 MY,0,1011,1095,235.7286,235.0311 MY,0,1095,1179,235.0311,234.5316 MY,0,1179,1264,234.5316,234.2496 MY,0,1264,1348,234.2496,234.1957 MY,0,1348,1432,234.1957,234.3721 MY,0,1432,1516,234.3721,234.772 MY,0,1516,1601,234.772,235.38 MY,0,1601,1685,235.38,236.1727 MY,0,1685,1769,236.1727,237.1197 MY,0,1769,1853,237.1197,238.1847 MY,0,1853,2106,238.1847,241.6644 MY,0,2106,2275,241.6644,243.7775 MY,0,2275,2359,243.7775,244.6464 MY,0,2359,2443,244.6464,245.3439 MY,0,2443,2528,245.3439,245.8434 MY,0,2528,2612,245.8434,246.1254 MY,30,103927,105175,246.1254,240 F,0,85051,85151,0,1 F,0,105175,105275,1,0
Sprite,Background,Centre,"sb/sprites/fx/00200000.jpg",124.2917,0 S,0,85051,,0.4447917 L,85051,7 MY,0,0,84,246.1546,245.9176 MY,0,84,168,245.9176,245.4604 MY,0,168,252,245.4604,244.8006 MY,0,252,337,244.8006,243.9634 MY,0,337,421,243.9634,242.9812 MY,0,421,505,242.9812,241.8916 MY,0,505,758,241.8916,238.4082 MY,0,758,842,238.4082,237.3245 MY,0,842,926,237.3245,236.3509 MY,0,926,1011,236.3509,235.5246 MY,0,1011,1095,235.5246,234.8776 MY,0,1095,1179,234.8776,234.4346 MY,0,1179,1264,234.4346,234.2127 MY,0,1264,1348,234.2127,234.2204 MY,0,1348,1432,234.2204,234.4574 MY,0,1432,1516,234.4574,234.9146 MY,0,1516,1601,234.9146,235.5744 MY,0,1601,1685,235.5744,236.4116 MY,0,1685,1769,236.4116,237.3938 MY,0,1769,1853,237.3938,238.4834 MY,0,1853,2106,238.4834,241.9668 MY,0,2106,2191,241.9668,243.0505 MY,0,2191,2275,243.0505,244.0241 MY,0,2275,2359,244.0241,244.8504 MY,0,2359,2443,244.8504,245.4974 MY,0,2443,2528,245.4974,245.9404 MY,0,2528,2612,245.9404,246.1623 MY,30,103927,105175,246.1623,240 F,0,85051,85151,0,1 F,0,105175,105275,1,0
Sprite,Background,Centre,"sb/sprites/fx/00210000.jpg",131.4083,0 S,0,85051,,0.4447917 L,85051,7 MY,0,0,84,246.1136,245.8167 MY,0,84,168,245.8167,245.3033 MY,0,168,252,245.3033,244.5934 MY,0,252,337,244.5934,243.7142 MY,0,337,505,243.7142,241.5882 MY,0,505,758,241.5882,238.1108 MY,0,758,842,238.1108,237.0525 MY,0,842,926,237.0525,236.1147 MY,0,926,1011,236.1147,235.3334 MY,0,1011,1095,235.3334,234.7386 MY,0,1095,1179,234.7386,234.3533 MY,0,1179,1264,234.3533,234.1921 MY,0,1264,1348,234.1921,234.2614 MY,0,1348,1432,234.2614,234.5583 MY,0,1432,1516,234.5583,235.0717 MY,0,1516,1601,235.0717,235.7816 MY,0,1601,1685,235.7816,236.6608 MY,0,1685,1769,236.6608,237.6755 MY,0,1769,2106,237.6755,242.2642 MY,0,2106,2191,242.2642,243.3225 MY,0,2191,2275,243.3225,244.2603 MY,0,2275,2359,244.2603,245.0416 MY,0,2359,2443,245.0416,245.6364 MY,0,2443,2528,245.6364,246.0217 MY,0,2528,2612,246.0217,246.1829 MY,30,103927,105175,246.1829,240 F,0,85051,85151,0,1 F,0,105175,105275,1,0
Sprite,Background,Centre,"sb/sprites/fx/00220000.jpg",138.525,0 S,0,85051,,0.4447917 L,85051,7 MY,0,0,84,246.0564,245.7002 MY,0,84,168,245.7002,245.1323 MY,0,168,252,245.1323,244.3742 MY,0,252,337,244.3742,243.4553 MY,0,337,421,243.4553,242.4108 MY,0,421,758,242.4108,237.819 MY,0,758,842,237.819,236.7891 MY,0,842,926,236.7891,235.8897 MY,0,926,1011,235.8897,235.1555 MY,0,1011,1095,235.1555,234.6146 MY,0,1095,1179,234.6146,234.288 MY,0,1179,1264,234.288,234.188 MY,0,1264,1348,234.188,234.3186 MY,0,1348,1432,234.3186,234.6748 MY,0,1432,1516,234.6748,235.2427 MY,0,1516,1601,235.2427,236.0008 MY,0,1601,1685,236.0008,236.9197 MY,0,1685,1769,236.9197,237.9642 MY,0,1769,2106,237.9642,242.556 MY,0,2106,2191,242.556,243.5859 MY,0,2191,2275,243.5859,244.4853 MY,0,2275,2359,244.4853,245.2195 MY,0,2359,2443,245.2195,245.7604 MY,0,2443,2528,245.7604,246.087 MY,0,2528,2612,246.087,246.187 MY,30,103927,105175,246.187,240 F,0,85051,85151,0,1 F,0,105175,105275,1,0
Sprite,Background,Centre,"sb/sprites/fx/00230000.jpg",145.6417,0 S,0,85051,,0.4447917 L,85051,7 MY,0,0,84,245.983,245.5687 MY,0,84,168,245.5687,244.9476 MY,0,168,252,244.9476,244.1436 MY,0,252,337,244.1436,243.1875 MY,0,337,421,243.1875,242.1161 MY,0,421,758,242.1161,237.5338 MY,0,758,842,237.5338,236.5349 MY,0,842,926,236.5349,235.6765 MY,0,926,1011,235.6765,234.9913 MY,0,1011,1095,234.9913,234.5059 MY,0,1095,1179,234.5059,234.2388 MY,0,1179,1264,234.2388,234.2003 MY,0,1264,1348,234.2003,234.392 MY,0,1348,1432,234.392,234.8063 MY,0,1432,1516,234.8063,235.4274 MY,0,1516,1601,235.4274,236.2314 MY,0,1601,1685,236.2314,237.1875 MY,0,1685,1769,237.1875,238.2589 MY,0,1769,2106,238.2589,242.8412 MY,0,2106,2191,242.8412,243.8401 MY,0,2191,2275,243.8401,244.6985 MY,0,2275,2359,244.6985,245.3837 MY,0,2359,2443,245.3837,245.8691 MY,0,2443,2528,245.8691,246.1362 MY,0,2528,2612,246.1362,246.1747 MY,30,103927,105175,246.1747,240 F,0,85051,85151,0,1 F,0,105175,105275,1,0
Sprite,Background,Centre,"sb/sprites/fx/00240000.jpg",152.7583,0 S,0,85051,,0.4447917 L,85051,7 MY,0,0,84,245.8938,245.4225 MY,0,84,168,245.4225,244.7499 MY,0,168,252,244.7499,243.9021 MY,0,252,337,243.9021,242.9114 MY,0,337,421,242.9114,241.8161 MY,0,421,674,241.8161,238.3334 MY,0,674,758,238.3334,237.2558 MY,0,758,842,237.2558,236.2908 MY,0,842,926,236.2908,235.4756 MY,0,926,1011,235.4756,234.8415 MY,0,1011,1095,234.8415,234.4128 MY,0,1095,1179,234.4128,234.206 MY,0,1179,1264,234.206,234.2291 MY,0,1264,1348,234.2291,234.4812 MY,0,1348,1432,234.4812,234.9525 MY,0,1432,1516,234.9525,235.6251 MY,0,1516,1601,235.6251,236.4729 MY,0,1601,1685,236.4729,237.4636 MY,0,1685,2022,237.4636,242.0416 MY,0,2022,2106,242.0416,243.1192 MY,0,2106,2191,243.1192,244.0842 MY,0,2191,2275,244.0842,244.8994 MY,0,2275,2359,244.8994,245.5335 MY,0,2359,2443,245.5335,245.9622 MY,0,2443,2528,245.9622,246.169 MY,0,2528,2612,246.169,246.1459 MY,30,103927,105175,246.1459,240 F,0,85051,85151,0,1 F,0,105175,105275,1,0
Sprite,Background,Centre,"sb/sprites/fx/00250000.jpg",159.875,0 S,0,85051,,0.4447917 L,85051,7 MY,0,0,84,245.789,245.2619 MY,0,84,168,245.2619,244.5397 MY,0,168,252,244.5397,243.6504 MY,0,252,421,243.6504,241.5117 MY,0,421,674,241.5117,238.0373 MY,0,674,758,238.0373,236.9858 MY,0,758,842,236.9858,236.0574 MY,0,842,926,236.0574,235.2876 MY,0,926,1011,235.2876,234.7062 MY,0,1011,1095,234.7062,234.3354 MY,0,1095,1179,234.3354,234.1896 MY,0,1179,1264,234.1896,234.2742 MY,0,1264,1348,234.2742,234.586 MY,0,1348,1432,234.586,235.1131 MY,0,1432,1516,235.1131,235.8353 MY,0,1516,1601,235.8353,236.7246 MY,0,1601,1685,236.7246,237.7471 MY,0,1685,2022,237.7471,242.3377 MY,0,2022,2106,242.3377,243.3892 MY,0,2106,2191,243.3892,244.3176 MY,0,2191,2275,244.3176,245.0874 MY,0,2275,2359,245.0874,245.6688 MY,0,2359,2443,245.6688,246.0396 MY,0,2443,2528,246.0396,246.1854 MY,0,2528,2612,246.1854,246.1008 MY,30,103927,105175,246.1008,240 F,0,85051,85151,0,1 F,0,105175,105275,1,0
Sprite,Background,Centre,"sb/sprites/fx/00260000.jpg",166.9917,0 S,0,85051,,0.4447917 L,85051,7 MY,0,0,84,245.6688,245.0874 MY,0,84,168,245.0874,244.3176 MY,0,168,252,244.3176,243.3892 MY,0,252,337,243.3892,242.3377 MY,0,337,674,242.3377,237.7471 MY,0,674,758,237.7471,236.7246 MY,0,758,842,236.7246,235.8353 MY,0,842,926,235.8353,235.1131 MY,0,926,1011,235.1131,234.586 MY,0,1011,1095,234.586,234.2742 MY,0,1095,1179,234.2742,234.1896 MY,0,1179,1264,234.1896,234.3354 MY,0,1264,1348,234.3354,234.7062 MY,0,1348,1432,234.7062,235.2877 MY,0,1432,1516,235.2877,236.0574 MY,0,1516,1601,236.0574,236.9858 MY,0,1601,1685,236.9858,238.0373 MY,0,1685,2022,238.0373,242.6279 MY,0,2022,2106,242.6279,243.6504 MY,0,2106,2191,243.6504,244.5397 MY,0,2191,2275,244.5397,245.2619 MY,0,2275,2359,245.2619,245.789 MY,0,2359,2443,245.789,246.1008 MY,0,2443,2528,246.1008,246.1854 MY,0,2528,2612,246.1854,246.0396 MY,30,103927,105175,246.0396,240 F,0,85051,85151,0,1 F,0,105175,105275,1,0
Sprite,Background,Centre,"sb/sprites/fx/00270000.jpg",174.1084,0 S,0,85051,,0.4447917 L,85051,7 MY,0,0,84,245.5335,244.8994 MY,0,84,168,244.8994,244.0842 MY,0,168,252,244.0842,243.1192 MY,0,252,337,243.1192,242.0416 MY,0,337,674,242.0416,237.4636 MY,0,674,758,237.4636,236.4729 MY,0,758,842,236.4729,235.6251 MY,0,842,926,235.6251,234.9525 MY,0,926,1011,234.9525,234.4812 MY,0,1011,1095,234.4812,234.2291 MY,0,1095,1179,234.2291,234.206 MY,0,1179,1264,234.206,234.4128 MY,0,1264,1348,234.4128,234.8415 MY,0,1348,1432,234.8415,235.4756 MY,0,1432,1516,235.4756,236.2908 MY,0,1516,1601,236.2908,237.2558 MY,0,1601,1685,237.2558,238.3334 MY,0,1685,2022,238.3334,242.9114 MY,0,2022,2106,242.9114,243.9021 MY,0,2106,2191,243.9021,244.7499 MY,0,2191,2275,244.7499,245.4225 MY,0,2275,2359,245.4225,245.8938 MY,0,2359,2443,245.8938,246.1459 MY,0,2443,2528,246.1459,246.169 MY,0,2528,2612,246.169,245.9622 MY,30,103927,105175,245.9622,240 F,0,85051,85151,0,1 F,0,105175,105275,1,0
Sprite,Background,Centre,"sb/sprites/fx/00280000.jpg",181.225,0 S,0,85051,,0.4447917 L,85051,7 MY,0,0,84,245.3837,244.6985 MY,0,84,168,244.6985,243.8401 MY,0,168,252,243.8401,242.8412 MY,0,252,589,242.8412,238.2589 MY,0,589,674,238.2589,237.1875 MY,0,674,758,237.1875,236.2314 MY,0,758,842,236.2314,235.4274 MY,0,842,926,235.4274,234.8063 MY,0,926,1011,234.8063,234.392 MY,0,1011,1095,234.392,234.2003 MY,0,1095,1179,234.2003,234.2388 MY,0,1179,1264,234.2388,234.5059 MY,0,1264,1348,234.5059,234.9913 MY,0,1348,1432,234.9913,235.6765 MY,0,1432,1516,235.6765,236.5349 MY,0,1516,1601,236.5349,237.5338 MY,0,1601,1938,237.5338,242.1161 MY,0,1938,2022,242.1161,243.1875 MY,0,2022,2106,243.1875,244.1436 MY,0,2106,2191,244.1436,244.9476 MY,0,2191,2275,244.9476,245.5687 MY,0,2275,2359,245.5687,245.9831 MY,0,2359,2443,245.9831,246.1747 MY,0,2443,2528,246.1747,246.1362 MY,0,2528,2612,246.1362,245.8691 MY,30,103927,105175,245.8691,240 F,0,85051,85151,0,1 F,0,105175,105275,1,0
Sprite,Background,Centre,"sb/sprites/fx/00290000.jpg",188.3417,0 S,0,85051,,0.4447917 L,85051,7 MY,0,0,84,245.2195,244.4853 MY,0,84,168,244.4853,243.5859 MY,0,168,337,243.5859,241.435 MY,0,337,589,241.435,237.9642 MY,0,589,674,237.9642,236.9197 MY,0,674,758,236.9197,236.0008 MY,0,758,842,236.0008,235.2427 MY,0,842,926,235.2427,234.6748 MY,0,926,1011,234.6748,234.3186 MY,0,1011,1095,234.3186,234.188 MY,0,1095,1179,234.188,234.288 MY,0,1179,1264,234.288,234.6146 MY,0,1264,1348,234.6146,235.1555 MY,0,1348,1432,235.1555,235.8897 MY,0,1432,1516,235.8897,236.7891 MY,0,1516,1601,236.7891,237.819 MY,0,1601,1938,237.819,242.4108 MY,0,1938,2022,242.4108,243.4553 MY,0,2022,2106,243.4553,244.3742 MY,0,2106,2191,244.3742,245.1323 MY,0,2191,2275,245.1323,245.7002 MY,0,2275,2359,245.7002,246.0564 MY,0,2359,2443,246.0564,246.187 MY,0,2443,2528,246.187,246.087 MY,0,2528,2612,246.087,245.7604 MY,30,103927,105175,245.7604,240 F,0,85051,85151,0,1 F,0,105175,105275,1,0
Sprite,Background,Centre,"sb/sprites/fx/002A0000.jpg",195.4583,0 S,0,85051,,0.4447917 L,85051,7 MY,0,0,84,245.0416,244.2603 MY,0,84,168,244.2603,243.3225 MY,0,168,252,243.3225,242.2642 MY,0,252,589,242.2642,237.6755 MY,0,589,674,237.6755,236.6608 MY,0,674,758,236.6608,235.7816 MY,0,758,842,235.7816,235.0717 MY,0,842,926,235.0717,234.5583 MY,0,926,1011,234.5583,234.2614 MY,0,1011,1095,234.2614,234.1921 MY,0,1095,1179,234.1921,234.3533 MY,0,1179,1264,234.3533,234.7386 MY,0,1264,1348,234.7386,235.3334 MY,0,1348,1432,235.3334,236.1147 MY,0,1432,1516,236.1147,237.0525 MY,0,1516,1601,237.0525,238.1108 MY,0,1601,1938,238.1108,242.6995 MY,0,1938,2022,242.6995,243.7142 MY,0,2022,2106,243.7142,244.5934 MY,0,2106,2191,244.5934,245.3033 MY,0,2191,2275,245.3033,245.8167 MY,0,2275,2359,245.8167,246.1136 MY,0,2359,2443,246.1136,246.1829 MY,0,2443,2528,246.1829,246.0217 MY,0,2528,2612,246.0217,245.6364 MY,30,103927,105175,245.6364,240 F,0,85051,85151,0,1 F,0,105175,105275,1,0
Sprite,Background,Centre,"sb/sprites/fx/002B0000.jpg",202.575,0 S,0,85051,,0.4447917 L,85051,7 MY,0,0,84,244.8504,244.0241 MY,0,84,168,244.0241,243.0504 MY,0,168,589,243.0504,237.3938 MY,0,589,674,237.3938,236.4116 MY,0,674,758,236.4116,235.5744 MY,0,758,842,235.5744,234.9146 MY,0,842,926,234.9146,234.4574 MY,0,926,1011,234.4574,234.2204 MY,0,1011,1095,234.2204,234.2127 MY,0,1095,1179,234.2127,234.4346 MY,0,1179,1264,234.4346,234.8776 MY,0,1264,1348,234.8776,235.5246 MY,0,1348,1432,235.5246,236.3509 MY,0,1432,1516,236.3509,237.3246 MY,0,1516,1601,237.3246,238.4082 MY,0,1601,1853,238.4082,241.8916 MY,0,1853,1938,241.8916,242.9812 MY,0,1938,2022,242.9812,243.9634 MY,0,2022,2106,243.9634,244.8006 MY,0,2106,2191,244.8006,245.4604 MY,0,2191,2275,245.4604,245.9176 MY,0,2275,2359,245.9176,246.1546 MY,0,2359,2443,246.1546,246.1623 MY,0,2443,2528,246.1623,245.9404 MY,0,2528,2612,245.9404,245.4974 MY,30,103927,105175,245.4974,240 F,0,85051,85151,0,1 F,0,105175,105275,1,0
Sprite,Background,Centre,"sb/sprites/fx/002C0000.jpg",209.6917,0 S,0,85051,,0.4447917 L,85051,7 MY,0,0,84,244.6464,243.7775 MY,0,84,168,243.7775,242.7706 MY,0,168,505,242.7706,238.1847 MY,0,505,589,238.1847,237.1197 MY,0,589,674,237.1197,236.1727 MY,0,674,758,236.1727,235.38 MY,0,758,842,235.38,234.772 MY,0,842,926,234.772,234.3721 MY,0,926,1011,234.3721,234.1957 MY,0,1011,1095,234.1957,234.2496 MY,0,1095,1179,234.2496,234.5316 MY,0,1179,1264,234.5316,235.0311 MY,0,1264,1348,235.0311,235.7286 MY,0,1348,1432,235.7286,236.5975 MY,0,1432,1516,236.5975,237.6044 MY,0,1516,1853,237.6044,242.1903 MY,0,1853,1938,242.1903,243.2553 MY,0,1938,2022,243.2553,244.2023 MY,0,2022,2106,244.2023,244.995 MY,0,2106,2191,244.995,245.603 MY,0,2191,2275,245.603,246.0029 MY,0,2275,2359,246.0029,246.1793 MY,0,2359,2443,246.1793,246.1254 MY,0,2443,2528,246.1254,245.8434 MY,0,2528,2612,245.8434,245.3439 MY,30,103927,105175,245.3439,240 F,0,85051,85151,0,1 F,0,105175,105275,1,0
Sprite,Background,Centre,"sb/sprites/fx/002D0000.jpg",216.8083,0 S,0,85051,,0.4447917 L,85051,7 MY,0,0,84,244.4301,243.5209 MY,0,84,168,243.5209,242.4836 MY,0,168,505,242.4836,237.8914 MY,0,505,589,237.8914,236.8541 MY,0,589,674,236.8541,235.9449 MY,0,674,758,235.9449,235.1987 MY,0,758,842,235.1987,234.6442 MY,0,842,926,234.6442,234.3028 MY,0,926,1011,234.3028,234.1875 MY,0,1011,1095,234.1875,234.3028 MY,0,1095,1179,234.3028,234.6442 MY,0,1179,1264,234.6442,235.1987 MY,0,1264,1348,235.1987,235.9449 MY,0,1348,1432,235.9449,236.8541 MY,0,1432,1516,236.8541,237.8914 MY,0,1516,1769,237.8914,241.358 MY,0,1769,1938,241.358,243.5209 MY,0,1938,2022,243.5209,244.4301 MY,0,2022,2106,244.4301,245.1763 MY,0,2106,2191,245.1763,245.7308 MY,0,2191,2275,245.7308,246.0722 MY,0,2275,2359,246.0722,246.1875 MY,0,2359,2443,246.1875,246.0722 MY,0,2443,2528,246.0722,245.7308 MY,0,2528,2612,245.7308,245.1763 MY,30,103927,105175,245.1763,240 F,0,85051,85151,0,1 F,0,105175,105275,1,0
Sprite,Background,Centre,"sb/sprites/fx/002E0000.jpg",223.925,0 S,0,85051,,0.4447917 L,85051,7 MY,0,0,84,244.2023,243.2553 MY,0,84,168,243.2553,242.1903 MY,0,168,505,242.1903,237.6044 MY,0,505,589,237.6044,236.5975 MY,0,589,674,236.5975,235.7286 MY,0,674,758,235.7286,235.0311 MY,0,758,842,235.0311,234.5316 MY,0,842,926,234.5316,234.2496 MY,0,926,1011,234.2496,234.1957 MY,0,1011,1095,234.1957,234.3721 MY,0,1095,1179,234.3721,234.772 MY,0,1179,1264,234.772,235.38 MY,0,1264,1348,235.38,236.1727 MY,0,1348,1432,236.1727,237.1197 MY,0,1432,1516,237.1197,238.1847 MY,0,1516,1853,238.1847,242.7706 MY,0,1853,1938,242.7706,243.7775 MY,0,1938,2022,243.7775,244.6464 MY,0,2022,2106,244.6464,245.3439 MY,0,2106,2191,245.3439,245.8434 MY,0,2191,2275,245.8434,246.1254 MY,0,2275,2359,246.1254,246.1793 MY,0,2359,2443,246.1793,246.0029 MY,0,2443,2528,246.0029,245.603 MY,0,2528,2612,245.603,244.995 MY,30,103927,105175,244.995,240 F,0,85051,85151,0,1 F,0,105175,105275,1,0
Sprite,Background,Centre,"sb/sprites/fx/002F0000.jpg",231.0417,0 S,0,85051,,0.4447917 L,85051,7 MY,0,0,84,243.9634,242.9812 MY,0,84,168,242.9812,241.8916 MY,0,168,421,241.8916,238.4082 MY,0,421,505,238.4082,237.3245 MY,0,505,589,237.3245,236.3509 MY,0,589,674,236.3509,235.5246 MY,0,674,758,235.5246,234.8776 MY,0,758,842,234.8776,234.4346 MY,0,842,926,234.4346,234.2127 MY,0,926,1011,234.2127,234.2204 MY,0,1011,1095,234.2204,234.4574 MY,0,1095,1179,234.4574,234.9146 MY,0,1179,1264,234.9146,235.5744 MY,0,1264,1348,235.5744,236.4116 MY,0,1348,1432,236.4116,237.3938 MY,0,1432,1516,237.3938,238.4834 MY,0,1516,1769,238.4834,241.9668 MY,0,1769,1853,241.9668,243.0505 MY,0,1853,1938,243.0505,244.0241 MY,0,1938,2022,244.0241,244.8504 MY,0,2022,2106,244.8504,245.4974 MY,0,2106,2191,245.4974,245.9404 MY,0,2191,2275,245.9404,246.1623 MY,0,2275,2359,246.1623,246.1546 MY,0,2359,2443,246.1546,245.9176 MY,0,2443,2528,245.9176,245.4604 MY,0,2528,2612,245.4604,244.8006 MY,30,103927,105175,244.8006,240 F,0,85051,85151,0,1 F,0,105175,105275,1,0
Sprite,Background,Centre,"sb/sprites/fx/00300000.jpg",238.1583,0 S,0,85051,,0.4447917 L,85051,7 MY,0,0,168,243.7142,241.5882 MY,0,168,421,241.5882,238.1108 MY,0,421,505,238.1108,237.0525 MY,0,505,589,237.0525,236.1147 MY,0,589,674,236.1147,235.3334 MY,0,674,758,235.3334,234.7386 MY,0,758,842,234.7386,234.3533 MY,0,842,926,234.3533,234.1921 MY,0,926,1011,234.1921,234.2614 MY,0,1011,1095,234.2614,234.5583 MY,0,1095,1179,234.5583,235.0717 MY,0,1179,1264,235.0717,235.7816 MY,0,1264,1348,235.7816,236.6608 MY,0,1348,1432,236.6608,237.6755 MY,0,1432,1769,237.6755,242.2642 MY,0,1769,1853,242.2642,243.3225 MY,0,1853,1938,243.3225,244.2603 MY,0,1938,2022,244.2603,245.0416 MY,0,2022,2106,245.0416,245.6364 MY,0,2106,2191,245.6364,246.0217 MY,0,2191,2275,246.0217,246.1829 MY,0,2275,2359,246.1829,246.1136 MY,0,2359,2443,246.1136,245.8167 MY,0,2443,2528,245.8167,245.3033 MY,0,2528,2612,245.3033,244.5934 MY,30,103927,105175,244.5934,240 F,0,85051,85151,0,1 F,0,105175,105275,1,0
Sprite,Background,Centre,"sb/sprites/fx/00310000.jpg",245.275,0 S,0,85051,,0.4447917 L,85051,7 MY,0,0,84,243.4553,242.4108 MY,0,84,421,242.4108,237.819 MY,0,421,505,237.819,236.7891 MY,0,505,589,236.7891,235.8897 MY,0,589,674,235.8897,235.1555 MY,0,674,758,235.1555,234.6146 MY,0,758,842,234.6146,234.288 MY,0,842,926,234.288,234.188 MY,0,926,1011,234.188,234.3186 MY,0,1011,1095,234.3186,234.6748 MY,0,1095,1179,234.6748,235.2427 MY,0,1179,1264,235.2427,236.0008 MY,0,1264,1348,236.0008,236.9197 MY,0,1348,1432,236.9197,237.9642 MY,0,1432,1685,237.9642,241.435 MY,0,1685,1853,241.435,243.5859 MY,0,1853,1938,243.5859,244.4853 MY,0,1938,2022,244.4853,245.2195 MY,0,2022,2106,245.2195,245.7604 MY,0,2106,2191,245.7604,246.087 MY,0,2191,2275,246.087,246.187 MY,0,2275,2359,246.187,246.0564 MY,0,2359,2443,246.0564,245.7002 MY,0,2443,2528,245.7002,245.1323 MY,0,2528,2612,245.1323,244.3742 MY,30,103927,105175,244.3742,240 F,0,85051,85151,0,1 F,0,105175,105275,1,0
Sprite,Background,Centre,"sb/sprites/fx/00320000.jpg",252.3917,0 S,0,85051,,0.4447917 L,85051,7 MY,0,0,84,243.1875,242.1161 MY,0,84,421,242.1161,237.5338 MY,0,421,505,237.5338,236.5349 MY,0,505,589,236.5349,235.6765 MY,0,589,674,235.6765,234.9913 MY,0,674,758,234.9913,234.5059 MY,0,758,842,234.5059,234.2388 MY,0,842,926,234.2388,234.2003 MY,0,926,1011,234.2003,234.392 MY,0,1011,1095,234.392,234.8063 MY,0,1095,1179,234.8063,235.4274 MY,0,1179,1264,235.4274,236.2314 MY,0,1264,1348,236.2314,237.1875 MY,0,1348,1432,237.1875,238.2589 MY,0,1432,1769,238.2589,242.8412 MY,0,1769,1853,242.8412,243.8401 MY,0,1853,1938,243.8401,244.6985 MY,0,1938,2022,244.6985,245.3837 MY,0,2022,2106,245.3837,245.8691 MY,0,2106,2191,245.8691,246.1362 MY,0,2191,2275,246.1362,246.1747 MY,0,2275,2359,246.1747,245.983 MY,0,2359,2443,245.983,245.5687 MY,0,2443,2528,245.5687,244.9476 MY,0,2528,2612,244.9476,244.1436 MY,30,103927,105175,244.1436,240 F,0,85051,85151,0,1 F,0,105175,105275,1,0
Sprite,Background,Centre,"sb/sprites/fx/00330000.jpg",259.5083,0 S,0,85051,,0.4447917 L,85051,7 MY,0,0,337,242.9114,238.3334 MY,0,337,421,238.3334,237.2558 MY,0,421,505,237.2558,236.2908 MY,0,505,589,236.2908,235.4756 MY,0,589,674,235.4756,234.8415 MY,0,674,758,234.8415,234.4128 MY,0,758,842,234.4128,234.206 MY,0,842,926,234.206,234.2291 MY,0,926,1011,234.2291,234.4812 MY,0,1011,1095,234.4812,234.9525 MY,0,1095,1179,234.9525,235.6251 MY,0,1179,1264,235.6251,236.4729 MY,0,1264,1348,236.4729,237.4636 MY,0,1348,1432,237.4636,238.5589 MY,0,1432,1685,238.5589,242.0416 MY,0,1685,1769,242.0416,243.1192 MY,0,1769,1853,243.1192,244.0842 MY,0,1853,1938,244.0842,244.8994 MY,0,1938,2022,244.8994,245.5335 MY,0,2022,2106,245.5335,245.9622 MY,0,2106,2191,245.9622,246.169 MY,0,2191,2275,246.169,246.1459 MY,0,2275,2359,246.1459,245.8938 MY,0,2359,2443,245.8938,245.4225 MY,0,2443,2528,245.4225,244.7499 MY,0,2528,2612,244.7499,243.9021 MY,30,103927,105175,243.9021,240 F,0,85051,85151,0,1 F,0,105175,105275,1,0
Sprite,Background,Centre,"sb/sprites/fx/00340000.jpg",266.625,0 S,0,85051,,0.4447917 L,85051,7 MY,0,0,337,242.6279,238.0373 MY,0,337,421,238.0373,236.9858 MY,0,421,505,236.9858,236.0574 MY,0,505,589,236.0574,235.2876 MY,0,589,674,235.2876,234.7062 MY,0,674,758,234.7062,234.3354 MY,0,758,842,234.3354,234.1896 MY,0,842,926,234.1896,234.2742 MY,0,926,1011,234.2742,234.586 MY,0,1011,1095,234.586,235.1131 MY,0,1095,1179,235.1131,235.8353 MY,0,1179,1264,235.8353,236.7246 MY,0,1264,1348,236.7246,237.7471 MY,0,1348,1685,237.7471,242.3377 MY,0,1685,1769,242.3377,243.3892 MY,0,1769,1853,243.3892,244.3176 MY,0,1853,1938,244.3176,245.0874 MY,0,1938,2022,245.0874,245.6688 MY,0,2022,2106,245.6688,246.0396 MY,0,2106,2191,246.0396,246.1854 MY,0,2191,2275,246.1854,246.1008 MY,0,2275,2359,246.1008,245.789 MY,0,2359,2443,245.789,245.2619 MY,0,2443,2528,245.2619,244.5397 MY,0,2528,2612,244.5397,243.6504 MY,30,103927,105175,243.6504,240 F,0,85051,85151,0,1 F,0,105175,105275,1,0
Sprite,Background,Centre,"sb/sprites/fx/00350000.jpg",273.7417,0 S,0,85051,,0.4447917 L,85051,7 MY,0,0,337,242.3377,237.7471 MY,0,337,421,237.7471,236.7246 MY,0,421,505,236.7246,235.8353 MY,0,505,589,235.8353,235.1131 MY,0,589,674,235.1131,234.586 MY,0,674,758,234.586,234.2742 MY,0,758,842,234.2742,234.1896 MY,0,842,926,234.1896,234.3354 MY,0,926,1011,234.3354,234.7062 MY,0,1011,1095,234.7062,235.2876 MY,0,1095,1179,235.2876,236.0574 MY,0,1179,1264,236.0574,236.9858 MY,0,1264,1348,236.9858,238.0373 MY,0,1348,1601,238.0373,241.5117 MY,0,1601,1769,241.5117,243.6504 MY,0,1769,1853,243.6504,244.5397 MY,0,1853,1938,244.5397,245.2619 MY,0,1938,2022,245.2619,245.789 MY,0,2022,2106,245.789,246.1008 MY,0,2106,2191,246.1008,246.1854 MY,0,2191,2275,246.1854,246.0396 MY,0,2275,2359,246.0396,245.6688 MY,0,2359,2443,245.6688,245.0874 MY,0,2443,2528,245.0874,244.3176 MY,0,2528,2612,244.3176,243.3892 MY,30,103927,105175,243.3892,240 F,0,85051,85151,0,1 F,0,105175,105275,1,0
Sprite,Background,Centre,"sb/sprites/fx/00360000.jpg",280.8583,0 S,0,85051,,0.4447917 L,85051,7 MY,0,0,337,242.0416,237.4636 MY,0,337,421,237.4636,236.4729 MY,0,421,505,236.4729,235.6251 MY,0,505,589,235.6251,234.9525 MY,0,589,674,234.9525,234.4812 MY,0,674,758,234.4812,234.2291 MY,0,758,842,234.2291,234.206 MY,0,842,926,234.206,234.4128 MY,0,926,1011,234.4128,234.8415 MY,0,1011,1095,234.8415,235.4756 MY,0,1095,1179,235.4756,236.2908 MY,0,1179,1264,236.2908,237.2558 MY,0,1264,1348,237.2558,238.3334 MY,0,1348,1601,238.3334,241.8161 MY,0,1601,1685,241.8161,242.9114 MY,0,1685,1769,242.9114,243.9021 MY,0,1769,1853,243.9021,244.7499 MY,0,1853,1938,244.7499,245.4225 MY,0,1938,2022,245.4225,245.8938 MY,0,2022,2106,245.8938,246.1459 MY,0,2106,2191,246.1459,246.169 MY,0,2191,2275,246.169,245.9622 MY,0,2275,2359,245.9622,245.5335 MY,0,2359,2443,245.5335,244.8994 MY,0,2443,2528,244.8994,244.0842 MY,0,2528,2612,244.0842,243.1192 MY,30,103927,105175,243.1192,240 F,0,85051,85151,0,1 F,0,105175,105275,1,0
Sprite,Background,Centre,"sb/sprites/fx/00370000.jpg",287.975,0 S,0,85051,,0.4447917 L,85051,7 MY,0,0,252,241.7404,238.2589 MY,0,252,337,238.2589,237.1875 MY,0,337,421,237.1875,236.2314 MY,0,421,505,236.2314,235.4274 MY,0,505,589,235.4274,234.8063 MY,0,589,674,234.8063,234.3919 MY,0,674,758,234.3919,234.2003 MY,0,758,842,234.2003,234.2388 MY,0,842,926,234.2388,234.5059 MY,0,926,1011,234.5059,234.9913 MY,0,1011,1095,234.9913,235.6765 MY,0,1095,1179,235.6765,236.5349 MY,0,1179,1264,236.5349,237.5338 MY,0,1264,1601,237.5338,242.1161 MY,0,1601,1685,242.1161,243.1875 MY,0,1685,1769,243.1875,244.1436 MY,0,1769,1853,244.1436,244.9476 MY,0,1853,1938,244.9476,245.5687 MY,0,1938,2022,245.5687,245.9831 MY,0,2022,2106,245.9831,246.1747 MY,0,2106,2191,246.1747,246.1362 MY,0,2191,2275,246.1362,245.8691 MY,0,2275,2359,245.8691,245.3837 MY,0,2359,2443,245.3837,244.6985 MY,0,2443,2528,244.6985,243.8401 MY,0,2528,2612,243.8401,242.8412 MY,30,103927,105175,242.8412,240 F,0,85051,85151,0,1 F,0,105175,105275,1,0
Sprite,Background,Centre,"sb/sprites/fx/00380000.jpg",295.0916,0 S,0,85051,,0.4447917 L,85051,7 MY,0,0,252,241.435,237.9642 MY,0,252,337,237.9642,236.9197 MY,0,337,421,236.9197,236.0008 MY,0,421,505,236.0008,235.2427 MY,0,505,589,235.2427,234.6748 MY,0,589,674,234.6748,234.3186 MY,0,674,758,234.3186,234.188 MY,0,758,842,234.188,234.288 MY,0,842,926,234.288,234.6146 MY,0,926,1011,234.6146,235.1555 MY,0,1011,1095,235.1555,235.8897 MY,0,1095,1179,235.8897,236.7891 MY,0,1179,1264,236.7891,237.819 MY,0,1264,1601,237.819,242.4108 MY,0,1601,1685,242.4108,243.4553 MY,0,1685,1769,243.4553,244.3742 MY,0,1769,1853,244.3742,245.1323 MY,0,1853,1938,245.1323,245.7002 MY,0,1938,2022,245.7002,246.0564 MY,0,2022,2106,246.0564,246.187 MY,0,2106,2191,246.187,246.087 MY,0,2191,2275,246.087,245.7604 MY,0,2275,2359,245.7604,245.2195 MY,0,2359,2443,245.2195,244.4853 MY,0,2443,2528,244.4853,243.5859 MY,0,2528,2612,243.5859,242.556 MY,30,103927,105175,242.556,240 F,0,85051,85151,0,1 F,0,105175,105275,1,0
Sprite,Background,Centre,"sb/sprites/fx/00390000.jpg",302.2083,0 S,0,85051,,0.4447917 L,85051,7 MY,0,0,252,241.1261,237.6755 MY,0,252,337,237.6755,236.6608 MY,0,337,421,236.6608,235.7816 MY,0,421,505,235.7816,235.0717 MY,0,505,589,235.0717,234.5583 MY,0,589,674,234.5583,234.2614 MY,0,674,758,234.2614,234.1921 MY,0,758,842,234.1921,234.3533 MY,0,842,926,234.3533,234.7386 MY,0,926,1011,234.7386,235.3334 MY,0,1011,1095,235.3334,236.1147 MY,0,1095,1179,236.1147,237.0525 MY,0,1179,1264,237.0525,238.1108 MY,0,1264,1516,238.1108,241.5882 MY,0,1516,1685,241.5882,243.7142 MY,0,1685,1769,243.7142,244.5934 MY,0,1769,1853,244.5934,245.3033 MY,0,1853,1938,245.3033,245.8167 MY,0,1938,2022,245.8167,246.1136 MY,0,2022,2106,246.1136,246.1829 MY,0,2106,2191,246.1829,246.0217 MY,0,2191,2275,246.0217,245.6364 MY,0,2275,2359,245.6364,245.0416 MY,0,2359,2443,245.0416,244.2603 MY,0,2443,2528,244.2603,243.3225 MY,0,2528,2612,243.3225,242.2642 MY,30,103927,105175,242.2642,240 F,0,85051,85151,0,1 F,0,105175,105275,1,0
Sprite,Background,Centre,"sb/sprites/fx/003A0000.jpg",309.325,0 S,0,85051,,0.4447917 L,85051,7 MY,0,0,168,240.8147,238.4834 MY,0,168,252,238.4834,237.3938 MY,0,252,337,237.3938,236.4116 MY,0,337,421,236.4116,235.5744 MY,0,421,505,235.5744,234.9146 MY,0,505,589,234.9146,234.4574 MY,0,589,674,234.4574,234.2204 MY,0,674,758,234.2204,234.2127 MY,0,758,842,234.2127,234.4346 MY,0,842,926,234.4346,234.8776 MY,0,926,1011,234.8776,235.5246 MY,0,1011,1095,235.5246,236.3509 MY,0,1095,1179,236.3509,237.3246 MY,0,1179,1264,237.3246,238.4082 MY,0,1264,1516,238.4082,241.8916 MY,0,1516,1601,241.8916,242.9812 MY,0,1601,1685,242.9812,243.9634 MY,0,1685,1769,243.9634,244.8006 MY,0,1769,1853,244.8006,245.4604 MY,0,1853,1938,245.4604,245.9176 MY,0,1938,2022,245.9176,246.1546 MY,0,2022,2106,246.1546,246.1623 MY,0,2106,2191,246.1623,245.9404 MY,0,2191,2275,245.9404,245.4974 MY,0,2275,2359,245.4974,244.8504 MY,0,2359,2443,244.8504,244.0241 MY,0,2443,2528,244.0241,243.0504 MY,0,2528,2612,243.0504,241.9668 MY,30,103927,105175,241.9668,240 F,0,85051,85151,0,1 F,0,105175,105275,1,0
Sprite,Background,Centre,"sb/sprites/fx/003B0000.jpg",316.4417,0 S,0,85051,,0.4447917 L,85051,7 MY,0,0,168,240.5015,238.1847 MY,0,168,252,238.1847,237.1197 MY,0,252,337,237.1197,236.1727 MY,0,337,421,236.1727,235.38 MY,0,421,505,235.38,234.772 MY,0,505,589,234.772,234.3721 MY,0,589,674,234.3721,234.1957 MY,0,674,758,234.1957,234.2496 MY,0,758,842,234.2496,234.5316 MY,0,842,926,234.5316,235.0311 MY,0,926,1011,235.0311,235.7286 MY,0,1011,1095,235.7286,236.5975 MY,0,1095,1179,236.5975,237.6044 MY,0,1179,1516,237.6044,242.1903 MY,0,1516,1601,242.1903,243.2553 MY,0,1601,1685,243.2553,244.2023 MY,0,1685,1769,244.2023,244.995 MY,0,1769,1853,244.995,245.603 MY,0,1853,1938,245.603,246.0029 MY,0,1938,2022,246.0029,246.1793 MY,0,2022,2106,246.1793,246.1254 MY,0,2106,2191,246.1254,245.8434 MY,0,2191,2275,245.8434,245.3439 MY,0,2275,2359,245.3439,244.6464 MY,0,2359,2443,244.6464,243.7775 MY,0,2443,2612,243.7775,241.6644 MY,30,103927,105175,241.6644,240 F,0,85051,85151,0,1 F,0,105175,105275,1,0
Sprite,Background,Centre,"sb/sprites/fx/003C0000.jpg",323.5583,0 S,0,85051,,0.4447917 L,85051,7 MY,0,0,168,240.1875,237.8914 MY,0,168,252,237.8914,236.8541 MY,0,252,337,236.8541,235.9449 MY,0,337,421,235.9449,235.1987 MY,0,421,505,235.1987,234.6442 MY,0,505,589,234.6442,234.3028 MY,0,589,674,234.3028,234.1875 MY,0,674,758,234.1875,234.3028 MY,0,758,842,234.3028,234.6442 MY,0,842,926,234.6442,235.1987 MY,0,926,1011,235.1987,235.9449 MY,0,1011,1095,235.9449,236.8541 MY,0,1095,1179,236.8541,237.8914 MY,0,1179,1432,237.8914,241.358 MY,0,1432,1601,241.358,243.5209 MY,0,1601,1685,243.5209,244.4301 MY,0,1685,1769,244.4301,245.1763 MY,0,1769,1853,245.1763,245.7308 MY,0,1853,1938,245.7308,246.0722 MY,0,1938,2022,246.0722,246.1875 MY,0,2022,2106,246.1875,246.0722 MY,0,2106,2191,246.0722,245.7308 MY,0,2191,2275,245.7308,245.1763 MY,0,2275,2359,245.1763,244.4301 MY,0,2359,2443,244.4301,243.5209 MY,0,2443,2612,243.5209,241.358 MY,30,103927,105175,241.358,240 F,0,85051,85151,0,1 F,0,105175,105275,1,0
Sprite,Background,Centre,"sb/sprites/fx/003D0000.jpg",330.675,0 S,0,85051,,0.4447917 L,85051,7 MY,0,0,168,239.8735,237.6044 MY,0,168,252,237.6044,236.5975 MY,0,252,337,236.5975,235.7286 MY,0,337,421,235.7286,235.0311 MY,0,421,505,235.0311,234.5316 MY,0,505,589,234.5316,234.2496 MY,0,589,674,234.2496,234.1957 MY,0,674,758,234.1957,234.3721 MY,0,758,842,234.3721,234.772 MY,0,842,926,234.772,235.38 MY,0,926,1011,235.38,236.1727 MY,0,1011,1095,236.1727,237.1197 MY,0,1095,1179,237.1197,238.1847 MY,0,1179,1432,238.1847,241.6644 MY,0,1432,1601,241.6644,243.7775 MY,0,1601,1685,243.7775,244.6464 MY,0,1685,1769,244.6464,245.3439 MY,0,1769,1853,245.3439,245.8434 MY,0,1853,1938,245.8434,246.1254 MY,0,1938,2022,246.1254,246.1793 MY,0,2022,2106,246.1793,246.0029 MY,0,2106,2191,246.0029,245.603 MY,0,2191,2275,245.603,244.995 MY,0,2275,2359,244.995,244.2023 MY,0,2359,2443,244.2023,243.2553 MY,0,2443,2612,243.2553,241.0485 MY,30,103927,105175,241.0485,240 F,0,85051,85151,0,1 F,0,105175,105275,1,0
Sprite,Background,Centre,"sb/sprites/fx/003E0000.jpg",337.7917,0 S,0,85051,,0.4447917 L,85051,7 MY,0,0,168,239.5603,237.3245 MY,0,168,252,237.3245,236.3509 MY,0,252,337,236.3509,235.5246 MY,0,337,421,235.5246,234.8776 MY,0,421,505,234.8776,234.4346 MY,0,505,589,234.4346,234.2127 MY,0,589,674,234.2127,234.2204 MY,0,674,758,234.2204,234.4574 MY,0,758,842,234.4574,234.9146 MY,0,842,926,234.9146,235.5744 MY,0,926,1011,235.5744,236.4116 MY,0,1011,1095,236.4116,237.3938 MY,0,1095,1179,237.3938,238.4834 MY,0,1179,1432,238.4834,241.9668 MY,0,1432,1516,241.9668,243.0505 MY,0,1516,1601,243.0505,244.0241 MY,0,1601,1685,244.0241,244.8504 MY,0,1685,1769,244.8504,245.4974 MY,0,1769,1853,245.4974,245.9404 MY,0,1853,1938,245.9404,246.1623 MY,0,1938,2022,246.1623,246.1546 MY,0,2022,2106,246.1546,245.9176 MY,0,2106,2191,245.9176,245.4604 MY,0,2191,2275,245.4604,244.8006 MY,0,2275,2359,244.8006,243.9634 MY,0,2359,2443,243.9634,242.9812 MY,0,2443,2612,242.9812,240.7365 MY,30,103927,105175,240.7365,240 F,0,85051,85151,0,1 F,0,105175,105275,1,0
Sprite,Background,Centre,"sb/sprites/fx/003F0000.jpg",344.9083,0 S,0,85051,,0.4447917 L,85051,7 MY,0,0,168,239.2489,237.0525 MY,0,168,252,237.0525,236.1147 MY,0,252,337,236.1147,235.3334 MY,0,337,421,235.3334,234.7386 MY,0,421,505,234.7386,234.3533 MY,0,505,589,234.3533,234.1921 MY,0,589,674,234.1921,234.2614 MY,0,674,758,234.2614,234.5583 MY,0,758,842,234.5583,235.0717 MY,0,842,926,235.0717,235.7816 MY,0,926,1011,235.7816,236.6608 MY,0,1011,1179,236.6608,238.7868 MY,0,1179,1432,238.7868,242.2642 MY,0,1432,1516,242.2642,243.3225 MY,0,1516,1601,243.3225,244.2603 MY,0,1601,1685,244.2603,245.0416 MY,0,1685,1769,245.0416,245.6364 MY,0,1769,1853,245.6364,246.0217 MY,0,1853,1938,246.0217,246.1829 MY,0,1938,2022,246.1829,246.1136 MY,0,2022,2106,246.1136,245.8167 MY,0,2106,2191,245.8167,245.3033 MY,0,2191,2275,245.3033,244.5934 MY,0,2275,2359,244.5934,243.7142 MY,0,2359,2443,243.7142,242.6995 MY,0,2443,2612,242.6995,240.423 MY,30,103927,105175,240.423,240 F,0,85051,85151,0,1 F,0,105175,105275,1,0
Sprite,Background,Centre,"sb/sprites/fx/00400000.jpg",352.025,0 S,0,85051,,0.4447917 L,85051,7 MY,0,0,168,238.94,236.7891 MY,0,168,252,236.7891,235.8897 MY,0,252,337,235.8897,235.1555 MY,0,337,421,235.1555,234.6146 MY,0,421,505,234.6146,234.288 MY,0,505,589,234.288,234.188 MY,0,589,674,234.188,234.3186 MY,0,674,758,234.3186,234.6748 MY,0,758,842,234.6748,235.2427 MY,0,842,926,235.2427,236.0008 MY,0,926,1011,236.0008,236.9197 MY,0,1011,1095,236.9197,237.9642 MY,0,1095,1432,237.9642,242.556 MY,0,1432,1516,242.556,243.5859 MY,0,1516,1601,243.5859,244.4853 MY,0,1601,1685,244.4853,245.2195 MY,0,1685,1769,245.2195,245.7604 MY,0,1769,1853,245.7604,246.087 MY,0,1853,1938,246.087,246.187 MY,0,1938,2022,246.187,246.0564 MY,0,2022,2106,246.0564,245.7002 MY,0,2106,2191,245.7002,245.1323 MY,0,2191,2275,245.1323,244.3742 MY,0,2275,2359,244.3742,243.4553 MY,0,2359,2443,243.4553,242.4108 MY,0,2443,2612,242.4108,240.109 MY,30,103927,105175,240.109,240 F,0,85051,85151,0,1 F,0,105175,105275,1,0
Sprite,Background,Centre,"sb/sprites/fx/00410000.jpg",359.1417,0 S,0,85051,,0.4447917 L,85051,7 MY,0,0,84,238.6346,237.5338 MY,0,84,168,237.5338,236.5349 MY,0,168,252,236.5349,235.6765 MY,0,252,337,235.6765,234.9913 MY,0,337,421,234.9913,234.5059 MY,0,421,505,234.5059,234.2388 MY,0,505,589,234.2388,234.2003 MY,0,589,674,234.2003,234.392 MY,0,674,758,234.392,234.8063 MY,0,758,842,234.8063,235.4274 MY,0,842,926,235.4274,236.2314 MY,0,926,1011,236.2314,237.1875 MY,0,1011,1095,237.1875,238.2589 MY,0,1095,1432,238.2589,242.8412 MY,0,1432,1516,242.8412,243.8401 MY,0,1516,1601,243.8401,244.6985 MY,0,1601,1685,244.6985,245.3837 MY,0,1685,1769,245.3837,245.8691 MY,0,1769,1853,245.8691,246.1362 MY,0,1853,1938,246.1362,246.1747 MY,0,1938,2022,246.1747,245.983 MY,0,2022,2106,245.983,245.5687 MY,0,2106,2191,245.5687,244.9476 MY,0,2191,2275,244.9476,244.1436 MY,0,2275,2359,244.1436,243.1875 MY,0,2359,2443,243.1875,242.1161 MY,0,2443,2612,242.1161,239.7951 MY,30,103927,105175,239.7951,240 F,0,85051,85151,0,1 F,0,105175,105275,1,0
Sprite,Background,Centre,"sb/sprites/fx/00420000.jpg",366.2583,0 S,0,85051,,0.4447917 L,85051,7 MY,0,0,84,238.3334,237.2558 MY,0,84,168,237.2558,236.2908 MY,0,168,252,236.2908,235.4756 MY,0,252,337,235.4756,234.8415 MY,0,337,421,234.8415,234.4128 MY,0,421,505,234.4128,234.206 MY,0,505,589,234.206,234.2291 MY,0,589,674,234.2291,234.4812 MY,0,674,758,234.4812,234.9525 MY,0,758,842,234.9525,235.6251 MY,0,842,926,235.6251,236.4729 MY,0,926,1011,236.4729,237.4636 MY,0,1011,1095,237.4636,238.5589 MY,0,1095,1348,238.5589,242.0416 MY,0,1348,1432,242.0416,243.1192 MY,0,1432,1516,243.1192,244.0842 MY,0,1516,1601,244.0842,244.8994 MY,0,1601,1685,244.8994,245.5335 MY,0,1685,1769,245.5335,245.9622 MY,0,1769,1853,245.9622,246.169 MY,0,1853,1938,246.169,246.1459 MY,0,1938,2022,246.1459,245.8938 MY,0,2022,2106,245.8938,245.4225 MY,0,2106,2191,245.4225,244.7499 MY,0,2191,2275,244.7499,243.9021 MY,0,2275,2359,243.9021,242.9114 MY,0,2359,2612,242.9114,239.4823 MY,30,103927,105175,239.4823,240 F,0,85051,85151,0,1 F,0,105175,105275,1,0
Sprite,Background,Centre,"sb/sprites/fx/00430000.jpg",373.375,0 S,0,85051,,0.4447917 L,85051,7 MY,0,0,84,238.0373,236.9858 MY,0,84,168,236.9858,236.0574 MY,0,168,252,236.0574,235.2876 MY,0,252,337,235.2876,234.7062 MY,0,337,421,234.7062,234.3354 MY,0,421,505,234.3354,234.1896 MY,0,505,589,234.1896,234.2742 MY,0,589,674,234.2742,234.586 MY,0,674,758,234.586,235.1131 MY,0,758,842,235.1131,235.8353 MY,0,842,926,235.8353,236.7246 MY,0,926,1095,236.7246,238.8633 MY,0,1095,1348,238.8633,242.3377 MY,0,1348,1432,242.3377,243.3892 MY,0,1432,1516,243.3892,244.3176 MY,0,1516,1601,244.3176,245.0874 MY,0,1601,1685,245.0874,245.6688 MY,0,1685,1769,245.6688,246.0396 MY,0,1769,1853,246.0396,246.1854 MY,0,1853,1938,246.1854,246.1008 MY,0,1938,2022,246.1008,245.789 MY,0,2022,2106,245.789,245.2619 MY,0,2106,2191,245.2619,244.5397 MY,0,2191,2275,244.5397,243.6504 MY,0,2275,2359,243.6504,242.6279 MY,0,2359,2612,242.6279,239.1714 MY,30,103927,105175,239.1714,240 F,0,85051,85151,0,1 F,0,105175,105275,1,0
Sprite,Background,Centre,"sb/sprites/fx/00440000.jpg",380.4917,0 S,0,85051,,0.4447917 L,85051,7 MY,0,0,84,237.7471,236.7246 MY,0,84,168,236.7246,235.8353 MY,0,168,252,235.8353,235.1131 MY,0,252,337,235.1131,234.586 MY,0,337,421,234.586,234.2742 MY,0,421,505,234.2742,234.1896 MY,0,505,589,234.1896,234.3354 MY,0,589,674,234.3354,234.7062 MY,0,674,758,234.7062,235.2876 MY,0,758,842,235.2876,236.0574 MY,0,842,926,236.0574,236.9858 MY,0,926,1011,236.9858,238.0373 MY,0,1011,1348,238.0373,242.6279 MY,0,1348,1432,242.6279,243.6504 MY,0,1432,1516,243.6504,244.5397 MY,0,1516,1601,244.5397,245.2619 MY,0,1601,1685,245.2619,245.789 MY,0,1685,1769,245.789,246.1008 MY,0,1769,1853,246.1008,246.1854 MY,0,1853,1938,246.1854,246.0396 MY,0,1938,2022,246.0396,245.6688 MY,0,2022,2106,245.6688,245.0873 MY,0,2106,2191,245.0873,244.3176 MY,0,2191,2275,244.3176,243.3892 MY,0,2275,2359,243.3892,242.3377 MY,0,2359,2612,242.3377,238.8633 MY,30,103927,105175,238.8633,240 F,0,85051,85151,0,1 F,0,105175,105275,1,0
Sprite,Background,Centre,"sb/sprites/fx/00450000.jpg",387.6083,0 S,0,85051,,0.4447917 L,85051,7 MY,0,0,84,237.4636,236.4729 MY,0,84,168,236.4729,235.6251 MY,0,168,252,235.6251,234.9525 MY,0,252,337,234.9525,234.4812 MY,0,337,421,234.4812,234.2291 MY,0,421,505,234.2291,234.206 MY,0,505,589,234.206,234.4128 MY,0,589,674,234.4128,234.8415 MY,0,674,758,234.8415,235.4756 MY,0,758,842,235.4756,236.2908 MY,0,842,926,236.2908,237.2558 MY,0,926,1011,237.2558,238.3334 MY,0,1011,1348,238.3334,242.9114 MY,0,1348,1432,242.9114,243.9021 MY,0,1432,1516,243.9021,244.7499 MY,0,1516,1601,244.7499,245.4225 MY,0,1601,1685,245.4225,245.8938 MY,0,1685,1769,245.8938,246.1459 MY,0,1769,1853,246.1459,246.169 MY,0,1853,1938,246.169,245.9622 MY,0,1938,2022,245.9622,245.5335 MY,0,2022,2106,245.5335,244.8994 MY,0,2106,2191,244.8994,244.0842 MY,0,2191,2275,244.0842,243.1192 MY,0,2275,2359,243.1192,242.0416 MY,0,2359,2612,242.0416,238.5589 MY,30,103927,105175,238.5589,240 F,0,85051,85151,0,1 F,0,105175,105275,1,0
Sprite,Background,Centre,"sb/sprites/fx/00460000.jpg",394.725,0 S,0,85051,,0.4447917 L,85051,7 MY,0,0,84,237.1875,236.2314 MY,0,84,168,236.2314,235.4274 MY,0,168,252,235.4274,234.8063 MY,0,252,337,234.8063,234.3919 MY,0,337,421,234.3919,234.2003 MY,0,421,505,234.2003,234.2388 MY,0,505,589,234.2388,234.5059 MY,0,589,674,234.5059,234.9913 MY,0,674,758,234.9913,235.6765 MY,0,758,842,235.6765,236.5349 MY,0,842,926,236.5349,237.5338 MY,0,926,1011,237.5338,238.6346 MY,0,1011,1264,238.6346,242.1161 MY,0,1264,1348,242.1161,243.1875 MY,0,1348,1432,243.1875,244.1436 MY,0,1432,1516,244.1436,244.9476 MY,0,1516,1601,244.9476,245.5687 MY,0,1601,1685,245.5687,245.9831 MY,0,1685,1769,245.9831,246.1747 MY,0,1769,1853,246.1747,246.1362 MY,0,1853,1938,246.1362,245.8691 MY,0,1938,2022,245.8691,245.3837 MY,0,2022,2106,245.3837,244.6985 MY,0,2106,2191,244.6985,243.8401 MY,0,2191,2275,243.8401,242.8412 MY,0,2275,2612,242.8412,238.2589 MY,30,103927,105175,238.2589,240 F,0,85051,85151,0,1 F,0,105175,105275,1,0
Sprite,Background,Centre,"sb/sprites/fx/00470000.jpg",401.8417,0 S,0,85051,,0.4447917 L,85051,7 MY,0,0,84,236.9197,236.0008 MY,0,84,168,236.0008,235.2427 MY,0,168,252,235.2427,234.6748 MY,0,252,337,234.6748,234.3186 MY,0,337,421,234.3186,234.188 MY,0,421,505,234.188,234.288 MY,0,505,589,234.288,234.6146 MY,0,589,674,234.6146,235.1555 MY,0,674,758,235.1555,235.8897 MY,0,758,842,235.8897,236.7891 MY,0,842,1011,236.7891,238.94 MY,0,1011,1264,238.94,242.4108 MY,0,1264,1348,242.4108,243.4553 MY,0,1348,1432,243.4553,244.3742 MY,0,1432,1516,244.3742,245.1323 MY,0,1516,1601,245.1323,245.7002 MY,0,1601,1685,245.7002,246.0564 MY,0,1685,1769,246.0564,246.187 MY,0,1769,1853,246.187,246.087 MY,0,1853,1938,246.087,245.7604 MY,0,1938,2022,245.7604,245.2195 MY,0,2022,2106,245.2195,244.4853 MY,0,2106,2191,244.4853,243.5859 MY,0,2191,2275,243.5859,242.556 MY,0,2275,2612,242.556,237.9642 MY,30,103927,105175,237.9642,240 F,0,85051,85151,0,1 F,0,105175,105275,1,0
Sprite,Background,Centre,"sb/sprites/fx/00480000.jpg",408.9583,0 S,0,85051,,0.4447917 L,85051,7 MY,0,0,84,236.6608,235.7816 MY,0,84,168,235.7816,235.0717 MY,0,168,252,235.0717,234.5583 MY,0,252,337,234.5583,234.2614 MY,0,337,421,234.2614,234.1921 MY,0,421,505,234.1921,234.3533 MY,0,505,589,234.3533,234.7386 MY,0,589,674,234.7386,235.3334 MY,0,674,758,235.3334,236.1147 MY,0,758,842,236.1147,237.0525 MY,0,842,926,237.0525,238.1108 MY,0,926,1264,238.1108,242.6995 MY,0,1264,1348,242.6995,243.7142 MY,0,1348,1432,243.7142,244.5934 MY,0,1432,1516,244.5934,245.3033 MY,0,1516,1601,245.3033,245.8167 MY,0,1601,1685,245.8167,246.1136 MY,0,1685,1769,246.1136,246.1829 MY,0,1769,1853,246.1829,246.0217 MY,0,1853,1938,246.0217,245.6364 MY,0,1938,2022,245.6364,245.0416 MY,0,2022,2106,245.0416,244.2603 MY,0,2106,2191,244.2603,243.3225 MY,0,2191,2275,243.3225,242.2642 MY,0,2275,2612,242.2642,237.6755 MY,30,103927,105175,237.6755,240 F,0,85051,85151,0,1 F,0,105175,105275,1,0
Sprite,Background,Centre,"sb/sprites/fx/00490000.jpg",416.075,0 S,0,85051,,0.4447917 L,85051,7 MY,0,0,84,236.4116,235.5744 MY,0,84,168,235.5744,234.9146 MY,0,168,252,234.9146,234.4574 MY,0,252,337,234.4574,234.2204 MY,0,337,421,234.2204,234.2127 MY,0,421,505,234.2127,234.4346 MY,0,505,589,234.4346,234.8776 MY,0,589,674,234.8776,235.5246 MY,0,674,758,235.5246,236.3509 MY,0,758,842,236.3509,237.3246 MY,0,842,926,237.3246,238.4082 MY,0,926,1179,238.4082,241.8916 MY,0,1179,1264,241.8916,242.9812 MY,0,1264,1348,242.9812,243.9634 MY,0,1348,1432,243.9634,244.8006 MY,0,1432,1516,244.8006,245.4604 MY,0,1516,1601,245.4604,245.9176 MY,0,1601,1685,245.9176,246.1546 MY,0,1685,1769,246.1546,246.1623 MY,0,1769,1853,246.1623,245.9404 MY,0,1853,1938,245.9404,245.4974 MY,0,1938,2022,245.4974,244.8504 MY,0,2022,2106,244.8504,244.0241 MY,0,2106,2191,244.0241,243.0504 MY,0,2191,2612,243.0504,237.3938 MY,30,103927,105175,237.3938,240 F,0,85051,85151,0,1 F,0,105175,105275,1,0
Sprite,Background,Centre,"sb/sprites/fx/004A0000.jpg",423.1917,0 S,0,85051,,0.4447917 L,85051,7 MY,0,0,84,236.1727,235.38 MY,0,84,168,235.38,234.772 MY,0,168,252,234.772,234.3721 MY,0,252,337,234.3721,234.1957 MY,0,337,421,234.1957,234.2496 MY,0,421,505,234.2496,234.5316 MY,0,505,589,234.5316,235.0311 MY,0,589,674,235.0311,235.7286 MY,0,674,758,235.7286,236.5975 MY,0,758,842,236.5975,237.6044 MY,0,842,1179,237.6044,242.1903 MY,0,1179,1264,242.1903,243.2553 MY,0,1264,1348,243.2553,244.2023 MY,0,1348,1432,244.2023,244.995 MY,0,1432,1516,244.995,245.603 MY,0,1516,1601,245.603,246.0029 MY,0,1601,1685,246.0029,246.1793 MY,0,1685,1769,246.1793,246.1254 MY,0,1769,1853,246.1254,245.8434 MY,0,1853,1938,245.8434,245.3439 MY,0,1938,2022,245.3439,244.6464 MY,0,2022,2106,244.6464,243.7775 MY,0,2106,2191,243.7775,242.7706 MY,0,2191,2528,242.7706,238.1847 MY,0,2528,2612,238.1847,237.1197 MY,30,103927,105175,237.1197,240 F,0,85051,85151,0,1 F,0,105175,105275,1,0
Sprite,Background,Centre,"sb/sprites/fx/004B0000.jpg",430.3083,0 S,0,85051,,0.4447917 L,85051,7 MY,0,0,84,235.9449,235.1987 MY,0,84,168,235.1987,234.6442 MY,0,168,252,234.6442,234.3028 MY,0,252,337,234.3028,234.1875 MY,0,337,421,234.1875,234.3028 MY,0,421,505,234.3028,234.6442 MY,0,505,589,234.6442,235.1987 MY,0,589,674,235.1987,235.9449 MY,0,674,758,235.9449,236.8541 MY,0,758,926,236.8541,239.017 MY,0,926,1179,239.017,242.4836 MY,0,1179,1264,242.4836,243.5209 MY,0,1264,1348,243.5209,244.4301 MY,0,1348,1432,244.4301,245.1763 MY,0,1432,1516,245.1763,245.7308 MY,0,1516,1601,245.7308,246.0722 MY,0,1601,1685,246.0722,246.1875 MY,0,1685,1769,246.1875,246.0722 MY,0,1769,1853,246.0722,245.7308 MY,0,1853,1938,245.7308,245.1763 MY,0,1938,2022,245.1763,244.4301 MY,0,2022,2106,244.4301,243.5209 MY,0,2106,2191,243.5209,242.4836 MY,0,2191,2443,242.4836,239.017 MY,0,2443,2612,239.017,236.8541 MY,30,103927,105175,236.8541,240 F,0,85051,85151,0,1 F,0,105175,105275,1,0
Sprite,Background,Centre,"sb/sprites/fx/004C0000.jpg",437.425,0 S,0,85051,,0.4447917 L,85051,7 MY,0,0,84,235.7286,235.0311 MY,0,84,168,235.0311,234.5316 MY,0,168,252,234.5316,234.2496 MY,0,252,337,234.2496,234.1957 MY,0,337,421,234.1957,234.3721 MY,0,421,505,234.3721,234.772 MY,0,505,589,234.772,235.38 MY,0,589,674,235.38,236.1727 MY,0,674,758,236.1727,237.1197 MY,0,758,842,237.1197,238.1847 MY,0,842,1179,238.1847,242.7706 MY,0,1179,1264,242.7706,243.7775 MY,0,1264,1348,243.7775,244.6464 MY,0,1348,1432,244.6464,245.3439 MY,0,1432,1516,245.3439,245.8434 MY,0,1516,1601,245.8434,246.1254 MY,0,1601,1685,246.1254,246.1793 MY,0,1685,1769,246.1793,246.0029 MY,0,1769,1853,246.0029,245.603 MY,0,1853,1938,245.603,244.995 MY,0,1938,2022,244.995,244.2023 MY,0,2022,2106,244.2023,243.2553 MY,0,2106,2191,243.2553,242.1903 MY,0,2191,2443,242.1903,238.7106 MY,0,2443,2612,238.7106,236.5975 MY,30,103927,105175,236.5975,240 F,0,85051,85151,0,1 F,0,105175,105275,1,0
Sprite,Background,Centre,"sb/sprites/fx/004D0000.jpg",444.5417,0 S,0,85051,,0.4447917 L,85051,7 MY,0,0,84,235.5246,234.8776 MY,0,84,168,234.8776,234.4346 MY,0,168,252,234.4346,234.2127 MY,0,252,337,234.2127,234.2204 MY,0,337,421,234.2204,234.4574 MY,0,421,505,234.4574,234.9146 MY,0,505,589,234.9146,235.5744 MY,0,589,674,235.5744,236.4116 MY,0,674,758,236.4116,237.3938 MY,0,758,842,237.3938,238.4834 MY,0,842,1095,238.4834,241.9668 MY,0,1095,1179,241.9668,243.0505 MY,0,1179,1264,243.0505,244.0241 MY,0,1264,1348,244.0241,244.8504 MY,0,1348,1432,244.8504,245.4974 MY,0,1432,1516,245.4974,245.9404 MY,0,1516,1601,245.9404,246.1623 MY,0,1601,1685,246.1623,246.1546 MY,0,1685,1769,246.1546,245.9176 MY,0,1769,1853,245.9176,245.4604 MY,0,1853,1938,245.4604,244.8006 MY,0,1938,2022,244.8006,243.9634 MY,0,2022,2106,243.9634,242.9812 MY,0,2106,2191,242.9812,241.8916 MY,0,2191,2443,241.8916,238.4082 MY,0,2443,2528,238.4082,237.3246 MY,0,2528,2612,237.3246,236.3509 MY,30,103927,105175,236.3509,240 F,0,85051,85151,0,1 F,0,105175,105275,1,0
Sprite,Background,Centre,"sb/sprites/fx/004E0000.jpg",451.6584,0 S,0,85051,,0.4447917 L,85051,7 MY,0,0,84,235.3334,234.7386 MY,0,84,168,234.7386,234.3533 MY,0,168,252,234.3533,234.1921 MY,0,252,337,234.1921,234.2614 MY,0,337,421,234.2614,234.5583 MY,0,421,505,234.5583,235.0717 MY,0,505,589,235.0717,235.7816 MY,0,589,674,235.7816,236.6608 MY,0,674,758,236.6608,237.6755 MY,0,758,1095,237.6755,242.2642 MY,0,1095,1179,242.2642,243.3225 MY,0,1179,1264,243.3225,244.2603 MY,0,1264,1348,244.2603,245.0416 MY,0,1348,1432,245.0416,245.6364 MY,0,1432,1516,245.6364,246.0217 MY,0,1516,1601,246.0217,246.1829 MY,0,1601,1685,246.1829,246.1136 MY,0,1685,1769,246.1136,245.8167 MY,0,1769,1853,245.8167,245.3033 MY,0,1853,1938,245.3033,244.5934 MY,0,1938,2022,244.5934,243.7142 MY,0,2022,2106,243.7142,242.6995 MY,0,2106,2443,242.6995,238.1108 MY,0,2443,2528,238.1108,237.0525 MY,0,2528,2612,237.0525,236.1147 MY,30,103927,105175,236.1147,240 F,0,85051,85151,0,1 F,0,105175,105275,1,0
Sprite,Background,Centre,"sb/sprites/fx/004F0000.jpg",458.775,0 S,0,85051,,0.4447917 L,85051,7 MY,0,0,84,235.1555,234.6146 MY,0,84,168,234.6146,234.288 MY,0,168,252,234.288,234.188 MY,0,252,337,234.188,234.3186 MY,0,337,421,234.3186,234.6748 MY,0,421,505,234.6748,235.2427 MY,0,505,589,235.2427,236.0008 MY,0,589,674,236.0008,236.9197 MY,0,674,758,236.9197,237.9642 MY,0,758,1095,237.9642,242.556 MY,0,1095,1179,242.556,243.5859 MY,0,1179,1264,243.5859,244.4853 MY,0,1264,1348,244.4853,245.2195 MY,0,1348,1432,245.2195,245.7604 MY,0,1432,1516,245.7604,246.087 MY,0,1516,1601,246.087,246.187 MY,0,1601,1685,246.187,246.0564 MY,0,1685,1769,246.0564,245.7002 MY,0,1769,1853,245.7002,245.1323 MY,0,1853,1938,245.1323,244.3742 MY,0,1938,2022,244.3742,243.4553 MY,0,2022,2106,243.4553,242.4108 MY,0,2106,2443,242.4108,237.819 MY,0,2443,2528,237.819,236.7891 MY,0,2528,2612,236.7891,235.8897 MY,30,103927,105175,235.8897,240 F,0,85051,85151,0,1 F,0,105175,105275,1,0
Sprite,Background,Centre,"sb/sprites/fx/00500000.jpg",465.8917,0 S,0,85051,,0.4447917 L,85051,7 MY,0,0,84,234.9913,234.5059 MY,0,84,168,234.5059,234.2388 MY,0,168,252,234.2388,234.2003 MY,0,252,337,234.2003,234.392 MY,0,337,421,234.392,234.8063 MY,0,421,505,234.8063,235.4274 MY,0,505,589,235.4274,236.2314 MY,0,589,674,236.2314,237.1875 MY,0,674,758,237.1875,238.2589 MY,0,758,1095,238.2589,242.8412 MY,0,1095,1179,242.8412,243.8401 MY,0,1179,1264,243.8401,244.6985 MY,0,1264,1348,244.6985,245.3837 MY,0,1348,1432,245.3837,245.8691 MY,0,1432,1516,245.8691,246.1362 MY,0,1516,1601,246.1362,246.1747 MY,0,1601,1685,246.1747,245.983 MY,0,1685,1769,245.983,245.5687 MY,0,1769,1853,245.5687,244.9476 MY,0,1853,1938,244.9476,244.1436 MY,0,1938,2022,244.1436,243.1875 MY,0,2022,2106,243.1875,242.1161 MY,0,2106,2443,242.1161,237.5338 MY,0,2443,2528,237.5338,236.5349 MY,0,2528,2612,236.5349,235.6765 MY,30,103927,105175,235.6765,240 F,0,85051,85151,0,1 F,0,105175,105275,1,0
Sprite,Background,Centre,"sb/sprites/fx/00510000.jpg",473.0083,0 S,0,85051,,0.4447917 L,85051,7 MY,0,0,84,234.8415,234.4128 MY,0,84,168,234.4128,234.206 MY,0,168,252,234.206,234.2291 MY,0,252,337,234.2291,234.4812 MY,0,337,421,234.4812,234.9525 MY,0,421,505,234.9525,235.6251 MY,0,505,589,235.6251,236.4729 MY,0,589,674,236.4729,237.4636 MY,0,674,1011,237.4636,242.0416 MY,0,1011,1095,242.0416,243.1192 MY,0,1095,1179,243.1192,244.0842 MY,0,1179,1264,244.0842,244.8994 MY,0,1264,1348,244.8994,245.5335 MY,0,1348,1432,245.5335,245.9622 MY,0,1432,1516,245.9622,246.169 MY,0,1516,1601,246.169,246.1459 MY,0,1601,1685,246.1459,245.8938 MY,0,1685,1769,245.8938,245.4225 MY,0,1769,1853,245.4225,244.7499 MY,0,1853,1938,244.7499,243.9021 MY,0,1938,2022,243.9021,242.9114 MY,0,2022,2359,242.9114,238.3334 MY,0,2359,2443,238.3334,237.2558 MY,0,2443,2528,237.2558,236.2908 MY,0,2528,2612,236.2908,235.4756 MY,30,103927,105175,235.4756,240 F,0,85051,85151,0,1 F,0,105175,105275,1,0
Sprite,Background,Centre,"sb/sprites/fx/00520000.jpg",480.125,0 S,0,85051,,0.4447917 L,85051,7 MY,0,0,84,234.7062,234.3354 MY,0,84,168,234.3354,234.1896 MY,0,168,252,234.1896,234.2742 MY,0,252,337,234.2742,234.586 MY,0,337,421,234.586,235.1131 MY,0,421,505,235.1131,235.8353 MY,0,505,589,235.8353,236.7246 MY,0,589,674,236.7246,237.7471 MY,0,674,1011,237.7471,242.3377 MY,0,1011,1095,242.3377,243.3892 MY,0,1095,1179,243.3892,244.3176 MY,0,1179,1264,244.3176,245.0874 MY,0,1264,1348,245.0874,245.6688 MY,0,1348,1432,245.6688,246.0396 MY,0,1432,1516,246.0396,246.1854 MY,0,1516,1601,246.1854,246.1008 MY,0,1601,1685,246.1008,245.789 MY,0,1685,1769,245.789,245.2619 MY,0,1769,1853,245.2619,244.5397 MY,0,1853,1938,244.5397,243.6504 MY,0,1938,2022,243.6504,242.6279 MY,0,2022,2359,242.6279,238.0373 MY,0,2359,2443,238.0373,236.9858 MY,0,2443,2528,236.9858,236.0574 MY,0,2528,2612,236.0574,235.2876 MY,30,103927,105175,235.2876,240 F,0,85051,85151,0,1 F,0,105175,105275,1,0
Sprite,Background,Centre,"sb/sprites/fx/00530000.jpg",487.2417,0 S,0,85051,,0.4447917 L,85051,7 MY,0,0,84,234.586,234.2742 MY,0,84,168,234.2742,234.1896 MY,0,168,252,234.1896,234.3354 MY,0,252,337,234.3354,234.7062 MY,0,337,421,234.7062,235.2877 MY,0,421,505,235.2877,236.0574 MY,0,505,589,236.0574,236.9858 MY,0,589,674,236.9858,238.0373 MY,0,674,1011,238.0373,242.6279 MY,0,1011,1095,242.6279,243.6504 MY,0,1095,1179,243.6504,244.5397 MY,0,1179,1264,244.5397,245.2619 MY,0,1264,1348,245.2619,245.789 MY,0,1348,1432,245.789,246.1008 MY,0,1432,1516,246.1008,246.1854 MY,0,1516,1601,246.1854,246.0396 MY,0,1601,1685,246.0396,245.6688 MY,0,1685,1769,245.6688,245.0873 MY,0,1769,1853,245.0873,244.3176 MY,0,1853,1938,244.3176,243.3892 MY,0,1938,2022,243.3892,242.3377 MY,0,2022,2359,242.3377,237.7471 MY,0,2359,2443,237.7471,236.7246 MY,0,2443,2528,236.7246,235.8353 MY,0,2528,2612,235.8353,235.1131 MY,30,103927,105175,235.1131,240 F,0,85051,85151,0,1 F,0,105175,105275,1,0
Sprite,Background,Centre,"sb/sprites/fx/00540000.jpg",494.3583,0 S,0,85051,,0.4447917 L,85051,7 MY,0,0,84,234.4812,234.2291 MY,0,84,168,234.2291,234.206 MY,0,168,252,234.206,234.4128 MY,0,252,337,234.4128,234.8415 MY,0,337,421,234.8415,235.4756 MY,0,421,505,235.4756,236.2908 MY,0,505,589,236.2908,237.2558 MY,0,589,674,237.2558,238.3334 MY,0,674,1011,238.3334,242.9114 MY,0,1011,1095,242.9114,243.9021 MY,0,1095,1179,243.9021,244.7499 MY,0,1179,1264,244.7499,245.4225 MY,0,1264,1348,245.4225,245.8938 MY,0,1348,1432,245.8938,246.1459 MY,0,1432,1516,246.1459,246.169 MY,0,1516,1601,246.169,245.9622 MY,0,1601,1685,245.9622,245.5335 MY,0,1685,1769,245.5335,244.8994 MY,0,1769,1853,244.8994,244.0842 MY,0,1853,1938,244.0842,243.1192 MY,0,1938,2022,243.1192,242.0416 MY,0,2022,2359,242.0416,237.4636 MY,0,2359,2443,237.4636,236.4729 MY,0,2443,2528,236.4729,235.6251 MY,0,2528,2612,235.6251,234.9525 MY,30,103927,105175,234.9525,240 F,0,85051,85151,0,1 F,0,105175,105275,1,0
Sprite,Background,Centre,"sb/sprites/fx/00550000.jpg",501.475,0 S,0,85051,,0.4447917 L,85051,7 MY,0,0,84,234.392,234.2003 MY,0,84,168,234.2003,234.2388 MY,0,168,252,234.2388,234.5059 MY,0,252,337,234.5059,234.9913 MY,0,337,421,234.9913,235.6765 MY,0,421,505,235.6765,236.5349 MY,0,505,589,236.5349,237.5338 MY,0,589,926,237.5338,242.1161 MY,0,926,1011,242.1161,243.1875 MY,0,1011,1095,243.1875,244.1436 MY,0,1095,1179,244.1436,244.9476 MY,0,1179,1264,244.9476,245.5687 MY,0,1264,1348,245.5687,245.9831 MY,0,1348,1432,245.9831,246.1747 MY,0,1432,1516,246.1747,246.1362 MY,0,1516,1601,246.1362,245.8691 MY,0,1601,1685,245.8691,245.3837 MY,0,1685,1769,245.3837,244.6985 MY,0,1769,1853,244.6985,243.8401 MY,0,1853,1938,243.8401,242.8412 MY,0,1938,2275,242.8412,238.2589 MY,0,2275,2359,238.2589,237.1875 MY,0,2359,2443,237.1875,236.2314 MY,0,2443,2528,236.2314,235.4274 MY,0,2528,2612,235.4274,234.8063 MY,30,103927,105175,234.8063,240 F,0,85051,85151,0,1 F,0,105175,105275,1,0
Sprite,Background,Centre,"sb/sprites/fx/00560000.jpg",508.5916,0 S,0,85051,,0.4447917 L,85051,7 MY,0,0,84,234.3186,234.188 MY,0,84,168,234.188,234.288 MY,0,168,252,234.288,234.6146 MY,0,252,337,234.6146,235.1555 MY,0,337,421,235.1555,235.8897 MY,0,421,505,235.8897,236.7891 MY,0,505,674,236.7891,238.94 MY,0,674,926,238.94,242.4108 MY,0,926,1011,242.4108,243.4553 MY,0,1011,1095,243.4553,244.3742 MY,0,1095,1179,244.3742,245.1323 MY,0,1179,1264,245.1323,245.7002 MY,0,1264,1348,245.7002,246.0564 MY,0,1348,1432,246.0564,246.187 MY,0,1432,1516,246.187,246.087 MY,0,1516,1601,246.087,245.7604 MY,0,1601,1685,245.7604,245.2195 MY,0,1685,1769,245.2195,244.4853 MY,0,1769,1853,244.4853,243.5859 MY,0,1853,1938,243.5859,242.556 MY,0,1938,2275,242.556,237.9642 MY,0,2275,2359,237.9642,236.9197 MY,0,2359,2443,236.9197,236.0008 MY,0,2443,2528,236.0008,235.2427 MY,0,2528,2612,235.2427,234.6748 MY,30,103927,105175,234.6748,240 F,0,85051,85151,0,1 F,0,105175,105275,1,0
Sprite,Background,Centre,"sb/sprites/fx/00570000.jpg",515.7084,0 S,0,85051,,0.4447917 L,85051,7 MY,0,0,84,234.2614,234.1921 MY,0,84,168,234.1921,234.3533 MY,0,168,252,234.3533,234.7386 MY,0,252,337,234.7386,235.3334 MY,0,337,421,235.3334,236.1147 MY,0,421,505,236.1147,237.0525 MY,0,505,589,237.0525,238.1108 MY,0,589,926,238.1108,242.6995 MY,0,926,1011,242.6995,243.7142 MY,0,1011,1095,243.7142,244.5934 MY,0,1095,1179,244.5934,245.3033 MY,0,1179,1264,245.3033,245.8167 MY,0,1264,1348,245.8167,246.1136 MY,0,1348,1432,246.1136,246.1829 MY,0,1432,1516,246.1829,246.0217 MY,0,1516,1601,246.0217,245.6364 MY,0,1601,1685,245.6364,245.0416 MY,0,1685,1769,245.0416,244.2603 MY,0,1769,1853,244.2603,243.3225 MY,0,1853,1938,243.3225,242.2642 MY,0,1938,2191,242.2642,238.7868 MY,0,2191,2359,238.7868,236.6608 MY,0,2359,2443,236.6608,235.7816 MY,0,2443,2528,235.7816,235.0717 MY,0,2528,2612,235.0717,234.5583 MY,30,103927,105175,234.5583,240 F,0,85051,85151,0,1 F,0,105175,105275,1,0
Sprite,Background,Centre,"sb/sprites/fx/00580000.jpg",522.825,0 S,0,85051,,0.4447917 L,85051,7 MY,0,0,84,234.2204,234.2127 MY,0,84,168,234.2127,234.4346 MY,0,168,252,234.4346,234.8776 MY,0,252,337,234.8776,235.5246 MY,0,337,421,235.5246,236.3509 MY,0,421,505,236.3509,237.3246 MY,0,505,926,237.3246,242.9812 MY,0,926,1011,242.9812,243.9634 MY,0,1011,1095,243.9634,244.8006 MY,0,1095,1179,244.8006,245.4604 MY,0,1179,1264,245.4604,245.9176 MY,0,1264,1348,245.9176,246.1546 MY,0,1348,1432,246.1546,246.1623 MY,0,1432,1516,246.1623,245.9404 MY,0,1516,1601,245.9404,245.4974 MY,0,1601,1685,245.4974,244.8504 MY,0,1685,1769,244.8504,244.0241 MY,0,1769,1853,244.0241,243.0504 MY,0,1853,1938,243.0504,241.9668 MY,0,1938,2191,241.9668,238.4834 MY,0,2191,2275,238.4834,237.3938 MY,0,2275,2359,237.3938,236.4116 MY,0,2359,2443,236.4116,235.5744 MY,0,2443,2528,235.5744,234.9146 MY,0,2528,2612,234.9146,234.4574 MY,30,103927,105175,234.4574,240 F,0,85051,85151,0,1 F,0,105175,105275,1,0
Sprite,Background,Centre,"sb/sprites/fx/00590000.jpg",529.9417,0 S,0,85051,,0.4447917 L,85051,7 MY,0,0,84,234.1957,234.2496 MY,0,84,168,234.2496,234.5316 MY,0,168,252,234.5316,235.0311 MY,0,252,337,235.0311,235.7286 MY,0,337,421,235.7286,236.5975 MY,0,421,505,236.5975,237.6044 MY,0,505,842,237.6044,242.1903 MY,0,842,926,242.1903,243.2553 MY,0,926,1011,243.2553,244.2023 MY,0,1011,1095,244.2023,244.995 MY,0,1095,1179,244.995,245.603 MY,0,1179,1264,245.603,246.0029 MY,0,1264,1348,246.0029,246.1793 MY,0,1348,1432,246.1793,246.1254 MY,0,1432,1516,246.1254,245.8434 MY,0,1516,1601,245.8434,245.3439 MY,0,1601,1685,245.3439,244.6464 MY,0,1685,1769,244.6464,243.7775 MY,0,1769,1853,243.7775,242.7706 MY,0,1853,2191,242.7706,238.1847 MY,0,2191,2275,238.1847,237.1197 MY,0,2275,2359,237.1197,236.1727 MY,0,2359,2443,236.1727,235.38 MY,0,2443,2528,235.38,234.772 MY,0,2528,2612,234.772,234.3721 MY,30,103927,105175,234.3721,240 F,0,85051,85151,0,1 F,0,105175,105275,1,0
Sprite,Background,Centre,"sb/sprites/fx/005A0000.jpg",537.0583,0 S,0,85051,,0.4447917 L,85051,7 MY,0,0,84,234.1875,234.3028 MY,0,84,168,234.3028,234.6442 MY,0,168,252,234.6442,235.1987 MY,0,252,337,235.1987,235.9449 MY,0,337,421,235.9449,236.8541 MY,0,421,505,236.8541,237.8914 MY,0,505,842,237.8914,242.4836 MY,0,842,926,242.4836,243.5209 MY,0,926,1011,243.5209,244.4301 MY,0,1011,1095,244.4301,245.1763 MY,0,1095,1179,245.1763,245.7308 MY,0,1179,1264,245.7308,246.0722 MY,0,1264,1348,246.0722,246.1875 MY,0,1348,1432,246.1875,246.0722 MY,0,1432,1516,246.0722,245.7308 MY,0,1516,1601,245.7308,245.1763 MY,0,1601,1685,245.1763,244.4301 MY,0,1685,1769,244.4301,243.5209 MY,0,1769,1853,243.5209,242.4836 MY,0,1853,2106,242.4836,239.017 MY,0,2106,2275,239.017,236.8541 MY,0,2275,2359,236.8541,235.9449 MY,0,2359,2443,235.9449,235.1987 MY,0,2443,2528,235.1987,234.6442 MY,0,2528,2612,234.6442,234.3028 MY,30,103927,105175,234.3028,240 F,0,85051,85151,0,1 F,0,105175,105275,1,0
Sprite,Background,Centre,"sb/sprites/fx/005B0000.jpg",544.175,0 S,0,85051,,0.4447917 L,85051,7 MY,0,0,84,234.1957,234.3721 MY,0,84,168,234.3721,234.772 MY,0,168,252,234.772,235.38 MY,0,252,337,235.38,236.1727 MY,0,337,421,236.1727,237.1197 MY,0,421,505,237.1197,238.1847 MY,0,505,842,238.1847,242.7706 MY,0,842,926,242.7706,243.7775 MY,0,926,1011,243.7775,244.6464 MY,0,1011,1095,244.6464,245.3439 MY,0,1095,1179,245.3439,245.8434 MY,0,1179,1264,245.8434,246.1254 MY,0,1264,1348,246.1254,246.1793 MY,0,1348,1432,246.1793,246.0029 MY,0,1432,1516,246.0029,245.603 MY,0,1516,1601,245.603,244.995 MY,0,1601,1685,244.995,244.2023 MY,0,1685,1769,244.2023,243.2552 MY,0,1769,1853,243.2552,242.1903 MY,0,1853,2106,242.1903,238.7106 MY,0,2106,2275,238.7106,236.5975 MY,0,2275,2359,236.5975,235.7286 MY,0,2359,2443,235.7286,235.0311 MY,0,2443,2528,235.0311,234.5316 MY,0,2528,2612,234.5316,234.2496 MY,30,103927,105175,234.2496,240 F,0,85051,85151,0,1 F,0,105175,105275,1,0
Sprite,Background,Centre,"sb/sprites/fx/005C0000.jpg",551.2917,0 S,0,85051,,0.4447917 L,85051,7 MY,0,0,84,234.2204,234.4574 MY,0,84,168,234.4574,234.9146 MY,0,168,252,234.9146,235.5744 MY,0,252,337,235.5744,236.4116 MY,0,337,421,236.4116,237.3938 MY,0,421,505,237.3938,238.4834 MY,0,505,758,238.4834,241.9668 MY,0,758,842,241.9668,243.0505 MY,0,842,926,243.0505,244.0241 MY,0,926,1011,244.0241,244.8504 MY,0,1011,1095,244.8504,245.4974 MY,0,1095,1179,245.4974,245.9404 MY,0,1179,1264,245.9404,246.1623 MY,0,1264,1348,246.1623,246.1546 MY,0,1348,1432,246.1546,245.9176 MY,0,1432,1516,245.9176,245.4604 MY,0,1516,1601,245.4604,244.8006 MY,0,1601,1685,244.8006,243.9634 MY,0,1685,1769,243.9634,242.9812 MY,0,1769,1853,242.9812,241.8916 MY,0,1853,2106,241.8916,238.4082 MY,0,2106,2191,238.4082,237.3245 MY,0,2191,2275,237.3245,236.3509 MY,0,2275,2359,236.3509,235.5246 MY,0,2359,2443,235.5246,234.8776 MY,0,2443,2528,234.8776,234.4346 MY,0,2528,2612,234.4346,234.2127 MY,30,103927,105175,234.2127,240 F,0,85051,85151,0,1 F,0,105175,105275,1,0
Sprite,Background,Centre,"sb/sprites/fx/005D0000.jpg",558.4084,0 S,0,85051,,0.4447917 L,85051,7 MY,0,0,84,234.2614,234.5583 MY,0,84,168,234.5583,235.0717 MY,0,168,252,235.0717,235.7816 MY,0,252,337,235.7816,236.6608 MY,0,337,505,236.6608,238.7868 MY,0,505,758,238.7868,242.2642 MY,0,758,842,242.2642,243.3225 MY,0,842,926,243.3225,244.2603 MY,0,926,1011,244.2603,245.0416 MY,0,1011,1095,245.0416,245.6364 MY,0,1095,1179,245.6364,246.0217 MY,0,1179,1264,246.0217,246.1829 MY,0,1264,1348,246.1829,246.1136 MY,0,1348,1432,246.1136,245.8167 MY,0,1432,1516,245.8167,245.3033 MY,0,1516,1601,245.3033,244.5934 MY,0,1601,1685,244.5934,243.7142 MY,0,1685,1769,243.7142,242.6995 MY,0,1769,2106,242.6995,238.1108 MY,0,2106,2191,238.1108,237.0525 MY,0,2191,2275,237.0525,236.1147 MY,0,2275,2359,236.1147,235.3334 MY,0,2359,2443,235.3334,234.7386 MY,0,2443,2528,234.7386,234.3533 MY,0,2528,2612,234.3533,234.1921 MY,30,103927,105175,234.1921,240 F,0,85051,85151,0,1 F,0,105175,105275,1,0
Sprite,Background,Centre,"sb/sprites/fx/005E0000.jpg",565.525,0 S,0,85051,,0.4447917 L,85051,7 MY,0,0,84,234.3186,234.6748 MY,0,84,168,234.6748,235.2427 MY,0,168,252,235.2427,236.0008 MY,0,252,337,236.0008,236.9197 MY,0,337,421,236.9197,237.9642 MY,0,421,758,237.9642,242.556 MY,0,758,842,242.556,243.5859 MY,0,842,926,243.5859,244.4853 MY,0,926,1011,244.4853,245.2195 MY,0,1011,1095,245.2195,245.7604 MY,0,1095,1179,245.7604,246.087 MY,0,1179,1264,246.087,246.187 MY,0,1264,1348,246.187,246.0564 MY,0,1348,1432,246.0564,245.7002 MY,0,1432,1516,245.7002,245.1323 MY,0,1516,1601,245.1323,244.3742 MY,0,1601,1685,244.3742,243.4553 MY,0,1685,1769,243.4553,242.4108 MY,0,1769,2106,242.4108,237.819 MY,0,2106,2191,237.819,236.7891 MY,0,2191,2275,236.7891,235.8897 MY,0,2275,2359,235.8897,235.1555 MY,0,2359,2443,235.1555,234.6146 MY,0,2443,2528,234.6146,234.288 MY,0,2528,2612,234.288,234.188 MY,30,103927,105175,234.188,240 F,0,85051,85151,0,1 F,0,105175,105275,1,0
Sprite,Background,Centre,"sb/sprites/fx/005F0000.jpg",572.6417,0 S,0,85051,,0.4447917 L,85051,7 MY,0,0,84,234.392,234.8063 MY,0,84,168,234.8063,235.4274 MY,0,168,252,235.4274,236.2314 MY,0,252,337,236.2314,237.1875 MY,0,337,421,237.1875,238.2589 MY,0,421,758,238.2589,242.8412 MY,0,758,842,242.8412,243.8401 MY,0,842,926,243.8401,244.6985 MY,0,926,1011,244.6985,245.3837 MY,0,1011,1095,245.3837,245.8691 MY,0,1095,1179,245.8691,246.1362 MY,0,1179,1264,246.1362,246.1747 MY,0,1264,1348,246.1747,245.983 MY,0,1348,1432,245.983,245.5687 MY,0,1432,1516,245.5687,244.9476 MY,0,1516,1601,244.9476,244.1436 MY,0,1601,1685,244.1436,243.1875 MY,0,1685,1769,243.1875,242.1161 MY,0,1769,2106,242.1161,237.5338 MY,0,2106,2191,237.5338,236.5349 MY,0,2191,2275,236.5349,235.6765 MY,0,2275,2359,235.6765,234.9913 MY,0,2359,2443,234.9913,234.5059 MY,0,2443,2528,234.5059,234.2388 MY,0,2528,2612,234.2388,234.2003 MY,30,103927,105175,234.2003,240 F,0,85051,85151,0,1 F,0,105175,105275,1,0
Sprite,Background,Centre,"sb/sprites/fx/00600000.jpg",579.7584,0 S,0,85051,,0.4447917 L,85051,7 MY,0,0,84,234.4812,234.9525 MY,0,84,168,234.9525,235.6251 MY,0,168,252,235.6251,236.4729 MY,0,252,337,236.4729,237.4636 MY,0,337,421,237.4636,238.5589 MY,0,421,674,238.5589,242.0416 MY,0,674,758,242.0416,243.1192 MY,0,758,842,243.1192,244.0842 MY,0,842,926,244.0842,244.8994 MY,0,926,1011,244.8994,245.5335 MY,0,1011,1095,245.5335,245.9622 MY,0,1095,1179,245.9622,246.169 MY,0,1179,1264,246.169,246.1459 MY,0,1264,1348,246.1459,245.8938 MY,0,1348,1432,245.8938,245.4225 MY,0,1432,1516,245.4225,244.7499 MY,0,1516,1601,244.7499,243.9021 MY,0,1601,1685,243.9021,242.9114 MY,0,1685,2022,242.9114,238.3334 MY,0,2022,2106,238.3334,237.2558 MY,0,2106,2191,237.2558,236.2908 MY,0,2191,2275,236.2908,235.4756 MY,0,2275,2359,235.4756,234.8415 MY,0,2359,2443,234.8415,234.4128 MY,0,2443,2528,234.4128,234.206 MY,0,2528,2612,234.206,234.2291 MY,30,103927,105175,234.2291,240 F,0,85051,85151,0,1 F,0,105175,105275,1,0
Sprite,Background,Centre,"sb/sprites/fx/00610000.jpg",586.875,0 S,0,85051,,0.4447917 L,85051,7 MY,0,0,84,234.586,235.1131 MY,0,84,168,235.1131,235.8353 MY,0,168,252,235.8353,236.7246 MY,0,252,421,236.7246,238.8633 MY,0,421,674,238.8633,242.3377 MY,0,674,758,242.3377,243.3892 MY,0,758,842,243.3892,244.3176 MY,0,842,926,244.3176,245.0874 MY,0,926,1011,245.0874,245.6688 MY,0,1011,1095,245.6688,246.0396 MY,0,1095,1179,246.0396,246.1854 MY,0,1179,1264,246.1854,246.1008 MY,0,1264,1348,246.1008,245.789 MY,0,1348,1432,245.789,245.2619 MY,0,1432,1516,245.2619,244.5397 MY,0,1516,1601,244.5397,243.6504 MY,0,1601,1685,243.6504,242.6279 MY,0,1685,2022,242.6279,238.0373 MY,0,2022,2106,238.0373,236.9858 MY,0,2106,2191,236.9858,236.0574 MY,0,2191,2275,236.0574,235.2876 MY,0,2275,2359,235.2876,234.7062 MY,0,2359,2443,234.7062,234.3354 MY,0,2443,2528,234.3354,234.1896 MY,0,2528,2612,234.1896,234.2742 MY,30,103927,105175,234.2742,240 F,0,85051,85151,0,1 F,0,105175,105275,1,0
Sprite,Background,Centre,"sb/sprites/fx/00620000.jpg",593.9917,0 S,0,85051,,0.4447917 L,85051,7 MY,0,0,84,234.7062,235.2876 MY,0,84,168,235.2876,236.0574 MY,0,168,252,236.0574,236.9858 MY,0,252,337,236.9858,238.0373 MY,0,337,674,238.0373,242.6279 MY,0,674,758,242.6279,243.6504 MY,0,758,842,243.6504,244.5397 MY,0,842,926,244.5397,245.2619 MY,0,926,1011,245.2619,245.789 MY,0,1011,1095,245.789,246.1008 MY,0,1095,1179,246.1008,246.1854 MY,0,1179,1264,246.1854,246.0396 MY,0,1264,1348,246.0396,245.6688 MY,0,1348,1432,245.6688,245.0873 MY,0,1432,1516,245.0873,244.3176 MY,0,1516,1601,244.3176,243.3892 MY,0,1601,1685,243.3892,242.3377 MY,0,1685,2022,242.3377,237.7471 MY,0,2022,2106,237.7471,236.7246 MY,0,2106,2191,236.7246,235.8353 MY,0,2191,2275,235.8353,235.1131 MY,0,2275,2359,235.1131,234.586 MY,0,2359,2443,234.586,234.2742 MY,0,2443,2528,234.2742,234.1896 MY,0,2528,2612,234.1896,234.3354 MY,30,103927,105175,234.3354,240 F,0,85051,85151,0,1 F,0,105175,105275,1,0
Sprite,Background,Centre,"sb/sprites/fx/00630000.jpg",601.1083,0 S,0,85051,,0.4447917 L,85051,7 MY,0,0,84,234.8415,235.4756 MY,0,84,168,235.4756,236.2908 MY,0,168,252,236.2908,237.2558 MY,0,252,337,237.2558,238.3334 MY,0,337,674,238.3334,242.9114 MY,0,674,758,242.9114,243.9021 MY,0,758,842,243.9021,244.7499 MY,0,842,926,244.7499,245.4225 MY,0,926,1011,245.4225,245.8938 MY,0,1011,1095,245.8938,246.1459 MY,0,1095,1179,246.1459,246.169 MY,0,1179,1264,246.169,245.9622 MY,0,1264,1348,245.9622,245.5335 MY,0,1348,1432,245.5335,244.8994 MY,0,1432,1516,244.8994,244.0842 MY,0,1516,1601,244.0842,243.1192 MY,0,1601,1685,243.1192,242.0416 MY,0,1685,2022,242.0416,237.4636 MY,0,2022,2106,237.4636,236.4729 MY,0,2106,2191,236.4729,235.6251 MY,0,2191,2275,235.6251,234.9525 MY,0,2275,2359,234.9525,234.4812 MY,0,2359,2443,234.4812,234.2291 MY,0,2443,2528,234.2291,234.206 MY,0,2528,2612,234.206,234.4128 MY,30,103927,105175,234.4128,240 F,0,85051,85151,0,1 F,0,105175,105275,1,0
Sprite,Background,Centre,"sb/sprites/fx/00640000.jpg",608.225,0 S,0,85051,,0.4447917 L,85051,7 MY,0,0,84,234.9913,235.6765 MY,0,84,168,235.6765,236.5349 MY,0,168,252,236.5349,237.5338 MY,0,252,589,237.5338,242.1161 MY,0,589,674,242.1161,243.1875 MY,0,674,758,243.1875,244.1436 MY,0,758,842,244.1436,244.9476 MY,0,842,926,244.9476,245.5687 MY,0,926,1011,245.5687,245.983 MY,0,1011,1095,245.983,246.1747 MY,0,1095,1179,246.1747,246.1362 MY,0,1179,1264,246.1362,245.8691 MY,0,1264,1348,245.8691,245.3837 MY,0,1348,1432,245.3837,244.6985 MY,0,1432,1516,244.6985,243.8401 MY,0,1516,1601,243.8401,242.8412 MY,0,1601,1938,242.8412,238.2589 MY,0,1938,2022,238.2589,237.1875 MY,0,2022,2106,237.1875,236.2314 MY,0,2106,2191,236.2314,235.4274 MY,0,2191,2275,235.4274,234.8063 MY,0,2275,2359,234.8063,234.3919 MY,0,2359,2443,234.3919,234.2003 MY,0,2443,2528,234.2003,234.2388 MY,0,2528,2612,234.2388,234.5059 MY,30,103927,105175,234.5059,240 F,0,85051,85151,0,1 F,0,105175,105275,1,0
Sprite,Background,Centre,"sb/sprites/fx/00650000.jpg",615.3417,0 S,0,85051,,0.4447917 L,85051,7 MY,0,0,84,235.1555,235.8897 MY,0,84,168,235.8897,236.7891 MY,0,168,337,236.7891,238.94 MY,0,337,589,238.94,242.4108 MY,0,589,674,242.4108,243.4553 MY,0,674,758,243.4553,244.3742 MY,0,758,842,244.3742,245.1323 MY,0,842,926,245.1323,245.7002 MY,0,926,1011,245.7002,246.0564 MY,0,1011,1095,246.0564,246.187 MY,0,1095,1179,246.187,246.087 MY,0,1179,1264,246.087,245.7604 MY,0,1264,1348,245.7604,245.2195 MY,0,1348,1432,245.2195,244.4853 MY,0,1432,1516,244.4853,243.5859 MY,0,1516,1601,243.5859,242.556 MY,0,1601,1938,242.556,237.9642 MY,0,1938,2022,237.9642,236.9197 MY,0,2022,2106,236.9197,236.0008 MY,0,2106,2191,236.0008,235.2427 MY,0,2191,2275,235.2427,234.6748 MY,0,2275,2359,234.6748,234.3186 MY,0,2359,2443,234.3186,234.188 MY,0,2443,2528,234.188,234.288 MY,0,2528,2612,234.288,234.6146 MY,30,103927,105175,234.6146,240 F,0,85051,85151,0,1 F,0,105175,105275,1,0
Sprite,Background,Centre,"sb/sprites/fx/00660000.jpg",622.4584,0 S,0,85051,,0.4447917 L,85051,7 MY,0,0,84,235.3334,236.1147 MY,0,84,168,236.1147,237.0525 MY,0,168,252,237.0525,238.1108 MY,0,252,589,238.1108,242.6995 MY,0,589,674,242.6995,243.7142 MY,0,674,758,243.7142,244.5934 MY,0,758,842,244.5934,245.3033 MY,0,842,926,245.3033,245.8167 MY,0,926,1011,245.8167,246.1136 MY,0,1011,1095,246.1136,246.1829 MY,0,1095,1179,246.1829,246.0217 MY,0,1179,1264,246.0217,245.6364 MY,0,1264,1348,245.6364,245.0416 MY,0,1348,1432,245.0416,244.2603 MY,0,1432,1516,244.2603,243.3225 MY,0,1516,1601,243.3225,242.2642 MY,0,1601,1938,242.2642,237.6755 MY,0,1938,2022,237.6755,236.6608 MY,0,2022,2106,236.6608,235.7816 MY,0,2106,2191,235.7816,235.0717 MY,0,2191,2275,235.0717,234.5583 MY,0,2275,2359,234.5583,234.2614 MY,0,2359,2443,234.2614,234.1921 MY,0,2443,2528,234.1921,234.3533 MY,0,2528,2612,234.3533,234.7386 MY,30,103927,105175,234.7386,240 F,0,85051,85151,0,1 F,0,105175,105275,1,0
Sprite,Background,Centre,"sb/sprites/fx/00670000.jpg",629.575,0 S,0,85051,,0.4447917 L,85051,7 MY,0,0,84,235.5246,236.3509 MY,0,84,168,236.3509,237.3246 MY,0,168,589,237.3246,242.9812 MY,0,589,674,242.9812,243.9634 MY,0,674,758,243.9634,244.8006 MY,0,758,842,244.8006,245.4604 MY,0,842,926,245.4604,245.9176 MY,0,926,1011,245.9176,246.1546 MY,0,1011,1095,246.1546,246.1623 MY,0,1095,1179,246.1623,245.9404 MY,0,1179,1264,245.9404,245.4974 MY,0,1264,1348,245.4974,244.8504 MY,0,1348,1432,244.8504,244.0241 MY,0,1432,1516,244.0241,243.0504 MY,0,1516,1601,243.0504,241.9668 MY,0,1601,1853,241.9668,238.4834 MY,0,1853,1938,238.4834,237.3938 MY,0,1938,2022,237.3938,236.4116 MY,0,2022,2106,236.4116,235.5744 MY,0,2106,2191,235.5744,234.9146 MY,0,2191,2275,234.9146,234.4574 MY,0,2275,2359,234.4574,234.2204 MY,0,2359,2443,234.2204,234.2127 MY,0,2443,2528,234.2127,234.4346 MY,0,2528,2612,234.4346,234.8776 MY,30,103927,105175,234.8776,240 F,0,85051,85151,0,1 F,0,105175,105275,1,0
Sprite,Background,Centre,"sb/sprites/fx/00680000.jpg",636.6917,0 S,0,85051,,0.4447917 L,85051,7 MY,0,0,84,235.7286,236.5975 MY,0,84,168,236.5975,237.6044 MY,0,168,505,237.6044,242.1903 MY,0,505,589,242.1903,243.2553 MY,0,589,674,243.2553,244.2023 MY,0,674,758,244.2023,244.995 MY,0,758,842,244.995,245.603 MY,0,842,926,245.603,246.0029 MY,0,926,1011,246.0029,246.1793 MY,0,1011,1095,246.1793,246.1254 MY,0,1095,1179,246.1254,245.8434 MY,0,1179,1264,245.8434,245.3439 MY,0,1264,1348,245.3439,244.6464 MY,0,1348,1432,244.6464,243.7775 MY,0,1432,1516,243.7775,242.7706 MY,0,1516,1853,242.7706,238.1847 MY,0,1853,1938,238.1847,237.1197 MY,0,1938,2022,237.1197,236.1727 MY,0,2022,2106,236.1727,235.38 MY,0,2106,2191,235.38,234.772 MY,0,2191,2275,234.772,234.3721 MY,0,2275,2359,234.3721,234.1957 MY,0,2359,2443,234.1957,234.2496 MY,0,2443,2528,234.2496,234.5316 MY,0,2528,2612,234.5316,235.0311 MY,30,103927,105175,235.0311,240 F,0,85051,85151,0,1 F,0,105175,105275,1,0
Sprite,Background,Centre,"sb/sprites/fx/00690000.jpg",643.8083,0 S,0,85051,,0.4447917 L,85051,7 MY,0,0,84,235.9449,236.8541 MY,0,84,168,236.8541,237.8914 MY,0,168,505,237.8914,242.4836 MY,0,505,589,242.4836,243.5209 MY,0,589,674,243.5209,244.4301 MY,0,674,758,244.4301,245.1763 MY,0,758,842,245.1763,245.7308 MY,0,842,926,245.7308,246.0722 MY,0,926,1011,246.0722,246.1875 MY,0,1011,1095,246.1875,246.0722 MY,0,1095,1179,246.0722,245.7308 MY,0,1179,1264,245.7308,245.1763 MY,0,1264,1348,245.1763,244.4301 MY,0,1348,1432,244.4301,243.5209 MY,0,1432,1516,243.5209,242.4836 MY,0,1516,1769,242.4836,239.017 MY,0,1769,1938,239.017,236.8541 MY,0,1938,2022,236.8541,235.9449 MY,0,2022,2106,235.9449,235.1987 MY,0,2106,2191,235.1987,234.6442 MY,0,2191,2275,234.6442,234.3028 MY,0,2275,2359,234.3028,234.1875 MY,0,2359,2443,234.1875,234.3028 MY,0,2443,2528,234.3028,234.6442 MY,0,2528,2612,234.6442,235.1987 MY,30,103927,105175,235.1987,240 F,0,85051,85151,0,1 F,0,105175,105275,1,0
Sprite,Background,Centre,"sb/sprites/fx/006A0000.jpg",650.925,0 S,0,85051,,0.4447917 L,85051,7 MY,0,0,84,236.1727,237.1197 MY,0,84,168,237.1197,238.1847 MY,0,168,505,238.1847,242.7706 MY,0,505,589,242.7706,243.7775 MY,0,589,674,243.7775,244.6464 MY,0,674,758,244.6464,245.3439 MY,0,758,842,245.3439,245.8434 MY,0,842,926,245.8434,246.1254 MY,0,926,1011,246.1254,246.1793 MY,0,1011,1095,246.1793,246.0029 MY,0,1095,1179,246.0029,245.603 MY,0,1179,1264,245.603,244.995 MY,0,1264,1348,244.995,244.2023 MY,0,1348,1432,244.2023,243.2553 MY,0,1432,1516,243.2553,242.1903 MY,0,1516,1853,242.1903,237.6044 MY,0,1853,1938,237.6044,236.5975 MY,0,1938,2022,236.5975,235.7286 MY,0,2022,2106,235.7286,235.0311 MY,0,2106,2191,235.0311,234.5316 MY,0,2191,2275,234.5316,234.2496 MY,0,2275,2359,234.2496,234.1957 MY,0,2359,2443,234.1957,234.3721 MY,0,2443,2528,234.3721,234.772 MY,0,2528,2612,234.772,235.38 MY,30,103927,105175,235.38,240 F,0,85051,85151,0,1 F,0,105175,105275,1,0
Sprite,Background,Centre,"sb/sprites/fx/006B0000.jpg",658.0417,0 S,0,85051,,0.4447917 L,85051,7 MY,0,0,84,236.4116,237.3938 MY,0,84,168,237.3938,238.4834 MY,0,168,421,238.4834,241.9668 MY,0,421,505,241.9668,243.0505 MY,0,505,589,243.0505,244.0241 MY,0,589,674,244.0241,244.8504 MY,0,674,758,244.8504,245.4974 MY,0,758,842,245.4974,245.9404 MY,0,842,926,245.9404,246.1623 MY,0,926,1011,246.1623,246.1546 MY,0,1011,1095,246.1546,245.9176 MY,0,1095,1179,245.9176,245.4604 MY,0,1179,1264,245.4604,244.8006 MY,0,1264,1348,244.8006,243.9634 MY,0,1348,1432,243.9634,242.9812 MY,0,1432,1516,242.9812,241.8916 MY,0,1516,1769,241.8916,238.4082 MY,0,1769,1853,238.4082,237.3245 MY,0,1853,1938,237.3245,236.3509 MY,0,1938,2022,236.3509,235.5246 MY,0,2022,2106,235.5246,234.8776 MY,0,2106,2191,234.8776,234.4346 MY,0,2191,2275,234.4346,234.2127 MY,0,2275,2359,234.2127,234.2204 MY,0,2359,2443,234.2204,234.4574 MY,0,2443,2528,234.4574,234.9146 MY,0,2528,2612,234.9146,235.5744 MY,30,103927,105175,235.5744,240 F,0,85051,85151,0,1 F,0,105175,105275,1,0
Sprite,Background,Centre,"sb/sprites/fx/006C0000.jpg",665.1584,0 S,0,85051,,0.4447917 L,85051,7 MY,0,0,168,236.6608,238.7868 MY,0,168,421,238.7868,242.2642 MY,0,421,505,242.2642,243.3225 MY,0,505,589,243.3225,244.2603 MY,0,589,674,244.2603,245.0416 MY,0,674,758,245.0416,245.6364 MY,0,758,842,245.6364,246.0217 MY,0,842,926,246.0217,246.1829 MY,0,926,1011,246.1829,246.1136 MY,0,1011,1095,246.1136,245.8167 MY,0,1095,1179,245.8167,245.3033 MY,0,1179,1264,245.3033,244.5934 MY,0,1264,1348,244.5934,243.7142 MY,0,1348,1432,243.7142,242.6995 MY,0,1432,1769,242.6995,238.1108 MY,0,1769,1853,238.1108,237.0525 MY,0,1853,1938,237.0525,236.1147 MY,0,1938,2022,236.1147,235.3334 MY,0,2022,2106,235.3334,234.7386 MY,0,2106,2191,234.7386,234.3533 MY,0,2191,2275,234.3533,234.1921 MY,0,2275,2359,234.1921,234.2614 MY,0,2359,2443,234.2614,234.5583 MY,0,2443,2528,234.5583,235.0717 MY,0,2528,2612,235.0717,235.7816 MY,30,103927,105175,235.7816,240 F,0,85051,85151,0,1 F,0,105175,105275,1,0
Sprite,Background,Centre,"sb/sprites/fx/006D0000.jpg",672.275,0 S,0,85051,,0.4447917 L,85051,7 MY,0,0,84,236.9197,237.9642 MY,0,84,421,237.9642,242.556 MY,0,421,505,242.556,243.5859 MY,0,505,589,243.5859,244.4853 MY,0,589,674,244.4853,245.2195 MY,0,674,758,245.2195,245.7604 MY,0,758,842,245.7604,246.087 MY,0,842,926,246.087,246.187 MY,0,926,1011,246.187,246.0564 MY,0,1011,1095,246.0564,245.7002 MY,0,1095,1179,245.7002,245.1323 MY,0,1179,1264,245.1323,244.3742 MY,0,1264,1348,244.3742,243.4553 MY,0,1348,1432,243.4553,242.4108 MY,0,1432,1685,242.4108,238.94 MY,0,1685,1853,238.94,236.7891 MY,0,1853,1938,236.7891,235.8897 MY,0,1938,2022,235.8897,235.1555 MY,0,2022,2106,235.1555,234.6146 MY,0,2106,2191,234.6146,234.288 MY,0,2191,2275,234.288,234.188 MY,0,2275,2359,234.188,234.3186 MY,0,2359,2443,234.3186,234.6748 MY,0,2443,2528,234.6748,235.2427 MY,0,2528,2612,235.2427,236.0008 MY,30,103927,105175,236.0008,240 F,0,85051,85151,0,1 F,0,105175,105275,1,0
Sprite,Background,Centre,"sb/sprites/fx/006E0000.jpg",679.3917,0 S,0,85051,,0.4447917 L,85051,7 MY,0,0,84,237.1875,238.2589 MY,0,84,421,238.2589,242.8412 MY,0,421,505,242.8412,243.8401 MY,0,505,589,243.8401,244.6985 MY,0,589,674,244.6985,245.3837 MY,0,674,758,245.3837,245.8691 MY,0,758,842,245.8691,246.1362 MY,0,842,926,246.1362,246.1747 MY,0,926,1011,246.1747,245.983 MY,0,1011,1095,245.983,245.5687 MY,0,1095,1179,245.5687,244.9476 MY,0,1179,1264,244.9476,244.1436 MY,0,1264,1348,244.1436,243.1875 MY,0,1348,1432,243.1875,242.1161 MY,0,1432,1769,242.1161,237.5338 MY,0,1769,1853,237.5338,236.5349 MY,0,1853,1938,236.5349,235.6765 MY,0,1938,2022,235.6765,234.9913 MY,0,2022,2106,234.9913,234.5059 MY,0,2106,2191,234.5059,234.2388 MY,0,2191,2275,234.2388,234.2003 MY,0,2275,2359,234.2003,234.392 MY,0,2359,2443,234.392,234.8063 MY,0,2443,2528,234.8063,235.4274 MY,0,2528,2612,235.4274,236.2314 MY,30,103927,105175,236.2314,240 F,0,85051,85151,0,1 F,0,105175,105275,1,0
Sprite,Background,Centre,"sb/sprites/fx/006F0000.jpg",686.5084,0 S,0,85051,,0.4447917 L,85051,7 MY,0,0,337,237.4636,242.0416 MY,0,337,421,242.0416,243.1192 MY,0,421,505,243.1192,244.0842 MY,0,505,589,244.0842,244.8994 MY,0,589,674,244.8994,245.5335 MY,0,674,758,245.5335,245.9622 MY,0,758,842,245.9622,246.169 MY,0,842,926,246.169,246.1459 MY,0,926,1011,246.1459,245.8938 MY,0,1011,1095,245.8938,245.4225 MY,0,1095,1179,245.4225,244.7499 MY,0,1179,1264,244.7499,243.9021 MY,0,1264,1348,243.9021,242.9114 MY,0,1348,1432,242.9114,241.8161 MY,0,1432,1685,241.8161,238.3334 MY,0,1685,1769,238.3334,237.2558 MY,0,1769,1853,237.2558,236.2908 MY,0,1853,1938,236.2908,235.4756 MY,0,1938,2022,235.4756,234.8415 MY,0,2022,2106,234.8415,234.4128 MY,0,2106,2191,234.4128,234.206 MY,0,2191,2275,234.206,234.2291 MY,0,2275,2359,234.2291,234.4812 MY,0,2359,2443,234.4812,234.9525 MY,0,2443,2528,234.9525,235.6251 MY,0,2528,2612,235.6251,236.4729 MY,30,103927,105175,236.4729,240 F,0,85051,85151,0,1 F,0,105175,105275,1,0
Sprite,Background,Centre,"sb/sprites/fx/00700000.jpg",693.625,0 S,0,85051,,0.4447917 L,85051,7 MY,0,0,337,237.7471,242.3377 MY,0,337,421,242.3377,243.3892 MY,0,421,505,243.3892,244.3176 MY,0,505,589,244.3176,245.0874 MY,0,589,674,245.0874,245.6688 MY,0,674,758,245.6688,246.0396 MY,0,758,842,246.0396,246.1854 MY,0,842,926,246.1854,246.1008 MY,0,926,1011,246.1008,245.789 MY,0,1011,1095,245.789,245.2619 MY,0,1095,1179,245.2619,244.5397 MY,0,1179,1264,244.5397,243.6504 MY,0,1264,1348,243.6504,242.6279 MY,0,1348,1685,242.6279,238.0373 MY,0,1685,1769,238.0373,236.9858 MY,0,1769,1853,236.9858,236.0574 MY,0,1853,1938,236.0574,235.2876 MY,0,1938,2022,235.2876,234.7062 MY,0,2022,2106,234.7062,234.3354 MY,0,2106,2191,234.3354,234.1896 MY,0,2191,2275,234.1896,234.2742 MY,0,2275,2359,234.2742,234.586 MY,0,2359,2443,234.586,235.1131 MY,0,2443,2528,235.1131,235.8353 MY,0,2528,2612,235.8353,236.7246 MY,30,103927,105175,236.7246,240 F,0,85051,85151,0,1 F,0,105175,105275,1,0
Sprite,Background,Centre,"sb/sprites/fx/00710000.jpg",700.7417,0 S,0,85051,,0.4447917 L,85051,7 MY,0,0,337,238.0373,242.6279 MY,0,337,421,242.6279,243.6504 MY,0,421,505,243.6504,244.5397 MY,0,505,589,244.5397,245.2619 MY,0,589,674,245.2619,245.789 MY,0,674,758,245.789,246.1008 MY,0,758,842,246.1008,246.1854 MY,0,842,926,246.1854,246.0396 MY,0,926,1011,246.0396,245.6688 MY,0,1011,1095,245.6688,245.0873 MY,0,1095,1179,245.0873,244.3176 MY,0,1179,1264,244.3176,243.3892 MY,0,1264,1348,243.3892,242.3377 MY,0,1348,1601,242.3377,238.8633 MY,0,1601,1769,238.8633,236.7246 MY,0,1769,1853,236.7246,235.8353 MY,0,1853,1938,235.8353,235.1131 MY,0,1938,2022,235.1131,234.586 MY,0,2022,2106,234.586,234.2742 MY,0,2106,2191,234.2742,234.1896 MY,0,2191,2275,234.1896,234.3354 MY,0,2275,2359,234.3354,234.7062 MY,0,2359,2443,234.7062,235.2877 MY,0,2443,2528,235.2877,236.0574 MY,0,2528,2612,236.0574,236.9858 MY,30,103927,105175,236.9858,240 F,0,85051,85151,0,1 F,0,105175,105275,1,0
Sprite,Background,Centre,"sb/sprites/fx/00720000.jpg",707.8583,0 S,0,85051,,0.4447917 L,85051,7 MY,0,0,337,238.3334,242.9114 MY,0,337,421,242.9114,243.9021 MY,0,421,505,243.9021,244.7499 MY,0,505,589,244.7499,245.4225 MY,0,589,674,245.4225,245.8938 MY,0,674,758,245.8938,246.1459 MY,0,758,842,246.1459,246.169 MY,0,842,926,246.169,245.9622 MY,0,926,1011,245.9622,245.5335 MY,0,1011,1095,245.5335,244.8994 MY,0,1095,1179,244.8994,244.0842 MY,0,1179,1264,244.0842,243.1192 MY,0,1264,1348,243.1192,242.0416 MY,0,1348,1601,242.0416,238.5589 MY,0,1601,1685,238.5589,237.4636 MY,0,1685,1769,237.4636,236.4729 MY,0,1769,1853,236.4729,235.6251 MY,0,1853,1938,235.6251,234.9525 MY,0,1938,2022,234.9525,234.4812 MY,0,2022,2106,234.4812,234.2291 MY,0,2106,2191,234.2291,234.206 MY,0,2191,2275,234.206,234.4128 MY,0,2275,2359,234.4128,234.8415 MY,0,2359,2443,234.8415,235.4756 MY,0,2443,2528,235.4756,236.2908 MY,0,2528,2612,236.2908,237.2558 MY,30,103927,105175,237.2558,240 F,0,85051,85151,0,1 F,0,105175,105275,1,0
Sprite,Background,Centre,"sb/sprites/fx/00730000.jpg",714.975,0 S,0,85051,,0.4447917 L,85051,7 MY,0,0,252,238.6346,242.1161 MY,0,252,337,242.1161,243.1875 MY,0,337,421,243.1875,244.1436 MY,0,421,505,244.1436,244.9476 MY,0,505,589,244.9476,245.5687 MY,0,589,674,245.5687,245.9831 MY,0,674,758,245.9831,246.1747 MY,0,758,842,246.1747,246.1362 MY,0,842,926,246.1362,245.8691 MY,0,926,1011,245.8691,245.3837 MY,0,1011,1095,245.3837,244.6985 MY,0,1095,1179,244.6985,243.8401 MY,0,1179,1264,243.8401,242.8412 MY,0,1264,1601,242.8412,238.2589 MY,0,1601,1685,238.2589,237.1875 MY,0,1685,1769,237.1875,236.2314 MY,0,1769,1853,236.2314,235.4274 MY,0,1853,1938,235.4274,234.8063 MY,0,1938,2022,234.8063,234.3919 MY,0,2022,2106,234.3919,234.2003 MY,0,2106,2191,234.2003,234.2388 MY,0,2191,2275,234.2388,234.5059 MY,0,2275,2359,234.5059,234.9913 MY,0,2359,2443,234.9913,235.6765 MY,0,2443,2528,235.6765,236.5349 MY,0,2528,2612,236.5349,237.5338 MY,30,103927,105175,237.5338,240 F,0,85051,85151,0,1 F,0,105175,105275,1,0
Sprite,Background,Centre,"sb/sprites/fx/00740000.jpg",722.0917,0 S,0,85051,,0.4447917 L,85051,7 MY,0,0,252,238.94,242.4108 MY,0,252,337,242.4108,243.4553 MY,0,337,421,243.4553,244.3742 MY,0,421,505,244.3742,245.1323 MY,0,505,589,245.1323,245.7002 MY,0,589,674,245.7002,246.0564 MY,0,674,758,246.0564,246.187 MY,0,758,842,246.187,246.087 MY,0,842,926,246.087,245.7604 MY,0,926,1011,245.7604,245.2195 MY,0,1011,1095,245.2195,244.4853 MY,0,1095,1179,244.4853,243.5859 MY,0,1179,1264,243.5859,242.556 MY,0,1264,1601,242.556,237.9642 MY,0,1601,1685,237.9642,236.9197 MY,0,1685,1769,236.9197,236.0008 MY,0,1769,1853,236.0008,235.2427 MY,0,1853,1938,235.2427,234.6748 MY,0,1938,2022,234.6748,234.3186 MY,0,2022,2106,234.3186,234.188 MY,0,2106,2191,234.188,234.288 MY,0,2191,2275,234.288,234.6146 MY,0,2275,2359,234.6146,235.1555 MY,0,2359,2443,235.1555,235.8897 MY,0,2443,2528,235.8897,236.7891 MY,0,2528,2612,236.7891,237.819 MY,30,103927,105175,237.819,240 F,0,85051,85151,0,1 F,0,105175,105275,1,0
Sprite,Background,Centre,"sb/sprites/fx/00750000.jpg",729.2084,0 S,0,85051,,0.4447917 L,85051,7 MY,0,0,252,239.2489,242.6995 MY,0,252,337,242.6995,243.7142 MY,0,337,421,243.7142,244.5934 MY,0,421,505,244.5934,245.3033 MY,0,505,589,245.3033,245.8167 MY,0,589,674,245.8167,246.1136 MY,0,674,758,246.1136,246.1829 MY,0,758,842,246.1829,246.0217 MY,0,842,926,246.0217,245.6364 MY,0,926,1011,245.6364,245.0416 MY,0,1011,1095,245.0416,244.2603 MY,0,1095,1179,244.2603,243.3225 MY,0,1179,1264,243.3225,242.2642 MY,0,1264,1516,242.2642,238.7868 MY,0,1516,1685,238.7868,236.6608 MY,0,1685,1769,236.6608,235.7816 MY,0,1769,1853,235.7816,235.0717 MY,0,1853,1938,235.0717,234.5583 MY,0,1938,2022,234.5583,234.2614 MY,0,2022,2106,234.2614,234.1921 MY,0,2106,2191,234.1921,234.3533 MY,0,2191,2275,234.3533,234.7386 MY,0,2275,2359,234.7386,235.3334 MY,0,2359,2443,235.3334,236.1147 MY,0,2443,2528,236.1147,237.0525 MY,0,2528,2612,237.0525,238.1108 MY,30,103927,105175,238.1108,240 F,0,85051,85151,0,1 F,0,105175,105275,1,0
Sprite,Background,Centre,"sb/sprites/fx/00760000.jpg",736.325,0 S,0,85051,,0.4447917 L,85051,7 MY,0,0,168,239.5603,241.8916 MY,0,168,252,241.8916,242.9812 MY,0,252,337,242.9812,243.9634 MY,0,337,421,243.9634,244.8006 MY,0,421,505,244.8006,245.4604 MY,0,505,589,245.4604,245.9176 MY,0,589,674,245.9176,246.1546 MY,0,674,758,246.1546,246.1623 MY,0,758,842,246.1623,245.9404 MY,0,842,926,245.9404,245.4974 MY,0,926,1011,245.4974,244.8504 MY,0,1011,1095,244.8504,244.0241 MY,0,1095,1179,244.0241,243.0504 MY,0,1179,1264,243.0504,241.9668 MY,0,1264,1516,241.9668,238.4834 MY,0,1516,1601,238.4834,237.3938 MY,0,1601,1685,237.3938,236.4116 MY,0,1685,1769,236.4116,235.5744 MY,0,1769,1853,235.5744,234.9146 MY,0,1853,1938,234.9146,234.4574 MY,0,1938,2022,234.4574,234.2204 MY,0,2022,2106,234.2204,234.2127 MY,0,2106,2191,234.2127,234.4346 MY,0,2191,2275,234.4346,234.8776 MY,0,2275,2359,234.8776,235.5246 MY,0,2359,2443,235.5246,236.3509 MY,0,2443,2528,236.3509,237.3246 MY,0,2528,2612,237.3246,238.4082 MY,30,103927,105175,238.4082,240 F,0,85051,85151,0,1 F,0,105175,105275,1,0
Sprite,Background,Centre,"sb/sprites/fx/00770000.jpg",743.4417,0 S,0,85051,,0.4447917 L,85051,7 MY,0,0,168,239.8735,242.1903 MY,0,168,252,242.1903,243.2553 MY,0,252,337,243.2553,244.2023 MY,0,337,421,244.2023,244.995 MY,0,421,505,244.995,245.603 MY,0,505,589,245.603,246.0029 MY,0,589,674,246.0029,246.1793 MY,0,674,758,246.1793,246.1254 MY,0,758,842,246.1254,245.8434 MY,0,842,926,245.8434,245.3439 MY,0,926,1011,245.3439,244.6464 MY,0,1011,1095,244.6464,243.7775 MY,0,1095,1179,243.7775,242.7706 MY,0,1179,1516,242.7706,238.1847 MY,0,1516,1601,238.1847,237.1197 MY,0,1601,1685,237.1197,236.1727 MY,0,1685,1769,236.1727,235.38 MY,0,1769,1853,235.38,234.772 MY,0,1853,1938,234.772,234.3721 MY,0,1938,2022,234.3721,234.1957 MY,0,2022,2106,234.1957,234.2496 MY,0,2106,2191,234.2496,234.5316 MY,0,2191,2275,234.5316,235.0311 MY,0,2275,2359,235.0311,235.7286 MY,0,2359,2443,235.7286,236.5975 MY,0,2443,2612,236.5975,238.7106 MY,30,103927,105175,238.7106,240 F,0,85051,85151,0,1 F,0,105175,105275,1,0
Sprite,Background,Centre,"sb/sprites/fx/00000000.jpg",-103.4417,0 S,0,172691,,0.4447917 L,172691,7 MY,0,0,112,240.1875,242.7757 MY,0,112,224,242.7757,245.1875 MY,0,224,280,245.1875,246.2751 MY,0,280,337,246.2751,247.2586 MY,0,337,393,247.2586,248.121 MY,0,393,449,248.121,248.8477 MY,0,449,505,248.8477,249.4263 MY,0,505,561,249.4263,249.8468 MY,0,561,617,249.8468,250.1019 MY,0,617,674,250.1019,250.1875 MY,0,674,730,250.1875,250.1019 MY,0,730,786,250.1019,249.8468 MY,0,786,842,249.8468,249.4263 MY,0,842,898,249.4263,248.8477 MY,0,898,955,248.8477,248.121 MY,0,955,1011,248.121,247.2586 MY,0,1011,1067,247.2586,246.2751 MY,0,1067,1179,246.2751,244.0143 MY,0,1179,1460,244.0143,237.5993 MY,0,1460,1573,237.5993,235.1875 MY,0,1573,1629,235.1875,234.0999 MY,0,1629,1685,234.0999,233.1164 MY,0,1685,1741,233.1164,232.254 MY,0,1741,1797,232.254,231.5273 MY,0,1797,1853,231.5273,230.9487 MY,0,1853,1910,230.9487,230.5282 MY,0,1910,1966,230.5282,230.2731 MY,0,1966,2022,230.2731,230.1875 MY,0,2022,2078,230.1875,230.2731 MY,0,2078,2134,230.2731,230.5282 MY,0,2134,2191,230.5282,230.9487 MY,0,2191,2247,230.9487,231.5273 MY,0,2247,2303,231.5273,232.254 MY,0,2303,2359,232.254,233.1164 MY,0,2359,2415,233.1164,234.0999 MY,0,2415,2528,234.0999,236.3607 MY,0,2528,2640,236.3607,238.8822 MY,30,191567,192816,238.8822,240 F,0,172691,172791,0,1 F,0,192816,192916,1,0
Sprite,Background,Centre,"sb/sprites/fx/00010000.jpg",-96.325,0 S,0,172691,,0.4447917 L,172691,7 MY,0,0,112,240.7109,243.2777 MY,0,112,224,243.2777,245.6339 MY,0,224,280,245.6339,246.682 MY,0,280,337,246.682,247.6189 MY,0,337,393,247.6189,248.4288 MY,0,393,449,248.4288,249.0976 MY,0,449,505,249.0976,249.6139 MY,0,505,561,249.6139,249.969 MY,0,561,617,249.969,250.1567 MY,0,617,674,250.1567,250.1738 MY,0,674,730,250.1738,250.0201 MY,0,730,786,250.0201,249.6981 MY,0,786,842,249.6981,249.2133 MY,0,842,898,249.2133,248.5742 MY,0,898,955,248.5742,247.7916 MY,0,955,1011,247.7916,246.8788 MY,0,1011,1123,246.8788,244.7274 MY,0,1123,1235,244.7274,242.2666 MY,0,1235,1460,242.2666,237.0973 MY,0,1460,1573,237.0973,234.7411 MY,0,1573,1629,234.7411,233.693 MY,0,1629,1685,233.693,232.7561 MY,0,1685,1741,232.7561,231.9462 MY,0,1741,1797,231.9462,231.2774 MY,0,1797,1853,231.2774,230.7611 MY,0,1853,1910,230.7611,230.406 MY,0,1910,1966,230.406,230.2183 MY,0,1966,2022,230.2183,230.2012 MY,0,2022,2078,230.2012,230.3549 MY,0,2078,2134,230.3549,230.6769 MY,0,2134,2191,230.6769,231.1617 MY,0,2191,2247,231.1617,231.8008 MY,0,2247,2303,231.8008,232.5834 MY,0,2303,2359,232.5834,233.4962 MY,0,2359,2415,233.4962,234.5234 MY,0,2415,2528,234.5234,236.8494 MY,0,2528,2640,236.8494,239.4029 MY,30,191567,192816,239.4029,240 F,0,172691,172791,0,1 F,0,192816,192916,1,0
Sprite,Background,Centre,"sb/sprites/fx/00020000.jpg",-89.20833,0 S,0,172691,,0.4447917 L,172691,7 MY,0,0,112,241.2328,243.7712 MY,0,112,224,243.7712,246.0654 MY,0,224,280,246.0654,247.071 MY,0,280,337,247.071,247.959 MY,0,337,393,247.959,248.7139 MY,0,393,449,248.7139,249.323 MY,0,449,505,249.323,249.7757 MY,0,505,561,249.7757,250.0644 MY,0,561,617,250.0644,250.1841 MY,0,617,674,250.1841,250.1327 MY,0,674,730,250.1327,249.9112 MY,0,730,786,249.9112,249.5233 MY,0,786,842,249.5233,248.9757 MY,0,842,898,248.9757,248.2777 MY,0,898,955,248.2777,247.4412 MY,0,955,1011,247.4412,246.4807 MY,0,1011,1067,246.4807,245.4125 MY,0,1067,1179,245.4125,243.0276 MY,0,1179,1460,243.0276,236.6038 MY,0,1460,1573,236.6038,234.3096 MY,0,1573,1629,234.3096,233.304 MY,0,1629,1685,233.304,232.416 MY,0,1685,1741,232.416,231.6611 MY,0,1741,1797,231.6611,231.052 MY,0,1797,1853,231.052,230.5993 MY,0,1853,1910,230.5993,230.3106 MY,0,1910,1966,230.3106,230.1909 MY,0,1966,2022,230.1909,230.2423 MY,0,2022,2078,230.2423,230.4638 MY,0,2078,2134,230.4638,230.8517 MY,0,2134,2191,230.8517,231.3993 MY,0,2191,2247,231.3993,232.0973 MY,0,2247,2303,232.0973,232.9338 MY,0,2303,2359,232.9338,233.8943 MY,0,2359,2415,233.8943,234.9625 MY,0,2415,2528,234.9625,237.3474 MY,0,2528,2640,237.3474,239.9257 MY,30,191567,192816,239.9257,240 F,0,172691,172791,0,1 F,0,192816,192916,1,0
Sprite,Background,Centre,"sb/sprites/fx/00030000.jpg",-82.09167,0 S,0,172691,,0.4447917 L,172691,7 MY,0,0,112,241.7518,244.2549 MY,0,112,224,244.2549,246.4807 MY,0,224,280,246.4807,247.4412 MY,0,280,337,247.4412,248.2777 MY,0,337,393,248.2777,248.9757 MY,0,393,449,248.9757,249.5233 MY,0,449,505,249.5233,249.9112 MY,0,505,561,249.9112,250.1327 MY,0,561,617,250.1327,250.1841 MY,0,617,674,250.1841,250.0644 MY,0,674,730,250.0644,249.7757 MY,0,730,786,249.7757,249.323 MY,0,786,842,249.323,248.7139 MY,0,842,898,248.7139,247.959 MY,0,898,955,247.959,247.071 MY,0,955,1011,247.071,246.0654 MY,0,1011,1123,246.0654,243.7712 MY,0,1123,1460,243.7712,236.1201 MY,0,1460,1573,236.1201,233.8943 MY,0,1573,1629,233.8943,232.9338 MY,0,1629,1685,232.9338,232.0973 MY,0,1685,1741,232.0973,231.3993 MY,0,1741,1797,231.3993,230.8517 MY,0,1797,1853,230.8517,230.4638 MY,0,1853,1910,230.4638,230.2423 MY,0,1910,1966,230.2423,230.1909 MY,0,1966,2022,230.1909,230.3106 MY,0,2022,2078,230.3106,230.5993 MY,0,2078,2134,230.5993,231.052 MY,0,2134,2191,231.052,231.6611 MY,0,2191,2247,231.6611,232.416 MY,0,2247,2303,232.416,233.304 MY,0,2303,2359,233.304,234.3096 MY,0,2359,2415,234.3096,235.4159 MY,0,2415,2528,235.4159,237.853 MY,0,2528,2640,237.853,240.4493 MY,30,191567,192816,240.4493,240 F,0,172691,172791,0,1 F,0,192816,192916,1,0
Sprite,Background,Centre,"sb/sprites/fx/00040000.jpg",-74.975,0 S,0,172691,,0.4447917 L,172691,7 MY,0,0,112,242.2666,244.7274 MY,0,112,168,244.7274,245.8516 MY,0,168,224,245.8516,246.8788 MY,0,224,280,246.8788,247.7916 MY,0,280,337,247.7916,248.5742 MY,0,337,393,248.5742,249.2133 MY,0,393,449,249.2133,249.6981 MY,0,449,505,249.6981,250.0201 MY,0,505,561,250.0201,250.1738 MY,0,561,617,250.1738,250.1567 MY,0,617,674,250.1567,249.969 MY,0,674,730,249.969,249.6139 MY,0,730,786,249.6139,249.0976 MY,0,786,842,249.0976,248.4288 MY,0,842,898,248.4288,247.6189 MY,0,898,955,247.6189,246.682 MY,0,955,1011,246.682,245.6339 MY,0,1011,1123,245.6339,243.2777 MY,0,1123,1348,243.2777,238.1084 MY,0,1348,1460,238.1084,235.6476 MY,0,1460,1573,235.6476,233.4962 MY,0,1573,1629,233.4962,232.5834 MY,0,1629,1685,232.5834,231.8008 MY,0,1685,1741,231.8008,231.1617 MY,0,1741,1797,231.1617,230.6769 MY,0,1797,1853,230.6769,230.3549 MY,0,1853,1910,230.3549,230.2012 MY,0,1910,1966,230.2012,230.2183 MY,0,1966,2022,230.2183,230.406 MY,0,2022,2078,230.406,230.7611 MY,0,2078,2134,230.7611,231.2774 MY,0,2134,2191,231.2774,231.9462 MY,0,2191,2247,231.9462,232.7561 MY,0,2247,2303,232.7561,233.693 MY,0,2303,2415,233.693,235.8824 MY,0,2415,2528,235.8824,238.3651 MY,0,2528,2640,238.3651,240.9721 MY,30,191567,192816,240.9721,240 F,0,172691,172791,0,1 F,0,192816,192916,1,0
Sprite,Background,Centre,"sb/sprites/fx/00050000.jpg",-67.85833,0 S,0,172691,,0.4447917 L,172691,7 MY,0,0,112,242.7757,245.1875 MY,0,112,168,245.1875,246.2751 MY,0,168,224,246.2751,247.2586 MY,0,224,280,247.2586,248.121 MY,0,280,337,248.121,248.8477 MY,0,337,393,248.8477,249.4263 MY,0,393,449,249.4263,249.8468 MY,0,449,505,249.8468,250.1019 MY,0,505,561,250.1019,250.1875 MY,0,561,617,250.1875,250.1019 MY,0,617,674,250.1019,249.8468 MY,0,674,730,249.8468,249.4263 MY,0,730,786,249.4263,248.8477 MY,0,786,842,248.8477,248.121 MY,0,842,898,248.121,247.2586 MY,0,898,955,247.2586,246.2751 MY,0,955,1011,246.2751,245.1875 MY,0,1011,1123,245.1875,242.7757 MY,0,1123,1404,242.7757,236.3607 MY,0,1404,1516,236.3607,234.0999 MY,0,1516,1573,234.0999,233.1164 MY,0,1573,1629,233.1164,232.254 MY,0,1629,1685,232.254,231.5273 MY,0,1685,1741,231.5273,230.9487 MY,0,1741,1797,230.9487,230.5282 MY,0,1797,1853,230.5282,230.2731 MY,0,1853,1910,230.2731,230.1875 MY,0,1910,1966,230.1875,230.2731 MY,0,1966,2022,230.2731,230.5282 MY,0,2022,2078,230.5282,230.9487 MY,0,2078,2134,230.9487,231.5273 MY,0,2134,2191,231.5273,232.254 MY,0,2191,2247,232.254,233.1164 MY,0,2247,2303,233.1164,234.0999 MY,0,2303,2415,234.0999,236.3607 MY,0,2415,2640,236.3607,241.4928 MY,30,191567,192816,241.4928,240 F,0,172691,172791,0,1 F,0,192816,192916,1,0
Sprite,Background,Centre,"sb/sprites/fx/00060000.jpg",-60.74167,0 S,0,172691,,0.4447917 L,172691,7 MY,0,0,112,243.2777,245.6339 MY,0,112,168,245.6339,246.682 MY,0,168,224,246.682,247.6189 MY,0,224,280,247.6189,248.4288 MY,0,280,337,248.4288,249.0976 MY,0,337,393,249.0976,249.6139 MY,0,393,449,249.6139,249.969 MY,0,449,505,249.969,250.1567 MY,0,505,561,250.1567,250.1738 MY,0,561,617,250.1738,250.0201 MY,0,617,674,250.0201,249.6981 MY,0,674,730,249.6981,249.2133 MY,0,730,786,249.2133,248.5742 MY,0,786,842,248.5742,247.7916 MY,0,842,898,247.7916,246.8788 MY,0,898,955,246.8788,245.8516 MY,0,955,1067,245.8516,243.5256 MY,0,1067,1292,243.5256,238.3651 MY,0,1292,1404,238.3651,235.8824 MY,0,1404,1516,235.8824,233.693 MY,0,1516,1573,233.693,232.7561 MY,0,1573,1629,232.7561,231.9462 MY,0,1629,1685,231.9462,231.2774 MY,0,1685,1741,231.2774,230.7611 MY,0,1741,1797,230.7611,230.406 MY,0,1797,1853,230.406,230.2183 MY,0,1853,1910,230.2183,230.2012 MY,0,1910,1966,230.2012,230.3549 MY,0,1966,2022,230.3549,230.6769 MY,0,2022,2078,230.6769,231.1617 MY,0,2078,2134,231.1617,231.8008 MY,0,2134,2191,231.8008,232.5834 MY,0,2191,2247,232.5834,233.4962 MY,0,2247,2359,233.4962,235.6476 MY,0,2359,2471,235.6476,238.1084 MY,0,2471,2640,238.1084,242.0099 MY,30,191567,192816,242.0099,240 F,0,172691,172791,0,1 F,0,192816,192916,1,0
Sprite,Background,Centre,"sb/sprites/fx/00070000.jpg",-53.625,0 S,0,172691,,0.4447917 L,172691,7 MY,0,0,112,243.7712,246.0654 MY,0,112,168,246.0654,247.071 MY,0,168,224,247.071,247.959 MY,0,224,280,247.959,248.7139 MY,0,280,337,248.7139,249.323 MY,0,337,393,249.323,249.7757 MY,0,393,449,249.7757,250.0644 MY,0,449,505,250.0644,250.1841 MY,0,505,561,250.1841,250.1327 MY,0,561,617,250.1327,249.9112 MY,0,617,674,249.9112,249.5233 MY,0,674,730,249.5233,248.9757 MY,0,730,786,248.9757,248.2777 MY,0,786,842,248.2777,247.4412 MY,0,842,898,247.4412,246.4807 MY,0,898,955,246.4807,245.4125 MY,0,955,1067,245.4125,243.0276 MY,0,1067,1348,243.0276,236.6038 MY,0,1348,1460,236.6038,234.3096 MY,0,1460,1516,234.3096,233.304 MY,0,1516,1573,233.304,232.416 MY,0,1573,1629,232.416,231.6611 MY,0,1629,1685,231.6611,231.052 MY,0,1685,1741,231.052,230.5993 MY,0,1741,1797,230.5993,230.3106 MY,0,1797,1853,230.3106,230.1909 MY,0,1853,1910,230.1909,230.2423 MY,0,1910,1966,230.2423,230.4638 MY,0,1966,2022,230.4638,230.8517 MY,0,2022,2078,230.8517,231.3993 MY,0,2078,2134,231.3993,232.0973 MY,0,2134,2191,232.0973,232.9338 MY,0,2191,2247,232.9338,233.8943 MY,0,2247,2359,233.8943,236.1201 MY,0,2359,2471,236.1201,238.6232 MY,0,2471,2640,238.6232,242.522 MY,30,191567,192816,242.522,240 F,0,172691,172791,0,1 F,0,192816,192916,1,0
Sprite,Background,Centre,"sb/sprites/fx/00080000.jpg",-46.50833,0 S,0,172691,,0.4447917 L,172691,7 MY,0,0,112,244.2549,246.4807 MY,0,112,168,246.4807,247.4412 MY,0,168,224,247.4412,248.2777 MY,0,224,280,248.2777,248.9757 MY,0,280,337,248.9757,249.5233 MY,0,337,393,249.5233,249.9112 MY,0,393,449,249.9112,250.1327 MY,0,449,505,250.1327,250.1841 MY,0,505,561,250.1841,250.0644 MY,0,561,617,250.0644,249.7757 MY,0,617,674,249.7757,249.323 MY,0,674,730,249.323,248.7139 MY,0,730,786,248.7139,247.959 MY,0,786,842,247.959,247.071 MY,0,842,898,247.071,246.0654 MY,0,898,1011,246.0654,243.7712 MY,0,1011,1348,243.7712,236.1201 MY,0,1348,1460,236.1201,233.8943 MY,0,1460,1516,233.8943,232.9338 MY,0,1516,1573,232.9338,232.0973 MY,0,1573,1629,232.0973,231.3993 MY,0,1629,1685,231.3993,230.8517 MY,0,1685,1741,230.8517,230.4638 MY,0,1741,1797,230.4638,230.2423 MY,0,1797,1853,230.2423,230.1909 MY,0,1853,1910,230.1909,230.3106 MY,0,1910,1966,230.3106,230.5993 MY,0,1966,2022,230.5993,231.052 MY,0,2022,2078,231.052,231.6611 MY,0,2078,2134,231.6611,232.416 MY,0,2134,2191,232.416,233.304 MY,0,2191,2247,233.304,234.3096 MY,0,2247,2359,234.3096,236.6038 MY,0,2359,2640,236.6038,243.0276 MY,30,191567,192816,243.0276,240 F,0,172691,172791,0,1 F,0,192816,192916,1,0
Sprite,Background,Centre,"sb/sprites/fx/00090000.jpg",-39.39166,0 S,0,172691,,0.4447917 L,172691,7 MY,0,0,112,244.7274,246.8788 MY,0,112,168,246.8788,247.7916 MY,0,168,224,247.7916,248.5742 MY,0,224,280,248.5742,249.2133 MY,0,280,337,249.2133,249.6981 MY,0,337,393,249.6981,250.0201 MY,0,393,449,250.0201,250.1738 MY,0,449,505,250.1738,250.1567 MY,0,505,561,250.1567,249.969 MY,0,561,617,249.969,249.6139 MY,0,617,674,249.6139,249.0976 MY,0,674,730,249.0976,248.4288 MY,0,730,786,248.4288,247.6189 MY,0,786,842,247.6189,246.682 MY,0,842,898,246.682,245.6339 MY,0,898,1011,245.6339,243.2777 MY,0,1011,1292,243.2777,236.8494 MY,0,1292,1404,236.8494,234.5234 MY,0,1404,1460,234.5234,233.4962 MY,0,1460,1516,233.4962,232.5834 MY,0,1516,1573,232.5834,231.8008 MY,0,1573,1629,231.8008,231.1617 MY,0,1629,1685,231.1617,230.6769 MY,0,1685,1741,230.6769,230.3549 MY,0,1741,1797,230.3549,230.2012 MY,0,1797,1853,230.2012,230.2183 MY,0,1853,1910,230.2183,230.406 MY,0,1910,1966,230.406,230.7611 MY,0,1966,2022,230.7611,231.2774 MY,0,2022,2078,231.2774,231.9462 MY,0,2078,2134,231.9462,232.7561 MY,0,2134,2191,232.7561,233.693 MY,0,2191,2303,233.693,235.8824 MY,0,2303,2415,235.8824,238.3651 MY,0,2415,2640,238.3651,243.5256 MY,30,191567,192816,243.5256,240 F,0,172691,172791,0,1 F,0,192816,192916,1,0
Sprite,Background,Centre,"sb/sprites/fx/000A0000.jpg",-32.27499,0 S,0,172691,,0.4447917 L,172691,7 MY,0,0,56,245.1875,246.2751 MY,0,56,112,246.2751,247.2586 MY,0,112,168,247.2586,248.121 MY,0,168,224,248.121,248.8477 MY,0,224,280,248.8477,249.4263 MY,0,280,337,249.4263,249.8468 MY,0,337,393,249.8468,250.1019 MY,0,393,449,250.1019,250.1875 MY,0,449,505,250.1875,250.1019 MY,0,505,561,250.1019,249.8468 MY,0,561,617,249.8468,249.4263 MY,0,617,674,249.4263,248.8477 MY,0,674,730,248.8477,248.121 MY,0,730,786,248.121,247.2586 MY,0,786,842,247.2586,246.2751 MY,0,842,898,246.2751,245.1875 MY,0,898,1011,245.1875,242.7757 MY,0,1011,1292,242.7757,236.3607 MY,0,1292,1404,236.3607,234.0999 MY,0,1404,1460,234.0999,233.1164 MY,0,1460,1516,233.1164,232.254 MY,0,1516,1573,232.254,231.5273 MY,0,1573,1629,231.5273,230.9487 MY,0,1629,1685,230.9487,230.5282 MY,0,1685,1741,230.5282,230.2731 MY,0,1741,1797,230.2731,230.1875 MY,0,1797,1853,230.1875,230.2731 MY,0,1853,1910,230.2731,230.5282 MY,0,1910,1966,230.5282,230.9487 MY,0,1966,2022,230.9487,231.5273 MY,0,2022,2078,231.5273,232.254 MY,0,2078,2134,232.254,233.1164 MY,0,2134,2191,233.1164,234.0999 MY,0,2191,2303,234.0999,236.3607 MY,0,2303,2640,236.3607,244.0143 MY,30,191567,192816,244.0143,240 F,0,172691,172791,0,1 F,0,192816,192916,1,0
Sprite,Background,Centre,"sb/sprites/fx/000B0000.jpg",-25.15833,0 S,0,172691,,0.4447917 L,172691,7 MY,0,0,56,245.6339,246.682 MY,0,56,112,246.682,247.6189 MY,0,112,168,247.6189,248.4288 MY,0,168,224,248.4288,249.0976 MY,0,224,280,249.0976,249.6139 MY,0,280,337,249.6139,249.969 MY,0,337,393,249.969,250.1567 MY,0,393,449,250.1567,250.1738 MY,0,449,505,250.1738,250.0201 MY,0,505,561,250.0201,249.6981 MY,0,561,617,249.6981,249.2133 MY,0,617,674,249.2133,248.5742 MY,0,674,730,248.5742,247.7916 MY,0,730,786,247.7916,246.8788 MY,0,786,842,246.8788,245.8516 MY,0,842,955,245.8516,243.5256 MY,0,955,1235,243.5256,237.0973 MY,0,1235,1348,237.0973,234.7411 MY,0,1348,1404,234.7411,233.693 MY,0,1404,1460,233.693,232.7561 MY,0,1460,1516,232.7561,231.9462 MY,0,1516,1573,231.9462,231.2774 MY,0,1573,1629,231.2774,230.7611 MY,0,1629,1685,230.7611,230.406 MY,0,1685,1741,230.406,230.2183 MY,0,1741,1797,230.2183,230.2012 MY,0,1797,1853,230.2012,230.3549 MY,0,1853,1910,230.3549,230.6769 MY,0,1910,1966,230.6769,231.1617 MY,0,1966,2022,231.1617,231.8008 MY,0,2022,2078,231.8008,232.5834 MY,0,2078,2134,232.5834,233.4962 MY,0,2134,2247,233.4962,235.6476 MY,0,2247,2359,235.6476,238.1084 MY,0,2359,2528,238.1084,242.0099 MY,0,2528,2640,242.0099,244.4926 MY,30,191567,192816,244.4926,240 F,0,172691,172791,0,1 F,0,192816,192916,1,0
Sprite,Background,Centre,"sb/sprites/fx/000C0000.jpg",-18.04166,0 S,0,172691,,0.4447917 L,172691,7 MY,0,0,56,246.0654,247.071 MY,0,56,112,247.071,247.959 MY,0,112,168,247.959,248.7139 MY,0,168,224,248.7139,249.323 MY,0,224,280,249.323,249.7757 MY,0,280,337,249.7757,250.0644 MY,0,337,393,250.0644,250.1841 MY,0,393,449,250.1841,250.1327 MY,0,449,505,250.1327,249.9112 MY,0,505,561,249.9112,249.5233 MY,0,561,617,249.5233,248.9757 MY,0,617,674,248.9757,248.2777 MY,0,674,730,248.2777,247.4412 MY,0,730,786,247.4412,246.4807 MY,0,786,842,246.4807,245.4125 MY,0,842,955,245.4125,243.0276 MY,0,955,1235,243.0276,236.6038 MY,0,1235,1348,236.6038,234.3096 MY,0,1348,1404,234.3096,233.304 MY,0,1404,1460,233.304,232.416 MY,0,1460,1516,232.416,231.6611 MY,0,1516,1573,231.6611,231.052 MY,0,1573,1629,231.052,230.5993 MY,0,1629,1685,230.5993,230.3106 MY,0,1685,1741,230.3106,230.1909 MY,0,1741,1797,230.1909,230.2423 MY,0,1797,1853,230.2423,230.4638 MY,0,1853,1910,230.4638,230.8517 MY,0,1910,1966,230.8517,231.3993 MY,0,1966,2022,231.3993,232.0973 MY,0,2022,2078,232.0973,232.9338 MY,0,2078,2134,232.9338,233.8943 MY,0,2134,2247,233.8943,236.1201 MY,0,2247,2359,236.1201,238.6232 MY,0,2359,2528,238.6232,242.522 MY,0,2528,2640,242.522,244.9591 MY,30,191567,192816,244.9591,240 F,0,172691,172791,0,1 F,0,192816,192916,1,0
Sprite,Background,Centre,"sb/sprites/fx/000D0000.jpg",-10.925,0 S,0,172691,,0.4447917 L,172691,7 MY,0,0,56,246.4807,247.4412 MY,0,56,112,247.4412,248.2777 MY,0,112,168,248.2777,248.9757 MY,0,168,224,248.9757,249.5233 MY,0,224,280,249.5233,249.9112 MY,0,280,337,249.9112,250.1327 MY,0,337,393,250.1327,250.1841 MY,0,393,449,250.1841,250.0644 MY,0,449,505,250.0644,249.7757 MY,0,505,561,249.7757,249.323 MY,0,561,617,249.323,248.7139 MY,0,617,674,248.7139,247.959 MY,0,674,730,247.959,247.071 MY,0,730,786,247.071,246.0654 MY,0,786,898,246.0654,243.7712 MY,0,898,1235,243.7712,236.1201 MY,0,1235,1348,236.1201,233.8943 MY,0,1348,1404,233.8943,232.9338 MY,0,1404,1460,232.9338,232.0973 MY,0,1460,1516,232.0973,231.3993 MY,0,1516,1573,231.3993,230.8517 MY,0,1573,1629,230.8517,230.4638 MY,0,1629,1685,230.4638,230.2423 MY,0,1685,1741,230.2423,230.1909 MY,0,1741,1797,230.1909,230.3106 MY,0,1797,1853,230.3106,230.5993 MY,0,1853,1910,230.5993,231.052 MY,0,1910,1966,231.052,231.6611 MY,0,1966,2022,231.6611,232.416 MY,0,2022,2078,232.416,233.304 MY,0,2078,2134,233.304,234.3096 MY,0,2134,2247,234.3096,236.6038 MY,0,2247,2528,236.6038,243.0276 MY,0,2528,2640,243.0276,245.4125 MY,30,191567,192816,245.4125,240 F,0,172691,172791,0,1 F,0,192816,192916,1,0
Sprite,Background,Centre,"sb/sprites/fx/000E0000.jpg",-3.808335,0 S,0,172691,,0.4447917 L,172691,7 MY,0,0,56,246.8788,247.7916 MY,0,56,112,247.7916,248.5742 MY,0,112,168,248.5742,249.2133 MY,0,168,224,249.2133,249.6981 MY,0,224,280,249.6981,250.0201 MY,0,280,337,250.0201,250.1738 MY,0,337,393,250.1738,250.1567 MY,0,393,449,250.1567,249.969 MY,0,449,505,249.969,249.6139 MY,0,505,561,249.6139,249.0976 MY,0,561,617,249.0976,248.4288 MY,0,617,674,248.4288,247.6189 MY,0,674,730,247.6189,246.682 MY,0,730,786,246.682,245.6339 MY,0,786,898,245.6339,243.2777 MY,0,898,1179,243.2777,236.8494 MY,0,1179,1292,236.8494,234.5234 MY,0,1292,1348,234.5234,233.4962 MY,0,1348,1404,233.4962,232.5834 MY,0,1404,1460,232.5834,231.8008 MY,0,1460,1516,231.8008,231.1617 MY,0,1516,1573,231.1617,230.6769 MY,0,1573,1629,230.6769,230.3549 MY,0,1629,1685,230.3549,230.2012 MY,0,1685,1741,230.2012,230.2183 MY,0,1741,1797,230.2183,230.406 MY,0,1797,1853,230.406,230.7611 MY,0,1853,1910,230.7611,231.2774 MY,0,1910,1966,231.2774,231.9462 MY,0,1966,2022,231.9462,232.7561 MY,0,2022,2078,232.7561,233.693 MY,0,2078,2191,233.693,235.8824 MY,0,2191,2303,235.8824,238.3651 MY,0,2303,2528,238.3651,243.5256 MY,0,2528,2640,243.5256,245.8516 MY,30,191567,192816,245.8516,240 F,0,172691,172791,0,1 F,0,192816,192916,1,0
Sprite,Background,Centre,"sb/sprites/fx/000F0000.jpg",3.308333,0 S,0,172691,,0.4447917 L,172691,7 MY,0,0,56,247.2586,248.121 MY,0,56,112,248.121,248.8477 MY,0,112,168,248.8477,249.4263 MY,0,168,224,249.4263,249.8468 MY,0,224,280,249.8468,250.1019 MY,0,280,337,250.1019,250.1875 MY,0,337,393,250.1875,250.1019 MY,0,393,449,250.1019,249.8468 MY,0,449,505,249.8468,249.4263 MY,0,505,561,249.4263,248.8477 MY,0,561,617,248.8477,248.121 MY,0,617,674,248.121,247.2586 MY,0,674,730,247.2586,246.2751 MY,0,730,786,246.2751,245.1875 MY,0,786,898,245.1875,242.7757 MY,0,898,1179,242.7757,236.3607 MY,0,1179,1292,236.3607,234.0999 MY,0,1292,1348,234.0999,233.1164 MY,0,1348,1404,233.1164,232.254 MY,0,1404,1460,232.254,231.5273 MY,0,1460,1516,231.5273,230.9487 MY,0,1516,1573,230.9487,230.5282 MY,0,1573,1629,230.5282,230.2731 MY,0,1629,1685,230.2731,230.1875 MY,0,1685,1741,230.1875,230.2731 MY,0,1741,1797,230.2731,230.5282 MY,0,1797,1853,230.5282,230.9487 MY,0,1853,1910,230.9487,231.5273 MY,0,1910,1966,231.5273,232.254 MY,0,1966,2022,232.254,233.1164 MY,0,2022,2078,233.1164,234.0999 MY,0,2078,2191,234.0999,236.3607 MY,0,2191,2471,236.3607,242.7757 MY,0,2471,2584,242.7757,245.1875 MY,0,2584,2640,245.1875,246.2751 MY,30,191567,192816,246.2751,240 F,0,172691,172791,0,1 F,0,192816,192916,1,0
Sprite,Background,Centre,"sb/sprites/fx/00100000.jpg",10.425,0 S,0,172691,,0.4447917 L,172691,7 MY,0,0,56,247.6189,248.4288 MY,0,56,112,248.4288,249.0976 MY,0,112,168,249.0976,249.6139 MY,0,168,224,249.6139,249.969 MY,0,224,280,249.969,250.1567 MY,0,280,337,250.1567,250.1738 MY,0,337,393,250.1738,250.0201 MY,0,393,449,250.0201,249.6981 MY,0,449,505,249.6981,249.2133 MY,0,505,561,249.2133,248.5742 MY,0,561,617,248.5742,247.7916 MY,0,617,674,247.7916,246.8788 MY,0,674,730,246.8788,245.8516 MY,0,730,842,245.8516,243.5256 MY,0,842,1123,243.5256,237.0973 MY,0,1123,1235,237.0973,234.7411 MY,0,1235,1292,234.7411,233.693 MY,0,1292,1348,233.693,232.7561 MY,0,1348,1404,232.7561,231.9462 MY,0,1404,1460,231.9462,231.2774 MY,0,1460,1516,231.2774,230.7611 MY,0,1516,1573,230.7611,230.406 MY,0,1573,1629,230.406,230.2183 MY,0,1629,1685,230.2183,230.2012 MY,0,1685,1741,230.2012,230.3549 MY,0,1741,1797,230.3549,230.6769 MY,0,1797,1853,230.6769,231.1617 MY,0,1853,1910,231.1617,231.8008 MY,0,1910,1966,231.8008,232.5834 MY,0,1966,2022,232.5834,233.4962 MY,0,2022,2134,233.4962,235.6476 MY,0,2134,2247,235.6476,238.1084 MY,0,2247,2471,238.1084,243.2777 MY,0,2471,2584,243.2777,245.6339 MY,0,2584,2640,245.6339,246.682 MY,30,191567,192816,246.682,240 F,0,172691,172791,0,1 F,0,192816,192916,1,0
Sprite,Background,Centre,"sb/sprites/fx/00110000.jpg",17.54167,0 S,0,172691,,0.4447917 L,172691,7 MY,0,0,56,247.959,248.7139 MY,0,56,112,248.7139,249.323 MY,0,112,168,249.323,249.7757 MY,0,168,224,249.7757,250.0644 MY,0,224,280,250.0644,250.1841 MY,0,280,337,250.1841,250.1327 MY,0,337,393,250.1327,249.9112 MY,0,393,449,249.9112,249.5233 MY,0,449,505,249.5233,248.9757 MY,0,505,561,248.9757,248.2777 MY,0,561,617,248.2777,247.4412 MY,0,617,674,247.4412,246.4807 MY,0,674,730,246.4807,245.4125 MY,0,730,842,245.4125,243.0276 MY,0,842,1123,243.0276,236.6038 MY,0,1123,1235,236.6038,234.3096 MY,0,1235,1292,234.3096,233.304 MY,0,1292,1348,233.304,232.416 MY,0,1348,1404,232.416,231.6611 MY,0,1404,1460,231.6611,231.052 MY,0,1460,1516,231.052,230.5993 MY,0,1516,1573,230.5993,230.3106 MY,0,1573,1629,230.3106,230.1909 MY,0,1629,1685,230.1909,230.2423 MY,0,1685,1741,230.2423,230.4638 MY,0,1741,1797,230.4638,230.8517 MY,0,1797,1853,230.8517,231.3993 MY,0,1853,1910,231.3993,232.0973 MY,0,1910,1966,232.0973,232.9338 MY,0,1966,2022,232.9338,233.8943 MY,0,2022,2134,233.8943,236.1201 MY,0,2134,2471,236.1201,243.7712 MY,0,2471,2584,243.7712,246.0654 MY,0,2584,2640,246.0654,247.071 MY,30,191567,192816,247.071,240 F,0,172691,172791,0,1 F,0,192816,192916,1,0
Sprite,Background,Centre,"sb/sprites/fx/00120000.jpg",24.65834,0 S,0,172691,,0.4447917 L,172691,7 MY,0,0,56,248.2777,248.9757 MY,0,56,112,248.9757,249.5233 MY,0,112,168,249.5233,249.9112 MY,0,168,224,249.9112,250.1327 MY,0,224,280,250.1327,250.1841 MY,0,280,337,250.1841,250.0644 MY,0,337,393,250.0644,249.7757 MY,0,393,449,249.7757,249.323 MY,0,449,505,249.323,248.7139 MY,0,505,561,248.7139,247.959 MY,0,561,617,247.959,247.071 MY,0,617,674,247.071,246.0654 MY,0,674,730,246.0654,244.9591 MY,0,730,842,244.9591,242.522 MY,0,842,1011,242.522,238.6232 MY,0,1011,1123,238.6232,236.1201 MY,0,1123,1235,236.1201,233.8943 MY,0,1235,1292,233.8943,232.9338 MY,0,1292,1348,232.9338,232.0973 MY,0,1348,1404,232.0973,231.3993 MY,0,1404,1460,231.3993,230.8517 MY,0,1460,1516,230.8517,230.4638 MY,0,1516,1573,230.4638,230.2423 MY,0,1573,1629,230.2423,230.1909 MY,0,1629,1685,230.1909,230.3106 MY,0,1685,1741,230.3106,230.5993 MY,0,1741,1797,230.5993,231.052 MY,0,1797,1853,231.052,231.6611 MY,0,1853,1910,231.6611,232.416 MY,0,1910,1966,232.416,233.304 MY,0,1966,2022,233.304,234.3096 MY,0,2022,2134,234.3096,236.6038 MY,0,2134,2471,236.6038,244.2549 MY,0,2471,2584,244.2549,246.4807 MY,0,2584,2640,246.4807,247.4412 MY,30,191567,192816,247.4412,240 F,0,172691,172791,0,1 F,0,192816,192916,1,0
Sprite,Background,Centre,"sb/sprites/fx/00130000.jpg",31.77501,0 S,0,172691,,0.4447917 L,172691,7 MY,0,0,56,248.5742,249.2133 MY,0,56,112,249.2133,249.6981 MY,0,112,168,249.6981,250.0201 MY,0,168,224,250.0201,250.1738 MY,0,224,280,250.1738,250.1567 MY,0,280,337,250.1567,249.969 MY,0,337,393,249.969,249.6139 MY,0,393,449,249.6139,249.0976 MY,0,449,505,249.0976,248.4288 MY,0,505,561,248.4288,247.6189 MY,0,561,617,247.6189,246.682 MY,0,617,674,246.682,245.6339 MY,0,674,786,245.6339,243.2777 MY,0,786,1067,243.2777,236.8494 MY,0,1067,1179,236.8494,234.5234 MY,0,1179,1235,234.5234,233.4962 MY,0,1235,1292,233.4962,232.5834 MY,0,1292,1348,232.5834,231.8008 MY,0,1348,1404,231.8008,231.1617 MY,0,1404,1460,231.1617,230.6769 MY,0,1460,1516,230.6769,230.3549 MY,0,1516,1573,230.3549,230.2012 MY,0,1573,1629,230.2012,230.2183 MY,0,1629,1685,230.2183,230.406 MY,0,1685,1741,230.406,230.7611 MY,0,1741,1797,230.7611,231.2774 MY,0,1797,1853,231.2774,231.9462 MY,0,1853,1910,231.9462,232.7561 MY,0,1910,1966,232.7561,233.693 MY,0,1966,2078,233.693,235.8824 MY,0,2078,2191,235.8824,238.3651 MY,0,2191,2359,238.3651,242.2666 MY,0,2359,2471,242.2666,244.7274 MY,0,2471,2584,244.7274,246.8788 MY,0,2584,2640,246.8788,247.7916 MY,30,191567,192816,247.7916,240 F,0,172691,172791,0,1 F,0,192816,192916,1,0
Sprite,Background,Centre,"sb/sprites/fx/00140000.jpg",38.89168,0 S,0,172691,,0.4447917 L,172691,7 MY,0,0,56,248.8477,249.4263 MY,0,56,112,249.4263,249.8468 MY,0,112,168,249.8468,250.1019 MY,0,168,224,250.1019,250.1875 MY,0,224,280,250.1875,250.1019 MY,0,280,337,250.1019,249.8468 MY,0,337,393,249.8468,249.4263 MY,0,393,449,249.4263,248.8477 MY,0,449,505,248.8477,248.121 MY,0,505,561,248.121,247.2586 MY,0,561,617,247.2586,246.2751 MY,0,617,674,246.2751,245.1875 MY,0,674,786,245.1875,242.7757 MY,0,786,1067,242.7757,236.3607 MY,0,1067,1179,236.3607,234.0999 MY,0,1179,1235,234.0999,233.1164 MY,0,1235,1292,233.1164,232.254 MY,0,1292,1348,232.254,231.5273 MY,0,1348,1404,231.5273,230.9487 MY,0,1404,1460,230.9487,230.5282 MY,0,1460,1516,230.5282,230.2731 MY,0,1516,1573,230.2731,230.1875 MY,0,1573,1629,230.1875,230.2731 MY,0,1629,1685,230.2731,230.5282 MY,0,1685,1741,230.5282,230.9487 MY,0,1741,1797,230.9487,231.5273 MY,0,1797,1853,231.5273,232.254 MY,0,1853,1910,232.254,233.1164 MY,0,1910,1966,233.1164,234.0999 MY,0,1966,2078,234.0999,236.3607 MY,0,2078,2359,236.3607,242.7757 MY,0,2359,2471,242.7757,245.1875 MY,0,2471,2528,245.1875,246.2751 MY,0,2528,2584,246.2751,247.2586 MY,0,2584,2640,247.2586,248.121 MY,30,191567,192816,248.121,240 F,0,172691,172791,0,1 F,0,192816,192916,1,0
Sprite,Background,Centre,"sb/sprites/fx/00150000.jpg",46.00833,0 S,0,172691,,0.4447917 L,172691,7 MY,0,0,56,249.0976,249.6139 MY,0,56,112,249.6139,249.969 MY,0,112,168,249.969,250.1567 MY,0,168,224,250.1567,250.1738 MY,0,224,280,250.1738,250.0201 MY,0,280,337,250.0201,249.6981 MY,0,337,393,249.6981,249.2133 MY,0,393,449,249.2133,248.5742 MY,0,449,505,248.5742,247.7916 MY,0,505,561,247.7916,246.8788 MY,0,561,674,246.8788,244.7274 MY,0,674,786,244.7274,242.2666 MY,0,786,955,242.2666,238.3651 MY,0,955,1067,238.3651,235.8824 MY,0,1067,1179,235.8824,233.693 MY,0,1179,1235,233.693,232.7561 MY,0,1235,1292,232.7561,231.9462 MY,0,1292,1348,231.9462,231.2774 MY,0,1348,1404,231.2774,230.7611 MY,0,1404,1460,230.7611,230.406 MY,0,1460,1516,230.406,230.2183 MY,0,1516,1573,230.2183,230.2012 MY,0,1573,1629,230.2012,230.3549 MY,0,1629,1685,230.3549,230.6769 MY,0,1685,1741,230.6769,231.1617 MY,0,1741,1797,231.1617,231.8008 MY,0,1797,1853,231.8008,232.5834 MY,0,1853,1910,232.5834,233.4962 MY,0,1910,1966,233.4962,234.5234 MY,0,1966,2078,234.5234,236.8494 MY,0,2078,2303,236.8494,242.0099 MY,0,2303,2415,242.0099,244.4926 MY,0,2415,2528,244.4926,246.682 MY,0,2528,2584,246.682,247.6189 MY,0,2584,2640,247.6189,248.4288 MY,30,191567,192816,248.4288,240 F,0,172691,172791,0,1 F,0,192816,192916,1,0
Sprite,Background,Centre,"sb/sprites/fx/00160000.jpg",53.125,0 S,0,172691,,0.4447917 L,172691,7 MY,0,0,56,249.323,249.7757 MY,0,56,112,249.7757,250.0644 MY,0,112,168,250.0644,250.1841 MY,0,168,224,250.1841,250.1327 MY,0,224,280,250.1327,249.9112 MY,0,280,337,249.9112,249.5233 MY,0,337,393,249.5233,248.9757 MY,0,393,449,248.9757,248.2777 MY,0,449,505,248.2777,247.4412 MY,0,505,561,247.4412,246.4807 MY,0,561,617,246.4807,245.4125 MY,0,617,730,245.4125,243.0276 MY,0,730,1011,243.0276,236.6038 MY,0,1011,1123,236.6038,234.3096 MY,0,1123,1179,234.3096,233.304 MY,0,1179,1235,233.304,232.416 MY,0,1235,1292,232.416,231.6611 MY,0,1292,1348,231.6611,231.052 MY,0,1348,1404,231.052,230.5993 MY,0,1404,1460,230.5993,230.3106 MY,0,1460,1516,230.3106,230.1909 MY,0,1516,1573,230.1909,230.2423 MY,0,1573,1629,230.2423,230.4638 MY,0,1629,1685,230.4638,230.8517 MY,0,1685,1741,230.8517,231.3993 MY,0,1741,1797,231.3993,232.0973 MY,0,1797,1853,232.0973,232.9338 MY,0,1853,1910,232.9338,233.8943 MY,0,1910,2022,233.8943,236.1201 MY,0,2022,2134,236.1201,238.6232 MY,0,2134,2303,238.6232,242.522 MY,0,2303,2415,242.522,244.9591 MY,0,2415,2471,244.9591,246.0654 MY,0,2471,2528,246.0654,247.071 MY,0,2528,2584,247.071,247.959 MY,0,2584,2640,247.959,248.7139 MY,30,191567,192816,248.7139,240 F,0,172691,172791,0,1 F,0,192816,192916,1,0
Sprite,Background,Centre,"sb/sprites/fx/00170000.jpg",60.24167,0 S,0,172691,,0.4447917 L,172691,7 MY,0,0,56,249.5233,249.9112 MY,0,56,112,249.9112,250.1327 MY,0,112,168,250.1327,250.1841 MY,0,168,224,250.1841,250.0644 MY,0,224,280,250.0644,249.7757 MY,0,280,337,249.7757,249.323 MY,0,337,393,249.323,248.7139 MY,0,393,449,248.7139,247.959 MY,0,449,505,247.959,247.071 MY,0,505,561,247.071,246.0654 MY,0,561,617,246.0654,244.9591 MY,0,617,730,244.9591,242.522 MY,0,730,898,242.522,238.6232 MY,0,898,1011,238.6232,236.1201 MY,0,1011,1123,236.1201,233.8943 MY,0,1123,1179,233.8943,232.9338 MY,0,1179,1235,232.9338,232.0973 MY,0,1235,1292,232.0973,231.3993 MY,0,1292,1348,231.3993,230.8517 MY,0,1348,1404,230.8517,230.4638 MY,0,1404,1460,230.4638,230.2423 MY,0,1460,1516,230.2423,230.1909 MY,0,1516,1573,230.1909,230.3106 MY,0,1573,1629,230.3106,230.5993 MY,0,1629,1685,230.5993,231.052 MY,0,1685,1741,231.052,231.6611 MY,0,1741,1797,231.6611,232.416 MY,0,1797,1853,232.416,233.304 MY,0,1853,1910,233.304,234.3096 MY,0,1910,2022,234.3096,236.6038 MY,0,2022,2303,236.6038,243.0276 MY,0,2303,2415,243.0276,245.4125 MY,0,2415,2471,245.4125,246.4807 MY,0,2471,2528,246.4807,247.4412 MY,0,2528,2584,247.4412,248.2777 MY,0,2584,2640,248.2777,248.9757 MY,30,191567,192816,248.9757,240 F,0,172691,172791,0,1 F,0,192816,192916,1,0
Sprite,Background,Centre,"sb/sprites/fx/00180000.jpg",67.35834,0 S,0,172691,,0.4447917 L,172691,7 MY,0,0,56,249.6981,250.0201 MY,0,56,112,250.0201,250.1738 MY,0,112,168,250.1738,250.1567 MY,0,168,224,250.1567,249.969 MY,0,224,280,249.969,249.6139 MY,0,280,337,249.6139,249.0976 MY,0,337,393,249.0976,248.4288 MY,0,393,449,248.4288,247.6189 MY,0,449,505,247.6189,246.682 MY,0,505,617,246.682,244.4926 MY,0,617,730,244.4926,242.0099 MY,0,730,955,242.0099,236.8494 MY,0,955,1067,236.8494,234.5234 MY,0,1067,1123,234.5234,233.4962 MY,0,1123,1179,233.4962,232.5834 MY,0,1179,1235,232.5834,231.8008 MY,0,1235,1292,231.8008,231.1617 MY,0,1292,1348,231.1617,230.6769 MY,0,1348,1404,230.6769,230.3549 MY,0,1404,1460,230.3549,230.2012 MY,0,1460,1516,230.2012,230.2183 MY,0,1516,1573,230.2183,230.406 MY,0,1573,1629,230.406,230.7611 MY,0,1629,1685,230.7611,231.2774 MY,0,1685,1741,231.2774,231.9462 MY,0,1741,1797,231.9462,232.7561 MY,0,1797,1853,232.7561,233.693 MY,0,1853,1966,233.693,235.8824 MY,0,1966,2078,235.8824,238.3651 MY,0,2078,2303,238.3651,243.5256 MY,0,2303,2415,243.5256,245.8516 MY,0,2415,2471,245.8516,246.8788 MY,0,2471,2528,246.8788,247.7916 MY,0,2528,2584,247.7916,248.5742 MY,0,2584,2640,248.5742,249.2133 MY,30,191567,192816,249.2133,240 F,0,172691,172791,0,1 F,0,192816,192916,1,0
Sprite,Background,Centre,"sb/sprites/fx/00190000.jpg",74.47501,0 S,0,172691,,0.4447917 L,172691,7 MY,0,0,56,249.8468,250.1019 MY,0,56,112,250.1019,250.1875 MY,0,112,168,250.1875,250.1019 MY,0,168,224,250.1019,249.8468 MY,0,224,280,249.8468,249.4263 MY,0,280,337,249.4263,248.8477 MY,0,337,393,248.8477,248.121 MY,0,393,449,248.121,247.2586 MY,0,449,505,247.2586,246.2751 MY,0,505,561,246.2751,245.1875 MY,0,561,674,245.1875,242.7757 MY,0,674,955,242.7757,236.3607 MY,0,955,1067,236.3607,234.0999 MY,0,1067,1123,234.0999,233.1164 MY,0,1123,1179,233.1164,232.254 MY,0,1179,1235,232.254,231.5273 MY,0,1235,1292,231.5273,230.9487 MY,0,1292,1348,230.9487,230.5282 MY,0,1348,1404,230.5282,230.2731 MY,0,1404,1460,230.2731,230.1875 MY,0,1460,1516,230.1875,230.2731 MY,0,1516,1573,230.2731,230.5282 MY,0,1573,1629,230.5282,230.9487 MY,0,1629,1685,230.9487,231.5273 MY,0,1685,1741,231.5273,232.254 MY,0,1741,1797,232.254,233.1164 MY,0,1797,1853,233.1164,234.0999 MY,0,1853,1966,234.0999,236.3607 MY,0,1966,2247,236.3607,242.7757 MY,0,2247,2359,242.7757,245.1875 MY,0,2359,2415,245.1875,246.2751 MY,0,2415,2471,246.2751,247.2586 MY,0,2471,2528,247.2586,248.121 MY,0,2528,2584,248.121,248.8477 MY,0,2584,2640,248.8477,249.4263 MY,30,191567,192816,249.4263,240 F,0,172691,172791,0,1 F,0,192816,192916,1,0
Sprite,Background,Centre,"sb/sprites/fx/001A0000.jpg",81.59167,0 S,0,172691,,0.4447917 L,172691,7 MY,0,0,56,249.969,250.1567 MY,0,56,112,250.1567,250.1738 MY,0,112,168,250.1738,250.0201 MY,0,168,224,250.0201,249.6981 MY,0,224,280,249.6981,249.2133 MY,0,280,337,249.2133,248.5742 MY,0,337,393,248.5742,247.7916 MY,0,393,449,247.7916,246.8788 MY,0,449,561,246.8788,244.7274 MY,0,561,674,244.7274,242.2666 MY,0,674,842,242.2666,238.3651 MY,0,842,955,238.3651,235.8824 MY,0,955,1067,235.8824,233.693 MY,0,1067,1123,233.693,232.7561 MY,0,1123,1179,232.7561,231.9462 MY,0,1179,1235,231.9462,231.2774 MY,0,1235,1292,231.2774,230.7611 MY,0,1292,1348,230.7611,230.406 MY,0,1348,1404,230.406,230.2183 MY,0,1404,1460,230.2183,230.2012 MY,0,1460,1516,230.2012,230.3549 MY,0,1516,1573,230.3549,230.6769 MY,0,1573,1629,230.6769,231.1617 MY,0,1629,1685,231.1617,231.8008 MY,0,1685,1741,231.8008,232.5834 MY,0,1741,1797,232.5834,233.4962 MY,0,1797,1853,233.4962,234.5234 MY,0,1853,1966,234.5234,236.8494 MY,0,1966,2247,236.8494,243.2777 MY,0,2247,2359,243.2777,245.6339 MY,0,2359,2415,245.6339,246.682 MY,0,2415,2471,246.682,247.619 MY,0,2471,2528,247.619,248.4288 MY,0,2528,2584,248.4288,249.0976 MY,0,2584,2640,249.0976,249.6139 MY,30,191567,192816,249.6139,240 F,0,172691,172791,0,1 F,0,192816,192916,1,0
Sprite,Background,Centre,"sb/sprites/fx/001B0000.jpg",88.70834,0 S,0,172691,,0.4447917 L,172691,7 MY,0,0,56,250.0644,250.1841 MY,0,56,112,250.1841,250.1327 MY,0,112,168,250.1327,249.9112 MY,0,168,224,249.9112,249.5233 MY,0,224,280,249.5233,248.9757 MY,0,280,337,248.9757,248.2777 MY,0,337,393,248.2777,247.4412 MY,0,393,449,247.4412,246.4807 MY,0,449,505,246.4807,245.4125 MY,0,505,617,245.4125,243.0276 MY,0,617,898,243.0276,236.6038 MY,0,898,1011,236.6038,234.3096 MY,0,1011,1067,234.3096,233.304 MY,0,1067,1123,233.304,232.416 MY,0,1123,1179,232.416,231.6611 MY,0,1179,1235,231.6611,231.052 MY,0,1235,1292,231.052,230.5993 MY,0,1292,1348,230.5993,230.3106 MY,0,1348,1404,230.3106,230.1909 MY,0,1404,1460,230.1909,230.2423 MY,0,1460,1516,230.2423,230.4638 MY,0,1516,1573,230.4638,230.8517 MY,0,1573,1629,230.8517,231.3993 MY,0,1629,1685,231.3993,232.0973 MY,0,1685,1741,232.0973,232.9338 MY,0,1741,1797,232.9338,233.8943 MY,0,1797,1910,233.8943,236.1201 MY,0,1910,2247,236.1201,243.7712 MY,0,2247,2359,243.7712,246.0654 MY,0,2359,2415,246.0654,247.071 MY,0,2415,2471,247.071,247.959 MY,0,2471,2528,247.959,248.7139 MY,0,2528,2584,248.7139,249.323 MY,0,2584,2640,249.323,249.7757 MY,30,191567,192816,249.7757,240 F,0,172691,172791,0,1 F,0,192816,192916,1,0
Sprite,Background,Centre,"sb/sprites/fx/001C0000.jpg",95.825,0 S,0,172691,,0.4447917 L,172691,7 MY,0,0,56,250.1327,250.1841 MY,0,56,112,250.1841,250.0644 MY,0,112,168,250.0644,249.7757 MY,0,168,224,249.7757,249.323 MY,0,224,280,249.323,248.7139 MY,0,280,337,248.7139,247.959 MY,0,337,393,247.959,247.071 MY,0,393,449,247.071,246.0654 MY,0,449,505,246.0654,244.9591 MY,0,505,617,244.9591,242.522 MY,0,617,786,242.522,238.6232 MY,0,786,898,238.6232,236.1201 MY,0,898,1011,236.1201,233.8943 MY,0,1011,1067,233.8943,232.9338 MY,0,1067,1123,232.9338,232.0973 MY,0,1123,1179,232.0973,231.3993 MY,0,1179,1235,231.3993,230.8517 MY,0,1235,1292,230.8517,230.4638 MY,0,1292,1348,230.4638,230.2423 MY,0,1348,1404,230.2423,230.1909 MY,0,1404,1460,230.1909,230.3106 MY,0,1460,1516,230.3106,230.5993 MY,0,1516,1573,230.5993,231.052 MY,0,1573,1629,231.052,231.6611 MY,0,1629,1685,231.6611,232.416 MY,0,1685,1741,232.416,233.304 MY,0,1741,1797,233.304,234.3096 MY,0,1797,1910,234.3096,236.6038 MY,0,1910,2191,236.6038,243.0276 MY,0,2191,2303,243.0276,245.4125 MY,0,2303,2359,245.4125,246.4807 MY,0,2359,2415,246.4807,247.4412 MY,0,2415,2471,247.4412,248.2777 MY,0,2471,2528,248.2777,248.9757 MY,0,2528,2584,248.9757,249.5233 MY,0,2584,2640,249.5233,249.9112 MY,30,191567,192816,249.9112,240 F,0,172691,172791,0,1 F,0,192816,192916,1,0
Sprite,Background,Centre,"sb/sprites/fx/001D0000.jpg",102.9417,0 S,0,172691,,0.4447917 L,172691,7 MY,0,0,56,250.1738,250.1567 MY,0,56,112,250.1567,249.969 MY,0,112,168,249.969,249.6139 MY,0,168,224,249.6139,249.0976 MY,0,224,280,249.0976,248.4288 MY,0,280,337,248.4288,247.6189 MY,0,337,393,247.6189,246.682 MY,0,393,505,246.682,244.4926 MY,0,505,617,244.4926,242.0099 MY,0,617,842,242.0099,236.8494 MY,0,842,955,236.8494,234.5234 MY,0,955,1011,234.5234,233.4962 MY,0,1011,1067,233.4962,232.5834 MY,0,1067,1123,232.5834,231.8008 MY,0,1123,1179,231.8008,231.1617 MY,0,1179,1235,231.1617,230.6769 MY,0,1235,1292,230.6769,230.3549 MY,0,1292,1348,230.3549,230.2012 MY,0,1348,1404,230.2012,230.2183 MY,0,1404,1460,230.2183,230.406 MY,0,1460,1516,230.406,230.7611 MY,0,1516,1573,230.7611,231.2774 MY,0,1573,1629,231.2774,231.9462 MY,0,1629,1685,231.9462,232.7561 MY,0,1685,1741,232.7561,233.693 MY,0,1741,1853,233.693,235.8824 MY,0,1853,1966,235.8824,238.3651 MY,0,1966,2191,238.3651,243.5256 MY,0,2191,2303,243.5256,245.8516 MY,0,2303,2359,245.8516,246.8788 MY,0,2359,2415,246.8788,247.7916 MY,0,2415,2471,247.7916,248.5742 MY,0,2471,2528,248.5742,249.2133 MY,0,2528,2584,249.2133,249.6981 MY,0,2584,2640,249.6981,250.0201 MY,30,191567,192816,250.0201,240 F,0,172691,172791,0,1 F,0,192816,192916,1,0
Sprite,Background,Centre,"sb/sprites/fx/001E0000.jpg",110.0583,0 S,0,172691,,0.4447917 L,172691,7 MY,0,0,56,250.1875,250.1019 MY,0,56,112,250.1019,249.8468 MY,0,112,168,249.8468,249.4263 MY,0,168,224,249.4263,248.8477 MY,0,224,280,248.8477,248.121 MY,0,280,337,248.121,247.2586 MY,0,337,393,247.2586,246.2751 MY,0,393,449,246.2751,245.1875 MY,0,449,561,245.1875,242.7757 MY,0,561,842,242.7757,236.3607 MY,0,842,955,236.3607,234.0999 MY,0,955,1011,234.0999,233.1164 MY,0,1011,1067,233.1164,232.254 MY,0,1067,1123,232.254,231.5273 MY,0,1123,1179,231.5273,230.9487 MY,0,1179,1235,230.9487,230.5282 MY,0,1235,1292,230.5282,230.2731 MY,0,1292,1348,230.2731,230.1875 MY,0,1348,1404,230.1875,230.2731 MY,0,1404,1460,230.2731,230.5282 MY,0,1460,1516,230.5282,230.9487 MY,0,1516,1573,230.9487,231.5273 MY,0,1573,1629,231.5273,232.254 MY,0,1629,1685,232.254,233.1164 MY,0,1685,1741,233.1164,234.0999 MY,0,1741,1853,234.0999,236.3607 MY,0,1853,2134,236.3607,242.7757 MY,0,2134,2247,242.7757,245.1875 MY,0,2247,2303,245.1875,246.2751 MY,0,2303,2359,246.2751,247.2586 MY,0,2359,2415,247.2586,248.121 MY,0,2415,2471,248.121,248.8478 MY,0,2471,2528,248.8478,249.4263 MY,0,2528,2584,249.4263,249.8468 MY,0,2584,2640,249.8468,250.1019 MY,30,191567,192816,250.1019,240 F,0,172691,172791,0,1 F,0,192816,192916,1,0
Sprite,Background,Centre,"sb/sprites/fx/001F0000.jpg",117.175,0 S,0,172691,,0.4447917 L,172691,7 MY,0,0,56,250.1738,250.0201 MY,0,56,112,250.0201,249.6981 MY,0,112,168,249.6981,249.2133 MY,0,168,224,249.2133,248.5742 MY,0,224,280,248.5742,247.7916 MY,0,280,337,247.7916,246.8788 MY,0,337,393,246.8788,245.8516 MY,0,393,505,245.8516,243.5256 MY,0,505,730,243.5256,238.3651 MY,0,730,842,238.3651,235.8824 MY,0,842,955,235.8824,233.693 MY,0,955,1011,233.693,232.7561 MY,0,1011,1067,232.7561,231.9462 MY,0,1067,1123,231.9462,231.2774 MY,0,1123,1179,231.2774,230.7611 MY,0,1179,1235,230.7611,230.406 MY,0,1235,1292,230.406,230.2183 MY,0,1292,1348,230.2183,230.2012 MY,0,1348,1404,230.2012,230.3549 MY,0,1404,1460,230.3549,230.6769 MY,0,1460,1516,230.6769,231.1617 MY,0,1516,1573,231.1617,231.8008 MY,0,1573,1629,231.8008,232.5834 MY,0,1629,1685,232.5834,233.4962 MY,0,1685,1797,233.4962,235.6476 MY,0,1797,1910,235.6476,238.1084 MY,0,1910,2134,238.1084,243.2777 MY,0,2134,2247,243.2777,245.6339 MY,0,2247,2303,245.6339,246.682 MY,0,2303,2359,246.682,247.619 MY,0,2359,2415,247.619,248.4288 MY,0,2415,2471,248.4288,249.0976 MY,0,2471,2528,249.0976,249.6139 MY,0,2528,2584,249.6139,249.969 MY,0,2584,2640,249.969,250.1567 MY,30,191567,192816,250.1567,240 F,0,172691,172791,0,1 F,0,192816,192916,1,0
Sprite,Background,Centre,"sb/sprites/fx/00200000.jpg",124.2917,0 S,0,172691,,0.4447917 L,172691,7 MY,0,0,56,250.1327,249.9112 MY,0,56,112,249.9112,249.5233 MY,0,112,168,249.5233,248.9757 MY,0,168,224,248.9757,248.2777 MY,0,224,280,248.2777,247.4412 MY,0,280,337,247.4412,246.4807 MY,0,337,393,246.4807,245.4125 MY,0,393,505,245.4125,243.0276 MY,0,505,730,243.0276,237.853 MY,0,730,842,237.853,235.4159 MY,0,842,898,235.4159,234.3096 MY,0,898,955,234.3096,233.304 MY,0,955,1011,233.304,232.416 MY,0,1011,1067,232.416,231.6611 MY,0,1067,1123,231.6611,231.052 MY,0,1123,1179,231.052,230.5993 MY,0,1179,1235,230.5993,230.3106 MY,0,1235,1292,230.3106,230.1909 MY,0,1292,1348,230.1909,230.2423 MY,0,1348,1404,230.2423,230.4638 MY,0,1404,1460,230.4638,230.8517 MY,0,1460,1516,230.8517,231.3993 MY,0,1516,1573,231.3993,232.0973 MY,0,1573,1629,232.0973,232.9338 MY,0,1629,1685,232.9338,233.8943 MY,0,1685,1741,233.8943,234.9625 MY,0,1741,1853,234.9625,237.3474 MY,0,1853,2134,237.3474,243.7712 MY,0,2134,2247,243.7712,246.0654 MY,0,2247,2303,246.0654,247.071 MY,0,2303,2359,247.071,247.959 MY,0,2359,2415,247.959,248.7139 MY,0,2415,2471,248.7139,249.323 MY,0,2471,2528,249.323,249.7757 MY,0,2528,2584,249.7757,250.0644 MY,0,2584,2640,250.0644,250.1841 MY,30,191567,192816,250.1841,240 F,0,172691,172791,0,1 F,0,192816,192916,1,0
Sprite,Background,Centre,"sb/sprites/fx/00210000.jpg",131.4083,0 S,0,172691,,0.4447917 L,172691,7 MY,0,0,56,250.0644,249.7757 MY,0,56,112,249.7757,249.323 MY,0,112,168,249.323,248.7139 MY,0,168,224,248.7139,247.959 MY,0,224,280,247.959,247.071 MY,0,280,337,247.071,246.0654 MY,0,337,449,246.0654,243.7712 MY,0,449,786,243.7712,236.1201 MY,0,786,898,236.1201,233.8943 MY,0,898,955,233.8943,232.9338 MY,0,955,1011,232.9338,232.0973 MY,0,1011,1067,232.0973,231.3993 MY,0,1067,1123,231.3993,230.8517 MY,0,1123,1179,230.8517,230.4638 MY,0,1179,1235,230.4638,230.2423 MY,0,1235,1292,230.2423,230.1909 MY,0,1292,1348,230.1909,230.3106 MY,0,1348,1404,230.3106,230.5993 MY,0,1404,1460,230.5993,231.052 MY,0,1460,1516,231.052,231.6611 MY,0,1516,1573,231.6611,232.416 MY,0,1573,1629,232.416,233.304 MY,0,1629,1685,233.304,234.3096 MY,0,1685,1797,234.3096,236.6038 MY,0,1797,2078,236.6038,243.0277 MY,0,2078,2191,243.0277,245.4125 MY,0,2191,2247,245.4125,246.4807 MY,0,2247,2303,246.4807,247.4412 MY,0,2303,2359,247.4412,248.2777 MY,0,2359,2415,248.2777,248.9757 MY,0,2415,2471,248.9757,249.5233 MY,0,2471,2528,249.5233,249.9112 MY,0,2528,2584,249.9112,250.1327 MY,0,2584,2640,250.1327,250.1841 MY,30,191567,192816,250.1841,240 F,0,172691,172791,0,1 F,0,192816,192916,1,0
Sprite,Background,Centre,"sb/sprites/fx/00220000.jpg",138.525,0 S,0,172691,,0.4447917 L,172691,7 MY,0,0,56,249.969,249.6139 MY,0,56,112,249.6139,249.0976 MY,0,112,168,249.0976,248.4288 MY,0,168,224,248.4288,247.6189 MY,0,224,280,247.6189,246.682 MY,0,280,337,246.682,245.6339 MY,0,337,449,245.6339,243.2777 MY,0,449,674,243.2777,238.1084 MY,0,674,786,238.1084,235.6476 MY,0,786,898,235.6476,233.4962 MY,0,898,955,233.4962,232.5834 MY,0,955,1011,232.5834,231.8008 MY,0,1011,1067,231.8008,231.1617 MY,0,1067,1123,231.1617,230.6769 MY,0,1123,1179,230.6769,230.3549 MY,0,1179,1235,230.3549,230.2012 MY,0,1235,1292,230.2012,230.2183 MY,0,1292,1348,230.2183,230.406 MY,0,1348,1404,230.406,230.7611 MY,0,1404,1460,230.7611,231.2774 MY,0,1460,1516,231.2774,231.9462 MY,0,1516,1573,231.9462,232.7561 MY,0,1573,1629,232.7561,233.693 MY,0,1629,1741,233.693,235.8824 MY,0,1741,1853,235.8824,238.3651 MY,0,1853,2022,238.3651,242.2666 MY,0,2022,2134,242.2666,244.7274 MY,0,2134,2247,244.7274,246.8788 MY,0,2247,2303,246.8788,247.7916 MY,0,2303,2359,247.7916,248.5742 MY,0,2359,2415,248.5742,249.2133 MY,0,2415,2471,249.2133,249.6981 MY,0,2471,2528,249.6981,250.0201 MY,0,2528,2584,250.0201,250.1738 MY,0,2584,2640,250.1738,250.1567 MY,30,191567,192816,250.1567,240 F,0,172691,172791,0,1 F,0,192816,192916,1,0
Sprite,Background,Centre,"sb/sprites/fx/00230000.jpg",145.6417,0 S,0,172691,,0.4447917 L,172691,7 MY,0,0,56,249.8468,249.4263 MY,0,56,112,249.4263,248.8477 MY,0,112,168,248.8477,248.121 MY,0,168,224,248.121,247.2586 MY,0,224,280,247.2586,246.2751 MY,0,280,337,246.2751,245.1875 MY,0,337,449,245.1875,242.7757 MY,0,449,730,242.7757,236.3607 MY,0,730,842,236.3607,234.0999 MY,0,842,898,234.0999,233.1164 MY,0,898,955,233.1164,232.254 MY,0,955,1011,232.254,231.5273 MY,0,1011,1067,231.5273,230.9487 MY,0,1067,1123,230.9487,230.5282 MY,0,1123,1179,230.5282,230.2731 MY,0,1179,1235,230.2731,230.1875 MY,0,1235,1292,230.1875,230.2731 MY,0,1292,1348,230.2731,230.5282 MY,0,1348,1404,230.5282,230.9487 MY,0,1404,1460,230.9487,231.5273 MY,0,1460,1516,231.5273,232.254 MY,0,1516,1573,232.254,233.1164 MY,0,1573,1629,233.1164,234.0999 MY,0,1629,1741,234.0999,236.3607 MY,0,1741,2022,236.3607,242.7757 MY,0,2022,2134,242.7757,245.1875 MY,0,2134,2191,245.1875,246.2751 MY,0,2191,2247,246.2751,247.2586 MY,0,2247,2303,247.2586,248.121 MY,0,2303,2359,248.121,248.8478 MY,0,2359,2415,248.8478,249.4263 MY,0,2415,2471,249.4263,249.8468 MY,0,2471,2528,249.8468,250.1019 MY,0,2528,2584,250.1019,250.1875 MY,0,2584,2640,250.1875,250.1019 MY,30,191567,192816,250.1019,240 F,0,172691,172791,0,1 F,0,192816,192916,1,0
Sprite,Background,Centre,"sb/sprites/fx/00240000.jpg",152.7583,0 S,0,172691,,0.4447917 L,172691,7 MY,0,0,56,249.6981,249.2133 MY,0,56,112,249.2133,248.5742 MY,0,112,168,248.5742,247.7916 MY,0,168,224,247.7916,246.8788 MY,0,224,280,246.8788,245.8516 MY,0,280,393,245.8516,243.5256 MY,0,393,617,243.5256,238.3651 MY,0,617,730,238.3651,235.8824 MY,0,730,842,235.8824,233.693 MY,0,842,898,233.693,232.7561 MY,0,898,955,232.7561,231.9462 MY,0,955,1011,231.9462,231.2774 MY,0,1011,1067,231.2774,230.7611 MY,0,1067,1123,230.7611,230.406 MY,0,1123,1179,230.406,230.2183 MY,0,1179,1235,230.2183,230.2012 MY,0,1235,1292,230.2012,230.3549 MY,0,1292,1348,230.3549,230.6769 MY,0,1348,1404,230.6769,231.1617 MY,0,1404,1460,231.1617,231.8008 MY,0,1460,1516,231.8008,232.5834 MY,0,1516,1573,232.5834,233.4962 MY,0,1573,1629,233.4962,234.5234 MY,0,1629,1741,234.5234,236.8494 MY,0,1741,1966,236.8494,242.0099 MY,0,1966,2078,242.0099,244.4926 MY,0,2078,2191,244.4926,246.682 MY,0,2191,2247,246.682,247.6189 MY,0,2247,2303,247.6189,248.4288 MY,0,2303,2359,248.4288,249.0976 MY,0,2359,2415,249.0976,249.6139 MY,0,2415,2471,249.6139,249.969 MY,0,2471,2528,249.969,250.1567 MY,0,2528,2584,250.1567,250.1738 MY,0,2584,2640,250.1738,250.0201 MY,30,191567,192816,250.0201,240 F,0,172691,172791,0,1 F,0,192816,192916,1,0
Sprite,Background,Centre,"sb/sprites/fx/00250000.jpg",159.875,0 S,0,172691,,0.4447917 L,172691,7 MY,0,0,56,249.5233,248.9757 MY,0,56,112,248.9757,248.2777 MY,0,112,168,248.2777,247.4412 MY,0,168,224,247.4412,246.4807 MY,0,224,280,246.4807,245.4125 MY,0,280,393,245.4125,243.0276 MY,0,393,674,243.0276,236.6038 MY,0,674,786,236.6038,234.3096 MY,0,786,842,234.3096,233.304 MY,0,842,898,233.304,232.416 MY,0,898,955,232.416,231.6611 MY,0,955,1011,231.6611,231.052 MY,0,1011,1067,231.052,230.5993 MY,0,1067,1123,230.5993,230.3106 MY,0,1123,1179,230.3106,230.1909 MY,0,1179,1235,230.1909,230.2423 MY,0,1235,1292,230.2423,230.4638 MY,0,1292,1348,230.4638,230.8517 MY,0,1348,1404,230.8517,231.3993 MY,0,1404,1460,231.3993,232.0973 MY,0,1460,1516,232.0973,232.9338 MY,0,1516,1573,232.9338,233.8943 MY,0,1573,1685,233.8943,236.1201 MY,0,1685,1797,236.1201,238.6232 MY,0,1797,1966,238.6232,242.522 MY,0,1966,2078,242.522,244.9591 MY,0,2078,2134,244.9591,246.0654 MY,0,2134,2191,246.0654,247.071 MY,0,2191,2247,247.071,247.959 MY,0,2247,2303,247.959,248.7139 MY,0,2303,2359,248.7139,249.323 MY,0,2359,2415,249.323,249.7757 MY,0,2415,2471,249.7757,250.0644 MY,0,2471,2528,250.0644,250.1841 MY,0,2528,2584,250.1841,250.1327 MY,0,2584,2640,250.1327,249.9112 MY,30,191567,192816,249.9112,240 F,0,172691,172791,0,1 F,0,192816,192916,1,0
Sprite,Background,Centre,"sb/sprites/fx/00260000.jpg",166.9917,0 S,0,172691,,0.4447917 L,172691,7 MY,0,0,56,249.323,248.7139 MY,0,56,112,248.7139,247.959 MY,0,112,168,247.959,247.071 MY,0,168,224,247.071,246.0654 MY,0,224,337,246.0654,243.7712 MY,0,337,674,243.7712,236.1201 MY,0,674,786,236.1201,233.8943 MY,0,786,842,233.8943,232.9338 MY,0,842,898,232.9338,232.0973 MY,0,898,955,232.0973,231.3993 MY,0,955,1011,231.3993,230.8517 MY,0,1011,1067,230.8517,230.4638 MY,0,1067,1123,230.4638,230.2423 MY,0,1123,1179,230.2423,230.1909 MY,0,1179,1235,230.1909,230.3106 MY,0,1235,1292,230.3106,230.5993 MY,0,1292,1348,230.5993,231.052 MY,0,1348,1404,231.052,231.6611 MY,0,1404,1460,231.6611,232.416 MY,0,1460,1516,232.416,233.304 MY,0,1516,1573,233.304,234.3096 MY,0,1573,1685,234.3096,236.6038 MY,0,1685,1966,236.6038,243.0277 MY,0,1966,2078,243.0277,245.4125 MY,0,2078,2134,245.4125,246.4807 MY,0,2134,2191,246.4807,247.4412 MY,0,2191,2247,247.4412,248.2777 MY,0,2247,2303,248.2777,248.9757 MY,0,2303,2359,248.9757,249.5233 MY,0,2359,2415,249.5233,249.9112 MY,0,2415,2471,249.9112,250.1327 MY,0,2471,2528,250.1327,250.1841 MY,0,2528,2584,250.1841,250.0644 MY,0,2584,2640,250.0644,249.7757 MY,30,191567,192816,249.7757,240 F,0,172691,172791,0,1 F,0,192816,192916,1,0
Sprite,Background,Centre,"sb/sprites/fx/00270000.jpg",174.1084,0 S,0,172691,,0.4447917 L,172691,7 MY,0,0,56,249.0976,248.4288 MY,0,56,112,248.4288,247.6189 MY,0,112,168,247.6189,246.682 MY,0,168,224,246.682,245.6339 MY,0,224,337,245.6339,243.2777 MY,0,337,617,243.2777,236.8494 MY,0,617,730,236.8494,234.5234 MY,0,730,786,234.5234,233.4962 MY,0,786,842,233.4962,232.5834 MY,0,842,898,232.5834,231.8008 MY,0,898,955,231.8008,231.1617 MY,0,955,1011,231.1617,230.6769 MY,0,1011,1067,230.6769,230.3549 MY,0,1067,1123,230.3549,230.2012 MY,0,1123,1179,230.2012,230.2183 MY,0,1179,1235,230.2183,230.406 MY,0,1235,1292,230.406,230.7611 MY,0,1292,1348,230.7611,231.2774 MY,0,1348,1404,231.2774,231.9462 MY,0,1404,1460,231.9462,232.7561 MY,0,1460,1516,232.7561,233.693 MY,0,1516,1629,233.693,235.8824 MY,0,1629,1741,235.8824,238.3651 MY,0,1741,1910,238.3651,242.2666 MY,0,1910,2022,242.2666,244.7274 MY,0,2022,2134,244.7274,246.8788 MY,0,2134,2191,246.8788,247.7916 MY,0,2191,2247,247.7916,248.5742 MY,0,2247,2303,248.5742,249.2133 MY,0,2303,2359,249.2133,249.6981 MY,0,2359,2415,249.6981,250.0201 MY,0,2415,2471,250.0201,250.1738 MY,0,2471,2528,250.1738,250.1567 MY,0,2528,2584,250.1567,249.969 MY,0,2584,2640,249.969,249.6139 MY,30,191567,192816,249.6139,240 F,0,172691,172791,0,1 F,0,192816,192916,1,0
Sprite,Background,Centre,"sb/sprites/fx/00280000.jpg",181.225,0 S,0,172691,,0.4447917 L,172691,7 MY,0,0,56,248.8477,248.121 MY,0,56,112,248.121,247.2586 MY,0,112,168,247.2586,246.2751 MY,0,168,224,246.2751,245.1875 MY,0,224,337,245.1875,242.7757 MY,0,337,617,242.7757,236.3607 MY,0,617,730,236.3607,234.0999 MY,0,730,786,234.0999,233.1164 MY,0,786,842,233.1164,232.254 MY,0,842,898,232.254,231.5273 MY,0,898,955,231.5273,230.9487 MY,0,955,1011,230.9487,230.5282 MY,0,1011,1067,230.5282,230.2731 MY,0,1067,1123,230.2731,230.1875 MY,0,1123,1179,230.1875,230.2731 MY,0,1179,1235,230.2731,230.5282 MY,0,1235,1292,230.5282,230.9487 MY,0,1292,1348,230.9487,231.5273 MY,0,1348,1404,231.5273,232.254 MY,0,1404,1460,232.254,233.1164 MY,0,1460,1516,233.1164,234.0999 MY,0,1516,1629,234.0999,236.3607 MY,0,1629,1910,236.3607,242.7757 MY,0,1910,2022,242.7757,245.1875 MY,0,2022,2078,245.1875,246.2751 MY,0,2078,2134,246.2751,247.2586 MY,0,2134,2191,247.2586,248.121 MY,0,2191,2247,248.121,248.8477 MY,0,2247,2303,248.8477,249.4263 MY,0,2303,2359,249.4263,249.8468 MY,0,2359,2415,249.8468,250.1019 MY,0,2415,2471,250.1019,250.1875 MY,0,2471,2528,250.1875,250.1019 MY,0,2528,2584,250.1019,249.8468 MY,0,2584,2640,249.8468,249.4263 MY,30,191567,192816,249.4263,240 F,0,172691,172791,0,1 F,0,192816,192916,1,0
Sprite,Background,Centre,"sb/sprites/fx/00290000.jpg",188.3417,0 S,0,172691,,0.4447917 L,172691,7 MY,0,0,56,248.5742,247.7916 MY,0,56,112,247.7916,246.8788 MY,0,112,224,246.8788,244.7274 MY,0,224,337,244.7274,242.2666 MY,0,337,505,242.2666,238.3651 MY,0,505,617,238.3651,235.8824 MY,0,617,730,235.8824,233.693 MY,0,730,786,233.693,232.7561 MY,0,786,842,232.7561,231.9462 MY,0,842,898,231.9462,231.2774 MY,0,898,955,231.2774,230.7611 MY,0,955,1011,230.7611,230.406 MY,0,1011,1067,230.406,230.2183 MY,0,1067,1123,230.2183,230.2012 MY,0,1123,1179,230.2012,230.3549 MY,0,1179,1235,230.3549,230.6769 MY,0,1235,1292,230.6769,231.1617 MY,0,1292,1348,231.1617,231.8008 MY,0,1348,1404,231.8008,232.5834 MY,0,1404,1460,232.5834,233.4962 MY,0,1460,1516,233.4962,234.5234 MY,0,1516,1629,234.5234,236.8494 MY,0,1629,1853,236.8494,242.0099 MY,0,1853,1966,242.0099,244.4926 MY,0,1966,2078,244.4926,246.682 MY,0,2078,2134,246.682,247.6189 MY,0,2134,2191,247.6189,248.4288 MY,0,2191,2247,248.4288,249.0976 MY,0,2247,2303,249.0976,249.6139 MY,0,2303,2359,249.6139,249.969 MY,0,2359,2415,249.969,250.1567 MY,0,2415,2471,250.1567,250.1738 MY,0,2471,2528,250.1738,250.0201 MY,0,2528,2584,250.0201,249.6981 MY,0,2584,2640,249.6981,249.2133 MY,30,191567,192816,249.2133,240 F,0,172691,172791,0,1 F,0,192816,192916,1,0
Sprite,Background,Centre,"sb/sprites/fx/002A0000.jpg",195.4583,0 S,0,172691,,0.4447917 L,172691,7 MY,0,0,56,248.2777,247.4412 MY,0,56,112,247.4412,246.4807 MY,0,112,168,246.4807,245.4125 MY,0,168,280,245.4125,243.0276 MY,0,280,561,243.0276,236.6038 MY,0,561,674,236.6038,234.3096 MY,0,674,730,234.3096,233.304 MY,0,730,786,233.304,232.416 MY,0,786,842,232.416,231.6611 MY,0,842,898,231.6611,231.052 MY,0,898,955,231.052,230.5993 MY,0,955,1011,230.5993,230.3106 MY,0,1011,1067,230.3106,230.1909 MY,0,1067,1123,230.1909,230.2423 MY,0,1123,1179,230.2423,230.4638 MY,0,1179,1235,230.4638,230.8517 MY,0,1235,1292,230.8517,231.3993 MY,0,1292,1348,231.3993,232.0973 MY,0,1348,1404,232.0973,232.9338 MY,0,1404,1460,232.9338,233.8943 MY,0,1460,1573,233.8943,236.1201 MY,0,1573,1685,236.1201,238.6232 MY,0,1685,1853,238.6232,242.522 MY,0,1853,1966,242.522,244.9591 MY,0,1966,2022,244.9591,246.0654 MY,0,2022,2078,246.0654,247.071 MY,0,2078,2134,247.071,247.959 MY,0,2134,2191,247.959,248.7139 MY,0,2191,2247,248.7139,249.323 MY,0,2247,2303,249.323,249.7757 MY,0,2303,2359,249.7757,250.0644 MY,0,2359,2415,250.0644,250.1841 MY,0,2415,2471,250.1841,250.1327 MY,0,2471,2528,250.1327,249.9112 MY,0,2528,2584,249.9112,249.5233 MY,0,2584,2640,249.5233,248.9757 MY,30,191567,192816,248.9757,240 F,0,172691,172791,0,1 F,0,192816,192916,1,0
Sprite,Background,Centre,"sb/sprites/fx/002B0000.jpg",202.575,0 S,0,172691,,0.4447917 L,172691,7 MY,0,0,56,247.959,247.071 MY,0,56,112,247.071,246.0654 MY,0,112,168,246.0654,244.9591 MY,0,168,280,244.9591,242.522 MY,0,280,449,242.522,238.6232 MY,0,449,561,238.6232,236.1201 MY,0,561,674,236.1201,233.8943 MY,0,674,730,233.8943,232.9338 MY,0,730,786,232.9338,232.0973 MY,0,786,842,232.0973,231.3993 MY,0,842,898,231.3993,230.8517 MY,0,898,955,230.8517,230.4638 MY,0,955,1011,230.4638,230.2423 MY,0,1011,1067,230.2423,230.1909 MY,0,1067,1123,230.1909,230.3106 MY,0,1123,1179,230.3106,230.5993 MY,0,1179,1235,230.5993,231.052 MY,0,1235,1292,231.052,231.6611 MY,0,1292,1348,231.6611,232.416 MY,0,1348,1404,232.416,233.304 MY,0,1404,1460,233.304,234.3096 MY,0,1460,1573,234.3096,236.6038 MY,0,1573,1853,236.6038,243.0277 MY,0,1853,1966,243.0277,245.4125 MY,0,1966,2022,245.4125,246.4807 MY,0,2022,2078,246.4807,247.4413 MY,0,2078,2134,247.4413,248.2777 MY,0,2134,2191,248.2777,248.9757 MY,0,2191,2247,248.9757,249.5233 MY,0,2247,2303,249.5233,249.9112 MY,0,2303,2359,249.9112,250.1327 MY,0,2359,2415,250.1327,250.1841 MY,0,2415,2471,250.1841,250.0644 MY,0,2471,2528,250.0644,249.7757 MY,0,2528,2584,249.7757,249.323 MY,0,2584,2640,249.323,248.7139 MY,30,191567,192816,248.7139,240 F,0,172691,172791,0,1 F,0,192816,192916,1,0
Sprite,Background,Centre,"sb/sprites/fx/002C0000.jpg",209.6917,0 S,0,172691,,0.4447917 L,172691,7 MY,0,0,56,247.6189,246.682 MY,0,56,168,246.682,244.4926 MY,0,168,280,244.4926,242.0099 MY,0,280,505,242.0099,236.8494 MY,0,505,617,236.8494,234.5234 MY,0,617,674,234.5234,233.4962 MY,0,674,730,233.4962,232.5834 MY,0,730,786,232.5834,231.8008 MY,0,786,842,231.8008,231.1617 MY,0,842,898,231.1617,230.6769 MY,0,898,955,230.6769,230.3549 MY,0,955,1011,230.3549,230.2012 MY,0,1011,1067,230.2012,230.2183 MY,0,1067,1123,230.2183,230.406 MY,0,1123,1179,230.406,230.7611 MY,0,1179,1235,230.7611,231.2774 MY,0,1235,1292,231.2774,231.9462 MY,0,1292,1348,231.9462,232.7561 MY,0,1348,1404,232.7561,233.693 MY,0,1404,1460,233.693,234.7411 MY,0,1460,1573,234.7411,237.0973 MY,0,1573,1797,237.0973,242.2666 MY,0,1797,1910,242.2666,244.7274 MY,0,1910,2022,244.7274,246.8788 MY,0,2022,2078,246.8788,247.7916 MY,0,2078,2134,247.7916,248.5742 MY,0,2134,2191,248.5742,249.2133 MY,0,2191,2247,249.2133,249.6981 MY,0,2247,2303,249.6981,250.0201 MY,0,2303,2359,250.0201,250.1738 MY,0,2359,2415,250.1738,250.1567 MY,0,2415,2471,250.1567,249.969 MY,0,2471,2528,249.969,249.6139 MY,0,2528,2584,249.6139,249.0976 MY,0,2584,2640,249.0976,248.4288 MY,30,191567,192816,248.4288,240 F,0,172691,172791,0,1 F,0,192816,192916,1,0
Sprite,Background,Centre,"sb/sprites/fx/002D0000.jpg",216.8083,0 S,0,172691,,0.4447917 L,172691,7 MY,0,0,56,247.2586,246.2751 MY,0,56,168,246.2751,244.0143 MY,0,168,505,244.0143,236.3607 MY,0,505,617,236.3607,234.0999 MY,0,617,674,234.0999,233.1164 MY,0,674,730,233.1164,232.254 MY,0,730,786,232.254,231.5273 MY,0,786,842,231.5273,230.9487 MY,0,842,898,230.9487,230.5282 MY,0,898,955,230.5282,230.2731 MY,0,955,1011,230.2731,230.1875 MY,0,1011,1067,230.1875,230.2731 MY,0,1067,1123,230.2731,230.5282 MY,0,1123,1179,230.5282,230.9487 MY,0,1179,1235,230.9487,231.5273 MY,0,1235,1292,231.5273,232.254 MY,0,1292,1348,232.254,233.1164 MY,0,1348,1404,233.1164,234.0999 MY,0,1404,1516,234.0999,236.3607 MY,0,1516,1797,236.3607,242.7757 MY,0,1797,1910,242.7757,245.1875 MY,0,1910,1966,245.1875,246.2751 MY,0,1966,2022,246.2751,247.2586 MY,0,2022,2078,247.2586,248.121 MY,0,2078,2134,248.121,248.8477 MY,0,2134,2191,248.8477,249.4263 MY,0,2191,2247,249.4263,249.8468 MY,0,2247,2303,249.8468,250.1019 MY,0,2303,2359,250.1019,250.1875 MY,0,2359,2415,250.1875,250.1019 MY,0,2415,2471,250.1019,249.8468 MY,0,2471,2528,249.8468,249.4263 MY,0,2528,2584,249.4263,248.8477 MY,0,2584,2640,248.8477,248.121 MY,30,191567,192816,248.121,240 F,0,172691,172791,0,1 F,0,192816,192916,1,0
Sprite,Background,Centre,"sb/sprites/fx/002E0000.jpg",223.925,0 S,0,172691,,0.4447917 L,172691,7 MY,0,0,56,246.8788,245.8516 MY,0,56,168,245.8516,243.5256 MY,0,168,393,243.5256,238.3651 MY,0,393,505,238.3651,235.8824 MY,0,505,617,235.8824,233.693 MY,0,617,674,233.693,232.7561 MY,0,674,730,232.7561,231.9462 MY,0,730,786,231.9462,231.2774 MY,0,786,842,231.2774,230.7611 MY,0,842,898,230.7611,230.406 MY,0,898,955,230.406,230.2183 MY,0,955,1011,230.2183,230.2012 MY,0,1011,1067,230.2012,230.3549 MY,0,1067,1123,230.3549,230.6769 MY,0,1123,1179,230.6769,231.1617 MY,0,1179,1235,231.1617,231.8008 MY,0,1235,1292,231.8008,232.5834 MY,0,1292,1348,232.5834,233.4962 MY,0,1348,1404,233.4962,234.5234 MY,0,1404,1516,234.5234,236.8494 MY,0,1516,1797,236.8494,243.2777 MY,0,1797,1910,243.2777,245.6339 MY,0,1910,1966,245.6339,246.682 MY,0,1966,2022,246.682,247.6189 MY,0,2022,2078,247.6189,248.4288 MY,0,2078,2134,248.4288,249.0976 MY,0,2134,2191,249.0976,249.6139 MY,0,2191,2247,249.6139,249.969 MY,0,2247,2303,249.969,250.1567 MY,0,2303,2359,250.1567,250.1738 MY,0,2359,2415,250.1738,250.0201 MY,0,2415,2471,250.0201,249.6981 MY,0,2471,2528,249.6981,249.2133 MY,0,2528,2584,249.2133,248.5742 MY,0,2584,2640,248.5742,247.7916 MY,30,191567,192816,247.7916,240 F,0,172691,172791,0,1 F,0,192816,192916,1,0
Sprite,Background,Centre,"sb/sprites/fx/002F0000.jpg",231.0417,0 S,0,172691,,0.4447917 L,172691,7 MY,0,0,56,246.4807,245.4125 MY,0,56,168,245.4125,243.0276 MY,0,168,449,243.0276,236.6038 MY,0,449,561,236.6038,234.3096 MY,0,561,617,234.3096,233.304 MY,0,617,674,233.304,232.416 MY,0,674,730,232.416,231.6611 MY,0,730,786,231.6611,231.052 MY,0,786,842,231.052,230.5993 MY,0,842,898,230.5993,230.3106 MY,0,898,955,230.3106,230.1909 MY,0,955,1011,230.1909,230.2423 MY,0,1011,1067,230.2423,230.4638 MY,0,1067,1123,230.4638,230.8517 MY,0,1123,1179,230.8517,231.3993 MY,0,1179,1235,231.3993,232.0973 MY,0,1235,1292,232.0973,232.9338 MY,0,1292,1348,232.9338,233.8943 MY,0,1348,1460,233.8943,236.1201 MY,0,1460,1797,236.1201,243.7712 MY,0,1797,1910,243.7712,246.0654 MY,0,1910,1966,246.0654,247.071 MY,0,1966,2022,247.071,247.959 MY,0,2022,2078,247.959,248.7139 MY,0,2078,2134,248.7139,249.323 MY,0,2134,2191,249.323,249.7757 MY,0,2191,2247,249.7757,250.0644 MY,0,2247,2303,250.0644,250.1841 MY,0,2303,2359,250.1841,250.1327 MY,0,2359,2415,250.1327,249.9112 MY,0,2415,2471,249.9112,249.5233 MY,0,2471,2528,249.5233,248.9757 MY,0,2528,2584,248.9757,248.2777 MY,0,2584,2640,248.2777,247.4412 MY,30,191567,192816,247.4412,240 F,0,172691,172791,0,1 F,0,192816,192916,1,0
Sprite,Background,Centre,"sb/sprites/fx/00300000.jpg",238.1583,0 S,0,172691,,0.4447917 L,172691,7 MY,0,0,112,246.0654,243.7712 MY,0,112,449,243.7712,236.1201 MY,0,449,561,236.1201,233.8943 MY,0,561,617,233.8943,232.9338 MY,0,617,674,232.9338,232.0973 MY,0,674,730,232.0973,231.3993 MY,0,730,786,231.3993,230.8517 MY,0,786,842,230.8517,230.4638 MY,0,842,898,230.4638,230.2423 MY,0,898,955,230.2423,230.1909 MY,0,955,1011,230.1909,230.3106 MY,0,1011,1067,230.3106,230.5993 MY,0,1067,1123,230.5993,231.052 MY,0,1123,1179,231.052,231.6611 MY,0,1179,1235,231.6611,232.416 MY,0,1235,1292,232.416,233.304 MY,0,1292,1348,233.304,234.3096 MY,0,1348,1460,234.3096,236.6038 MY,0,1460,1741,236.6038,243.0276 MY,0,1741,1853,243.0276,245.4125 MY,0,1853,1910,245.4125,246.4807 MY,0,1910,1966,246.4807,247.4413 MY,0,1966,2022,247.4413,248.2777 MY,0,2022,2078,248.2777,248.9757 MY,0,2078,2134,248.9757,249.5233 MY,0,2134,2191,249.5233,249.9112 MY,0,2191,2247,249.9112,250.1327 MY,0,2247,2303,250.1327,250.1841 MY,0,2303,2359,250.1841,250.0644 MY,0,2359,2415,250.0644,249.7757 MY,0,2415,2471,249.7757,249.323 MY,0,2471,2528,249.323,248.7139 MY,0,2528,2584,248.7139,247.959 MY,0,2584,2640,247.959,247.071 MY,30,191567,192816,247.071,240 F,0,172691,172791,0,1 F,0,192816,192916,1,0
Sprite,Background,Centre,"sb/sprites/fx/00310000.jpg",245.275,0 S,0,172691,,0.4447917 L,172691,7 MY,0,0,112,245.6339,243.2777 MY,0,112,337,243.2777,238.1084 MY,0,337,449,238.1084,235.6476 MY,0,449,561,235.6476,233.4962 MY,0,561,617,233.4962,232.5834 MY,0,617,674,232.5834,231.8008 MY,0,674,730,231.8008,231.1617 MY,0,730,786,231.1617,230.6769 MY,0,786,842,230.6769,230.3549 MY,0,842,898,230.3549,230.2012 MY,0,898,955,230.2012,230.2183 MY,0,955,1011,230.2183,230.406 MY,0,1011,1067,230.406,230.7611 MY,0,1067,1123,230.7611,231.2774 MY,0,1123,1179,231.2774,231.9462 MY,0,1179,1235,231.9462,232.7561 MY,0,1235,1292,232.7561,233.693 MY,0,1292,1348,233.693,234.7411 MY,0,1348,1460,234.7411,237.0973 MY,0,1460,1741,237.0973,243.5256 MY,0,1741,1853,243.5256,245.8516 MY,0,1853,1910,245.8516,246.8788 MY,0,1910,1966,246.8788,247.7916 MY,0,1966,2022,247.7916,248.5742 MY,0,2022,2078,248.5742,249.2133 MY,0,2078,2134,249.2133,249.6981 MY,0,2134,2191,249.6981,250.0201 MY,0,2191,2247,250.0201,250.1738 MY,0,2247,2303,250.1738,250.1567 MY,0,2303,2359,250.1567,249.969 MY,0,2359,2415,249.969,249.6139 MY,0,2415,2471,249.6139,249.0976 MY,0,2471,2528,249.0976,248.4288 MY,0,2528,2584,248.4288,247.6189 MY,0,2584,2640,247.6189,246.682 MY,30,191567,192816,246.682,240 F,0,172691,172791,0,1 F,0,192816,192916,1,0
Sprite,Background,Centre,"sb/sprites/fx/00320000.jpg",252.3917,0 S,0,172691,,0.4447917 L,172691,7 MY,0,0,112,245.1875,242.7757 MY,0,112,393,242.7757,236.3607 MY,0,393,505,236.3607,234.0999 MY,0,505,561,234.0999,233.1164 MY,0,561,617,233.1164,232.254 MY,0,617,674,232.254,231.5273 MY,0,674,730,231.5273,230.9487 MY,0,730,786,230.9487,230.5282 MY,0,786,842,230.5282,230.2731 MY,0,842,898,230.2731,230.1875 MY,0,898,955,230.1875,230.2731 MY,0,955,1011,230.2731,230.5282 MY,0,1011,1067,230.5282,230.9487 MY,0,1067,1123,230.9487,231.5273 MY,0,1123,1179,231.5273,232.254 MY,0,1179,1235,232.254,233.1164 MY,0,1235,1292,233.1164,234.0999 MY,0,1292,1404,234.0999,236.3607 MY,0,1404,1685,236.3607,242.7757 MY,0,1685,1797,242.7757,245.1875 MY,0,1797,1853,245.1875,246.2751 MY,0,1853,1910,246.2751,247.2586 MY,0,1910,1966,247.2586,248.121 MY,0,1966,2022,248.121,248.8477 MY,0,2022,2078,248.8477,249.4263 MY,0,2078,2134,249.4263,249.8468 MY,0,2134,2191,249.8468,250.1019 MY,0,2191,2247,250.1019,250.1875 MY,0,2247,2303,250.1875,250.1019 MY,0,2303,2359,250.1019,249.8468 MY,0,2359,2415,249.8468,249.4263 MY,0,2415,2471,249.4263,248.8477 MY,0,2471,2528,248.8477,248.121 MY,0,2528,2584,248.121,247.2586 MY,0,2584,2640,247.2586,246.2751 MY,30,191567,192816,246.2751,240 F,0,172691,172791,0,1 F,0,192816,192916,1,0
Sprite,Background,Centre,"sb/sprites/fx/00330000.jpg",259.5083,0 S,0,172691,,0.4447917 L,172691,7 MY,0,0,112,244.7274,242.2666 MY,0,112,280,242.2666,238.3651 MY,0,280,393,238.3651,235.8824 MY,0,393,505,235.8824,233.693 MY,0,505,561,233.693,232.7561 MY,0,561,617,232.7561,231.9462 MY,0,617,674,231.9462,231.2774 MY,0,674,730,231.2774,230.7611 MY,0,730,786,230.7611,230.406 MY,0,786,842,230.406,230.2183 MY,0,842,898,230.2183,230.2012 MY,0,898,955,230.2012,230.3549 MY,0,955,1011,230.3549,230.6769 MY,0,1011,1067,230.6769,231.1617 MY,0,1067,1123,231.1617,231.8008 MY,0,1123,1179,231.8008,232.5834 MY,0,1179,1235,232.5834,233.4962 MY,0,1235,1292,233.4962,234.5234 MY,0,1292,1404,234.5234,236.8494 MY,0,1404,1685,236.8494,243.2777 MY,0,1685,1797,243.2777,245.6339 MY,0,1797,1853,245.6339,246.682 MY,0,1853,1910,246.682,247.6189 MY,0,1910,1966,247.6189,248.4288 MY,0,1966,2022,248.4288,249.0976 MY,0,2022,2078,249.0976,249.6139 MY,0,2078,2134,249.6139,249.969 MY,0,2134,2191,249.969,250.1567 MY,0,2191,2247,250.1567,250.1738 MY,0,2247,2303,250.1738,250.0201 MY,0,2303,2359,250.0201,249.6981 MY,0,2359,2415,249.6981,249.2133 MY,0,2415,2471,249.2133,248.5742 MY,0,2471,2528,248.5742,247.7916 MY,0,2528,2584,247.7916,246.8788 MY,0,2584,2640,246.8788,245.8516 MY,30,191567,192816,245.8516,240 F,0,172691,172791,0,1 F,0,192816,192916,1,0
Sprite,Background,Centre,"sb/sprites/fx/00340000.jpg",266.625,0 S,0,172691,,0.4447917 L,172691,7 MY,0,0,337,244.2549,236.6038 MY,0,337,449,236.6038,234.3096 MY,0,449,505,234.3096,233.304 MY,0,505,561,233.304,232.416 MY,0,561,617,232.416,231.6611 MY,0,617,674,231.6611,231.052 MY,0,674,730,231.052,230.5993 MY,0,730,786,230.5993,230.3106 MY,0,786,842,230.3106,230.1909 MY,0,842,898,230.1909,230.2423 MY,0,898,955,230.2423,230.4638 MY,0,955,1011,230.4638,230.8517 MY,0,1011,1067,230.8517,231.3993 MY,0,1067,1123,231.3993,232.0973 MY,0,1123,1179,232.0973,232.9338 MY,0,1179,1235,232.9338,233.8943 MY,0,1235,1348,233.8943,236.1201 MY,0,1348,1685,236.1201,243.7712 MY,0,1685,1797,243.7712,246.0654 MY,0,1797,1853,246.0654,247.071 MY,0,1853,1910,247.071,247.959 MY,0,1910,1966,247.959,248.7139 MY,0,1966,2022,248.7139,249.323 MY,0,2022,2078,249.323,249.7757 MY,0,2078,2134,249.7757,250.0644 MY,0,2134,2191,250.0644,250.1841 MY,0,2191,2247,250.1841,250.1327 MY,0,2247,2303,250.1327,249.9112 MY,0,2303,2359,249.9112,249.5233 MY,0,2359,2415,249.5233,248.9757 MY,0,2415,2471,248.9757,248.2777 MY,0,2471,2528,248.2777,247.4412 MY,0,2528,2584,247.4412,246.4807 MY,0,2584,2640,246.4807,245.4125 MY,30,191567,192816,245.4125,240 F,0,172691,172791,0,1 F,0,192816,192916,1,0
Sprite,Background,Centre,"sb/sprites/fx/00350000.jpg",273.7417,0 S,0,172691,,0.4447917 L,172691,7 MY,0,0,337,243.7712,236.1201 MY,0,337,449,236.1201,233.8943 MY,0,449,505,233.8943,232.9338 MY,0,505,561,232.9338,232.0973 MY,0,561,617,232.0973,231.3993 MY,0,617,674,231.3993,230.8517 MY,0,674,730,230.8517,230.4638 MY,0,730,786,230.4638,230.2423 MY,0,786,842,230.2423,230.1909 MY,0,842,898,230.1909,230.3106 MY,0,898,955,230.3106,230.5993 MY,0,955,1011,230.5993,231.052 MY,0,1011,1067,231.052,231.6611 MY,0,1067,1123,231.6611,232.416 MY,0,1123,1179,232.416,233.304 MY,0,1179,1235,233.304,234.3096 MY,0,1235,1348,234.3096,236.6038 MY,0,1348,1629,236.6038,243.0276 MY,0,1629,1741,243.0276,245.4125 MY,0,1741,1797,245.4125,246.4807 MY,0,1797,1853,246.4807,247.4413 MY,0,1853,1910,247.4413,248.2777 MY,0,1910,1966,248.2777,248.9757 MY,0,1966,2022,248.9757,249.5233 MY,0,2022,2078,249.5233,249.9112 MY,0,2078,2134,249.9112,250.1327 MY,0,2134,2191,250.1327,250.1841 MY,0,2191,2247,250.1841,250.0644 MY,0,2247,2303,250.0644,249.7757 MY,0,2303,2359,249.7757,249.323 MY,0,2359,2415,249.323,248.7139 MY,0,2415,2471,248.7139,247.959 MY,0,2471,2528,247.959,247.071 MY,0,2528,2584,247.071,246.0654 MY,0,2584,2640,246.0654,244.9591 MY,30,191567,192816,244.9591,240 F,0,172691,172791,0,1 F,0,192816,192916,1,0
Sprite,Background,Centre,"sb/sprites/fx/00360000.jpg",280.8583,0 S,0,172691,,0.4447917 L,172691,7 MY,0,0,224,243.2777,238.1084 MY,0,224,337,238.1084,235.6476 MY,0,337,449,235.6476,233.4962 MY,0,449,505,233.4962,232.5834 MY,0,505,561,232.5834,231.8008 MY,0,561,617,231.8008,231.1617 MY,0,617,674,231.1617,230.6769 MY,0,674,730,230.6769,230.3549 MY,0,730,786,230.3549,230.2012 MY,0,786,842,230.2012,230.2183 MY,0,842,898,230.2183,230.406 MY,0,898,955,230.406,230.7611 MY,0,955,1011,230.7611,231.2774 MY,0,1011,1067,231.2774,231.9462 MY,0,1067,1123,231.9462,232.7561 MY,0,1123,1179,232.7561,233.693 MY,0,1179,1292,233.693,235.8824 MY,0,1292,1404,235.8824,238.3651 MY,0,1404,1629,238.3651,243.5256 MY,0,1629,1741,243.5256,245.8516 MY,0,1741,1797,245.8516,246.8788 MY,0,1797,1853,246.8788,247.7916 MY,0,1853,1910,247.7916,248.5742 MY,0,1910,1966,248.5742,249.2133 MY,0,1966,2022,249.2133,249.6981 MY,0,2022,2078,249.6981,250.0201 MY,0,2078,2134,250.0201,250.1738 MY,0,2134,2191,250.1738,250.1567 MY,0,2191,2247,250.1567,249.969 MY,0,2247,2303,249.969,249.6139 MY,0,2303,2359,249.6139,249.0976 MY,0,2359,2415,249.0976,248.4288 MY,0,2415,2471,248.4288,247.6189 MY,0,2471,2528,247.6189,246.682 MY,0,2528,2640,246.682,244.4926 MY,30,191567,192816,244.4926,240 F,0,172691,172791,0,1 F,0,192816,192916,1,0
Sprite,Background,Centre,"sb/sprites/fx/00370000.jpg",287.975,0 S,0,172691,,0.4447917 L,172691,7 MY,0,0,280,242.7757,236.3607 MY,0,280,393,236.3607,234.0999 MY,0,393,449,234.0999,233.1164 MY,0,449,505,233.1164,232.254 MY,0,505,561,232.254,231.5273 MY,0,561,617,231.5273,230.9487 MY,0,617,674,230.9487,230.5282 MY,0,674,730,230.5282,230.2731 MY,0,730,786,230.2731,230.1875 MY,0,786,842,230.1875,230.2731 MY,0,842,898,230.2731,230.5282 MY,0,898,955,230.5282,230.9487 MY,0,955,1011,230.9487,231.5273 MY,0,1011,1067,231.5273,232.254 MY,0,1067,1123,232.254,233.1164 MY,0,1123,1179,233.1164,234.0999 MY,0,1179,1292,234.0999,236.3607 MY,0,1292,1573,236.3607,242.7757 MY,0,1573,1685,242.7757,245.1875 MY,0,1685,1741,245.1875,246.2751 MY,0,1741,1797,246.2751,247.2586 MY,0,1797,1853,247.2586,248.121 MY,0,1853,1910,248.121,248.8477 MY,0,1910,1966,248.8477,249.4263 MY,0,1966,2022,249.4263,249.8468 MY,0,2022,2078,249.8468,250.1019 MY,0,2078,2134,250.1019,250.1875 MY,0,2134,2191,250.1875,250.1019 MY,0,2191,2247,250.1019,249.8468 MY,0,2247,2303,249.8468,249.4263 MY,0,2303,2359,249.4263,248.8477 MY,0,2359,2415,248.8477,248.121 MY,0,2415,2471,248.121,247.2586 MY,0,2471,2528,247.2586,246.2751 MY,0,2528,2640,246.2751,244.0143 MY,30,191567,192816,244.0143,240 F,0,172691,172791,0,1 F,0,192816,192916,1,0
Sprite,Background,Centre,"sb/sprites/fx/00380000.jpg",295.0916,0 S,0,172691,,0.4447917 L,172691,7 MY,0,0,168,242.2666,238.3651 MY,0,168,280,238.3651,235.8824 MY,0,280,393,235.8824,233.693 MY,0,393,449,233.693,232.7561 MY,0,449,505,232.7561,231.9462 MY,0,505,561,231.9462,231.2774 MY,0,561,617,231.2774,230.7611 MY,0,617,674,230.7611,230.406 MY,0,674,730,230.406,230.2183 MY,0,730,786,230.2183,230.2012 MY,0,786,842,230.2012,230.3549 MY,0,842,898,230.3549,230.6769 MY,0,898,955,230.6769,231.1617 MY,0,955,1011,231.1617,231.8008 MY,0,1011,1067,231.8008,232.5834 MY,0,1067,1123,232.5834,233.4962 MY,0,1123,1179,233.4962,234.5234 MY,0,1179,1292,234.5234,236.8494 MY,0,1292,1573,236.8494,243.2777 MY,0,1573,1685,243.2777,245.6339 MY,0,1685,1741,245.6339,246.682 MY,0,1741,1797,246.682,247.6189 MY,0,1797,1853,247.6189,248.4288 MY,0,1853,1910,248.4288,249.0976 MY,0,1910,1966,249.0976,249.6139 MY,0,1966,2022,249.6139,249.969 MY,0,2022,2078,249.969,250.1567 MY,0,2078,2134,250.1567,250.1738 MY,0,2134,2191,250.1738,250.0201 MY,0,2191,2247,250.0201,249.6981 MY,0,2247,2303,249.6981,249.2133 MY,0,2303,2359,249.2133,248.5742 MY,0,2359,2415,248.5742,247.7916 MY,0,2415,2471,247.7916,246.8788 MY,0,2471,2528,246.8788,245.8516 MY,0,2528,2640,245.8516,243.5256 MY,30,191567,192816,243.5256,240 F,0,172691,172791,0,1 F,0,192816,192916,1,0
Sprite,Background,Centre,"sb/sprites/fx/00390000.jpg",302.2083,0 S,0,172691,,0.4447917 L,172691,7 MY,0,0,224,241.7518,236.6038 MY,0,224,337,236.6038,234.3096 MY,0,337,393,234.3096,233.304 MY,0,393,449,233.304,232.416 MY,0,449,505,232.416,231.6611 MY,0,505,561,231.6611,231.052 MY,0,561,617,231.052,230.5993 MY,0,617,674,230.5993,230.3106 MY,0,674,730,230.3106,230.1909 MY,0,730,786,230.1909,230.2423 MY,0,786,842,230.2423,230.4638 MY,0,842,898,230.4638,230.8517 MY,0,898,955,230.8517,231.3993 MY,0,955,1011,231.3993,232.0973 MY,0,1011,1067,232.0973,232.9338 MY,0,1067,1123,232.9338,233.8943 MY,0,1123,1235,233.8943,236.1201 MY,0,1235,1573,236.1201,243.7712 MY,0,1573,1685,243.7712,246.0654 MY,0,1685,1741,246.0654,247.071 MY,0,1741,1797,247.071,247.959 MY,0,1797,1853,247.959,248.7139 MY,0,1853,1910,248.7139,249.323 MY,0,1910,1966,249.323,249.7757 MY,0,1966,2022,249.7757,250.0644 MY,0,2022,2078,250.0644,250.1841 MY,0,2078,2134,250.1841,250.1327 MY,0,2134,2191,250.1327,249.9112 MY,0,2191,2247,249.9112,249.5233 MY,0,2247,2303,249.5233,248.9757 MY,0,2303,2359,248.9757,248.2777 MY,0,2359,2415,248.2777,247.4412 MY,0,2415,2471,247.4412,246.4807 MY,0,2471,2528,246.4807,245.4125 MY,0,2528,2640,245.4125,243.0276 MY,30,191567,192816,243.0276,240 F,0,172691,172791,0,1 F,0,192816,192916,1,0
Sprite,Background,Centre,"sb/sprites/fx/003A0000.jpg",309.325,0 S,0,172691,,0.4447917 L,172691,7 MY,0,0,112,241.2328,238.6232 MY,0,112,224,238.6232,236.1201 MY,0,224,337,236.1201,233.8943 MY,0,337,393,233.8943,232.9338 MY,0,393,449,232.9338,232.0973 MY,0,449,505,232.0973,231.3993 MY,0,505,561,231.3993,230.8517 MY,0,561,617,230.8517,230.4638 MY,0,617,674,230.4638,230.2423 MY,0,674,730,230.2423,230.1909 MY,0,730,786,230.1909,230.3106 MY,0,786,842,230.3106,230.5993 MY,0,842,898,230.5993,231.052 MY,0,898,955,231.052,231.6611 MY,0,955,1011,231.6611,232.416 MY,0,1011,1067,232.416,233.304 MY,0,1067,1123,233.304,234.3096 MY,0,1123,1235,234.3096,236.6038 MY,0,1235,1516,236.6038,243.0276 MY,0,1516,1629,243.0276,245.4125 MY,0,1629,1685,245.4125,246.4807 MY,0,1685,1741,246.4807,247.4412 MY,0,1741,1797,247.4412,248.2777 MY,0,1797,1853,248.2777,248.9757 MY,0,1853,1910,248.9757,249.5233 MY,0,1910,1966,249.5233,249.9112 MY,0,1966,2022,249.9112,250.1327 MY,0,2022,2078,250.1327,250.1841 MY,0,2078,2134,250.1841,250.0644 MY,0,2134,2191,250.0644,249.7757 MY,0,2191,2247,249.7757,249.323 MY,0,2247,2303,249.323,248.7139 MY,0,2303,2359,248.7139,247.959 MY,0,2359,2415,247.959,247.071 MY,0,2415,2471,247.071,246.0654 MY,0,2471,2528,246.0654,244.9591 MY,0,2528,2640,244.9591,242.522 MY,30,191567,192816,242.522,240 F,0,172691,172791,0,1 F,0,192816,192916,1,0
Sprite,Background,Centre,"sb/sprites/fx/003B0000.jpg",316.4417,0 S,0,172691,,0.4447917 L,172691,7 MY,0,0,112,240.7109,238.1084 MY,0,112,224,238.1084,235.6476 MY,0,224,337,235.6476,233.4962 MY,0,337,393,233.4962,232.5834 MY,0,393,449,232.5834,231.8008 MY,0,449,505,231.8008,231.1617 MY,0,505,561,231.1617,230.6769 MY,0,561,617,230.6769,230.3549 MY,0,617,674,230.3549,230.2012 MY,0,674,730,230.2012,230.2183 MY,0,730,786,230.2183,230.406 MY,0,786,842,230.406,230.7611 MY,0,842,898,230.7611,231.2774 MY,0,898,955,231.2774,231.9462 MY,0,955,1011,231.9462,232.7561 MY,0,1011,1067,232.7561,233.693 MY,0,1067,1179,233.693,235.8824 MY,0,1179,1292,235.8824,238.3651 MY,0,1292,1516,238.3651,243.5256 MY,0,1516,1629,243.5256,245.8516 MY,0,1629,1685,245.8516,246.8788 MY,0,1685,1741,246.8788,247.7916 MY,0,1741,1797,247.7916,248.5742 MY,0,1797,1853,248.5742,249.2133 MY,0,1853,1910,249.2133,249.6981 MY,0,1910,1966,249.6981,250.0201 MY,0,1966,2022,250.0201,250.1738 MY,0,2022,2078,250.1738,250.1567 MY,0,2078,2134,250.1567,249.969 MY,0,2134,2191,249.969,249.6139 MY,0,2191,2247,249.6139,249.0976 MY,0,2247,2303,249.0976,248.4288 MY,0,2303,2359,248.4288,247.6189 MY,0,2359,2415,247.6189,246.682 MY,0,2415,2528,246.682,244.4926 MY,0,2528,2640,244.4926,242.0099 MY,30,191567,192816,242.0099,240 F,0,172691,172791,0,1 F,0,192816,192916,1,0
Sprite,Background,Centre,"sb/sprites/fx/003C0000.jpg",323.5583,0 S,0,172691,,0.4447917 L,172691,7 MY,0,0,112,240.1875,237.5993 MY,0,112,224,237.5993,235.1875 MY,0,224,280,235.1875,234.0999 MY,0,280,337,234.0999,233.1164 MY,0,337,393,233.1164,232.254 MY,0,393,449,232.254,231.5273 MY,0,449,505,231.5273,230.9487 MY,0,505,561,230.9487,230.5282 MY,0,561,617,230.5282,230.2731 MY,0,617,674,230.2731,230.1875 MY,0,674,730,230.1875,230.2731 MY,0,730,786,230.2731,230.5282 MY,0,786,842,230.5282,230.9487 MY,0,842,898,230.9487,231.5273 MY,0,898,955,231.5273,232.254 MY,0,955,1011,232.254,233.1164 MY,0,1011,1067,233.1164,234.0999 MY,0,1067,1179,234.0999,236.3607 MY,0,1179,1460,236.3607,242.7757 MY,0,1460,1573,242.7757,245.1875 MY,0,1573,1629,245.1875,246.2751 MY,0,1629,1685,246.2751,247.2586 MY,0,1685,1741,247.2586,248.121 MY,0,1741,1797,248.121,248.8477 MY,0,1797,1853,248.8477,249.4263 MY,0,1853,1910,249.4263,249.8468 MY,0,1910,1966,249.8468,250.1019 MY,0,1966,2022,250.1019,250.1875 MY,0,2022,2078,250.1875,250.1019 MY,0,2078,2134,250.1019,249.8468 MY,0,2134,2191,249.8468,249.4263 MY,0,2191,2247,249.4263,248.8477 MY,0,2247,2303,248.8477,248.121 MY,0,2303,2359,248.121,247.2586 MY,0,2359,2415,247.2586,246.2751 MY,0,2415,2528,246.2751,244.0143 MY,0,2528,2640,244.0143,241.4928 MY,30,191567,192816,241.4928,240 F,0,172691,172791,0,1 F,0,192816,192916,1,0
Sprite,Background,Centre,"sb/sprites/fx/003D0000.jpg",330.675,0 S,0,172691,,0.4447917 L,172691,7 MY,0,0,112,239.6641,237.0973 MY,0,112,224,237.0973,234.7411 MY,0,224,280,234.7411,233.693 MY,0,280,337,233.693,232.7561 MY,0,337,393,232.7561,231.9462 MY,0,393,449,231.9462,231.2774 MY,0,449,505,231.2774,230.7611 MY,0,505,561,230.7611,230.406 MY,0,561,617,230.406,230.2183 MY,0,617,674,230.2183,230.2012 MY,0,674,730,230.2012,230.3549 MY,0,730,786,230.3549,230.6769 MY,0,786,842,230.6769,231.1617 MY,0,842,898,231.1617,231.8008 MY,0,898,955,231.8008,232.5834 MY,0,955,1011,232.5834,233.4962 MY,0,1011,1123,233.4962,235.6476 MY,0,1123,1235,235.6476,238.1084 MY,0,1235,1460,238.1084,243.2777 MY,0,1460,1573,243.2777,245.6339 MY,0,1573,1629,245.6339,246.682 MY,0,1629,1685,246.682,247.6189 MY,0,1685,1741,247.6189,248.4288 MY,0,1741,1797,248.4288,249.0976 MY,0,1797,1853,249.0976,249.6139 MY,0,1853,1910,249.6139,249.969 MY,0,1910,1966,249.969,250.1567 MY,0,1966,2022,250.1567,250.1738 MY,0,2022,2078,250.1738,250.0201 MY,0,2078,2134,250.0201,249.6981 MY,0,2134,2191,249.6981,249.2133 MY,0,2191,2247,249.2133,248.5742 MY,0,2247,2303,248.5742,247.7916 MY,0,2303,2359,247.7916,246.8788 MY,0,2359,2415,246.8788,245.8516 MY,0,2415,2528,245.8516,243.5256 MY,0,2528,2640,243.5256,240.9721 MY,30,191567,192816,240.9721,240 F,0,172691,172791,0,1 F,0,192816,192916,1,0
Sprite,Background,Centre,"sb/sprites/fx/003E0000.jpg",337.7917,0 S,0,172691,,0.4447917 L,172691,7 MY,0,0,112,239.1422,236.6038 MY,0,112,224,236.6038,234.3096 MY,0,224,280,234.3096,233.304 MY,0,280,337,233.304,232.416 MY,0,337,393,232.416,231.6611 MY,0,393,449,231.6611,231.052 MY,0,449,505,231.052,230.5993 MY,0,505,561,230.5993,230.3106 MY,0,561,617,230.3106,230.1909 MY,0,617,674,230.1909,230.2423 MY,0,674,730,230.2423,230.4638 MY,0,730,786,230.4638,230.8517 MY,0,786,842,230.8517,231.3993 MY,0,842,898,231.3993,232.0973 MY,0,898,955,232.0973,232.9338 MY,0,955,1011,232.9338,233.8943 MY,0,1011,1067,233.8943,234.9625 MY,0,1067,1179,234.9625,237.3474 MY,0,1179,1460,237.3474,243.7712 MY,0,1460,1573,243.7712,246.0654 MY,0,1573,1629,246.0654,247.071 MY,0,1629,1685,247.071,247.959 MY,0,1685,1741,247.959,248.7139 MY,0,1741,1797,248.7139,249.323 MY,0,1797,1853,249.323,249.7757 MY,0,1853,1910,249.7757,250.0644 MY,0,1910,1966,250.0644,250.1841 MY,0,1966,2022,250.1841,250.1327 MY,0,2022,2078,250.1327,249.9112 MY,0,2078,2134,249.9112,249.5233 MY,0,2134,2191,249.5233,248.9757 MY,0,2191,2247,248.9757,248.2777 MY,0,2247,2303,248.2777,247.4412 MY,0,2303,2359,247.4412,246.4807 MY,0,2359,2415,246.4807,245.4125 MY,0,2415,2528,245.4125,243.0276 MY,0,2528,2640,243.0276,240.4493 MY,30,191567,192816,240.4493,240 F,0,172691,172791,0,1 F,0,192816,192916,1,0
Sprite,Background,Centre,"sb/sprites/fx/003F0000.jpg",344.9083,0 S,0,172691,,0.4447917 L,172691,7 MY,0,0,112,238.6232,236.1201 MY,0,112,224,236.1201,233.8943 MY,0,224,280,233.8943,232.9338 MY,0,280,337,232.9338,232.0973 MY,0,337,393,232.0973,231.3993 MY,0,393,449,231.3993,230.8517 MY,0,449,505,230.8517,230.4638 MY,0,505,561,230.4638,230.2423 MY,0,561,617,230.2423,230.1909 MY,0,617,674,230.1909,230.3106 MY,0,674,730,230.3106,230.5993 MY,0,730,786,230.5993,231.052 MY,0,786,842,231.052,231.6611 MY,0,842,898,231.6611,232.416 MY,0,898,955,232.416,233.304 MY,0,955,1011,233.304,234.3096 MY,0,1011,1123,234.3096,236.6038 MY,0,1123,1460,236.6038,244.2549 MY,0,1460,1573,244.2549,246.4807 MY,0,1573,1629,246.4807,247.4413 MY,0,1629,1685,247.4413,248.2777 MY,0,1685,1741,248.2777,248.9757 MY,0,1741,1797,248.9757,249.5233 MY,0,1797,1853,249.5233,249.9112 MY,0,1853,1910,249.9112,250.1327 MY,0,1910,1966,250.1327,250.1841 MY,0,1966,2022,250.1841,250.0644 MY,0,2022,2078,250.0644,249.7757 MY,0,2078,2134,249.7757,249.323 MY,0,2134,2191,249.323,248.7139 MY,0,2191,2247,248.7139,247.959 MY,0,2247,2303,247.959,247.071 MY,0,2303,2359,247.071,246.0654 MY,0,2359,2415,246.0654,244.9591 MY,0,2415,2528,244.9591,242.522 MY,0,2528,2640,242.522,239.9257 MY,30,191567,192816,239.9257,240 F,0,172691,172791,0,1 F,0,192816,192916,1,0
Sprite,Background,Centre,"sb/sprites/fx/00400000.jpg",352.025,0 S,0,172691,,0.4447917 L,172691,7 MY,0,0,112,238.1084,235.6476 MY,0,112,168,235.6476,234.5234 MY,0,168,224,234.5234,233.4962 MY,0,224,280,233.4962,232.5834 MY,0,280,337,232.5834,231.8008 MY,0,337,393,231.8008,231.1617 MY,0,393,449,231.1617,230.6769 MY,0,449,505,230.6769,230.3549 MY,0,505,561,230.3549,230.2012 MY,0,561,617,230.2012,230.2183 MY,0,617,674,230.2183,230.406 MY,0,674,730,230.406,230.7611 MY,0,730,786,230.7611,231.2774 MY,0,786,842,231.2774,231.9462 MY,0,842,898,231.9462,232.7561 MY,0,898,955,232.7561,233.693 MY,0,955,1011,233.693,234.7411 MY,0,1011,1123,234.7411,237.0973 MY,0,1123,1348,237.0973,242.2666 MY,0,1348,1460,242.2666,244.7274 MY,0,1460,1573,244.7274,246.8788 MY,0,1573,1629,246.8788,247.7916 MY,0,1629,1685,247.7916,248.5742 MY,0,1685,1741,248.5742,249.2133 MY,0,1741,1797,249.2133,249.6981 MY,0,1797,1853,249.6981,250.0201 MY,0,1853,1910,250.0201,250.1738 MY,0,1910,1966,250.1738,250.1567 MY,0,1966,2022,250.1567,249.969 MY,0,2022,2078,249.969,249.6139 MY,0,2078,2134,249.6139,249.0976 MY,0,2134,2191,249.0976,248.4288 MY,0,2191,2247,248.4288,247.6189 MY,0,2247,2303,247.6189,246.682 MY,0,2303,2415,246.682,244.4926 MY,0,2415,2528,244.4926,242.0099 MY,0,2528,2640,242.0099,239.4029 MY,30,191567,192816,239.4029,240 F,0,172691,172791,0,1 F,0,192816,192916,1,0
Sprite,Background,Centre,"sb/sprites/fx/00410000.jpg",359.1417,0 S,0,172691,,0.4447917 L,172691,7 MY,0,0,112,237.5993,235.1875 MY,0,112,168,235.1875,234.0999 MY,0,168,224,234.0999,233.1164 MY,0,224,280,233.1164,232.254 MY,0,280,337,232.254,231.5273 MY,0,337,393,231.5273,230.9487 MY,0,393,449,230.9487,230.5282 MY,0,449,505,230.5282,230.2731 MY,0,505,561,230.2731,230.1875 MY,0,561,617,230.1875,230.2731 MY,0,617,674,230.2731,230.5282 MY,0,674,730,230.5282,230.9487 MY,0,730,786,230.9487,231.5273 MY,0,786,842,231.5273,232.254 MY,0,842,898,232.254,233.1164 MY,0,898,955,233.1164,234.0999 MY,0,955,1011,234.0999,235.1875 MY,0,1011,1123,235.1875,237.5993 MY,0,1123,1404,237.5993,244.0143 MY,0,1404,1516,244.0143,246.2751 MY,0,1516,1573,246.2751,247.2586 MY,0,1573,1629,247.2586,248.121 MY,0,1629,1685,248.121,248.8477 MY,0,1685,1741,248.8477,249.4263 MY,0,1741,1797,249.4263,249.8468 MY,0,1797,1853,249.8468,250.1019 MY,0,1853,1910,250.1019,250.1875 MY,0,1910,1966,250.1875,250.1019 MY,0,1966,2022,250.1019,249.8468 MY,0,2022,2078,249.8468,249.4263 MY,0,2078,2134,249.4263,248.8477 MY,0,2134,2191,248.8477,248.121 MY,0,2191,2247,248.121,247.2586 MY,0,2247,2303,247.2586,246.2751 MY,0,2303,2415,246.2751,244.0143 MY,0,2415,2640,244.0143,238.8822 MY,30,191567,192816,238.8822,240 F,0,172691,172791,0,1 F,0,192816,192916,1,0
Sprite,Background,Centre,"sb/sprites/fx/00420000.jpg",366.2583,0 S,0,172691,,0.4447917 L,172691,7 MY,0,0,112,237.0973,234.7411 MY,0,112,168,234.7411,233.693 MY,0,168,224,233.693,232.7561 MY,0,224,280,232.7561,231.9462 MY,0,280,337,231.9462,231.2774 MY,0,337,393,231.2774,230.7611 MY,0,393,449,230.7611,230.406 MY,0,449,505,230.406,230.2183 MY,0,505,561,230.2183,230.2012 MY,0,561,617,230.2012,230.3549 MY,0,617,674,230.3549,230.6769 MY,0,674,730,230.6769,231.1617 MY,0,730,786,231.1617,231.8008 MY,0,786,842,231.8008,232.5834 MY,0,842,898,232.5834,233.4962 MY,0,898,955,233.4962,234.5234 MY,0,955,1067,234.5234,236.8494 MY,0,1067,1292,236.8494,242.0099 MY,0,1292,1404,242.0099,244.4926 MY,0,1404,1516,244.4926,246.682 MY,0,1516,1573,246.682,247.619 MY,0,1573,1629,247.619,248.4288 MY,0,1629,1685,248.4288,249.0976 MY,0,1685,1741,249.0976,249.6139 MY,0,1741,1797,249.6139,249.969 MY,0,1797,1853,249.969,250.1567 MY,0,1853,1910,250.1567,250.1738 MY,0,1910,1966,250.1738,250.0201 MY,0,1966,2022,250.0201,249.6981 MY,0,2022,2078,249.6981,249.2133 MY,0,2078,2134,249.2133,248.5742 MY,0,2134,2191,248.5742,247.7915 MY,0,2191,2247,247.7915,246.8788 MY,0,2247,2359,246.8788,244.7274 MY,0,2359,2471,244.7274,242.2666 MY,0,2471,2640,242.2666,238.3651 MY,30,191567,192816,238.3651,240 F,0,172691,172791,0,1 F,0,192816,192916,1,0
Sprite,Background,Centre,"sb/sprites/fx/00430000.jpg",373.375,0 S,0,172691,,0.4447917 L,172691,7 MY,0,0,112,236.6038,234.3096 MY,0,112,168,234.3096,233.304 MY,0,168,224,233.304,232.416 MY,0,224,280,232.416,231.6611 MY,0,280,337,231.6611,231.052 MY,0,337,393,231.052,230.5993 MY,0,393,449,230.5993,230.3106 MY,0,449,505,230.3106,230.1909 MY,0,505,561,230.1909,230.2423 MY,0,561,617,230.2423,230.4638 MY,0,617,674,230.4638,230.8517 MY,0,674,730,230.8517,231.3993 MY,0,730,786,231.3993,232.0973 MY,0,786,842,232.0973,232.9338 MY,0,842,898,232.9338,233.8943 MY,0,898,955,233.8943,234.9625 MY,0,955,1067,234.9625,237.3474 MY,0,1067,1348,237.3474,243.7712 MY,0,1348,1460,243.7712,246.0654 MY,0,1460,1516,246.0654,247.071 MY,0,1516,1573,247.071,247.959 MY,0,1573,1629,247.959,248.7139 MY,0,1629,1685,248.7139,249.323 MY,0,1685,1741,249.323,249.7757 MY,0,1741,1797,249.7757,250.0644 MY,0,1797,1853,250.0644,250.1841 MY,0,1853,1910,250.1841,250.1327 MY,0,1910,1966,250.1327,249.9112 MY,0,1966,2022,249.9112,249.5233 MY,0,2022,2078,249.5233,248.9757 MY,0,2078,2134,248.9757,248.2777 MY,0,2134,2191,248.2777,247.4412 MY,0,2191,2247,247.4412,246.4807 MY,0,2247,2359,246.4807,244.2549 MY,0,2359,2471,244.2549,241.7518 MY,0,2471,2640,241.7518,237.853 MY,30,191567,192816,237.853,240 F,0,172691,172791,0,1 F,0,192816,192916,1,0
Sprite,Background,Centre,"sb/sprites/fx/00440000.jpg",380.4917,0 S,0,172691,,0.4447917 L,172691,7 MY,0,0,112,236.1201,233.8943 MY,0,112,168,233.8943,232.9338 MY,0,168,224,232.9338,232.0973 MY,0,224,280,232.0973,231.3993 MY,0,280,337,231.3993,230.8517 MY,0,337,393,230.8517,230.4638 MY,0,393,449,230.4638,230.2423 MY,0,449,505,230.2423,230.1909 MY,0,505,561,230.1909,230.3106 MY,0,561,617,230.3106,230.5993 MY,0,617,674,230.5993,231.052 MY,0,674,730,231.052,231.6611 MY,0,730,786,231.6611,232.416 MY,0,786,842,232.416,233.304 MY,0,842,898,233.304,234.3096 MY,0,898,1011,234.3096,236.6038 MY,0,1011,1348,236.6038,244.2549 MY,0,1348,1460,244.2549,246.4807 MY,0,1460,1516,246.4807,247.4412 MY,0,1516,1573,247.4412,248.2777 MY,0,1573,1629,248.2777,248.9757 MY,0,1629,1685,248.9757,249.5233 MY,0,1685,1741,249.5233,249.9112 MY,0,1741,1797,249.9112,250.1327 MY,0,1797,1853,250.1327,250.1841 MY,0,1853,1910,250.1841,250.0644 MY,0,1910,1966,250.0644,249.7757 MY,0,1966,2022,249.7757,249.323 MY,0,2022,2078,249.323,248.7139 MY,0,2078,2134,248.7139,247.959 MY,0,2134,2191,247.959,247.071 MY,0,2191,2247,247.071,246.0654 MY,0,2247,2359,246.0654,243.7712 MY,0,2359,2640,243.7712,237.3474 MY,30,191567,192816,237.3474,240 F,0,172691,172791,0,1 F,0,192816,192916,1,0
Sprite,Background,Centre,"sb/sprites/fx/00450000.jpg",387.6083,0 S,0,172691,,0.4447917 L,172691,7 MY,0,0,112,235.6476,233.4962 MY,0,112,168,233.4962,232.5834 MY,0,168,224,232.5834,231.8008 MY,0,224,280,231.8008,231.1617 MY,0,280,337,231.1617,230.6769 MY,0,337,393,230.6769,230.3549 MY,0,393,449,230.3549,230.2012 MY,0,449,505,230.2012,230.2183 MY,0,505,561,230.2183,230.406 MY,0,561,617,230.406,230.7611 MY,0,617,674,230.7611,231.2774 MY,0,674,730,231.2774,231.9462 MY,0,730,786,231.9462,232.7561 MY,0,786,842,232.7561,233.693 MY,0,842,898,233.693,234.7411 MY,0,898,1011,234.7411,237.0973 MY,0,1011,1292,237.0973,243.5256 MY,0,1292,1404,243.5256,245.8516 MY,0,1404,1460,245.8516,246.8788 MY,0,1460,1516,246.8788,247.7916 MY,0,1516,1573,247.7916,248.5742 MY,0,1573,1629,248.5742,249.2133 MY,0,1629,1685,249.2133,249.6981 MY,0,1685,1741,249.6981,250.0201 MY,0,1741,1797,250.0201,250.1738 MY,0,1797,1853,250.1738,250.1567 MY,0,1853,1910,250.1567,249.969 MY,0,1910,1966,249.969,249.6139 MY,0,1966,2022,249.6139,249.0976 MY,0,2022,2078,249.0976,248.4288 MY,0,2078,2134,248.4288,247.6189 MY,0,2134,2191,247.6189,246.682 MY,0,2191,2303,246.682,244.4926 MY,0,2303,2415,244.4926,242.0099 MY,0,2415,2640,242.0099,236.8494 MY,30,191567,192816,236.8494,240 F,0,172691,172791,0,1 F,0,192816,192916,1,0
Sprite,Background,Centre,"sb/sprites/fx/00460000.jpg",394.725,0 S,0,172691,,0.4447917 L,172691,7 MY,0,0,56,235.1875,234.0999 MY,0,56,112,234.0999,233.1164 MY,0,112,168,233.1164,232.254 MY,0,168,224,232.254,231.5273 MY,0,224,280,231.5273,230.9487 MY,0,280,337,230.9487,230.5282 MY,0,337,393,230.5282,230.2731 MY,0,393,449,230.2731,230.1875 MY,0,449,505,230.1875,230.2731 MY,0,505,561,230.2731,230.5282 MY,0,561,617,230.5282,230.9487 MY,0,617,674,230.9487,231.5273 MY,0,674,730,231.5273,232.254 MY,0,730,786,232.254,233.1164 MY,0,786,842,233.1164,234.0999 MY,0,842,898,234.0999,235.1875 MY,0,898,1011,235.1875,237.5993 MY,0,1011,1292,237.5993,244.0143 MY,0,1292,1404,244.0143,246.2751 MY,0,1404,1460,246.2751,247.2586 MY,0,1460,1516,247.2586,248.121 MY,0,1516,1573,248.121,248.8478 MY,0,1573,1629,248.8478,249.4263 MY,0,1629,1685,249.4263,249.8468 MY,0,1685,1741,249.8468,250.1019 MY,0,1741,1797,250.1019,250.1875 MY,0,1797,1853,250.1875,250.1019 MY,0,1853,1910,250.1019,249.8468 MY,0,1910,1966,249.8468,249.4263 MY,0,1966,2022,249.4263,248.8477 MY,0,2022,2078,248.8477,248.121 MY,0,2078,2134,248.121,247.2586 MY,0,2134,2191,247.2586,246.2751 MY,0,2191,2303,246.2751,244.0143 MY,0,2303,2640,244.0143,236.3607 MY,30,191567,192816,236.3607,240 F,0,172691,172791,0,1 F,0,192816,192916,1,0
Sprite,Background,Centre,"sb/sprites/fx/00470000.jpg",401.8417,0 S,0,172691,,0.4447917 L,172691,7 MY,0,0,56,234.7411,233.693 MY,0,56,112,233.693,232.7561 MY,0,112,168,232.7561,231.9462 MY,0,168,224,231.9462,231.2774 MY,0,224,280,231.2774,230.7611 MY,0,280,337,230.7611,230.406 MY,0,337,393,230.406,230.2183 MY,0,393,449,230.2183,230.2012 MY,0,449,505,230.2012,230.3549 MY,0,505,561,230.3549,230.6769 MY,0,561,617,230.6769,231.1617 MY,0,617,674,231.1617,231.8008 MY,0,674,730,231.8008,232.5834 MY,0,730,786,232.5834,233.4962 MY,0,786,842,233.4962,234.5234 MY,0,842,955,234.5234,236.8494 MY,0,955,1235,236.8494,243.2777 MY,0,1235,1348,243.2777,245.6339 MY,0,1348,1404,245.6339,246.682 MY,0,1404,1460,246.682,247.6189 MY,0,1460,1516,247.6189,248.4288 MY,0,1516,1573,248.4288,249.0976 MY,0,1573,1629,249.0976,249.6139 MY,0,1629,1685,249.6139,249.969 MY,0,1685,1741,249.969,250.1567 MY,0,1741,1797,250.1567,250.1738 MY,0,1797,1853,250.1738,250.0201 MY,0,1853,1910,250.0201,249.6981 MY,0,1910,1966,249.6981,249.2133 MY,0,1966,2022,249.2133,248.5742 MY,0,2022,2078,248.5742,247.7915 MY,0,2078,2134,247.7915,246.8788 MY,0,2134,2247,246.8788,244.7274 MY,0,2247,2359,244.7274,242.2666 MY,0,2359,2528,242.2666,238.3651 MY,0,2528,2640,238.3651,235.8824 MY,30,191567,192816,235.8824,240 F,0,172691,172791,0,1 F,0,192816,192916,1,0
Sprite,Background,Centre,"sb/sprites/fx/00480000.jpg",408.9583,0 S,0,172691,,0.4447917 L,172691,7 MY,0,0,56,234.3096,233.304 MY,0,56,112,233.304,232.416 MY,0,112,168,232.416,231.6611 MY,0,168,224,231.6611,231.052 MY,0,224,280,231.052,230.5993 MY,0,280,337,230.5993,230.3106 MY,0,337,393,230.3106,230.1909 MY,0,393,449,230.1909,230.2423 MY,0,449,505,230.2423,230.4638 MY,0,505,561,230.4638,230.8517 MY,0,561,617,230.8517,231.3993 MY,0,617,674,231.3993,232.0973 MY,0,674,730,232.0973,232.9338 MY,0,730,786,232.9338,233.8943 MY,0,786,842,233.8943,234.9625 MY,0,842,955,234.9625,237.3474 MY,0,955,1235,237.3474,243.7712 MY,0,1235,1348,243.7712,246.0654 MY,0,1348,1404,246.0654,247.071 MY,0,1404,1460,247.071,247.959 MY,0,1460,1516,247.959,248.7139 MY,0,1516,1573,248.7139,249.323 MY,0,1573,1629,249.323,249.7757 MY,0,1629,1685,249.7757,250.0644 MY,0,1685,1741,250.0644,250.1841 MY,0,1741,1797,250.1841,250.1327 MY,0,1797,1853,250.1327,249.9112 MY,0,1853,1910,249.9112,249.5233 MY,0,1910,1966,249.5233,248.9757 MY,0,1966,2022,248.9757,248.2777 MY,0,2022,2078,248.2777,247.4412 MY,0,2078,2134,247.4412,246.4807 MY,0,2134,2247,246.4807,244.2549 MY,0,2247,2359,244.2549,241.7518 MY,0,2359,2528,241.7518,237.853 MY,0,2528,2640,237.853,235.4159 MY,30,191567,192816,235.4159,240 F,0,172691,172791,0,1 F,0,192816,192916,1,0
Sprite,Background,Centre,"sb/sprites/fx/00490000.jpg",416.075,0 S,0,172691,,0.4447917 L,172691,7 MY,0,0,56,233.8943,232.9338 MY,0,56,112,232.9338,232.0973 MY,0,112,168,232.0973,231.3993 MY,0,168,224,231.3993,230.8517 MY,0,224,280,230.8517,230.4638 MY,0,280,337,230.4638,230.2423 MY,0,337,393,230.2423,230.1909 MY,0,393,449,230.1909,230.3106 MY,0,449,505,230.3106,230.5993 MY,0,505,561,230.5993,231.052 MY,0,561,617,231.052,231.6611 MY,0,617,674,231.6611,232.416 MY,0,674,730,232.416,233.304 MY,0,730,786,233.304,234.3096 MY,0,786,898,234.3096,236.6038 MY,0,898,1235,236.6038,244.2549 MY,0,1235,1348,244.2549,246.4807 MY,0,1348,1404,246.4807,247.4412 MY,0,1404,1460,247.4412,248.2777 MY,0,1460,1516,248.2777,248.9757 MY,0,1516,1573,248.9757,249.5233 MY,0,1573,1629,249.5233,249.9112 MY,0,1629,1685,249.9112,250.1327 MY,0,1685,1741,250.1327,250.1841 MY,0,1741,1797,250.1841,250.0644 MY,0,1797,1853,250.0644,249.7757 MY,0,1853,1910,249.7757,249.323 MY,0,1910,1966,249.323,248.7139 MY,0,1966,2022,248.7139,247.959 MY,0,2022,2078,247.959,247.071 MY,0,2078,2134,247.071,246.0654 MY,0,2134,2247,246.0654,243.7712 MY,0,2247,2528,243.7712,237.3474 MY,0,2528,2640,237.3474,234.9625 MY,30,191567,192816,234.9625,240 F,0,172691,172791,0,1 F,0,192816,192916,1,0
Sprite,Background,Centre,"sb/sprites/fx/004A0000.jpg",423.1917,0 S,0,172691,,0.4447917 L,172691,7 MY,0,0,56,233.4962,232.5834 MY,0,56,112,232.5834,231.8008 MY,0,112,168,231.8008,231.1617 MY,0,168,224,231.1617,230.6769 MY,0,224,280,230.6769,230.3549 MY,0,280,337,230.3549,230.2012 MY,0,337,393,230.2012,230.2183 MY,0,393,449,230.2183,230.406 MY,0,449,505,230.406,230.7611 MY,0,505,561,230.7611,231.2774 MY,0,561,617,231.2774,231.9462 MY,0,617,674,231.9462,232.7561 MY,0,674,730,232.7561,233.693 MY,0,730,786,233.693,234.7411 MY,0,786,898,234.7411,237.0973 MY,0,898,1179,237.0973,243.5256 MY,0,1179,1292,243.5256,245.8516 MY,0,1292,1348,245.8516,246.8788 MY,0,1348,1404,246.8788,247.7916 MY,0,1404,1460,247.7916,248.5742 MY,0,1460,1516,248.5742,249.2133 MY,0,1516,1573,249.2133,249.6981 MY,0,1573,1629,249.6981,250.0201 MY,0,1629,1685,250.0201,250.1738 MY,0,1685,1741,250.1738,250.1567 MY,0,1741,1797,250.1567,249.969 MY,0,1797,1853,249.969,249.6139 MY,0,1853,1910,249.6139,249.0976 MY,0,1910,1966,249.0976,248.4288 MY,0,1966,2022,248.4288,247.6189 MY,0,2022,2078,247.6189,246.682 MY,0,2078,2191,246.682,244.4926 MY,0,2191,2303,244.4926,242.0099 MY,0,2303,2528,242.0099,236.8494 MY,0,2528,2640,236.8494,234.5234 MY,30,191567,192816,234.5234,240 F,0,172691,172791,0,1 F,0,192816,192916,1,0
Sprite,Background,Centre,"sb/sprites/fx/004B0000.jpg",430.3083,0 S,0,172691,,0.4447917 L,172691,7 MY,0,0,56,233.1164,232.254 MY,0,56,112,232.254,231.5273 MY,0,112,168,231.5273,230.9487 MY,0,168,224,230.9487,230.5282 MY,0,224,280,230.5282,230.2731 MY,0,280,337,230.2731,230.1875 MY,0,337,393,230.1875,230.2731 MY,0,393,449,230.2731,230.5282 MY,0,449,505,230.5282,230.9487 MY,0,505,561,230.9487,231.5273 MY,0,561,617,231.5273,232.254 MY,0,617,674,232.254,233.1164 MY,0,674,730,233.1164,234.0999 MY,0,730,786,234.0999,235.1875 MY,0,786,898,235.1875,237.5993 MY,0,898,1179,237.5993,244.0143 MY,0,1179,1292,244.0143,246.2751 MY,0,1292,1348,246.2751,247.2586 MY,0,1348,1404,247.2586,248.121 MY,0,1404,1460,248.121,248.8477 MY,0,1460,1516,248.8477,249.4263 MY,0,1516,1573,249.4263,249.8468 MY,0,1573,1629,249.8468,250.1019 MY,0,1629,1685,250.1019,250.1875 MY,0,1685,1741,250.1875,250.1019 MY,0,1741,1797,250.1019,249.8468 MY,0,1797,1853,249.8468,249.4263 MY,0,1853,1910,249.4263,248.8477 MY,0,1910,1966,248.8477,248.121 MY,0,1966,2022,248.121,247.2586 MY,0,2022,2078,247.2586,246.2751 MY,0,2078,2191,246.2751,244.0143 MY,0,2191,2471,244.0143,237.5993 MY,0,2471,2584,237.5993,235.1875 MY,0,2584,2640,235.1875,234.0999 MY,30,191567,192816,234.0999,240 F,0,172691,172791,0,1 F,0,192816,192916,1,0
Sprite,Background,Centre,"sb/sprites/fx/004C0000.jpg",437.425,0 S,0,172691,,0.4447917 L,172691,7 MY,0,0,56,232.7561,231.9462 MY,0,56,112,231.9462,231.2774 MY,0,112,168,231.2774,230.7611 MY,0,168,224,230.7611,230.406 MY,0,224,280,230.406,230.2183 MY,0,280,337,230.2183,230.2012 MY,0,337,393,230.2012,230.3549 MY,0,393,449,230.3549,230.6769 MY,0,449,505,230.6769,231.1617 MY,0,505,561,231.1617,231.8008 MY,0,561,617,231.8008,232.5834 MY,0,617,674,232.5834,233.4962 MY,0,674,730,233.4962,234.5234 MY,0,730,842,234.5234,236.8494 MY,0,842,1123,236.8494,243.2777 MY,0,1123,1235,243.2777,245.6339 MY,0,1235,1292,245.6339,246.682 MY,0,1292,1348,246.682,247.6189 MY,0,1348,1404,247.6189,248.4288 MY,0,1404,1460,248.4288,249.0976 MY,0,1460,1516,249.0976,249.6139 MY,0,1516,1573,249.6139,249.969 MY,0,1573,1629,249.969,250.1567 MY,0,1629,1685,250.1567,250.1738 MY,0,1685,1741,250.1738,250.0201 MY,0,1741,1797,250.0201,249.6981 MY,0,1797,1853,249.6981,249.2133 MY,0,1853,1910,249.2133,248.5742 MY,0,1910,1966,248.5742,247.7915 MY,0,1966,2022,247.7915,246.8788 MY,0,2022,2134,246.8788,244.7274 MY,0,2134,2247,244.7274,242.2666 MY,0,2247,2471,242.2666,237.0973 MY,0,2471,2584,237.0973,234.7411 MY,0,2584,2640,234.7411,233.693 MY,30,191567,192816,233.693,240 F,0,172691,172791,0,1 F,0,192816,192916,1,0
Sprite,Background,Centre,"sb/sprites/fx/004D0000.jpg",444.5417,0 S,0,172691,,0.4447917 L,172691,7 MY,0,0,56,232.416,231.6611 MY,0,56,112,231.6611,231.052 MY,0,112,168,231.052,230.5993 MY,0,168,224,230.5993,230.3106 MY,0,224,280,230.3106,230.1909 MY,0,280,337,230.1909,230.2423 MY,0,337,393,230.2423,230.4638 MY,0,393,449,230.4638,230.8517 MY,0,449,505,230.8517,231.3993 MY,0,505,561,231.3993,232.0973 MY,0,561,617,232.0973,232.9338 MY,0,617,674,232.9338,233.8943 MY,0,674,730,233.8943,234.9625 MY,0,730,842,234.9625,237.3474 MY,0,842,1123,237.3474,243.7712 MY,0,1123,1235,243.7712,246.0654 MY,0,1235,1292,246.0654,247.071 MY,0,1292,1348,247.071,247.959 MY,0,1348,1404,247.959,248.7139 MY,0,1404,1460,248.7139,249.323 MY,0,1460,1516,249.323,249.7757 MY,0,1516,1573,249.7757,250.0644 MY,0,1573,1629,250.0644,250.1841 MY,0,1629,1685,250.1841,250.1327 MY,0,1685,1741,250.1327,249.9112 MY,0,1741,1797,249.9112,249.5233 MY,0,1797,1853,249.5233,248.9757 MY,0,1853,1910,248.9757,248.2777 MY,0,1910,1966,248.2777,247.4412 MY,0,1966,2022,247.4412,246.4807 MY,0,2022,2134,246.4807,244.2549 MY,0,2134,2471,244.2549,236.6038 MY,0,2471,2584,236.6038,234.3096 MY,0,2584,2640,234.3096,233.304 MY,30,191567,192816,233.304,240 F,0,172691,172791,0,1 F,0,192816,192916,1,0
Sprite,Background,Centre,"sb/sprites/fx/004E0000.jpg",451.6584,0 S,0,172691,,0.4447917 L,172691,7 MY,0,0,56,232.0973,231.3993 MY,0,56,112,231.3993,230.8517 MY,0,112,168,230.8517,230.4638 MY,0,168,224,230.4638,230.2423 MY,0,224,280,230.2423,230.1909 MY,0,280,337,230.1909,230.3106 MY,0,337,393,230.3106,230.5993 MY,0,393,449,230.5993,231.052 MY,0,449,505,231.052,231.6611 MY,0,505,561,231.6611,232.416 MY,0,561,617,232.416,233.304 MY,0,617,674,233.304,234.3096 MY,0,674,730,234.3096,235.4159 MY,0,730,842,235.4159,237.853 MY,0,842,1011,237.853,241.7518 MY,0,1011,1123,241.7518,244.2549 MY,0,1123,1235,244.2549,246.4807 MY,0,1235,1292,246.4807,247.4413 MY,0,1292,1348,247.4413,248.2777 MY,0,1348,1404,248.2777,248.9757 MY,0,1404,1460,248.9757,249.5233 MY,0,1460,1516,249.5233,249.9112 MY,0,1516,1573,249.9112,250.1327 MY,0,1573,1629,250.1327,250.1841 MY,0,1629,1685,250.1841,250.0644 MY,0,1685,1741,250.0644,249.7757 MY,0,1741,1797,249.7757,249.323 MY,0,1797,1853,249.323,248.7139 MY,0,1853,1910,248.7139,247.959 MY,0,1910,1966,247.959,247.071 MY,0,1966,2022,247.071,246.0654 MY,0,2022,2134,246.0654,243.7712 MY,0,2134,2471,243.7712,236.1201 MY,0,2471,2584,236.1201,233.8943 MY,0,2584,2640,233.8943,232.9338 MY,30,191567,192816,232.9338,240 F,0,172691,172791,0,1 F,0,192816,192916,1,0
Sprite,Background,Centre,"sb/sprites/fx/004F0000.jpg",458.775,0 S,0,172691,,0.4447917 L,172691,7 MY,0,0,56,231.8008,231.1617 MY,0,56,112,231.1617,230.6769 MY,0,112,168,230.6769,230.3549 MY,0,168,224,230.3549,230.2012 MY,0,224,280,230.2012,230.2183 MY,0,280,337,230.2183,230.406 MY,0,337,393,230.406,230.7611 MY,0,393,449,230.7611,231.2774 MY,0,449,505,231.2774,231.9462 MY,0,505,561,231.9462,232.7561 MY,0,561,617,232.7561,233.693 MY,0,617,674,233.693,234.7411 MY,0,674,786,234.7411,237.0973 MY,0,786,1067,237.0973,243.5256 MY,0,1067,1179,243.5256,245.8516 MY,0,1179,1235,245.8516,246.8788 MY,0,1235,1292,246.8788,247.7916 MY,0,1292,1348,247.7916,248.5742 MY,0,1348,1404,248.5742,249.2133 MY,0,1404,1460,249.2133,249.6981 MY,0,1460,1516,249.6981,250.0201 MY,0,1516,1573,250.0201,250.1738 MY,0,1573,1629,250.1738,250.1567 MY,0,1629,1685,250.1567,249.969 MY,0,1685,1741,249.969,249.6139 MY,0,1741,1797,249.6139,249.0976 MY,0,1797,1853,249.0976,248.4288 MY,0,1853,1910,248.4288,247.6189 MY,0,1910,1966,247.6189,246.682 MY,0,1966,2078,246.682,244.4926 MY,0,2078,2191,244.4926,242.0099 MY,0,2191,2359,242.0099,238.1084 MY,0,2359,2471,238.1084,235.6476 MY,0,2471,2584,235.6476,233.4962 MY,0,2584,2640,233.4962,232.5834 MY,30,191567,192816,232.5834,240 F,0,172691,172791,0,1 F,0,192816,192916,1,0
Sprite,Background,Centre,"sb/sprites/fx/00500000.jpg",465.8917,0 S,0,172691,,0.4447917 L,172691,7 MY,0,0,56,231.5273,230.9487 MY,0,56,112,230.9487,230.5282 MY,0,112,168,230.5282,230.2731 MY,0,168,224,230.2731,230.1875 MY,0,224,280,230.1875,230.2731 MY,0,280,337,230.2731,230.5282 MY,0,337,393,230.5282,230.9487 MY,0,393,449,230.9487,231.5273 MY,0,449,505,231.5273,232.254 MY,0,505,561,232.254,233.1164 MY,0,561,617,233.1164,234.0999 MY,0,617,674,234.0999,235.1875 MY,0,674,786,235.1875,237.5993 MY,0,786,1067,237.5993,244.0143 MY,0,1067,1179,244.0143,246.2751 MY,0,1179,1235,246.2751,247.2586 MY,0,1235,1292,247.2586,248.121 MY,0,1292,1348,248.121,248.8477 MY,0,1348,1404,248.8477,249.4263 MY,0,1404,1460,249.4263,249.8468 MY,0,1460,1516,249.8468,250.1019 MY,0,1516,1573,250.1019,250.1875 MY,0,1573,1629,250.1875,250.1019 MY,0,1629,1685,250.1019,249.8468 MY,0,1685,1741,249.8468,249.4263 MY,0,1741,1797,249.4263,248.8477 MY,0,1797,1853,248.8477,248.121 MY,0,1853,1910,248.121,247.2586 MY,0,1910,1966,247.2586,246.2751 MY,0,1966,2078,246.2751,244.0143 MY,0,2078,2359,244.0143,237.5993 MY,0,2359,2471,237.5993,235.1875 MY,0,2471,2528,235.1875,234.0999 MY,0,2528,2584,234.0999,233.1164 MY,0,2584,2640,233.1164,232.254 MY,30,191567,192816,232.254,240 F,0,172691,172791,0,1 F,0,192816,192916,1,0
Sprite,Background,Centre,"sb/sprites/fx/00510000.jpg",473.0083,0 S,0,172691,,0.4447917 L,172691,7 MY,0,0,56,231.2774,230.7611 MY,0,56,112,230.7611,230.406 MY,0,112,168,230.406,230.2183 MY,0,168,224,230.2183,230.2012 MY,0,224,280,230.2012,230.3549 MY,0,280,337,230.3549,230.6769 MY,0,337,393,230.6769,231.1617 MY,0,393,449,231.1617,231.8008 MY,0,449,505,231.8008,232.5834 MY,0,505,561,232.5834,233.4962 MY,0,561,674,233.4962,235.6476 MY,0,674,786,235.6476,238.1084 MY,0,786,955,238.1084,242.0099 MY,0,955,1067,242.0099,244.4926 MY,0,1067,1179,244.4926,246.682 MY,0,1179,1235,246.682,247.619 MY,0,1235,1292,247.619,248.4288 MY,0,1292,1348,248.4288,249.0976 MY,0,1348,1404,249.0976,249.6139 MY,0,1404,1460,249.6139,249.969 MY,0,1460,1516,249.969,250.1567 MY,0,1516,1573,250.1567,250.1738 MY,0,1573,1629,250.1738,250.0201 MY,0,1629,1685,250.0201,249.6981 MY,0,1685,1741,249.6981,249.2133 MY,0,1741,1797,249.2133,248.5742 MY,0,1797,1853,248.5742,247.7915 MY,0,1853,1910,247.7915,246.8788 MY,0,1910,1966,246.8788,245.8516 MY,0,1966,2078,245.8516,243.5256 MY,0,2078,2303,243.5256,238.3651 MY,0,2303,2415,238.3651,235.8824 MY,0,2415,2528,235.8824,233.693 MY,0,2528,2584,233.693,232.756 MY,0,2584,2640,232.756,231.9462 MY,30,191567,192816,231.9462,240 F,0,172691,172791,0,1 F,0,192816,192916,1,0
Sprite,Background,Centre,"sb/sprites/fx/00520000.jpg",480.125,0 S,0,172691,,0.4447917 L,172691,7 MY,0,0,56,231.052,230.5993 MY,0,56,112,230.5993,230.3106 MY,0,112,168,230.3106,230.1909 MY,0,168,224,230.1909,230.2423 MY,0,224,280,230.2423,230.4638 MY,0,280,337,230.4638,230.8517 MY,0,337,393,230.8517,231.3993 MY,0,393,449,231.3993,232.0973 MY,0,449,505,232.0973,232.9338 MY,0,505,561,232.9338,233.8943 MY,0,561,617,233.8943,234.9625 MY,0,617,730,234.9625,237.3474 MY,0,730,1011,237.3474,243.7712 MY,0,1011,1123,243.7712,246.0654 MY,0,1123,1179,246.0654,247.071 MY,0,1179,1235,247.071,247.959 MY,0,1235,1292,247.959,248.7139 MY,0,1292,1348,248.7139,249.323 MY,0,1348,1404,249.323,249.7757 MY,0,1404,1460,249.7757,250.0644 MY,0,1460,1516,250.0644,250.1841 MY,0,1516,1573,250.1841,250.1327 MY,0,1573,1629,250.1327,249.9112 MY,0,1629,1685,249.9112,249.5233 MY,0,1685,1741,249.5233,248.9757 MY,0,1741,1797,248.9757,248.2777 MY,0,1797,1853,248.2777,247.4412 MY,0,1853,1910,247.4412,246.4807 MY,0,1910,2022,246.4807,244.2549 MY,0,2022,2134,244.2549,241.7518 MY,0,2134,2303,241.7518,237.853 MY,0,2303,2415,237.853,235.4159 MY,0,2415,2471,235.4159,234.3096 MY,0,2471,2528,234.3096,233.304 MY,0,2528,2584,233.304,232.416 MY,0,2584,2640,232.416,231.6611 MY,30,191567,192816,231.6611,240 F,0,172691,172791,0,1 F,0,192816,192916,1,0
Sprite,Background,Centre,"sb/sprites/fx/00530000.jpg",487.2417,0 S,0,172691,,0.4447917 L,172691,7 MY,0,0,56,230.8517,230.4638 MY,0,56,112,230.4638,230.2423 MY,0,112,168,230.2423,230.1909 MY,0,168,224,230.1909,230.3106 MY,0,224,280,230.3106,230.5993 MY,0,280,337,230.5993,231.052 MY,0,337,393,231.052,231.6611 MY,0,393,449,231.6611,232.416 MY,0,449,505,232.416,233.304 MY,0,505,561,233.304,234.3096 MY,0,561,617,234.3096,235.4159 MY,0,617,730,235.4159,237.853 MY,0,730,898,237.853,241.7518 MY,0,898,1011,241.7518,244.2549 MY,0,1011,1123,244.2549,246.4807 MY,0,1123,1179,246.4807,247.4413 MY,0,1179,1235,247.4413,248.2777 MY,0,1235,1292,248.2777,248.9757 MY,0,1292,1348,248.9757,249.5233 MY,0,1348,1404,249.5233,249.9112 MY,0,1404,1460,249.9112,250.1327 MY,0,1460,1516,250.1327,250.1841 MY,0,1516,1573,250.1841,250.0644 MY,0,1573,1629,250.0644,249.7757 MY,0,1629,1685,249.7757,249.323 MY,0,1685,1741,249.323,248.7139 MY,0,1741,1797,248.7139,247.959 MY,0,1797,1853,247.959,247.071 MY,0,1853,1910,247.071,246.0654 MY,0,1910,2022,246.0654,243.7712 MY,0,2022,2303,243.7712,237.3474 MY,0,2303,2415,237.3474,234.9625 MY,0,2415,2471,234.9625,233.8943 MY,0,2471,2528,233.8943,232.9338 MY,0,2528,2584,232.9338,232.0973 MY,0,2584,2640,232.0973,231.3993 MY,30,191567,192816,231.3993,240 F,0,172691,172791,0,1 F,0,192816,192916,1,0
Sprite,Background,Centre,"sb/sprites/fx/00540000.jpg",494.3583,0 S,0,172691,,0.4447917 L,172691,7 MY,0,0,56,230.6769,230.3549 MY,0,56,112,230.3549,230.2012 MY,0,112,168,230.2012,230.2183 MY,0,168,224,230.2183,230.406 MY,0,224,280,230.406,230.7611 MY,0,280,337,230.7611,231.2774 MY,0,337,393,231.2774,231.9462 MY,0,393,449,231.9462,232.7561 MY,0,449,505,232.7561,233.693 MY,0,505,617,233.693,235.8824 MY,0,617,730,235.8824,238.3651 MY,0,730,955,238.3651,243.5256 MY,0,955,1067,243.5256,245.8516 MY,0,1067,1123,245.8516,246.8788 MY,0,1123,1179,246.8788,247.7916 MY,0,1179,1235,247.7916,248.5742 MY,0,1235,1292,248.5742,249.2133 MY,0,1292,1348,249.2133,249.6981 MY,0,1348,1404,249.6981,250.0201 MY,0,1404,1460,250.0201,250.1738 MY,0,1460,1516,250.1738,250.1567 MY,0,1516,1573,250.1567,249.969 MY,0,1573,1629,249.969,249.6139 MY,0,1629,1685,249.6139,249.0976 MY,0,1685,1741,249.0976,248.4288 MY,0,1741,1797,248.4288,247.6189 MY,0,1797,1853,247.6189,246.682 MY,0,1853,1966,246.682,244.4926 MY,0,1966,2078,244.4926,242.0099 MY,0,2078,2303,242.0099,236.8494 MY,0,2303,2415,236.8494,234.5234 MY,0,2415,2471,234.5234,233.4962 MY,0,2471,2528,233.4962,232.5834 MY,0,2528,2584,232.5834,231.8008 MY,0,2584,2640,231.8008,231.1617 MY,30,191567,192816,231.1617,240 F,0,172691,172791,0,1 F,0,192816,192916,1,0
Sprite,Background,Centre,"sb/sprites/fx/00550000.jpg",501.475,0 S,0,172691,,0.4447917 L,172691,7 MY,0,0,56,230.5282,230.2731 MY,0,56,112,230.2731,230.1875 MY,0,112,168,230.1875,230.2731 MY,0,168,224,230.2731,230.5282 MY,0,224,280,230.5282,230.9487 MY,0,280,337,230.9487,231.5273 MY,0,337,393,231.5273,232.254 MY,0,393,449,232.254,233.1164 MY,0,449,505,233.1164,234.0999 MY,0,505,561,234.0999,235.1875 MY,0,561,674,235.1875,237.5993 MY,0,674,955,237.5993,244.0143 MY,0,955,1067,244.0143,246.2751 MY,0,1067,1123,246.2751,247.2586 MY,0,1123,1179,247.2586,248.121 MY,0,1179,1235,248.121,248.8477 MY,0,1235,1292,248.8477,249.4263 MY,0,1292,1348,249.4263,249.8468 MY,0,1348,1404,249.8468,250.1019 MY,0,1404,1460,250.1019,250.1875 MY,0,1460,1516,250.1875,250.1019 MY,0,1516,1573,250.1019,249.8468 MY,0,1573,1629,249.8468,249.4263 MY,0,1629,1685,249.4263,248.8477 MY,0,1685,1741,248.8477,248.121 MY,0,1741,1797,248.121,247.2586 MY,0,1797,1853,247.2586,246.2751 MY,0,1853,1966,246.2751,244.0143 MY,0,1966,2247,244.0143,237.5993 MY,0,2247,2359,237.5993,235.1875 MY,0,2359,2415,235.1875,234.0999 MY,0,2415,2471,234.0999,233.1164 MY,0,2471,2528,233.1164,232.254 MY,0,2528,2584,232.254,231.5272 MY,0,2584,2640,231.5272,230.9487 MY,30,191567,192816,230.9487,240 F,0,172691,172791,0,1 F,0,192816,192916,1,0
Sprite,Background,Centre,"sb/sprites/fx/00560000.jpg",508.5916,0 S,0,172691,,0.4447917 L,172691,7 MY,0,0,56,230.406,230.2183 MY,0,56,112,230.2183,230.2012 MY,0,112,168,230.2012,230.3549 MY,0,168,224,230.3549,230.6769 MY,0,224,280,230.6769,231.1617 MY,0,280,337,231.1617,231.8008 MY,0,337,393,231.8008,232.5834 MY,0,393,449,232.5834,233.4962 MY,0,449,561,233.4962,235.6476 MY,0,561,674,235.6476,238.1084 MY,0,674,842,238.1084,242.0099 MY,0,842,955,242.0099,244.4926 MY,0,955,1067,244.4926,246.682 MY,0,1067,1123,246.682,247.6189 MY,0,1123,1179,247.6189,248.4288 MY,0,1179,1235,248.4288,249.0976 MY,0,1235,1292,249.0976,249.6139 MY,0,1292,1348,249.6139,249.969 MY,0,1348,1404,249.969,250.1567 MY,0,1404,1460,250.1567,250.1738 MY,0,1460,1516,250.1738,250.0201 MY,0,1516,1573,250.0201,249.6981 MY,0,1573,1629,249.6981,249.2133 MY,0,1629,1685,249.2133,248.5742 MY,0,1685,1741,248.5742,247.7916 MY,0,1741,1797,247.7916,246.8788 MY,0,1797,1853,246.8788,245.8516 MY,0,1853,1966,245.8516,243.5256 MY,0,1966,2247,243.5256,237.0973 MY,0,2247,2359,237.0973,234.7411 MY,0,2359,2415,234.7411,233.693 MY,0,2415,2471,233.693,232.756 MY,0,2471,2528,232.756,231.9462 MY,0,2528,2584,231.9462,231.2774 MY,0,2584,2640,231.2774,230.7611 MY,30,191567,192816,230.7611,240 F,0,172691,172791,0,1 F,0,192816,192916,1,0
Sprite,Background,Centre,"sb/sprites/fx/00570000.jpg",515.7084,0 S,0,172691,,0.4447917 L,172691,7 MY,0,0,56,230.3106,230.1909 MY,0,56,112,230.1909,230.2423 MY,0,112,168,230.2423,230.4638 MY,0,168,224,230.4638,230.8517 MY,0,224,280,230.8517,231.3993 MY,0,280,337,231.3993,232.0973 MY,0,337,393,232.0973,232.9338 MY,0,393,449,232.9338,233.8943 MY,0,449,505,233.8943,234.9625 MY,0,505,617,234.9625,237.3474 MY,0,617,898,237.3474,243.7712 MY,0,898,1011,243.7712,246.0654 MY,0,1011,1067,246.0654,247.071 MY,0,1067,1123,247.071,247.959 MY,0,1123,1179,247.959,248.7139 MY,0,1179,1235,248.7139,249.323 MY,0,1235,1292,249.323,249.7757 MY,0,1292,1348,249.7757,250.0644 MY,0,1348,1404,250.0644,250.1841 MY,0,1404,1460,250.1841,250.1327 MY,0,1460,1516,250.1327,249.9112 MY,0,1516,1573,249.9112,249.5233 MY,0,1573,1629,249.5233,248.9757 MY,0,1629,1685,248.9757,248.2777 MY,0,1685,1741,248.2777,247.4412 MY,0,1741,1797,247.4412,246.4807 MY,0,1797,1910,246.4807,244.2549 MY,0,1910,2247,244.2549,236.6038 MY,0,2247,2359,236.6038,234.3096 MY,0,2359,2415,234.3096,233.304 MY,0,2415,2471,233.304,232.416 MY,0,2471,2528,232.416,231.6611 MY,0,2528,2584,231.6611,231.052 MY,0,2584,2640,231.052,230.5993 MY,30,191567,192816,230.5993,240 F,0,172691,172791,0,1 F,0,192816,192916,1,0
Sprite,Background,Centre,"sb/sprites/fx/00580000.jpg",522.825,0 S,0,172691,,0.4447917 L,172691,7 MY,0,0,56,230.2423,230.1909 MY,0,56,112,230.1909,230.3106 MY,0,112,168,230.3106,230.5993 MY,0,168,224,230.5993,231.052 MY,0,224,280,231.052,231.6611 MY,0,280,337,231.6611,232.416 MY,0,337,393,232.416,233.304 MY,0,393,449,233.304,234.3096 MY,0,449,505,234.3096,235.4159 MY,0,505,617,235.4159,237.853 MY,0,617,786,237.853,241.7518 MY,0,786,898,241.7518,244.2549 MY,0,898,1011,244.2549,246.4807 MY,0,1011,1067,246.4807,247.4412 MY,0,1067,1123,247.4412,248.2777 MY,0,1123,1179,248.2777,248.9757 MY,0,1179,1235,248.9757,249.5233 MY,0,1235,1292,249.5233,249.9112 MY,0,1292,1348,249.9112,250.1327 MY,0,1348,1404,250.1327,250.1841 MY,0,1404,1460,250.1841,250.0644 MY,0,1460,1516,250.0644,249.7757 MY,0,1516,1573,249.7757,249.323 MY,0,1573,1629,249.323,248.7139 MY,0,1629,1685,248.7139,247.959 MY,0,1685,1741,247.959,247.071 MY,0,1741,1797,247.071,246.0654 MY,0,1797,1910,246.0654,243.7712 MY,0,1910,2191,243.7712,237.3474 MY,0,2191,2303,237.3474,234.9625 MY,0,2303,2359,234.9625,233.8943 MY,0,2359,2415,233.8943,232.9338 MY,0,2415,2471,232.9338,232.0973 MY,0,2471,2528,232.0973,231.3993 MY,0,2528,2584,231.3993,230.8517 MY,0,2584,2640,230.8517,230.4638 MY,30,191567,192816,230.4638,240 F,0,172691,172791,0,1 F,0,192816,192916,1,0
Sprite,Background,Centre,"sb/sprites/fx/00590000.jpg",529.9417,0 S,0,172691,,0.4447917 L,172691,7 MY,0,0,56,230.2012,230.2183 MY,0,56,112,230.2183,230.406 MY,0,112,168,230.406,230.7611 MY,0,168,224,230.7611,231.2774 MY,0,224,280,231.2774,231.9462 MY,0,280,337,231.9462,232.7561 MY,0,337,393,232.7561,233.693 MY,0,393,505,233.693,235.8824 MY,0,505,617,235.8824,238.3651 MY,0,617,842,238.3651,243.5256 MY,0,842,955,243.5256,245.8516 MY,0,955,1011,245.8516,246.8788 MY,0,1011,1067,246.8788,247.7916 MY,0,1067,1123,247.7916,248.5742 MY,0,1123,1179,248.5742,249.2133 MY,0,1179,1235,249.2133,249.6981 MY,0,1235,1292,249.6981,250.0201 MY,0,1292,1348,250.0201,250.1738 MY,0,1348,1404,250.1738,250.1567 MY,0,1404,1460,250.1567,249.969 MY,0,1460,1516,249.969,249.6139 MY,0,1516,1573,249.6139,249.0976 MY,0,1573,1629,249.0976,248.4288 MY,0,1629,1685,248.4288,247.6189 MY,0,1685,1741,247.6189,246.682 MY,0,1741,1853,246.682,244.4926 MY,0,1853,1966,244.4926,242.0098 MY,0,1966,2191,242.0098,236.8494 MY,0,2191,2303,236.8494,234.5234 MY,0,2303,2359,234.5234,233.4962 MY,0,2359,2415,233.4962,232.5834 MY,0,2415,2471,232.5834,231.8008 MY,0,2471,2528,231.8008,231.1617 MY,0,2528,2584,231.1617,230.6769 MY,0,2584,2640,230.6769,230.3549 MY,30,191567,192816,230.3549,240 F,0,172691,172791,0,1 F,0,192816,192916,1,0
Sprite,Background,Centre,"sb/sprites/fx/005A0000.jpg",537.0583,0 S,0,172691,,0.4447917 L,172691,7 MY,0,0,56,230.1875,230.2731 MY,0,56,112,230.2731,230.5282 MY,0,112,168,230.5282,230.9487 MY,0,168,224,230.9487,231.5273 MY,0,224,280,231.5273,232.254 MY,0,280,337,232.254,233.1164 MY,0,337,393,233.1164,234.0999 MY,0,393,449,234.0999,235.1875 MY,0,449,561,235.1875,237.5993 MY,0,561,842,237.5993,244.0143 MY,0,842,955,244.0143,246.2751 MY,0,955,1011,246.2751,247.2586 MY,0,1011,1067,247.2586,248.121 MY,0,1067,1123,248.121,248.8477 MY,0,1123,1179,248.8477,249.4263 MY,0,1179,1235,249.4263,249.8468 MY,0,1235,1292,249.8468,250.1019 MY,0,1292,1348,250.1019,250.1875 MY,0,1348,1404,250.1875,250.1019 MY,0,1404,1460,250.1019,249.8468 MY,0,1460,1516,249.8468,249.4263 MY,0,1516,1573,249.4263,248.8477 MY,0,1573,1629,248.8477,248.121 MY,0,1629,1685,248.121,247.2586 MY,0,1685,1741,247.2586,246.2751 MY,0,1741,1853,246.2751,244.0143 MY,0,1853,2134,244.0143,237.5993 MY,0,2134,2247,237.5993,235.1875 MY,0,2247,2303,235.1875,234.0999 MY,0,2303,2359,234.0999,233.1164 MY,0,2359,2415,233.1164,232.254 MY,0,2415,2471,232.254,231.5272 MY,0,2471,2528,231.5272,230.9487 MY,0,2528,2584,230.9487,230.5282 MY,0,2584,2640,230.5282,230.2731 MY,30,191567,192816,230.2731,240 F,0,172691,172791,0,1 F,0,192816,192916,1,0
Sprite,Background,Centre,"sb/sprites/fx/005B0000.jpg",544.175,0 S,0,172691,,0.4447917 L,172691,7 MY,0,0,56,230.2012,230.3549 MY,0,56,112,230.3549,230.6769 MY,0,112,168,230.6769,231.1617 MY,0,168,224,231.1617,231.8008 MY,0,224,280,231.8008,232.5834 MY,0,280,337,232.5834,233.4962 MY,0,337,393,233.4962,234.5234 MY,0,393,505,234.5234,236.8494 MY,0,505,730,236.8494,242.0099 MY,0,730,842,242.0099,244.4926 MY,0,842,955,244.4926,246.682 MY,0,955,1011,246.682,247.6189 MY,0,1011,1067,247.6189,248.4288 MY,0,1067,1123,248.4288,249.0976 MY,0,1123,1179,249.0976,249.6139 MY,0,1179,1235,249.6139,249.969 MY,0,1235,1292,249.969,250.1567 MY,0,1292,1348,250.1567,250.1738 MY,0,1348,1404,250.1738,250.0201 MY,0,1404,1460,250.0201,249.6981 MY,0,1460,1516,249.6981,249.2133 MY,0,1516,1573,249.2133,248.5742 MY,0,1573,1629,248.5742,247.7915 MY,0,1629,1685,247.7915,246.8788 MY,0,1685,1797,246.8788,244.7274 MY,0,1797,1910,244.7274,242.2666 MY,0,1910,2134,242.2666,237.0973 MY,0,2134,2247,237.0973,234.7411 MY,0,2247,2303,234.7411,233.693 MY,0,2303,2359,233.693,232.756 MY,0,2359,2415,232.756,231.9462 MY,0,2415,2471,231.9462,231.2774 MY,0,2471,2528,231.2774,230.7611 MY,0,2528,2584,230.7611,230.406 MY,0,2584,2640,230.406,230.2183 MY,30,191567,192816,230.2183,240 F,0,172691,172791,0,1 F,0,192816,192916,1,0
Sprite,Background,Centre,"sb/sprites/fx/005C0000.jpg",551.2917,0 S,0,172691,,0.4447917 L,172691,7 MY,0,0,56,230.2423,230.4638 MY,0,56,112,230.4638,230.8517 MY,0,112,168,230.8517,231.3993 MY,0,168,224,231.3993,232.0973 MY,0,224,280,232.0973,232.9338 MY,0,280,337,232.9338,233.8943 MY,0,337,393,233.8943,234.9625 MY,0,393,505,234.9625,237.3474 MY,0,505,730,237.3474,242.522 MY,0,730,842,242.522,244.9591 MY,0,842,898,244.9591,246.0654 MY,0,898,955,246.0654,247.071 MY,0,955,1011,247.071,247.959 MY,0,1011,1067,247.959,248.7139 MY,0,1067,1123,248.7139,249.323 MY,0,1123,1179,249.323,249.7757 MY,0,1179,1235,249.7757,250.0644 MY,0,1235,1292,250.0644,250.1841 MY,0,1292,1348,250.1841,250.1327 MY,0,1348,1404,250.1327,249.9112 MY,0,1404,1460,249.9112,249.5233 MY,0,1460,1516,249.5233,248.9757 MY,0,1516,1573,248.9757,248.2777 MY,0,1573,1629,248.2777,247.4412 MY,0,1629,1685,247.4412,246.4807 MY,0,1685,1741,246.4807,245.4125 MY,0,1741,1853,245.4125,243.0276 MY,0,1853,2134,243.0276,236.6038 MY,0,2134,2247,236.6038,234.3096 MY,0,2247,2303,234.3096,233.304 MY,0,2303,2359,233.304,232.416 MY,0,2359,2415,232.416,231.6611 MY,0,2415,2471,231.6611,231.052 MY,0,2471,2528,231.052,230.5993 MY,0,2528,2584,230.5993,230.3106 MY,0,2584,2640,230.3106,230.1909 MY,30,191567,192816,230.1909,240 F,0,172691,172791,0,1 F,0,192816,192916,1,0
Sprite,Background,Centre,"sb/sprites/fx/005D0000.jpg",558.4084,0 S,0,172691,,0.4447917 L,172691,7 MY,0,0,56,230.3106,230.5993 MY,0,56,112,230.5993,231.052 MY,0,112,168,231.052,231.6611 MY,0,168,224,231.6611,232.416 MY,0,224,280,232.416,233.304 MY,0,280,337,233.304,234.3096 MY,0,337,449,234.3096,236.6038 MY,0,449,786,236.6038,244.2549 MY,0,786,898,244.2549,246.4807 MY,0,898,955,246.4807,247.4412 MY,0,955,1011,247.4412,248.2777 MY,0,1011,1067,248.2777,248.9757 MY,0,1067,1123,248.9757,249.5233 MY,0,1123,1179,249.5233,249.9112 MY,0,1179,1235,249.9112,250.1327 MY,0,1235,1292,250.1327,250.1841 MY,0,1292,1348,250.1841,250.0644 MY,0,1348,1404,250.0644,249.7757 MY,0,1404,1460,249.7757,249.323 MY,0,1460,1516,249.323,248.7139 MY,0,1516,1573,248.7139,247.959 MY,0,1573,1629,247.959,247.071 MY,0,1629,1685,247.071,246.0654 MY,0,1685,1797,246.0654,243.7712 MY,0,1797,2078,243.7712,237.3474 MY,0,2078,2191,237.3474,234.9625 MY,0,2191,2247,234.9625,233.8943 MY,0,2247,2303,233.8943,232.9338 MY,0,2303,2359,232.9338,232.0973 MY,0,2359,2415,232.0973,231.3993 MY,0,2415,2471,231.3993,230.8517 MY,0,2471,2528,230.8517,230.4638 MY,0,2528,2584,230.4638,230.2423 MY,0,2584,2640,230.2423,230.1909 MY,30,191567,192816,230.1909,240 F,0,172691,172791,0,1 F,0,192816,192916,1,0
Sprite,Background,Centre,"sb/sprites/fx/005E0000.jpg",565.525,0 S,0,172691,,0.4447917 L,172691,7 MY,0,0,56,230.406,230.7611 MY,0,56,112,230.7611,231.2774 MY,0,112,168,231.2774,231.9462 MY,0,168,224,231.9462,232.7561 MY,0,224,280,232.7561,233.693 MY,0,280,337,233.693,234.7411 MY,0,337,449,234.7411,237.0973 MY,0,449,674,237.0973,242.2666 MY,0,674,786,242.2666,244.7274 MY,0,786,898,244.7274,246.8788 MY,0,898,955,246.8788,247.7916 MY,0,955,1011,247.7916,248.5742 MY,0,1011,1067,248.5742,249.2133 MY,0,1067,1123,249.2133,249.6981 MY,0,1123,1179,249.6981,250.0201 MY,0,1179,1235,250.0201,250.1738 MY,0,1235,1292,250.1738,250.1567 MY,0,1292,1348,250.1567,249.969 MY,0,1348,1404,249.969,249.6139 MY,0,1404,1460,249.6139,249.0976 MY,0,1460,1516,249.0976,248.4288 MY,0,1516,1573,248.4288,247.6189 MY,0,1573,1629,247.6189,246.682 MY,0,1629,1741,246.682,244.4926 MY,0,1741,1853,244.4926,242.0098 MY,0,1853,2022,242.0098,238.1084 MY,0,2022,2134,238.1084,235.6476 MY,0,2134,2247,235.6476,233.4962 MY,0,2247,2303,233.4962,232.5834 MY,0,2303,2359,232.5834,231.8008 MY,0,2359,2415,231.8008,231.1617 MY,0,2415,2471,231.1617,230.6769 MY,0,2471,2528,230.6769,230.3549 MY,0,2528,2584,230.3549,230.2012 MY,0,2584,2640,230.2012,230.2183 MY,30,191567,192816,230.2183,240 F,0,172691,172791,0,1 F,0,192816,192916,1,0
Sprite,Background,Centre,"sb/sprites/fx/005F0000.jpg",572.6417,0 S,0,172691,,0.4447917 L,172691,7 MY,0,0,56,230.5282,230.9487 MY,0,56,112,230.9487,231.5273 MY,0,112,168,231.5273,232.254 MY,0,168,224,232.254,233.1164 MY,0,224,280,233.1164,234.0999 MY,0,280,337,234.0999,235.1875 MY,0,337,449,235.1875,237.5993 MY,0,449,730,237.5993,244.0143 MY,0,730,842,244.0143,246.2751 MY,0,842,898,246.2751,247.2586 MY,0,898,955,247.2586,248.121 MY,0,955,1011,248.121,248.8477 MY,0,1011,1067,248.8477,249.4263 MY,0,1067,1123,249.4263,249.8468 MY,0,1123,1179,249.8468,250.1019 MY,0,1179,1235,250.1019,250.1875 MY,0,1235,1292,250.1875,250.1019 MY,0,1292,1348,250.1019,249.8468 MY,0,1348,1404,249.8468,249.4263 MY,0,1404,1460,249.4263,248.8477 MY,0,1460,1516,248.8477,248.121 MY,0,1516,1573,248.121,247.2586 MY,0,1573,1629,247.2586,246.2751 MY,0,1629,1741,246.2751,244.0143 MY,0,1741,2022,244.0143,237.5993 MY,0,2022,2134,237.5993,235.1875 MY,0,2134,2191,235.1875,234.0999 MY,0,2191,2247,234.0999,233.1164 MY,0,2247,2303,233.1164,232.254 MY,0,2303,2359,232.254,231.5272 MY,0,2359,2415,231.5272,230.9487 MY,0,2415,2471,230.9487,230.5282 MY,0,2471,2528,230.5282,230.2731 MY,0,2528,2584,230.2731,230.1875 MY,0,2584,2640,230.1875,230.2731 MY,30,191567,192816,230.2731,240 F,0,172691,172791,0,1 F,0,192816,192916,1,0
Sprite,Background,Centre,"sb/sprites/fx/00600000.jpg",579.7584,0 S,0,172691,,0.4447917 L,172691,7 MY,0,0,56,230.6769,231.1617 MY,0,56,112,231.1617,231.8008 MY,0,112,168,231.8008,232.5834 MY,0,168,224,232.5834,233.4962 MY,0,224,280,233.4962,234.5234 MY,0,280,393,234.5234,236.8494 MY,0,393,617,236.8494,242.0099 MY,0,617,730,242.0099,244.4926 MY,0,730,842,244.4926,246.682 MY,0,842,898,246.682,247.6189 MY,0,898,955,247.6189,248.4288 MY,0,955,1011,248.4288,249.0976 MY,0,1011,1067,249.0976,249.6139 MY,0,1067,1123,249.6139,249.969 MY,0,1123,1179,249.969,250.1567 MY,0,1179,1235,250.1567,250.1738 MY,0,1235,1292,250.1738,250.0201 MY,0,1292,1348,250.0201,249.6981 MY,0,1348,1404,249.6981,249.2133 MY,0,1404,1460,249.2133,248.5742 MY,0,1460,1516,248.5742,247.7916 MY,0,1516,1573,247.7916,246.8788 MY,0,1573,1629,246.8788,245.8516 MY,0,1629,1741,245.8516,243.5256 MY,0,1741,1966,243.5256,238.3651 MY,0,1966,2078,238.3651,235.8824 MY,0,2078,2191,235.8824,233.693 MY,0,2191,2247,233.693,232.7561 MY,0,2247,2303,232.7561,231.9462 MY,0,2303,2359,231.9462,231.2774 MY,0,2359,2415,231.2774,230.7611 MY,0,2415,2471,230.7611,230.406 MY,0,2471,2528,230.406,230.2183 MY,0,2528,2584,230.2183,230.2012 MY,0,2584,2640,230.2012,230.3549 MY,30,191567,192816,230.3549,240 F,0,172691,172791,0,1 F,0,192816,192916,1,0
Sprite,Background,Centre,"sb/sprites/fx/00610000.jpg",586.875,0 S,0,172691,,0.4447917 L,172691,7 MY,0,0,56,230.8517,231.3993 MY,0,56,112,231.3993,232.0973 MY,0,112,168,232.0973,232.9338 MY,0,168,224,232.9338,233.8943 MY,0,224,280,233.8943,234.9625 MY,0,280,393,234.9625,237.3474 MY,0,393,674,237.3474,243.7712 MY,0,674,786,243.7712,246.0654 MY,0,786,842,246.0654,247.071 MY,0,842,898,247.071,247.959 MY,0,898,955,247.959,248.7139 MY,0,955,1011,248.7139,249.323 MY,0,1011,1067,249.323,249.7757 MY,0,1067,1123,249.7757,250.0644 MY,0,1123,1179,250.0644,250.1841 MY,0,1179,1235,250.1841,250.1327 MY,0,1235,1292,250.1327,249.9112 MY,0,1292,1348,249.9112,249.5233 MY,0,1348,1404,249.5233,248.9757 MY,0,1404,1460,248.9757,248.2777 MY,0,1460,1516,248.2777,247.4412 MY,0,1516,1573,247.4412,246.4807 MY,0,1573,1685,246.4807,244.2549 MY,0,1685,1797,244.2549,241.7518 MY,0,1797,1966,241.7518,237.853 MY,0,1966,2078,237.853,235.4159 MY,0,2078,2134,235.4159,234.3096 MY,0,2134,2191,234.3096,233.304 MY,0,2191,2247,233.304,232.416 MY,0,2247,2303,232.416,231.6611 MY,0,2303,2359,231.6611,231.052 MY,0,2359,2415,231.052,230.5993 MY,0,2415,2471,230.5993,230.3106 MY,0,2471,2528,230.3106,230.1909 MY,0,2528,2584,230.1909,230.2423 MY,0,2584,2640,230.2423,230.4638 MY,30,191567,192816,230.4638,240 F,0,172691,172791,0,1 F,0,192816,192916,1,0
Sprite,Background,Centre,"sb/sprites/fx/00620000.jpg",593.9917,0 S,0,172691,,0.4447917 L,172691,7 MY,0,0,56,231.052,231.6611 MY,0,56,112,231.6611,232.416 MY,0,112,168,232.416,233.304 MY,0,168,224,233.304,234.3096 MY,0,224,337,234.3096,236.6038 MY,0,337,674,236.6038,244.2549 MY,0,674,786,244.2549,246.4807 MY,0,786,842,246.4807,247.4412 MY,0,842,898,247.4412,248.2777 MY,0,898,955,248.2777,248.9757 MY,0,955,1011,248.9757,249.5233 MY,0,1011,1067,249.5233,249.9112 MY,0,1067,1123,249.9112,250.1327 MY,0,1123,1179,250.1327,250.1841 MY,0,1179,1235,250.1841,250.0644 MY,0,1235,1292,250.0644,249.7757 MY,0,1292,1348,249.7757,249.323 MY,0,1348,1404,249.323,248.7139 MY,0,1404,1460,248.7139,247.959 MY,0,1460,1516,247.959,247.071 MY,0,1516,1573,247.071,246.0654 MY,0,1573,1685,246.0654,243.7712 MY,0,1685,1966,243.7712,237.3474 MY,0,1966,2078,237.3474,234.9625 MY,0,2078,2134,234.9625,233.8943 MY,0,2134,2191,233.8943,232.9338 MY,0,2191,2247,232.9338,232.0973 MY,0,2247,2303,232.0973,231.3993 MY,0,2303,2359,231.3993,230.8517 MY,0,2359,2415,230.8517,230.4638 MY,0,2415,2471,230.4638,230.2423 MY,0,2471,2528,230.2423,230.1909 MY,0,2528,2584,230.1909,230.3106 MY,0,2584,2640,230.3106,230.5993 MY,30,191567,192816,230.5993,240 F,0,172691,172791,0,1 F,0,192816,192916,1,0
Sprite,Background,Centre,"sb/sprites/fx/00630000.jpg",601.1083,0 S,0,172691,,0.4447917 L,172691,7 MY,0,0,56,231.2774,231.9462 MY,0,56,112,231.9462,232.7561 MY,0,112,168,232.7561,233.693 MY,0,168,224,233.693,234.7411 MY,0,224,337,234.7411,237.0973 MY,0,337,617,237.0973,243.5256 MY,0,617,730,243.5256,245.8516 MY,0,730,786,245.8516,246.8788 MY,0,786,842,246.8788,247.7916 MY,0,842,898,247.7916,248.5742 MY,0,898,955,248.5742,249.2133 MY,0,955,1011,249.2133,249.6981 MY,0,1011,1067,249.6981,250.0201 MY,0,1067,1123,250.0201,250.1738 MY,0,1123,1179,250.1738,250.1567 MY,0,1179,1235,250.1567,249.969 MY,0,1235,1292,249.969,249.6139 MY,0,1292,1348,249.6139,249.0976 MY,0,1348,1404,249.0976,248.4288 MY,0,1404,1460,248.4288,247.6189 MY,0,1460,1516,247.6189,246.682 MY,0,1516,1629,246.682,244.4926 MY,0,1629,1741,244.4926,242.0099 MY,0,1741,1910,242.0099,238.1084 MY,0,1910,2022,238.1084,235.6476 MY,0,2022,2134,235.6476,233.4962 MY,0,2134,2191,233.4962,232.5834 MY,0,2191,2247,232.5834,231.8008 MY,0,2247,2303,231.8008,231.1617 MY,0,2303,2359,231.1617,230.6769 MY,0,2359,2415,230.6769,230.3549 MY,0,2415,2471,230.3549,230.2012 MY,0,2471,2528,230.2012,230.2183 MY,0,2528,2584,230.2183,230.406 MY,0,2584,2640,230.406,230.7611 MY,30,191567,192816,230.7611,240 F,0,172691,172791,0,1 F,0,192816,192916,1,0
Sprite,Background,Centre,"sb/sprites/fx/00640000.jpg",608.225,0 S,0,172691,,0.4447917 L,172691,7 MY,0,0,56,231.5273,232.254 MY,0,56,112,232.254,233.1164 MY,0,112,168,233.1164,234.0999 MY,0,168,224,234.0999,235.1875 MY,0,224,337,235.1875,237.5993 MY,0,337,617,237.5993,244.0143 MY,0,617,730,244.0143,246.2751 MY,0,730,786,246.2751,247.2586 MY,0,786,842,247.2586,248.121 MY,0,842,898,248.121,248.8477 MY,0,898,955,248.8477,249.4263 MY,0,955,1011,249.4263,249.8468 MY,0,1011,1067,249.8468,250.1019 MY,0,1067,1123,250.1019,250.1875 MY,0,1123,1179,250.1875,250.1019 MY,0,1179,1235,250.1019,249.8468 MY,0,1235,1292,249.8468,249.4263 MY,0,1292,1348,249.4263,248.8477 MY,0,1348,1404,248.8477,248.121 MY,0,1404,1460,248.121,247.2586 MY,0,1460,1516,247.2586,246.2751 MY,0,1516,1629,246.2751,244.0143 MY,0,1629,1910,244.0143,237.5993 MY,0,1910,2022,237.5993,235.1875 MY,0,2022,2078,235.1875,234.0999 MY,0,2078,2134,234.0999,233.1164 MY,0,2134,2191,233.1164,232.254 MY,0,2191,2247,232.254,231.5273 MY,0,2247,2303,231.5273,230.9487 MY,0,2303,2359,230.9487,230.5282 MY,0,2359,2415,230.5282,230.2731 MY,0,2415,2471,230.2731,230.1875 MY,0,2471,2528,230.1875,230.2731 MY,0,2528,2584,230.2731,230.5282 MY,0,2584,2640,230.5282,230.9487 MY,30,191567,192816,230.9487,240 F,0,172691,172791,0,1 F,0,192816,192916,1,0
Sprite,Background,Centre,"sb/sprites/fx/00650000.jpg",615.3417,0 S,0,172691,,0.4447917 L,172691,7 MY,0,0,56,231.8008,232.5834 MY,0,56,112,232.5834,233.4962 MY,0,112,224,233.4962,235.6476 MY,0,224,337,235.6476,238.1084 MY,0,337,505,238.1084,242.0099 MY,0,505,617,242.0099,244.4926 MY,0,617,730,244.4926,246.682 MY,0,730,786,246.682,247.6189 MY,0,786,842,247.6189,248.4288 MY,0,842,898,248.4288,249.0976 MY,0,898,955,249.0976,249.6139 MY,0,955,1011,249.6139,249.969 MY,0,1011,1067,249.969,250.1567 MY,0,1067,1123,250.1567,250.1738 MY,0,1123,1179,250.1738,250.0201 MY,0,1179,1235,250.0201,249.6981 MY,0,1235,1292,249.6981,249.2133 MY,0,1292,1348,249.2133,248.5742 MY,0,1348,1404,248.5742,247.7916 MY,0,1404,1460,247.7916,246.8788 MY,0,1460,1516,246.8788,245.8516 MY,0,1516,1629,245.8516,243.5256 MY,0,1629,1853,243.5256,238.3651 MY,0,1853,1966,238.3651,235.8824 MY,0,1966,2078,235.8824,233.693 MY,0,2078,2134,233.693,232.7561 MY,0,2134,2191,232.7561,231.9462 MY,0,2191,2247,231.9462,231.2774 MY,0,2247,2303,231.2774,230.7611 MY,0,2303,2359,230.7611,230.406 MY,0,2359,2415,230.406,230.2183 MY,0,2415,2471,230.2183,230.2012 MY,0,2471,2528,230.2012,230.3549 MY,0,2528,2584,230.3549,230.6769 MY,0,2584,2640,230.6769,231.1617 MY,30,191567,192816,231.1617,240 F,0,172691,172791,0,1 F,0,192816,192916,1,0
Sprite,Background,Centre,"sb/sprites/fx/00660000.jpg",622.4584,0 S,0,172691,,0.4447917 L,172691,7 MY,0,0,56,232.0973,232.9338 MY,0,56,112,232.9338,233.8943 MY,0,112,168,233.8943,234.9625 MY,0,168,280,234.9625,237.3474 MY,0,280,561,237.3474,243.7712 MY,0,561,674,243.7712,246.0654 MY,0,674,730,246.0654,247.071 MY,0,730,786,247.071,247.959 MY,0,786,842,247.959,248.7139 MY,0,842,898,248.7139,249.323 MY,0,898,955,249.323,249.7757 MY,0,955,1011,249.7757,250.0644 MY,0,1011,1067,250.0644,250.1841 MY,0,1067,1123,250.1841,250.1327 MY,0,1123,1179,250.1327,249.9112 MY,0,1179,1235,249.9112,249.5233 MY,0,1235,1292,249.5233,248.9757 MY,0,1292,1348,248.9757,248.2777 MY,0,1348,1404,248.2777,247.4412 MY,0,1404,1460,247.4412,246.4807 MY,0,1460,1573,246.4807,244.2549 MY,0,1573,1685,244.2549,241.7518 MY,0,1685,1853,241.7518,237.853 MY,0,1853,1966,237.853,235.4159 MY,0,1966,2022,235.4159,234.3096 MY,0,2022,2078,234.3096,233.304 MY,0,2078,2134,233.304,232.416 MY,0,2134,2191,232.416,231.6611 MY,0,2191,2247,231.6611,231.052 MY,0,2247,2303,231.052,230.5993 MY,0,2303,2359,230.5993,230.3106 MY,0,2359,2415,230.3106,230.1909 MY,0,2415,2471,230.1909,230.2423 MY,0,2471,2528,230.2423,230.4638 MY,0,2528,2584,230.4638,230.8517 MY,0,2584,2640,230.8517,231.3993 MY,30,191567,192816,231.3993,240 F,0,172691,172791,0,1 F,0,192816,192916,1,0
Sprite,Background,Centre,"sb/sprites/fx/00670000.jpg",629.575,0 S,0,172691,,0.4447917 L,172691,7 MY,0,0,56,232.416,233.304 MY,0,56,112,233.304,234.3096 MY,0,112,168,234.3096,235.4159 MY,0,168,280,235.4159,237.853 MY,0,280,449,237.853,241.7518 MY,0,449,561,241.7518,244.2549 MY,0,561,674,244.2549,246.4807 MY,0,674,730,246.4807,247.4412 MY,0,730,786,247.4412,248.2777 MY,0,786,842,248.2777,248.9757 MY,0,842,898,248.9757,249.5233 MY,0,898,955,249.5233,249.9112 MY,0,955,1011,249.9112,250.1327 MY,0,1011,1067,250.1327,250.1841 MY,0,1067,1123,250.1841,250.0644 MY,0,1123,1179,250.0644,249.7757 MY,0,1179,1235,249.7757,249.323 MY,0,1235,1292,249.323,248.7139 MY,0,1292,1348,248.7139,247.959 MY,0,1348,1404,247.959,247.071 MY,0,1404,1460,247.071,246.0654 MY,0,1460,1573,246.0654,243.7712 MY,0,1573,1853,243.7712,237.3474 MY,0,1853,1966,237.3474,234.9625 MY,0,1966,2022,234.9625,233.8943 MY,0,2022,2078,233.8943,232.9338 MY,0,2078,2134,232.9338,232.0973 MY,0,2134,2191,232.0973,231.3993 MY,0,2191,2247,231.3993,230.8517 MY,0,2247,2303,230.8517,230.4638 MY,0,2303,2359,230.4638,230.2423 MY,0,2359,2415,230.2423,230.1909 MY,0,2415,2471,230.1909,230.3106 MY,0,2471,2528,230.3106,230.5993 MY,0,2528,2584,230.5993,231.052 MY,0,2584,2640,231.052,231.6611 MY,30,191567,192816,231.6611,240 F,0,172691,172791,0,1 F,0,192816,192916,1,0
Sprite,Background,Centre,"sb/sprites/fx/00680000.jpg",636.6917,0 S,0,172691,,0.4447917 L,172691,7 MY,0,0,56,232.7561,233.693 MY,0,56,168,233.693,235.8824 MY,0,168,280,235.8824,238.3651 MY,0,280,505,238.3651,243.5256 MY,0,505,617,243.5256,245.8516 MY,0,617,674,245.8516,246.8788 MY,0,674,730,246.8788,247.7916 MY,0,730,786,247.7916,248.5742 MY,0,786,842,248.5742,249.2133 MY,0,842,898,249.2133,249.6981 MY,0,898,955,249.6981,250.0201 MY,0,955,1011,250.0201,250.1738 MY,0,1011,1067,250.1738,250.1567 MY,0,1067,1123,250.1567,249.969 MY,0,1123,1179,249.969,249.6139 MY,0,1179,1235,249.6139,249.0976 MY,0,1235,1292,249.0976,248.4288 MY,0,1292,1348,248.4288,247.6189 MY,0,1348,1404,247.6189,246.682 MY,0,1404,1460,246.682,245.6339 MY,0,1460,1573,245.6339,243.2777 MY,0,1573,1797,243.2777,238.1084 MY,0,1797,1910,238.1084,235.6476 MY,0,1910,2022,235.6476,233.4962 MY,0,2022,2078,233.4962,232.5834 MY,0,2078,2134,232.5834,231.8008 MY,0,2134,2191,231.8008,231.1617 MY,0,2191,2247,231.1617,230.6769 MY,0,2247,2303,230.6769,230.3549 MY,0,2303,2359,230.3549,230.2012 MY,0,2359,2415,230.2012,230.2183 MY,0,2415,2471,230.2183,230.406 MY,0,2471,2528,230.406,230.7611 MY,0,2528,2584,230.7611,231.2774 MY,0,2584,2640,231.2774,231.9462 MY,30,191567,192816,231.9462,240 F,0,172691,172791,0,1 F,0,192816,192916,1,0
Sprite,Background,Centre,"sb/sprites/fx/00690000.jpg",643.8083,0 S,0,172691,,0.4447917 L,172691,7 MY,0,0,56,233.1164,234.0999 MY,0,56,168,234.0999,236.3607 MY,0,168,505,236.3607,244.0143 MY,0,505,617,244.0143,246.2751 MY,0,617,674,246.2751,247.2586 MY,0,674,730,247.2586,248.121 MY,0,730,786,248.121,248.8478 MY,0,786,842,248.8478,249.4263 MY,0,842,898,249.4263,249.8468 MY,0,898,955,249.8468,250.1019 MY,0,955,1011,250.1019,250.1875 MY,0,1011,1067,250.1875,250.1019 MY,0,1067,1123,250.1019,249.8468 MY,0,1123,1179,249.8468,249.4263 MY,0,1179,1235,249.4263,248.8477 MY,0,1235,1292,248.8477,248.121 MY,0,1292,1348,248.121,247.2586 MY,0,1348,1404,247.2586,246.2751 MY,0,1404,1516,246.2751,244.0143 MY,0,1516,1797,244.0143,237.5993 MY,0,1797,1910,237.5993,235.1875 MY,0,1910,1966,235.1875,234.0999 MY,0,1966,2022,234.0999,233.1164 MY,0,2022,2078,233.1164,232.254 MY,0,2078,2134,232.254,231.5272 MY,0,2134,2191,231.5272,230.9487 MY,0,2191,2247,230.9487,230.5282 MY,0,2247,2303,230.5282,230.2731 MY,0,2303,2359,230.2731,230.1875 MY,0,2359,2415,230.1875,230.2731 MY,0,2415,2471,230.2731,230.5282 MY,0,2471,2528,230.5282,230.9487 MY,0,2528,2584,230.9487,231.5273 MY,0,2584,2640,231.5273,232.254 MY,30,191567,192816,232.254,240 F,0,172691,172791,0,1 F,0,192816,192916,1,0
Sprite,Background,Centre,"sb/sprites/fx/006A0000.jpg",650.925,0 S,0,172691,,0.4447917 L,172691,7 MY,0,0,56,233.4962,234.5234 MY,0,56,168,234.5234,236.8494 MY,0,168,393,236.8494,242.0099 MY,0,393,505,242.0099,244.4926 MY,0,505,617,244.4926,246.682 MY,0,617,674,246.682,247.6189 MY,0,674,730,247.6189,248.4288 MY,0,730,786,248.4288,249.0976 MY,0,786,842,249.0976,249.6139 MY,0,842,898,249.6139,249.969 MY,0,898,955,249.969,250.1567 MY,0,955,1011,250.1567,250.1738 MY,0,1011,1067,250.1738,250.0201 MY,0,1067,1123,250.0201,249.6981 MY,0,1123,1179,249.6981,249.2133 MY,0,1179,1235,249.2133,248.5742 MY,0,1235,1292,248.5742,247.7916 MY,0,1292,1348,247.7916,246.8788 MY,0,1348,1404,246.8788,245.8516 MY,0,1404,1516,245.8516,243.5256 MY,0,1516,1797,243.5256,237.0973 MY,0,1797,1910,237.0973,234.7411 MY,0,1910,1966,234.7411,233.693 MY,0,1966,2022,233.693,232.7561 MY,0,2022,2078,232.7561,231.9462 MY,0,2078,2134,231.9462,231.2774 MY,0,2134,2191,231.2774,230.7611 MY,0,2191,2247,230.7611,230.406 MY,0,2247,2303,230.406,230.2183 MY,0,2303,2359,230.2183,230.2012 MY,0,2359,2415,230.2012,230.3549 MY,0,2415,2471,230.3549,230.6769 MY,0,2471,2528,230.6769,231.1617 MY,0,2528,2584,231.1617,231.8008 MY,0,2584,2640,231.8008,232.5834 MY,30,191567,192816,232.5834,240 F,0,172691,172791,0,1 F,0,192816,192916,1,0
Sprite,Background,Centre,"sb/sprites/fx/006B0000.jpg",658.0417,0 S,0,172691,,0.4447917 L,172691,7 MY,0,0,56,233.8943,234.9625 MY,0,56,168,234.9625,237.3474 MY,0,168,449,237.3474,243.7712 MY,0,449,561,243.7712,246.0654 MY,0,561,617,246.0654,247.071 MY,0,617,674,247.071,247.959 MY,0,674,730,247.959,248.7139 MY,0,730,786,248.7139,249.323 MY,0,786,842,249.323,249.7757 MY,0,842,898,249.7757,250.0644 MY,0,898,955,250.0644,250.1841 MY,0,955,1011,250.1841,250.1327 MY,0,1011,1067,250.1327,249.9112 MY,0,1067,1123,249.9112,249.5233 MY,0,1123,1179,249.5233,248.9757 MY,0,1179,1235,248.9757,248.2777 MY,0,1235,1292,248.2777,247.4412 MY,0,1292,1348,247.4412,246.4807 MY,0,1348,1460,246.4807,244.2549 MY,0,1460,1797,244.2549,236.6038 MY,0,1797,1910,236.6038,234.3096 MY,0,1910,1966,234.3096,233.304 MY,0,1966,2022,233.304,232.416 MY,0,2022,2078,232.416,231.6611 MY,0,2078,2134,231.6611,231.052 MY,0,2134,2191,231.052,230.5993 MY,0,2191,2247,230.5993,230.3106 MY,0,2247,2303,230.3106,230.1909 MY,0,2303,2359,230.1909,230.2423 MY,0,2359,2415,230.2423,230.4638 MY,0,2415,2471,230.4638,230.8517 MY,0,2471,2528,230.8517,231.3993 MY,0,2528,2584,231.3993,232.0973 MY,0,2584,2640,232.0973,232.9338 MY,30,191567,192816,232.9338,240 F,0,172691,172791,0,1 F,0,192816,192916,1,0
Sprite,Background,Centre,"sb/sprites/fx/006C0000.jpg",665.1584,0 S,0,172691,,0.4447917 L,172691,7 MY,0,0,112,234.3096,236.6038 MY,0,112,449,236.6038,244.2549 MY,0,449,561,244.2549,246.4807 MY,0,561,617,246.4807,247.4413 MY,0,617,674,247.4413,248.2777 MY,0,674,730,248.2777,248.9757 MY,0,730,786,248.9757,249.5233 MY,0,786,842,249.5233,249.9112 MY,0,842,898,249.9112,250.1327 MY,0,898,955,250.1327,250.1841 MY,0,955,1011,250.1841,250.0644 MY,0,1011,1067,250.0644,249.7757 MY,0,1067,1123,249.7757,249.323 MY,0,1123,1179,249.323,248.7139 MY,0,1179,1235,248.7139,247.959 MY,0,1235,1292,247.959,247.071 MY,0,1292,1348,247.071,246.0654 MY,0,1348,1460,246.0654,243.7712 MY,0,1460,1741,243.7712,237.3474 MY,0,1741,1853,237.3474,234.9625 MY,0,1853,1910,234.9625,233.8943 MY,0,1910,1966,233.8943,232.9337 MY,0,1966,2022,232.9337,232.0973 MY,0,2022,2078,232.0973,231.3993 MY,0,2078,2134,231.3993,230.8517 MY,0,2134,2191,230.8517,230.4638 MY,0,2191,2247,230.4638,230.2423 MY,0,2247,2303,230.2423,230.1909 MY,0,2303,2359,230.1909,230.3106 MY,0,2359,2415,230.3106,230.5993 MY,0,2415,2471,230.5993,231.052 MY,0,2471,2528,231.052,231.6611 MY,0,2528,2584,231.6611,232.416 MY,0,2584,2640,232.416,233.304 MY,30,191567,192816,233.304,240 F,0,172691,172791,0,1 F,0,192816,192916,1,0
Sprite,Background,Centre,"sb/sprites/fx/006D0000.jpg",672.275,0 S,0,172691,,0.4447917 L,172691,7 MY,0,0,112,234.7411,237.0973 MY,0,112,337,237.0973,242.2666 MY,0,337,449,242.2666,244.7274 MY,0,449,561,244.7274,246.8788 MY,0,561,617,246.8788,247.7916 MY,0,617,674,247.7916,248.5742 MY,0,674,730,248.5742,249.2133 MY,0,730,786,249.2133,249.6981 MY,0,786,842,249.6981,250.0201 MY,0,842,898,250.0201,250.1738 MY,0,898,955,250.1738,250.1567 MY,0,955,1011,250.1567,249.969 MY,0,1011,1067,249.969,249.6139 MY,0,1067,1123,249.6139,249.0976 MY,0,1123,1179,249.0976,248.4288 MY,0,1179,1235,248.4288,247.6189 MY,0,1235,1292,247.6189,246.682 MY,0,1292,1348,246.682,245.6339 MY,0,1348,1460,245.6339,243.2777 MY,0,1460,1741,243.2777,236.8494 MY,0,1741,1853,236.8494,234.5234 MY,0,1853,1910,234.5234,233.4962 MY,0,1910,1966,233.4962,232.5834 MY,0,1966,2022,232.5834,231.8008 MY,0,2022,2078,231.8008,231.1617 MY,0,2078,2134,231.1617,230.6769 MY,0,2134,2191,230.6769,230.3549 MY,0,2191,2247,230.3549,230.2012 MY,0,2247,2303,230.2012,230.2183 MY,0,2303,2359,230.2183,230.406 MY,0,2359,2415,230.406,230.7611 MY,0,2415,2471,230.7611,231.2774 MY,0,2471,2528,231.2774,231.9462 MY,0,2528,2584,231.9462,232.7561 MY,0,2584,2640,232.7561,233.693 MY,30,191567,192816,233.693,240 F,0,172691,172791,0,1 F,0,192816,192916,1,0
Sprite,Background,Centre,"sb/sprites/fx/006E0000.jpg",679.3917,0 S,0,172691,,0.4447917 L,172691,7 MY,0,0,112,235.1875,237.5993 MY,0,112,393,237.5993,244.0143 MY,0,393,505,244.0143,246.2751 MY,0,505,561,246.2751,247.2586 MY,0,561,617,247.2586,248.121 MY,0,617,674,248.121,248.8478 MY,0,674,730,248.8478,249.4263 MY,0,730,786,249.4263,249.8468 MY,0,786,842,249.8468,250.1019 MY,0,842,898,250.1019,250.1875 MY,0,898,955,250.1875,250.1019 MY,0,955,1011,250.1019,249.8468 MY,0,1011,1067,249.8468,249.4263 MY,0,1067,1123,249.4263,248.8477 MY,0,1123,1179,248.8477,248.121 MY,0,1179,1235,248.121,247.2586 MY,0,1235,1292,247.2586,246.2751 MY,0,1292,1404,246.2751,244.0143 MY,0,1404,1685,244.0143,237.5993 MY,0,1685,1797,237.5993,235.1875 MY,0,1797,1853,235.1875,234.0999 MY,0,1853,1910,234.0999,233.1164 MY,0,1910,1966,233.1164,232.254 MY,0,1966,2022,232.254,231.5272 MY,0,2022,2078,231.5272,230.9487 MY,0,2078,2134,230.9487,230.5282 MY,0,2134,2191,230.5282,230.2731 MY,0,2191,2247,230.2731,230.1875 MY,0,2247,2303,230.1875,230.2731 MY,0,2303,2359,230.2731,230.5282 MY,0,2359,2415,230.5282,230.9487 MY,0,2415,2471,230.9487,231.5273 MY,0,2471,2528,231.5273,232.254 MY,0,2528,2584,232.254,233.1164 MY,0,2584,2640,233.1164,234.0999 MY,30,191567,192816,234.0999,240 F,0,172691,172791,0,1 F,0,192816,192916,1,0
Sprite,Background,Centre,"sb/sprites/fx/006F0000.jpg",686.5084,0 S,0,172691,,0.4447917 L,172691,7 MY,0,0,112,235.6476,238.1084 MY,0,112,280,238.1084,242.0099 MY,0,280,393,242.0099,244.4926 MY,0,393,505,244.4926,246.682 MY,0,505,561,246.682,247.6189 MY,0,561,617,247.6189,248.4288 MY,0,617,674,248.4288,249.0976 MY,0,674,730,249.0976,249.6139 MY,0,730,786,249.6139,249.969 MY,0,786,842,249.969,250.1567 MY,0,842,898,250.1567,250.1738 MY,0,898,955,250.1738,250.0201 MY,0,955,1011,250.0201,249.6981 MY,0,1011,1067,249.6981,249.2133 MY,0,1067,1123,249.2133,248.5742 MY,0,1123,1179,248.5742,247.7916 MY,0,1179,1235,247.7916,246.8788 MY,0,1235,1292,246.8788,245.8516 MY,0,1292,1404,245.8516,243.5256 MY,0,1404,1685,243.5256,237.0973 MY,0,1685,1797,237.0973,234.7411 MY,0,1797,1853,234.7411,233.693 MY,0,1853,1910,233.693,232.7561 MY,0,1910,1966,232.7561,231.9462 MY,0,1966,2022,231.9462,231.2774 MY,0,2022,2078,231.2774,230.7611 MY,0,2078,2134,230.7611,230.406 MY,0,2134,2191,230.406,230.2183 MY,0,2191,2247,230.2183,230.2012 MY,0,2247,2303,230.2012,230.3549 MY,0,2303,2359,230.3549,230.6769 MY,0,2359,2415,230.6769,231.1617 MY,0,2415,2471,231.1617,231.8008 MY,0,2471,2528,231.8008,232.5834 MY,0,2528,2584,232.5834,233.4962 MY,0,2584,2640,233.4962,234.5234 MY,30,191567,192816,234.5234,240 F,0,172691,172791,0,1 F,0,192816,192916,1,0
Sprite,Background,Centre,"sb/sprites/fx/00700000.jpg",693.625,0 S,0,172691,,0.4447917 L,172691,7 MY,0,0,337,236.1201,243.7712 MY,0,337,449,243.7712,246.0654 MY,0,449,505,246.0654,247.071 MY,0,505,561,247.071,247.959 MY,0,561,617,247.959,248.7139 MY,0,617,674,248.7139,249.323 MY,0,674,730,249.323,249.7757 MY,0,730,786,249.7757,250.0644 MY,0,786,842,250.0644,250.1841 MY,0,842,898,250.1841,250.1327 MY,0,898,955,250.1327,249.9112 MY,0,955,1011,249.9112,249.5233 MY,0,1011,1067,249.5233,248.9757 MY,0,1067,1123,248.9757,248.2777 MY,0,1123,1179,248.2777,247.4412 MY,0,1179,1235,247.4412,246.4807 MY,0,1235,1348,246.4807,244.2549 MY,0,1348,1685,244.2549,236.6038 MY,0,1685,1797,236.6038,234.3096 MY,0,1797,1853,234.3096,233.304 MY,0,1853,1910,233.304,232.416 MY,0,1910,1966,232.416,231.6611 MY,0,1966,2022,231.6611,231.052 MY,0,2022,2078,231.052,230.5993 MY,0,2078,2134,230.5993,230.3106 MY,0,2134,2191,230.3106,230.1909 MY,0,2191,2247,230.1909,230.2423 MY,0,2247,2303,230.2423,230.4638 MY,0,2303,2359,230.4638,230.8517 MY,0,2359,2415,230.8517,231.3993 MY,0,2415,2471,231.3993,232.0973 MY,0,2471,2528,232.0973,232.9338 MY,0,2528,2584,232.9338,233.8943 MY,0,2584,2640,233.8943,234.9625 MY,30,191567,192816,234.9625,240 F,0,172691,172791,0,1 F,0,192816,192916,1,0
Sprite,Background,Centre,"sb/sprites/fx/00710000.jpg",700.7417,0 S,0,172691,,0.4447917 L,172691,7 MY,0,0,337,236.6038,244.2549 MY,0,337,449,244.2549,246.4807 MY,0,449,505,246.4807,247.4413 MY,0,505,561,247.4413,248.2777 MY,0,561,617,248.2777,248.9757 MY,0,617,674,248.9757,249.5233 MY,0,674,730,249.5233,249.9112 MY,0,730,786,249.9112,250.1327 MY,0,786,842,250.1327,250.1841 MY,0,842,898,250.1841,250.0644 MY,0,898,955,250.0644,249.7757 MY,0,955,1011,249.7757,249.323 MY,0,1011,1067,249.323,248.7139 MY,0,1067,1123,248.7139,247.959 MY,0,1123,1179,247.959,247.071 MY,0,1179,1235,247.071,246.0654 MY,0,1235,1348,246.0654,243.7712 MY,0,1348,1629,243.7712,237.3473 MY,0,1629,1741,237.3473,234.9625 MY,0,1741,1797,234.9625,233.8943 MY,0,1797,1853,233.8943,232.9337 MY,0,1853,1910,232.9337,232.0973 MY,0,1910,1966,232.0973,231.3993 MY,0,1966,2022,231.3993,230.8517 MY,0,2022,2078,230.8517,230.4638 MY,0,2078,2134,230.4638,230.2423 MY,0,2134,2191,230.2423,230.1909 MY,0,2191,2247,230.1909,230.3106 MY,0,2247,2303,230.3106,230.5993 MY,0,2303,2359,230.5993,231.052 MY,0,2359,2415,231.052,231.6611 MY,0,2415,2471,231.6611,232.416 MY,0,2471,2528,232.416,233.304 MY,0,2528,2584,233.304,234.3096 MY,0,2584,2640,234.3096,235.4159 MY,30,191567,192816,235.4159,240 F,0,172691,172791,0,1 F,0,192816,192916,1,0
Sprite,Background,Centre,"sb/sprites/fx/00720000.jpg",707.8583,0 S,0,172691,,0.4447917 L,172691,7 MY,0,0,224,237.0973,242.2666 MY,0,224,337,242.2666,244.7274 MY,0,337,449,244.7274,246.8788 MY,0,449,505,246.8788,247.7916 MY,0,505,561,247.7916,248.5742 MY,0,561,617,248.5742,249.2133 MY,0,617,674,249.2133,249.6981 MY,0,674,730,249.6981,250.0201 MY,0,730,786,250.0201,250.1738 MY,0,786,842,250.1738,250.1567 MY,0,842,898,250.1567,249.969 MY,0,898,955,249.969,249.6139 MY,0,955,1011,249.6139,249.0976 MY,0,1011,1067,249.0976,248.4288 MY,0,1067,1123,248.4288,247.6189 MY,0,1123,1179,247.6189,246.682 MY,0,1179,1292,246.682,244.4926 MY,0,1292,1404,244.4926,242.0099 MY,0,1404,1629,242.0099,236.8494 MY,0,1629,1741,236.8494,234.5234 MY,0,1741,1797,234.5234,233.4962 MY,0,1797,1853,233.4962,232.5834 MY,0,1853,1910,232.5834,231.8008 MY,0,1910,1966,231.8008,231.1617 MY,0,1966,2022,231.1617,230.6769 MY,0,2022,2078,230.6769,230.3549 MY,0,2078,2134,230.3549,230.2012 MY,0,2134,2191,230.2012,230.2183 MY,0,2191,2247,230.2183,230.406 MY,0,2247,2303,230.406,230.7611 MY,0,2303,2359,230.7611,231.2774 MY,0,2359,2415,231.2774,231.9462 MY,0,2415,2471,231.9462,232.7561 MY,0,2471,2528,232.7561,233.693 MY,0,2528,2640,233.693,235.8824 MY,30,191567,192816,235.8824,240 F,0,172691,172791,0,1 F,0,192816,192916,1,0
Sprite,Background,Centre,"sb/sprites/fx/00730000.jpg",714.975,0 S,0,172691,,0.4447917 L,172691,7 MY,0,0,280,237.5993,244.0143 MY,0,280,393,244.0143,246.2751 MY,0,393,449,246.2751,247.2586 MY,0,449,505,247.2586,248.121 MY,0,505,561,248.121,248.8477 MY,0,561,617,248.8477,249.4263 MY,0,617,674,249.4263,249.8468 MY,0,674,730,249.8468,250.1019 MY,0,730,786,250.1019,250.1875 MY,0,786,842,250.1875,250.1019 MY,0,842,898,250.1019,249.8468 MY,0,898,955,249.8468,249.4263 MY,0,955,1011,249.4263,248.8477 MY,0,1011,1067,248.8477,248.121 MY,0,1067,1123,248.121,247.2586 MY,0,1123,1179,247.2586,246.2751 MY,0,1179,1292,246.2751,244.0143 MY,0,1292,1573,244.0143,237.5993 MY,0,1573,1685,237.5993,235.1875 MY,0,1685,1741,235.1875,234.0999 MY,0,1741,1797,234.0999,233.1164 MY,0,1797,1853,233.1164,232.254 MY,0,1853,1910,232.254,231.5272 MY,0,1910,1966,231.5272,230.9487 MY,0,1966,2022,230.9487,230.5282 MY,0,2022,2078,230.5282,230.2731 MY,0,2078,2134,230.2731,230.1875 MY,0,2134,2191,230.1875,230.2731 MY,0,2191,2247,230.2731,230.5282 MY,0,2247,2303,230.5282,230.9487 MY,0,2303,2359,230.9487,231.5273 MY,0,2359,2415,231.5273,232.254 MY,0,2415,2471,232.254,233.1164 MY,0,2471,2528,233.1164,234.0999 MY,0,2528,2640,234.0999,236.3607 MY,30,191567,192816,236.3607,240 F,0,172691,172791,0,1 F,0,192816,192916,1,0
Sprite,Background,Centre,"sb/sprites/fx/00740000.jpg",722.0917,0 S,0,172691,,0.4447917 L,172691,7 MY,0,0,168,238.1084,242.0099 MY,0,168,280,242.0099,244.4926 MY,0,280,393,244.4926,246.682 MY,0,393,449,246.682,247.6189 MY,0,449,505,247.6189,248.4288 MY,0,505,561,248.4288,249.0976 MY,0,561,617,249.0976,249.6139 MY,0,617,674,249.6139,249.969 MY,0,674,730,249.969,250.1567 MY,0,730,786,250.1567,250.1738 MY,0,786,842,250.1738,250.0201 MY,0,842,898,250.0201,249.6981 MY,0,898,955,249.6981,249.2133 MY,0,955,1011,249.2133,248.5742 MY,0,1011,1067,248.5742,247.7916 MY,0,1067,1123,247.7916,246.8788 MY,0,1123,1179,246.8788,245.8516 MY,0,1179,1292,245.8516,243.5256 MY,0,1292,1573,243.5256,237.0973 MY,0,1573,1685,237.0973,234.7411 MY,0,1685,1741,234.7411,233.693 MY,0,1741,1797,233.693,232.7561 MY,0,1797,1853,232.7561,231.9462 MY,0,1853,1910,231.9462,231.2774 MY,0,1910,1966,231.2774,230.7611 MY,0,1966,2022,230.7611,230.406 MY,0,2022,2078,230.406,230.2183 MY,0,2078,2134,230.2183,230.2012 MY,0,2134,2191,230.2012,230.3549 MY,0,2191,2247,230.3549,230.6769 MY,0,2247,2303,230.6769,231.1617 MY,0,2303,2359,231.1617,231.8008 MY,0,2359,2415,231.8008,232.5834 MY,0,2415,2471,232.5834,233.4962 MY,0,2471,2528,233.4962,234.5234 MY,0,2528,2640,234.5234,236.8494 MY,30,191567,192816,236.8494,240 F,0,172691,172791,0,1 F,0,192816,192916,1,0
Sprite,Background,Centre,"sb/sprites/fx/00750000.jpg",729.2084,0 S,0,172691,,0.4447917 L,172691,7 MY,0,0,224,238.6232,243.7712 MY,0,224,337,243.7712,246.0654 MY,0,337,393,246.0654,247.071 MY,0,393,449,247.071,247.959 MY,0,449,505,247.959,248.7139 MY,0,505,561,248.7139,249.323 MY,0,561,617,249.323,249.7757 MY,0,617,674,249.7757,250.0644 MY,0,674,730,250.0644,250.1841 MY,0,730,786,250.1841,250.1327 MY,0,786,842,250.1327,249.9112 MY,0,842,898,249.9112,249.5233 MY,0,898,955,249.5233,248.9757 MY,0,955,1011,248.9757,248.2777 MY,0,1011,1067,248.2777,247.4412 MY,0,1067,1123,247.4412,246.4807 MY,0,1123,1235,246.4807,244.2549 MY,0,1235,1573,244.2549,236.6038 MY,0,1573,1685,236.6038,234.3096 MY,0,1685,1741,234.3096,233.304 MY,0,1741,1797,233.304,232.416 MY,0,1797,1853,232.416,231.6611 MY,0,1853,1910,231.6611,231.052 MY,0,1910,1966,231.052,230.5993 MY,0,1966,2022,230.5993,230.3106 MY,0,2022,2078,230.3106,230.1909 MY,0,2078,2134,230.1909,230.2423 MY,0,2134,2191,230.2423,230.4638 MY,0,2191,2247,230.4638,230.8517 MY,0,2247,2303,230.8517,231.3993 MY,0,2303,2359,231.3993,232.0973 MY,0,2359,2415,232.0973,232.9338 MY,0,2415,2471,232.9338,233.8943 MY,0,2471,2528,233.8943,234.9625 MY,0,2528,2640,234.9625,237.3474 MY,30,191567,192816,237.3474,240 F,0,172691,172791,0,1 F,0,192816,192916,1,0
Sprite,Background,Centre,"sb/sprites/fx/00760000.jpg",736.325,0 S,0,172691,,0.4447917 L,172691,7 MY,0,0,112,239.1422,241.7518 MY,0,112,224,241.7518,244.2549 MY,0,224,337,244.2549,246.4807 MY,0,337,393,246.4807,247.4413 MY,0,393,449,247.4413,248.2777 MY,0,449,505,248.2777,248.9757 MY,0,505,561,248.9757,249.5233 MY,0,561,617,249.5233,249.9112 MY,0,617,674,249.9112,250.1327 MY,0,674,730,250.1327,250.1841 MY,0,730,786,250.1841,250.0644 MY,0,786,842,250.0644,249.7757 MY,0,842,898,249.7757,249.323 MY,0,898,955,249.323,248.7139 MY,0,955,1011,248.7139,247.959 MY,0,1011,1067,247.959,247.071 MY,0,1067,1123,247.071,246.0654 MY,0,1123,1235,246.0654,243.7712 MY,0,1235,1516,243.7712,237.3474 MY,0,1516,1629,237.3474,234.9625 MY,0,1629,1685,234.9625,233.8943 MY,0,1685,1741,233.8943,232.9338 MY,0,1741,1797,232.9338,232.0973 MY,0,1797,1853,232.0973,231.3993 MY,0,1853,1910,231.3993,230.8517 MY,0,1910,1966,230.8517,230.4638 MY,0,1966,2022,230.4638,230.2423 MY,0,2022,2078,230.2423,230.1909 MY,0,2078,2134,230.1909,230.3106 MY,0,2134,2191,230.3106,230.5993 MY,0,2191,2247,230.5993,231.052 MY,0,2247,2303,231.052,231.6611 MY,0,2303,2359,231.6611,232.416 MY,0,2359,2415,232.416,233.304 MY,0,2415,2471,233.304,234.3096 MY,0,2471,2528,234.3096,235.4159 MY,0,2528,2640,235.4159,237.853 MY,30,191567,192816,237.853,240 F,0,172691,172791,0,1 F,0,192816,192916,1,0
Sprite,Background,Centre,"sb/sprites/fx/00770000.jpg",743.4417,0 S,0,172691,,0.4447917 L,172691,7 MY,0,0,112,239.6641,242.2666 MY,0,112,224,242.2666,244.7274 MY,0,224,337,244.7274,246.8788 MY,0,337,393,246.8788,247.7916 MY,0,393,449,247.7916,248.5742 MY,0,449,505,248.5742,249.2133 MY,0,505,561,249.2133,249.6981 MY,0,561,617,249.6981,250.0201 MY,0,617,674,250.0201,250.1738 MY,0,674,730,250.1738,250.1567 MY,0,730,786,250.1567,249.969 MY,0,786,842,249.969,249.6139 MY,0,842,898,249.6139,249.0976 MY,0,898,955,249.0976,248.4288 MY,0,955,1011,248.4288,247.6189 MY,0,1011,1067,247.6189,246.682 MY,0,1067,1179,246.682,244.4926 MY,0,1179,1292,244.4926,242.0099 MY,0,1292,1516,242.0099,236.8494 MY,0,1516,1629,236.8494,234.5234 MY,0,1629,1685,234.5234,233.4962 MY,0,1685,1741,233.4962,232.5834 MY,0,1741,1797,232.5834,231.8008 MY,0,1797,1853,231.8008,231.1617 MY,0,1853,1910,231.1617,230.6769 MY,0,1910,1966,230.6769,230.3549 MY,0,1966,2022,230.3549,230.2012 MY,0,2022,2078,230.2012,230.2183 MY,0,2078,2134,230.2183,230.406 MY,0,2134,2191,230.406,230.7611 MY,0,2191,2247,230.7611,231.2774 MY,0,2247,2303,231.2774,231.9462 MY,0,2303,2359,231.9462,232.7561 MY,0,2359,2415,232.7561,233.693 MY,0,2415,2528,233.693,235.8824 MY,0,2528,2640,235.8824,238.3651 MY,30,191567,192816,238.3651,240 F,0,172691,172791,0,1 F,0,192816,192916,1,0
//Storyboard Layer 1 (Fail)
//Storyboard Layer 2 (Pass)
//Storyboard Layer 3 (Foreground)
Sprite,Foreground,Centre,"sb/common/pixel.png",320,400 V,30,10384,13080,854,0,854,100 C,0,10384,,0,0,0 F,1,17126,19822,0.8,0
Sprite,Foreground,CentreLeft,"sb/intro/text\_000.png",0,0 S,0,11733,,0.5 F,1,11733,13081,0,1 M,30,11733,13081,1498,380,-30,380 F,1,13929,14429,1,0
Sprite,Foreground,CentreLeft,"sb/intro/text\_001.png",0,0 S,0,11733,,0.5 F,1,11733,13081,0,1 M,30,11733,13081,1024,420,-30,420 F,1,13929,14429,1,0
Sprite,Foreground,CentreLeft,"sb/intro/text/beatmappers/Chromoxx\_000.png",0,0 S,0,14429,,0.5 F,1,14429,15777,0,1 M,30,14429,15777,1492,380,-30,380 F,1,18648,19148,1,0
Sprite,Foreground,CentreLeft,"sb/intro/text\_002.png",0,0 S,0,14429,,0.3 F,1,14429,15777,0,1 M,30,14429,15777,1481,408,-30,408 F,1,18648,19148,1,0
Sprite,Foreground,CentreLeft,"sb/intro/text\_003.png",0,0 S,0,14429,,0.3 F,1,14429,15777,0,1 M,30,14429,15777,1283,430,-30,430 F,1,18648,19148,1,0
Sprite,Foreground,Centre,"sb/intro/letter_front.png",0,0 M,0,84,,320,377.5 V,0,168,252,0,0,0.01,0.01 V,0,252,337,0.01,0.01,0.02,0.02 V,0,337,421,0.02,0.02,0.03,0.03 V,0,421,505,0.03,0.03,0.04,0.04 V,0,505,589,0.04,0.04,0.05,0.05 V,0,589,674,0.05,0.05,0.07,0.07 V,0,674,758,0.07,0.07,0.08,0.08 V,0,758,842,0.08,0.08,0.1,0.1 V,0,842,926,0.1,0.1,0.12,0.12 V,0,926,1011,0.12,0.12,0.14,0.14 V,0,1011,1095,0.14,0.14,0.17,0.17 V,0,1095,1179,0.17,0.17,0.19,0.19 V,0,1179,1264,0.19,0.19,0.22,0.22 V,0,1264,1348,0.22,0.22,0.25,0.25 V,0,1348,1432,0.25,0.25,0.28,0.28 V,0,1432,1516,0.28,0.28,0.31,0.31 V,0,1516,1601,0.31,0.31,0.34,0.34 V,0,1601,1685,0.34,0.34,0.37,0.37 V,0,1685,1769,0.37,0.37,0.41,0.41 V,0,1769,1853,0.41,0.41,0.44,0.44 V,0,1853,1938,0.44,0.44,0.47,0.47 V,0,1938,2022,0.47,0.47,0.51,0.51 V,0,2022,2275,0.51,0.51,0.62,0.62 V,0,2275,2359,0.62,0.62,0.62,0.63 V,0,2443,2528,0.62,0.63,0.61,0.63 V,0,2612,2696,0.61,0.63,0.59,0.63 V,0,2696,2780,0.59,0.63,0.58,0.63 V,0,2780,2865,0.58,0.63,0.56,0.63 V,0,2865,2949,0.56,0.63,0.55,0.63 V,0,2949,3033,0.55,0.63,0.52,0.63 V,0,3033,3117,0.52,0.63,0.5,0.63 V,0,3117,3202,0.5,0.63,0.48,0.63 V,0,3202,3286,0.48,0.63,0.45,0.63 V,0,3286,3370,0.45,0.63,0.42,0.63 V,0,3370,3455,0.42,0.63,0.39,0.63 V,0,3455,3539,0.39,0.63,0.36,0.63 V,0,3539,3623,0.36,0.63,0.32,0.63 V,0,3623,3707,0.32,0.63,0.28,0.63 V,0,3707,3792,0.28,0.63,0.25,0.63 V,0,3792,3876,0.25,0.63,0.21,0.63 V,0,3876,3960,0.21,0.63,0.17,0.63 V,0,3960,4044,0.17,0.63,0.13,0.63 V,0,4044,4129,0.13,0.63,0.09,0.63 V,0,4129,4297,0.09,0.63,0.01,0.63 V,0,4297,4382,0.01,0.63,0,0.63 R,0,84,,-1.571,0 F,0,84,,0,1 F,0,4382,,1,0
Sprite,Foreground,Centre,"sb/intro/address/Chromoxx.png",0,0 M,0,84,505,320,377.5,322.8,378.3 M,0,505,1011,322.8,378.3,331,380.5 M,0,1011,1516,331,380.5,343.5,383.8 M,0,1516,2275,343.5,383.8,367.2,390.1 M,0,2275,2359,367.2,390.1,367.8,390.3 M,0,2359,2780,367.8,390.3,364.4,390.3 M,0,2780,3202,364.4,390.3,356.4,390.3 M,0,3202,3707,356.4,390.3,341.8,390.3 M,0,3707,4297,341.8,390.3,320.7,390.3 M,0,4297,4382,320.7,390.3,320,390.3 V,0,168,252,0,0,0.01,0.01 V,0,252,337,0.01,0.01,0.02,0.02 V,0,337,421,0.02,0.02,0.03,0.03 V,0,421,505,0.03,0.03,0.04,0.04 V,0,505,589,0.04,0.04,0.05,0.05 V,0,589,674,0.05,0.05,0.07,0.07 V,0,674,758,0.07,0.07,0.08,0.08 V,0,758,842,0.08,0.08,0.1,0.1 V,0,842,926,0.1,0.1,0.12,0.12 V,0,926,1011,0.12,0.12,0.14,0.14 V,0,1011,1095,0.14,0.14,0.17,0.17 V,0,1095,1179,0.17,0.17,0.19,0.19 V,0,1179,1264,0.19,0.19,0.22,0.22 V,0,1264,1348,0.22,0.22,0.25,0.25 V,0,1348,1432,0.25,0.25,0.28,0.28 V,0,1432,1516,0.28,0.28,0.31,0.31 V,0,1516,1685,0.31,0.31,0.37,0.37 V,0,1685,1853,0.37,0.37,0.44,0.44 V,0,1853,2022,0.44,0.44,0.51,0.51 V,0,2022,2275,0.51,0.51,0.62,0.62 V,0,2275,2359,0.62,0.62,0.62,0.63 V,0,2443,2528,0.62,0.63,0.61,0.63 V,0,2612,2696,0.61,0.63,0.59,0.63 V,0,2696,2780,0.59,0.63,0.58,0.63 V,0,2780,2865,0.58,0.63,0.56,0.63 V,0,2865,2949,0.56,0.63,0.55,0.63 V,0,2949,3033,0.55,0.63,0.52,0.63 V,0,3033,3117,0.52,0.63,0.5,0.63 V,0,3117,3202,0.5,0.63,0.48,0.63 V,0,3202,3286,0.48,0.63,0.45,0.63 V,0,3286,3370,0.45,0.63,0.42,0.63 V,0,3370,3455,0.42,0.63,0.39,0.63 V,0,3455,3539,0.39,0.63,0.36,0.63 V,0,3539,3623,0.36,0.63,0.32,0.63 V,0,3623,3707,0.32,0.63,0.28,0.63 V,0,3707,3792,0.28,0.63,0.25,0.63 V,0,3792,3960,0.25,0.63,0.17,0.63 V,0,3960,4129,0.17,0.63,0.09,0.63 V,0,4129,4297,0.09,0.63,0.01,0.63 V,0,4297,4382,0.01,0.63,0,0.63 R,0,84,,-1.571,0 F,0,84,,0,1 F,0,4382,,1,0
Sprite,Foreground,Centre,"sb/common/pixel.png",0,0 M,0,6320,6404,320,377.5,320,411.4 M,0,6404,6488,320,411.4,320,453.1 M,0,6488,6573,320,453.1,320,492 M,0,6573,6657,320,492,320,528.1 M,0,6657,6741,320,528.1,320,561.3 V,0,4382,,0,125,2.87,125 V,0,4382,4466,2.87,125,14.98,125 V,0,4466,4550,14.98,125,36.13,125 V,0,4550,4634,36.13,125,65.51,125 V,0,4634,4719,65.51,125,101.97,125 V,0,4719,4803,101.97,125,144.13,125 V,0,4803,4887,144.13,125,190.36,125 V,0,4887,4971,190.36,125,238.88,125 V,0,4971,5056,238.88,125,250,125 C,0,4382,,144,164,174 F,0,4382,,0,1 F,0,6741,,1,0
Sprite,Foreground,TopCentre,"sb/intro/letter_head.png",0,0 M,0,6320,6404,320,315.3,320,349.2 M,0,6404,6488,320,349.2,320,390.9 M,0,6488,6573,320,390.9,320,429.8 M,0,6573,6657,320,429.8,320,465.9 M,0,6657,6741,320,465.9,320,499.1 M,0,6741,6825,320,499.1,320,529.5 M,0,6825,6910,320,529.5,320,557.1 M,0,6910,6994,320,557.1,320,581.8 V,0,5393,,0.63,0,0.63,0.12 V,0,5393,5646,0.63,0.12,0.63,0.59 V,0,5646,5730,0.63,0.59,0.63,0.63 R,0,5393,,-1.571,-3.142 F,0,5393,,0,1 F,0,6994,,1,0
Sprite,Foreground,Centre,"sb/intro/photos/Chromoxx.png",0,0 M,0,5056,,286.6,362.5,285,362.5 M,0,6320,6404,285,362.5,320,289.9 M,0,6404,6488,320,289.9,320,214.1 M,0,6488,6573,320,214.1,320,158.3 M,0,6573,6657,320,158.3,320,120.7 M,0,6657,6741,320,120.7,320,99.4 M,0,6741,6825,320,99.4,320,92.5 M,0,6825,6910,320,92.5,320,98 M,0,6910,6994,320,98,320,114 M,0,6994,7078,320,114,320,138.4 M,0,7078,7162,320,138.4,320,169 M,0,7162,7247,320,169,320,203.7 M,0,7247,7415,320,203.7,320,276.7 M,0,7415,7500,320,276.7,320,310.5 M,0,7500,7584,320,310.5,320,339.4 M,0,7584,7668,320,339.4,320,361.2 M,0,7668,7752,320,361.2,320,365 V,0,5056,,0.3,0.31,0.31,0.31 V,0,6320,6404,0.31,0.31,0.34,0.34 V,0,6404,6488,0.34,0.34,0.38,0.38 V,0,6488,6573,0.38,0.38,0.41,0.41 V,0,6573,6657,0.41,0.41,0.44,0.44 V,0,6657,6741,0.44,0.44,0.47,0.47 V,0,6741,6825,0.47,0.47,0.5,0.5 V,0,6825,6910,0.5,0.5,0.52,0.52 V,0,6910,6994,0.52,0.52,0.54,0.54 V,0,6994,7078,0.54,0.54,0.56,0.56 V,0,7078,7162,0.56,0.56,0.58,0.58 V,0,7162,7247,0.58,0.58,0.59,0.59 V,0,7247,7331,0.59,0.59,0.6,0.6 V,0,7331,7415,0.6,0.6,0.61,0.61 V,0,7415,7500,0.61,0.61,0.62,0.62 V,0,7668,9016,0.62,0.62,0.63,0.63 R,0,5056,,-0.05,-0.052 R,0,6320,7668,-0.052,-0.001 R,0,7668,9016,-0.001,0 F,0,5056,,0,1 F,0,9016,,1,0
Sprite,Foreground,Centre,"sb/intro/photos/OzzyOzrock.png",0,0 M,0,5056,6320,311,369.4,310.6,369.4 M,0,6320,6404,310.6,369.4,320.3,297.4 M,0,6404,6488,320.3,297.4,322,222.3 M,0,6488,6573,322,222.3,325.3,167 M,0,6573,6657,325.3,167,330.5,129.8 M,0,6657,6741,330.5,129.8,337.7,108.6 M,0,6741,6825,337.7,108.6,347.1,101.7 M,0,6825,6910,347.1,101.7,358.8,107 M,0,6910,6994,358.8,107,372.6,122.6 M,0,6994,7078,372.6,122.6,388.4,146.4 M,0,7078,7162,388.4,146.4,406,176.3 M,0,7162,7247,406,176.3,425.3,210.1 M,0,7247,7415,425.3,210.1,467.4,280.9 M,0,7415,7500,467.4,280.9,489.5,313.5 M,0,7500,7584,489.5,313.5,511.8,341.1 M,0,7584,7668,511.8,341.1,533.8,361.5 M,0,7668,7752,533.8,361.5,538.8,365 V,0,5056,,0.3,0.31,0.31,0.31 V,0,6320,6404,0.31,0.31,0.34,0.34 V,0,6404,6488,0.34,0.34,0.38,0.38 V,0,6488,6573,0.38,0.38,0.41,0.41 V,0,6573,6657,0.41,0.41,0.44,0.44 V,0,6657,6741,0.44,0.44,0.47,0.47 V,0,6741,6825,0.47,0.47,0.5,0.5 V,0,6825,6910,0.5,0.5,0.52,0.52 V,0,6910,6994,0.52,0.52,0.54,0.54 V,0,6994,7078,0.54,0.54,0.56,0.56 V,0,7078,7162,0.56,0.56,0.58,0.58 V,0,7162,7247,0.58,0.58,0.59,0.59 V,0,7247,7331,0.59,0.59,0.6,0.6 V,0,7331,7415,0.6,0.6,0.61,0.61 V,0,7415,7500,0.61,0.61,0.62,0.62 V,0,7668,9016,0.62,0.62,0.63,0.63 R,0,5056,,-0.067,-0.07 R,0,6320,7668,-0.07,-0.001 R,0,7668,9016,-0.001,0 F,0,5056,,0,1 F,0,9016,,1,0
Sprite,Foreground,Centre,"sb/intro/photos/main.png",0,0 M,0,5056,,361.8,373.8,363.8,373.8 M,0,6320,6404,363.8,373.8,319.7,302.2 M,0,6404,6488,319.7,302.2,318,227.5 M,0,6488,6573,318,227.5,314.7,172.6 M,0,6573,6657,314.7,172.6,309.5,135.5 M,0,6657,6741,309.5,135.5,302.3,114.5 M,0,6741,6825,302.3,114.5,292.9,107.6 M,0,6825,6910,292.9,107.6,281.2,112.8 M,0,6910,6994,281.2,112.8,267.4,128.1 M,0,6994,7078,267.4,128.1,251.6,151.5 M,0,7078,7162,251.6,151.5,234,180.9 M,0,7162,7247,234,180.9,214.7,214.2 M,0,7247,7415,214.7,214.2,172.6,283.6 M,0,7415,7500,172.6,283.6,150.5,315.3 M,0,7500,7584,150.5,315.3,128.2,342.1 M,0,7584,7668,128.2,342.1,106.2,361.7 M,0,7668,7752,106.2,361.7,101.2,365 V,0,5056,,0.3,0.31,0.31,0.31 V,0,6320,6404,0.31,0.31,0.34,0.34 V,0,6404,6488,0.34,0.34,0.38,0.38 V,0,6488,6573,0.38,0.38,0.41,0.41 V,0,6573,6657,0.41,0.41,0.44,0.44 V,0,6657,6741,0.44,0.44,0.47,0.47 V,0,6741,6825,0.47,0.47,0.5,0.5 V,0,6825,6910,0.5,0.5,0.52,0.52 V,0,6910,6994,0.52,0.52,0.54,0.54 V,0,6994,7078,0.54,0.54,0.56,0.56 V,0,7078,7162,0.56,0.56,0.58,0.58 V,0,7162,7247,0.58,0.58,0.59,0.59 V,0,7247,7331,0.59,0.59,0.6,0.6 V,0,7331,7415,0.6,0.6,0.61,0.61 V,0,7415,7500,0.61,0.61,0.62,0.62 V,0,7668,8342,0.62,0.62,0.63,0.63 V,0,8342,8426,0.63,0.63,1.77,1.77 V,0,8426,8511,1.77,1.77,2.94,2.94 V,0,8511,8595,2.94,2.94,3.78,3.78 V,0,8595,8679,3.78,3.78,4.35,4.35 V,0,8679,8764,4.35,4.35,4.71,4.71 V,0,8764,8848,4.71,4.71,4.91,4.91 V,0,8848,8932,4.91,4.91,4.98,4.98 V,0,8932,9016,4.98,4.98,5,5 R,0,5056,,-0.083,-0.087 R,0,6320,6404,-0.087,-0.083 R,0,6404,7668,-0.083,-0.001 R,0,7668,7752,-0.001,0 R,0,8342,8426,0,0.206 R,0,8426,8511,0.206,0.415 R,0,8511,8595,0.415,0.566 R,0,8595,8679,0.566,0.669 R,0,8679,8764,0.669,0.734 R,0,8764,8848,0.734,0.768 R,0,8848,8932,0.768,0.783 R,0,8932,9016,0.783,0.785 F,0,5056,,0,1 F,0,9016,,1,0
Sprite,Foreground,TopCentre,"sb/intro/letter_head.png",0,0 M,0,6320,6404,320,315.3,320,349.2 M,0,6404,6488,320,349.2,320,390.9 M,0,6488,6573,320,390.9,320,429.8 M,0,6573,6657,320,429.8,320,465.9 M,0,6657,6741,320,465.9,320,499.1 V,0,4382,,0,0.63,0.01,0.63 V,0,4382,4466,0.01,0.63,0.04,0.63 V,0,4466,4550,0.04,0.63,0.09,0.63 V,0,4550,4634,0.09,0.63,0.16,0.63 V,0,4634,4719,0.16,0.63,0.25,0.63 V,0,4719,4803,0.25,0.63,0.36,0.63 V,0,4803,4887,0.36,0.63,0.48,0.63 V,0,4887,4971,0.48,0.63,0.6,0.63 V,0,4971,5056,0.6,0.63,0.63,0.5 V,0,5056,5308,0.63,0.5,0.63,0.04 V,0,5308,5393,0.63,0.04,0.63,0 F,0,4382,,0,1 F,0,6741,,1,0
Sprite,Foreground,Centre,"sb/intro/letter_back.png",0,0 M,0,6320,6404,320,377.5,320,411.4 M,0,6404,6488,320,411.4,320,453.1 M,0,6488,6573,320,453.1,320,492 M,0,6573,6657,320,492,320,528.1 M,0,6657,6741,320,528.1,320,561.3 V,0,4382,,0,0.63,0.01,0.63 V,0,4382,4466,0.01,0.63,0.04,0.63 V,0,4466,4550,0.04,0.63,0.09,0.63 V,0,4550,4634,0.09,0.63,0.16,0.63 V,0,4634,4719,0.16,0.63,0.25,0.63 V,0,4719,4803,0.25,0.63,0.36,0.63 V,0,4803,4887,0.36,0.63,0.48,0.63 V,0,4887,4971,0.48,0.63,0.6,0.63 V,0,4971,5056,0.6,0.63,0.63,0.63 F,0,4382,,0,1 F,0,6741,,1,0
Sprite,Foreground,TopLeft,"SB/lyrics/_000.png",-55.51592,359.1862 S,0,19823,,0.48 R,0,19823,,-0.1396263 F,0,19823,19923,0,1 F,0,24780,24880,1,0
Sprite,Foreground,TopLeft,"SB/lyrics/_001.png",-12.70208,358.0163 S,0,20666,,0.48 R,0,20666,,-0.1396263 F,0,20666,20766,0,1 F,0,24780,24880,1,0
Sprite,Foreground,TopLeft,"SB/lyrics/_002.png",87.63425,345.3691 S,0,21003,,0.48 R,0,21003,,-0.1396263 F,0,21003,21103,0,1 F,0,24780,24880,1,0
Sprite,Foreground,TopLeft,"SB/lyrics/_003.png",160.9513,333.6109 S,0,21172,,0.48 R,0,21172,,-0.1396263 F,0,21172,21272,0,1 F,0,24780,24880,1,0
Sprite,Foreground,TopLeft,"SB/lyrics/_004.png",214.7054,327.5104 S,0,21424,,0.48 R,0,21424,,-0.1396263 F,0,21424,21524,0,1 F,0,24780,24880,1,0
Sprite,Foreground,TopLeft,"SB/lyrics/_005.png",-54.22476,411.0553 S,0,21846,,0.536 R,0,21846,,-0.1396263 F,0,21846,21946,0,1 F,0,24780,24880,1,0
Sprite,Foreground,TopLeft,"SB/lyrics/_006.png",4.578022,402.2499 S,0,22014,,0.536 R,0,22014,,-0.1396263 F,0,22014,22114,0,1 F,0,24780,24880,1,0
Sprite,Foreground,TopLeft,"SB/lyrics/_007.png",108.8876,382.1774 S,0,22520,,0.536 R,0,22520,,-0.1396263 F,0,22520,22620,0,1 F,0,24780,24880,1,0
Sprite,Foreground,TopLeft,"SB/lyrics/_008.png",-55.8537,365.3065 S,0,25217,,0.56 R,0,25217,,-0.1396263 F,0,25217,25317,0,1 F,0,29162,29262,1,0
Sprite,Foreground,TopLeft,"SB/lyrics/_002.png",80.32541,347.2988 S,0,25891,,0.56 R,0,25891,,-0.1396263 F,0,25891,25991,0,1 F,0,29162,29262,1,0
Sprite,Foreground,TopLeft,"SB/lyrics/_009.png",166.7599,333.4547 S,0,26228,,0.56 R,0,26228,,-0.1396263 F,0,26228,26328,0,1 F,0,29162,29262,1,0
Sprite,Foreground,TopLeft,"SB/lyrics/_00a.png",-54.63514,410.0581 S,0,26902,,0.8 R,0,26902,,-0.1396263 F,0,26902,27002,0,1 F,0,29162,29262,1,0
Sprite,Foreground,TopLeft,"SB/lyrics/_00b.png",199.8884,375.9029 S,0,27745,,0.8 R,0,27745,,-0.1396263 F,0,27745,27845,0,1 F,0,29162,29262,1,0
Sprite,Foreground,TopLeft,"SB/lyrics/_00c.png",-55.59813,365.4991 S,0,30610,,0.48 R,0,30610,,-0.1396263 F,0,30610,30710,0,1 F,0,35529,35629,1,0
Sprite,Foreground,TopLeft,"SB/lyrics/_002.png",-15.35364,359.8431 S,0,31453,,0.48 R,0,31453,,-0.1396263 F,0,31453,31553,0,1 F,0,35529,35629,1,0
Sprite,Foreground,TopLeft,"SB/lyrics/_00d.png",58.16386,349.5109 S,0,31621,,0.48 R,0,31621,,-0.1396263 F,0,31621,31721,0,1 F,0,35529,35629,1,0
Sprite,Foreground,TopLeft,"SB/lyrics/_00e.png",108.1898,341.0261 S,0,31790,,0.48 R,0,31790,,-0.1396263 F,0,31790,31890,0,1 F,0,35529,35629,1,0
Sprite,Foreground,TopLeft,"SB/lyrics/_003.png",234.4688,323.2787 S,0,32464,,0.48 R,0,32464,,-0.1396263 F,0,32464,32564,0,1 F,0,35529,35629,1,0
Sprite,Foreground,TopLeft,"SB/lyrics/_00f.png",-53.89723,399.8059 S,0,32632,,0.48 R,0,32632,,-0.1396263 F,0,32632,32732,0,1 F,0,35529,35629,1,0
Sprite,Foreground,TopLeft,"SB/lyrics/_010.png",68.86175,377.7061 S,0,33138,,0.48 R,0,33138,,-0.1396263 F,0,33138,33238,0,1 F,0,35529,35629,1,0
Sprite,Foreground,TopLeft,"SB/lyrics/_011.png",-54.62323,359.179 S,0,36003,,0.416 R,0,36003,,-0.1396263 F,0,36003,36103,0,1 F,0,39948,40048,1,0
Sprite,Foreground,TopLeft,"SB/lyrics/_012.png",117.5963,340.4362 S,0,36677,,0.416 R,0,36677,,-0.1396263 F,0,36677,36777,0,1 F,0,39948,40048,1,0
Sprite,Foreground,TopLeft,"SB/lyrics/_013.png",154.5933,333.9764 S,0,37014,,0.416 R,0,37014,,-0.1396263 F,0,37014,37114,0,1 F,0,39948,40048,1,0
Sprite,Foreground,TopLeft,"SB/lyrics/_002.png",-54.41247,405.3425 S,0,38026,,0.8 R,0,38026,,-0.1396263 F,0,38026,38126,0,1 F,0,39948,40048,1,0
Sprite,Foreground,TopLeft,"SB/lyrics/_014.png",62.83527,388.8644 S,0,38363,,0.8 R,0,38363,,-0.1396263 F,0,38363,38463,0,1 F,0,39948,40048,1,0
Sprite,Foreground,TopLeft,"SB/lyrics/_015.png",150.7711,376.5059 S,0,38531,,0.8 R,0,38531,,-0.1396263 F,0,38531,38631,0,1 F,0,39948,40048,1,0
Sprite,Foreground,TopLeft,"SB/lyrics/_016.png",-56.71101,359.2065 S,0,41396,,0.56 R,0,41396,,-0.1396263 F,0,41396,41496,0,1 F,0,44330,44430,1,0
Sprite,Foreground,TopLeft,"SB/lyrics/_017.png",7.775249,350.1435 S,0,41986,,0.56 R,0,41986,,-0.1396263 F,0,41986,42086,0,1 F,0,44330,44430,1,0
Sprite,Foreground,TopLeft,"SB/lyrics/_018.png",65.98759,348.7484 S,0,42071,,0.56 R,0,42071,,-0.1396263 F,0,42071,42171,0,1 F,0,44330,44430,1,0
Sprite,Foreground,TopLeft,"SB/lyrics/_012.png",159.943,336.1093 S,0,42408,,0.56 R,0,42408,,-0.1396263 F,0,42408,42508,0,1 F,0,44330,44430,1,0
Sprite,Foreground,TopLeft,"SB/lyrics/_019.png",207.3341,322.0974 S,0,42576,,0.56 R,0,42576,,-0.1396263 F,0,42576,42676,0,1 F,0,44330,44430,1,0
Sprite,Foreground,TopLeft,"SB/lyrics/0059.png",-55.69783,420.3156 S,0,42913,,0.56 R,0,42913,,-0.1396263 F,0,42913,43013,0,1 F,0,44330,44430,1,0
Sprite,Foreground,TopLeft,"SB/lyrics/_014.png",-22.26638,415.6171 S,0,43082,,0.56 R,0,43082,,-0.1396263 F,0,43082,43182,0,1 F,0,44330,44430,1,0
Sprite,Foreground,TopLeft,"SB/lyrics/_01b.png",42.69649,405.9217 S,0,43335,,0.56 R,0,43335,,-0.1396263 F,0,43335,43435,0,1 F,0,44330,44430,1,0
Sprite,Foreground,TopLeft,"SB/lyrics/_012.png",127.2245,394.6076 S,0,43587,,0.56 R,0,43587,,-0.1396263 F,0,43587,43687,0,1 F,0,44330,44430,1,0
Sprite,Foreground,TopLeft,"SB/lyrics/_01c.png",175.395,386.1411 S,0,43840,,0.56 R,0,43840,,-0.1396263 F,0,43840,43940,0,1 F,0,44330,44430,1,0
Sprite,Foreground,TopLeft,"SB/lyrics/_01d.png",-53.6355,364.9948 S,0,44767,,0.56 R,0,44767,,-0.1396263 F,0,44767,44867,0,1 F,0,47195,47295,1,0
Sprite,Foreground,TopLeft,"SB/lyrics/_015.png",4.906578,357.8982 S,0,44936,,0.56 R,0,44936,,-0.1396263 F,0,44936,45036,0,1 F,0,47195,47295,1,0
Sprite,Foreground,TopLeft,"SB/lyrics/_01e.png",94.66835,343.5865 S,0,45104,,0.56 R,0,45104,,-0.1396263 F,0,45104,45204,0,1 F,0,47195,47295,1,0
Sprite,Foreground,TopLeft,"SB/lyrics/0059.png",-55.54829,408.4409 S,0,45778,,0.44 R,0,45778,,-0.1396263 F,0,45778,45878,0,1 F,0,47195,47295,1,0
Sprite,Foreground,TopLeft,"SB/lyrics/_015.png",-27.58312,404.5106 S,0,45947,,0.44 R,0,45947,,-0.1396263 F,0,45947,46047,0,1 F,0,47195,47295,1,0
Sprite,Foreground,TopLeft,"SB/lyrics/_01f.png",44.64158,393.0271 S,0,46115,,0.44 R,0,46115,,-0.1396263 F,0,46115,46215,0,1 F,0,47195,47295,1,0
Sprite,Foreground,TopLeft,"SB/lyrics/_012.png",202.1987,372.2169 S,0,46453,,0.44 R,0,46453,,-0.1396263 F,0,46453,46553,0,1 F,0,47195,47295,1,0
Sprite,Foreground,TopLeft,"SB/lyrics/_020.png",241.7445,365.3261 S,0,46790,,0.44 R,0,46790,,-0.1396263 F,0,46790,46890,0,1 F,0,47195,47295,1,0
Sprite,Foreground,TopLeft,"SB/lyrics/_021.png",-54.66666,365.7052 S,0,47464,,0.56 R,0,47464,,-0.1396263 F,0,47464,47564,0,1 F,0,50735,50835,1,0
Sprite,Foreground,TopLeft,"SB/lyrics/_022.png",53.55112,349.9307 S,0,47801,,0.56 R,0,47801,,-0.1396263 F,0,47801,47901,0,1 F,0,50735,50835,1,0
Sprite,Foreground,TopLeft,"SB/lyrics/_023.png",145.1324,336.4943 S,0,47969,,0.56 R,0,47969,,-0.1396263 F,0,47969,48069,0,1 F,0,50735,50835,1,0
Sprite,Foreground,TopLeft,"SB/lyrics/_024.png",-54.69048,408.6977 S,0,48475,,0.52 R,0,48475,,-0.1396263 F,0,48475,48575,0,1 F,0,50735,50835,1,0
Sprite,Foreground,TopLeft,"SB/lyrics/_025.png",-9.837433,401.3438 S,0,48644,,0.52 R,0,48644,,-0.1396263 F,0,48644,48744,0,1 F,0,50735,50835,1,0
Sprite,Foreground,TopLeft,"SB/lyrics/_012.png",149.694,380.4984 S,0,48981,,0.52 R,0,48981,,-0.1396263 F,0,48981,49081,0,1 F,0,50735,50835,1,0
Sprite,Foreground,TopLeft,"SB/lyrics/_026.png",195.1344,373.5871 S,0,49149,,0.52 R,0,49149,,-0.1396263 F,0,49149,49249,0,1 F,0,50735,50835,1,0
Sprite,Foreground,TopLeft,"SB/lyrics/_027.png",-55.65215,363.3264 S,0,52183,,0.392 R,0,52183,,-0.1396263 F,0,52183,52283,0,1 F,0,55117,55217,1,0
Sprite,Foreground,TopLeft,"SB/lyrics/_003.png",-5.417831,356.2664 S,0,52857,,0.392 R,0,52857,,-0.1396263 F,0,52857,52957,0,1 F,0,55117,55217,1,0
Sprite,Foreground,TopLeft,"SB/lyrics/_01d.png",39.82465,350.3038 S,0,53026,,0.392 R,0,53026,,-0.1396263 F,0,53026,53126,0,1 F,0,55117,55217,1,0
Sprite,Foreground,TopLeft,"SB/lyrics/_028.png",84.02426,339.7376 S,0,53194,,0.392 R,0,53194,,-0.1396263 F,0,53194,53294,0,1 F,0,55117,55217,1,0
Sprite,Foreground,TopLeft,"SB/lyrics/_029.png",153.437,333.9408 S,0,53531,,0.392 R,0,53531,,-0.1396263 F,0,53531,53631,0,1 F,0,55117,55217,1,0
Sprite,Foreground,TopLeft,"SB/lyrics/_02a.png",-54.49281,393.1947 S,0,53868,,0.56 R,0,53868,,-0.1396263 F,0,53868,53968,0,1 F,0,55117,55217,1,0
Sprite,Foreground,TopLeft,"SB/lyrics/_02b.png",30.41589,388.6131 S,0,54037,,0.56 R,0,54037,,-0.1396263 F,0,54037,54137,0,1 F,0,55117,55217,1,0
Sprite,Foreground,TopLeft,"SB/lyrics/_02c.png",84.92023,380.953 S,0,54374,,0.56 R,0,54374,,-0.1396263 F,0,54374,54474,0,1 F,0,55117,55217,1,0
Sprite,Foreground,TopLeft,"SB/lyrics/_02d.png",142.5181,371.1617 S,0,54542,,0.56 R,0,54542,,-0.1396263 F,0,54542,54642,0,1 F,0,55117,55217,1,0
Sprite,Foreground,TopLeft,"SB/lyrics/_02e.png",-55.77576,365.8611 S,0,55554,,0.56 R,0,55554,,-0.1396263 F,0,55554,55654,0,1 F,0,57813,57913,1,0
Sprite,Foreground,TopLeft,"SB/lyrics/_02f.png",81.83318,345.9559 S,0,55891,,0.56 R,0,55891,,-0.1396263 F,0,55891,55991,0,1 F,0,57813,57913,1,0
Sprite,Foreground,TopLeft,"SB/lyrics/_030.png",149.6467,336.4253 S,0,56059,,0.56 R,0,56059,,-0.1396263 F,0,56059,56159,0,1 F,0,57813,57913,1,0
Sprite,Foreground,TopLeft,"SB/lyrics/_031.png",-56.06473,408.1308 S,0,56565,,0.64 R,0,56565,,-0.1396263 F,0,56565,56665,0,1 F,0,57813,57913,1,0
Sprite,Foreground,TopLeft,"SB/lyrics/_032.png",43.84336,394.736 S,0,56733,,0.64 R,0,56733,,-0.1396263 F,0,56733,56833,0,1 F,0,57813,57913,1,0
Sprite,Foreground,TopLeft,"SB/lyrics/_02a.png",244.7198,359.3954 S,0,57408,,0.64 R,0,57408,,-0.1396263 F,0,57408,57508,0,1 F,0,57813,57913,1,0
Sprite,Foreground,TopLeft,"SB/lyrics/_033.png",-53.76363,364.7566 S,0,58250,,0.48 R,0,58250,,-0.1396263 F,0,58250,58350,0,1 F,0,61184,61284,1,0
Sprite,Foreground,TopLeft,"SB/lyrics/_034.png",33.88013,351.4696 S,0,58587,,0.48 R,0,58587,,-0.1396263 F,0,58587,58687,0,1 F,0,61184,61284,1,0
Sprite,Foreground,TopLeft,"SB/lyrics/_002.png",106.1721,342.7638 S,0,58756,,0.48 R,0,58756,,-0.1396263 F,0,58756,58856,0,1 F,0,61184,61284,1,0
Sprite,Foreground,TopLeft,"SB/lyrics/_035.png",179.4891,331.0056 S,0,58924,,0.48 R,0,58924,,-0.1396263 F,0,58924,59024,0,1 F,0,61184,61284,1,0
Sprite,Foreground,TopLeft,"SB/lyrics/_036.png",-54.7446,401.1507 S,0,59262,,0.56 R,0,59262,,-0.1396263 F,0,59262,59362,0,1 F,0,61184,61284,1,0
Sprite,Foreground,TopLeft,"SB/lyrics/_037.png",10.548,385.7538 S,0,59430,,0.56 R,0,59430,,-0.1396263 F,0,59430,59530,0,1 F,0,61184,61284,1,0
Sprite,Foreground,TopLeft,"SB/lyrics/_038.png",159.5507,370.4679 S,0,59936,,0.56 R,0,59936,,-0.1396263 F,0,59936,60036,0,1 F,0,61184,61284,1,0
Sprite,Foreground,TopLeft,"SB/lyrics/_039.png",-52.52725,369.5132 S,0,61853,,0.96 R,0,61853,,-0.1396263 F,0,61853,61953,0,1 F,0,63715,63815,1,0
Sprite,Foreground,TopLeft,"SB/lyrics/_03a.png",68.25591,350.5993 S,0,62603,,0.96 R,0,62603,,-0.1396263 F,0,62603,62703,0,1 F,0,63715,63815,1,0
Sprite,Foreground,TopLeft,"SB/lyrics/_03b.png",153.5821,341.5158 S,0,63353,,0.96 R,0,63353,,-0.1396263 F,0,63353,63453,0,1 F,0,63715,63815,1,0
Sprite,Foreground,TopLeft,"SB/lyrics/_03c.png",-54.52997,367.154 S,0,64152,,0.64 R,0,64152,,-0.1396263 F,0,64152,64252,0,1 F,0,66411,66511,1,0
Sprite,Foreground,TopLeft,"SB/lyrics/_03d.png",116.638,341.1591 S,0,64489,,0.64 R,0,64489,,-0.1396263 F,0,64489,64589,0,1 F,0,66411,66511,1,0
Sprite,Foreground,TopLeft,"SB/lyrics/_00d.png",-55.64798,413.9574 S,0,64994,,0.52 R,0,64994,,-0.1396263 F,0,64994,65094,0,1 F,0,66411,66511,1,0
Sprite,Foreground,TopLeft,"SB/lyrics/_03e.png",-2.926113,406.5478 S,0,65163,,0.52 R,0,65163,,-0.1396263 F,0,65163,65263,0,1 F,0,66411,66511,1,0
Sprite,Foreground,TopLeft,"SB/lyrics/_03f.png",136.0885,385.4352 S,0,65500,,0.52 R,0,65500,,-0.1396263 F,0,65500,65600,0,1 F,0,66411,66511,1,0
Sprite,Foreground,TopLeft,"SB/lyrics/_040.png",-53.73182,364.3768 S,0,66848,,0.552 R,0,66848,,-0.1396263 F,0,66848,66948,0,1 F,0,69108,69208,1,0
Sprite,Foreground,TopLeft,"SB/lyrics/_002.png",39.14814,352.9957 S,0,67185,,0.552 R,0,67185,,-0.1396263 F,0,67185,67285,0,1 F,0,69108,69208,1,0
Sprite,Foreground,TopLeft,"SB/lyrics/_041.png",122.5049,341.2806 S,0,67354,,0.552 R,0,67354,,-0.1396263 F,0,67354,67454,0,1 F,0,69108,69208,1,0
Sprite,Foreground,TopLeft,"SB/lyrics/_042.png",175.0201,332.2278 S,0,67522,,0.552 R,0,67522,,-0.1396263 F,0,67522,67622,0,1 F,0,69108,69208,1,0
Sprite,Foreground,TopLeft,"SB/lyrics/_043.png",-54.79719,406.6527 S,0,67860,,0.64 R,0,67860,,-0.1396263 F,0,67860,67960,0,1 F,0,69108,69208,1,0
Sprite,Foreground,TopLeft,"SB/lyrics/_044.png",89.38585,386.3891 S,0,68197,,0.64 R,0,68197,,-0.1396263 F,0,68197,68297,0,1 F,0,69108,69208,1,0
Sprite,Foreground,TopLeft,"SB/lyrics/_045.png",148.3866,371.6342 S,0,68534,,0.64 R,0,68534,,-0.1396263 F,0,68534,68634,0,1 F,0,69108,69208,1,0
Sprite,Foreground,TopLeft,"SB/lyrics/_046.png",-53.89723,363.8059 S,0,69545,,0.48 R,0,69545,,-0.1396263 F,0,69545,69645,0,1 F,0,72310,72410,1,0
Sprite,Foreground,TopLeft,"SB/lyrics/_002.png",35.03121,352.762 S,0,69882,,0.48 R,0,69882,,-0.1396263 F,0,69882,69982,0,1 F,0,72310,72410,1,0
Sprite,Foreground,TopLeft,"SB/lyrics/_041.png",108.5487,342.4298 S,0,70051,,0.48 R,0,70051,,-0.1396263 F,0,70051,70151,0,1 F,0,72310,72410,1,0
Sprite,Foreground,TopLeft,"SB/lyrics/_047.png",153.3461,334.6798 S,0,70219,,0.48 R,0,70219,,-0.1396263 F,0,70219,70319,0,1 F,0,72310,72410,1,0
Sprite,Foreground,TopLeft,"SB/lyrics/_048.png",-54.7,401.1347 S,0,70556,,0.504 R,0,70556,,-0.1396263 F,0,70556,70656,0,1 F,0,72310,72410,1,0
Sprite,Foreground,TopLeft,"SB/lyrics/_049.png",-18.89867,395.5942 S,0,70725,,0.504 R,0,70725,,-0.1396263 F,0,70725,70825,0,1 F,0,72310,72410,1,0
Sprite,Foreground,TopLeft,"SB/lyrics/_04a.png",40.65688,381.6257 S,0,70893,,0.504 R,0,70893,,-0.1396263 F,0,70893,70993,0,1 F,0,72310,72410,1,0
Sprite,Foreground,TopLeft,"SB/lyrics/_04b.png",145.1769,372.5349 S,0,71230,,0.504 R,0,71230,,-0.1396263 F,0,71230,71330,0,1 F,0,72310,72410,1,0
Sprite,Foreground,TopLeft,"SB/lyrics/_039.png",-52.52725,369.5132 S,0,72916,,0.96 R,0,72916,,-0.1396263 F,0,72916,73016,0,1 F,0,74501,74601,1,0
Sprite,Foreground,TopLeft,"SB/lyrics/_03a.png",68.25591,350.5993 S,0,73590,,0.96 R,0,73590,,-0.1396263 F,0,73590,73690,0,1 F,0,74501,74601,1,0
Sprite,Foreground,TopLeft,"SB/lyrics/_03b.png",153.5821,341.5158 S,0,74264,,0.96 R,0,74264,,-0.1396263 F,0,74264,74364,0,1 F,0,74501,74601,1,0
Sprite,Foreground,TopLeft,"SB/lyrics/_03c.png",-54.58873,366.2598 S,0,74938,,0.56 R,0,74938,,-0.1396263 F,0,74938,75038,0,1 F,0,77198,77298,1,0
Sprite,Foreground,TopLeft,"SB/lyrics/_04c.png",96.17355,343.375 S,0,75275,,0.56 R,0,75275,,-0.1396263 F,0,75275,75375,0,1 F,0,77198,77298,1,0
Sprite,Foreground,TopLeft,"SB/lyrics/0041.png",-55.93164,408.152 S,0,75781,,0.56 R,0,75781,,-0.1396263 F,0,75781,75881,0,1 F,0,77198,77298,1,0
Sprite,Foreground,TopLeft,"SB/lyrics/_04e.png",-20.12612,404.2509 S,0,75949,,0.56 R,0,75949,,-0.1396263 F,0,75949,76049,0,1 F,0,77198,77298,1,0
Sprite,Foreground,TopLeft,"SB/lyrics/_03f.png",100.7684,386.1292 S,0,76286,,0.56 R,0,76286,,-0.1396263 F,0,76286,76386,0,1 F,0,77198,77298,1,0
Sprite,Foreground,TopLeft,"SB/lyrics/_04f.png",-53.83043,364.2813 S,0,77635,,0.48 R,0,77635,,-0.1396263 F,0,77635,77735,0,1 F,0,79894,79994,1,0
Sprite,Foreground,TopLeft,"SB/lyrics/_050.png",54.38607,349.0724 S,0,77972,,0.48 R,0,77972,,-0.1396263 F,0,77972,78072,0,1 F,0,79894,79994,1,0
Sprite,Foreground,TopLeft,"SB/lyrics/_051.png",104.0703,341.605 S,0,78140,,0.48 R,0,78140,,-0.1396263 F,0,78140,78240,0,1 F,0,79894,79994,1,0
Sprite,Foreground,TopLeft,"SB/lyrics/_052.png",166.6553,332.8093 S,0,78309,,0.48 R,0,78309,,-0.1396263 F,0,78309,78409,0,1 F,0,79894,79994,1,0
Sprite,Foreground,TopLeft,"SB/lyrics/_02b.png",-53.19727,403.8375 S,0,78646,,0.664 R,0,78646,,-0.1396263 F,0,78646,78746,0,1 F,0,79894,79994,1,0
Sprite,Foreground,TopLeft,"SB/lyrics/_00d.png",7.327911,395.3312 S,0,78815,,0.664 R,0,78815,,-0.1396263 F,0,78815,78915,0,1 F,0,79894,79994,1,0
Sprite,Foreground,TopLeft,"SB/lyrics/_053.png",73.4937,384.0207 S,0,78983,,0.664 R,0,78983,,-0.1396263 F,0,78983,79083,0,1 F,0,79894,79994,1,0
Sprite,Foreground,TopLeft,"SB/lyrics/0059.png",-55.59813,365.4991 S,0,80247,,0.48 R,0,80247,,-0.1396263 F,0,80247,80347,0,1 F,0,82928,83028,1,0
Sprite,Foreground,TopLeft,"SB/lyrics/_054.png",-24.10996,359.6196 S,0,80331,,0.48 R,0,80331,,-0.1396263 F,0,80331,80431,0,1 F,0,82928,83028,1,0
Sprite,Foreground,TopLeft,"SB/lyrics/_02b.png",87.15892,345.4359 S,0,80500,,0.48 R,0,80500,,-0.1396263 F,0,80500,80600,0,1 F,0,82928,83028,1,0
Sprite,Foreground,TopLeft,"SB/lyrics/_00d.png",133.1074,338.9783 S,0,80669,,0.48 R,0,80669,,-0.1396263 F,0,80669,80769,0,1 F,0,82928,83028,1,0
Sprite,Foreground,TopLeft,"SB/lyrics/_055.png",182.3831,332.053 S,0,80837,,0.48 R,0,80837,,-0.1396263 F,0,80837,80937,0,1 F,0,82928,83028,1,0
Sprite,Foreground,TopLeft,"SB/lyrics/_056.png",-55.6081,401.5908 S,0,81174,,0.488 R,0,81174,,-0.1396263 F,0,81174,81274,0,1 F,0,82928,83028,1,0
Sprite,Foreground,TopLeft,"SB/lyrics/_005.png",47.86187,386.0634 S,0,81511,,0.488 R,0,81511,,-0.1396263 F,0,81511,81611,0,1 F,0,82928,83028,1,0
Sprite,Foreground,TopLeft,"SB/lyrics/_057.png",102.1082,377.9468 S,0,81680,,0.488 R,0,81680,,-0.1396263 F,0,81680,81780,0,1 F,0,82928,83028,1,0
Sprite,Foreground,TopLeft,"SB/lyrics/_03c.png",-54.70623,364.4713 S,0,85051,,0.4 R,0,85051,,-0.1396263 F,0,85051,85151,0,1 F,0,88911,89011,1,0
Sprite,Foreground,TopLeft,"SB/lyrics/_058.png",53.82715,349.2179 S,0,85388,,0.4 R,0,85388,,-0.1396263 F,0,85388,85488,0,1 F,0,88911,89011,1,0
Sprite,Foreground,TopLeft,"SB/lyrics/_009.png",113.8684,339.5678 S,0,85556,,0.4 R,0,85556,,-0.1396263 F,0,85556,85656,0,1 F,0,88911,89011,1,0
Sprite,Foreground,TopLeft,"SB/lyrics/_00d.png",209.8934,327.2842 S,0,86062,,0.4 R,0,86062,,-0.1396263 F,0,86062,86162,0,1 F,0,88911,89011,1,0
Sprite,Foreground,TopLeft,"SB/lyrics/_059.png",253.0691,321.2162 S,0,86230,,0.4 R,0,86230,,-0.1396263 F,0,86230,86330,0,1 F,0,88911,89011,1,0
Sprite,Foreground,TopLeft,"SB/lyrics/_03c.png",-54.64748,395.3655 S,0,86736,,0.48 R,0,86736,,-0.1396263 F,0,86736,86836,0,1 F,0,88911,89011,1,0
Sprite,Foreground,TopLeft,"SB/lyrics/_05a.png",74.89201,376.6752 S,0,87157,,0.48 R,0,87157,,-0.1396263 F,0,87157,87257,0,1 F,0,88911,89011,1,0
Sprite,Foreground,TopLeft,"SB/lyrics/_00d.png",137.0684,368.4216 S,0,87410,,0.48 R,0,87410,,-0.1396263 F,0,87410,87510,0,1 F,0,88911,89011,1,0
Sprite,Foreground,TopLeft,"SB/lyrics/_05b.png",187.1612,360.4121 S,0,87663,,0.48 R,0,87663,,-0.1396263 F,0,87663,87763,0,1 F,0,88911,89011,1,0
Sprite,Foreground,TopLeft,"SB/lyrics/_002.png",-54.47122,368.0482 S,0,89011,,0.72 R,0,89011,,-0.1396263 F,0,89011,89111,0,1 F,0,91692,91792,1,0
Sprite,Foreground,TopLeft,"SB/lyrics/_05c.png",54.69592,352.7058 S,0,89264,,0.72 R,0,89264,,-0.1396263 F,0,89264,89364,0,1 F,0,91692,91792,1,0
Sprite,Foreground,TopLeft,"SB/lyrics/_05d.png",113.5643,336.4346 S,0,89433,,0.72 R,0,89433,,-0.1396263 F,0,89433,89533,0,1 F,0,91692,91792,1,0
Sprite,Foreground,TopLeft,"SB/lyrics/0041.png",-56.66364,431.4857 R,0,89938,,-0.1396263 F,0,89938,90038,0,1 F,0,91692,91792,1,0
Sprite,Foreground,TopLeft,"SB/lyrics/_05e.png",0.911087,424.4039 R,0,90107,,-0.1396263 F,0,90107,90207,0,1 F,0,91692,91792,1,0
Sprite,Foreground,TopLeft,"SB/lyrics/_05f.png",82.96414,411.8623 R,0,90275,,-0.1396263 F,0,90275,90375,0,1 F,0,91692,91792,1,0
Sprite,Foreground,TopLeft,"SB/lyrics/_060.png",-56.10823,368.373 S,0,91792,,0.8 R,0,91792,,-0.1396263 F,0,91792,91892,0,1 F,0,93715,93815,1,0
Sprite,Foreground,TopLeft,"SB/lyrics/_061.png",49.82583,351.8692 S,0,91961,,0.8 R,0,91961,,-0.1396263 F,0,91961,92061,0,1 F,0,93715,93815,1,0
Sprite,Foreground,TopLeft,"SB/lyrics/_062.png",-52.97826,426.9775 S,0,92635,,0.8800001 R,0,92635,,-0.1396263 F,0,92635,92735,0,1 F,0,93715,93815,1,0
Sprite,Foreground,TopLeft,"SB/lyrics/_062.png",-53.13944,403.3906 S,0,93815,,0.96 R,0,93815,,-0.2268928 F,0,93815,93915,0,1 F,0,95737,95837,1,0
Sprite,Foreground,TopLeft,"SB/lyrics/_062.png",251.7454,75.92084 S,0,94489,,0.96 R,0,94489,,0.1745329 F,0,94489,94589,0,1 F,0,95737,95837,1,0
Sprite,Foreground,TopLeft,"SB/lyrics/_063.png",-2.687838,213.1522 S,0,95163,,1.12 F,0,95163,95263,0,1 F,0,95737,95837,1,0
Sprite,Foreground,TopLeft,"SB/lyrics/_064.png",-54.56526,359.0526 S,0,95837,,0.48 R,0,95837,,-0.1396263 F,0,95837,95937,0,1 F,0,99108,99208,1,0
Sprite,Foreground,TopLeft,"SB/lyrics/_065.png",72.85708,345.9918 S,0,96343,,0.48 R,0,96343,,-0.1396263 F,0,96343,96443,0,1 F,0,99108,99208,1,0
Sprite,Foreground,TopLeft,"SB/lyrics/_060.png",-55.60953,406.6051 S,0,97354,,0.44 R,0,97354,,-0.1396263 F,0,97354,97454,0,1 F,0,99108,99208,1,0
Sprite,Foreground,TopLeft,"SB/lyrics/_066.png",5.347733,397.1495 S,0,97522,,0.44 R,0,97522,,-0.1396263 F,0,97522,97622,0,1 F,0,99108,99208,1,0
Sprite,Foreground,TopLeft,"SB/lyrics/_02b.png",115.4116,383.014 S,0,97944,,0.44 R,0,97944,,-0.1396263 F,0,97944,98044,0,1 F,0,99108,99208,1,0
Sprite,Foreground,TopLeft,"SB/lyrics/_067.png",159.934,376.7568 S,0,98197,,0.44 R,0,98197,,-0.1396263 F,0,98197,98297,0,1 F,0,99108,99208,1,0
Sprite,Foreground,TopLeft,"SB/lyrics/_068.png",-53.80534,364.1231 S,0,99882,,0.52 R,0,99882,,-0.1396263 F,0,99882,99982,0,1 F,0,102142,102242,1,0
Sprite,Foreground,TopLeft,"SB/lyrics/_069.png",62.76901,347.7396 S,0,100219,,0.52 R,0,100219,,-0.1396263 F,0,100219,100319,0,1 F,0,102142,102242,1,0
Sprite,Foreground,TopLeft,"SB/lyrics/_060.png",-56.19689,409.9928 S,0,100725,,0.864 R,0,100725,,-0.1396263 F,0,100725,100825,0,1 F,0,102142,102242,1,0
Sprite,Foreground,TopLeft,"SB/lyrics/_06a.png",56.10743,394.2095 S,0,101062,,0.864 R,0,101062,,-0.1396263 F,0,101062,101162,0,1 F,0,102142,102242,1,0
Sprite,Foreground,TopLeft,"SB/lyrics/0059.png",-55.79752,367.3322 S,0,102494,,0.64 R,0,102494,,-0.1396263 F,0,102494,102594,0,1 F,0,104501,104601,1,0
Sprite,Foreground,TopLeft,"SB/lyrics/_002.png",-17.45433,361.9434 S,0,102579,,0.64 R,0,102579,,-0.1396263 F,0,102579,102679,0,1 F,0,104501,104601,1,0
Sprite,Foreground,TopLeft,"SB/lyrics/_06b.png",79.10677,347.7263 S,0,102747,,0.64 R,0,102747,,-0.1396263 F,0,102747,102847,0,1 F,0,104501,104601,1,0
Sprite,Foreground,TopLeft,"SB/lyrics/_00d.png",-55.95702,417.5986 S,0,103084,,0.768 R,0,103084,,-0.1396263 F,0,103084,103184,0,1 F,0,104501,104601,1,0
Sprite,Foreground,TopLeft,"SB/lyrics/_06c.png",16.28917,405.1184 S,0,103421,,0.768 R,0,103421,,-0.1396263 F,0,103421,103521,0,1 F,0,104501,104601,1,0
Sprite,Foreground,TopLeft,"SB/lyrics/_048.png",-54.5238,368.1503 S,0,105444,,0.8 R,0,105444,,-0.1396263 F,0,105444,105544,0,1 F,0,106861,106961,1,0
Sprite,Foreground,TopLeft,"SB/lyrics/_041.png",-5.295166,362.0395 S,0,105612,,0.8 R,0,105612,,-0.1396263 F,0,105612,105712,0,1 F,0,106861,106961,1,0
Sprite,Foreground,TopLeft,"SB/lyrics/_06d.png",67.58855,351.7964 S,0,105781,,0.8 R,0,105781,,-0.1396263 F,0,105781,105881,0,1 F,0,106861,106961,1,0
Sprite,Foreground,TopLeft,"SB/lyrics/_005.png",-54.19005,423.0727 S,0,105992,,0.56 R,0,105992,,-0.1396263 F,0,105992,106092,0,1 F,0,106861,106961,1,0
Sprite,Foreground,TopLeft,"SB/lyrics/_06e.png",7.046844,415.032 S,0,106118,,0.56 R,0,106118,,-0.1396263 F,0,106118,106218,0,1 F,0,106861,106961,1,0
Sprite,Foreground,TopLeft,"SB/lyrics/_06f.png",106.3918,400.5044 S,0,106455,,0.56 R,0,106455,,-0.1396263 F,0,106455,106555,0,1 F,0,106861,106961,1,0
Sprite,Foreground,TopLeft,"SB/lyrics/_070.png",189.9846,382.5357 S,0,106624,,0.56 R,0,106624,,-0.1396263 F,0,106624,106724,0,1 F,0,106861,106961,1,0
Sprite,Foreground,TopLeft,"SB/lyrics/_014.png",-55.48848,364.491 S,0,107129,,0.392 R,0,107129,,-0.1396263 F,0,107129,107229,0,1 F,0,109557,109657,1,0
Sprite,Foreground,TopLeft,"SB/lyrics/_071.png",-8.292492,352.7119 S,0,107297,,0.392 R,0,107297,,-0.1396263 F,0,107297,107397,0,1 F,0,109557,109657,1,0
Sprite,Foreground,TopLeft,"SB/lyrics/_002.png",29.06458,352.6078 S,0,107466,,0.392 R,0,107466,,-0.1396263 F,0,107466,107566,0,1 F,0,109557,109657,1,0
Sprite,Foreground,TopLeft,"SB/lyrics/_04a.png",91.39978,338.7011 S,0,107635,,0.392 R,0,107635,,-0.1396263 F,0,107635,107735,0,1 F,0,109557,109657,1,0
Sprite,Foreground,TopLeft,"SB/lyrics/_072.png",174.6298,327.0038 S,0,107803,,0.392 R,0,107803,,-0.1396263 F,0,107803,107903,0,1 F,0,109557,109657,1,0
Sprite,Foreground,TopLeft,"SB/lyrics/_004.png",-53.91402,399.6399 S,0,108477,,0.4 R,0,108477,,-0.1396263 F,0,108477,108577,0,1 F,0,109557,109657,1,0
Sprite,Foreground,TopLeft,"SB/lyrics/_073.png",35.09877,386.3221 S,0,108815,,0.4 R,0,108815,,-0.1396263 F,0,108815,108915,0,1 F,0,109557,109657,1,0
Sprite,Foreground,TopLeft,"SB/lyrics/_074.png",141.0392,366.9899 S,0,109152,,0.4 R,0,109152,,-0.1396263 F,0,109152,109252,0,1 F,0,109557,109657,1,0
Sprite,Foreground,TopLeft,"SB/lyrics/_075.png",-53.21719,366.1529 S,0,109826,,0.776 R,0,109826,,-0.1396263 F,0,109826,109926,0,1 F,0,110906,111006,1,0
Sprite,Foreground,TopLeft,"SB/lyrics/_033.png",103.9999,345.6247 S,0,110163,,0.776 R,0,110163,,-0.1396263 F,0,110163,110263,0,1 F,0,110906,111006,1,0
Sprite,Foreground,TopLeft,"SB/lyrics/_076.png",241.0213,326.3676 S,0,110331,,0.776 R,0,110331,,-0.1396263 F,0,110331,110431,0,1 F,0,110906,111006,1,0
Sprite,Foreground,TopLeft,"SB/lyrics/_077.png",-53.71344,429.4302 S,0,110500,,0.56 R,0,110500,,-0.1396263 F,0,110500,110600,0,1 F,0,110906,111006,1,0
Sprite,Foreground,TopLeft,"SB/lyrics/0059.png",84.76178,411.6653 S,0,110584,,0.56 R,0,110584,,-0.1396263 F,0,110584,110684,0,1 F,0,110906,111006,1,0
Sprite,Foreground,TopLeft,"SB/lyrics/_078.png",119.3983,399.4459 S,0,110669,,0.56 R,0,110669,,-0.1396263 F,0,110669,110769,0,1 F,0,110906,111006,1,0
Sprite,Foreground,TopLeft,"SB/lyrics/_001.png",-54.84789,363.9395 S,0,111343,,0.48 R,0,111343,,-0.1396263 F,0,111343,111443,0,1 F,0,113939,114039,1,0
Sprite,Foreground,TopLeft,"SB/lyrics/_002.png",45.48843,351.2923 S,0,111680,,0.48 R,0,111680,,-0.1396263 F,0,111680,111780,0,1 F,0,113939,114039,1,0
Sprite,Foreground,TopLeft,"SB/lyrics/_00d.png",119.006,340.9601 S,0,111848,,0.48 R,0,111848,,-0.1396263 F,0,111848,111948,0,1 F,0,113939,114039,1,0
Sprite,Foreground,TopLeft,"SB/lyrics/_079.png",167.4132,327.8556 S,0,112017,,0.48 R,0,112017,,-0.1396263 F,0,112017,112117,0,1 F,0,113939,114039,1,0
Sprite,Foreground,TopLeft,"SB/lyrics/_04b.png",-54.81757,406.8791 S,0,112522,,0.4 R,0,112522,,-0.1396263 F,0,112522,112622,0,1 F,0,113939,114039,1,0
Sprite,Foreground,TopLeft,"SB/lyrics/_041.png",81.55466,388.5211 S,0,113028,,0.4 R,0,113028,,-0.1396263 F,0,113028,113128,0,1 F,0,113939,114039,1,0
Sprite,Foreground,TopLeft,"SB/lyrics/_07a.png",121.7906,381.6544 S,0,113197,,0.4 R,0,113197,,-0.1396263 F,0,113197,113297,0,1 F,0,113939,114039,1,0
Sprite,Foreground,TopLeft,"SB/lyrics/_07b.png",198.691,371.2508 S,0,113365,,0.4 R,0,113365,,-0.1396263 F,0,113365,113465,0,1 F,0,113939,114039,1,0
Sprite,Foreground,TopLeft,"SB/lyrics/_07c.png",273.1592,360.7849 S,0,113702,,0.4 R,0,113702,,-0.1396263 F,0,113702,113802,0,1 F,0,113939,114039,1,0
Sprite,Foreground,TopLeft,"SB/lyrics/_001.png",-54.86057,363.6112 S,0,114039,,0.44 R,0,114039,,-0.1396263 F,0,114039,114139,0,1 F,0,116299,116399,1,0
Sprite,Foreground,TopLeft,"SB/lyrics/_002.png",37.77457,351.9252 S,0,114376,,0.44 R,0,114376,,-0.1396263 F,0,114376,114476,0,1 F,0,116299,116399,1,0
Sprite,Foreground,TopLeft,"SB/lyrics/_07d.png",107.385,340.8091 S,0,114545,,0.44 R,0,114545,,-0.1396263 F,0,114545,114645,0,1 F,0,116299,116399,1,0
Sprite,Foreground,TopLeft,"SB/lyrics/_07e.png",167.5933,332.3474 S,0,114713,,0.44 R,0,114713,,-0.1396263 F,0,114713,114813,0,1 F,0,116299,116399,1,0
Sprite,Foreground,TopLeft,"SB/lyrics/_028.png",245.925,316.8953 S,0,115051,,0.44 R,0,115051,,-0.1396263 F,0,115051,115151,0,1 F,0,116299,116399,1,0
Sprite,Foreground,TopLeft,"SB/lyrics/_07f.png",-54.08103,401.6716 S,0,115388,,0.4 R,0,115388,,-0.1396263 F,0,115388,115488,0,1 F,0,116973,117073,1,0
Sprite,Foreground,TopLeft,"SB/lyrics/_02b.png",96.21063,381.7613 S,0,115725,,0.4 R,0,115725,,-0.1396263 F,0,115725,115825,0,1 F,0,116973,117073,1,0
Sprite,Foreground,TopLeft,"SB/lyrics/_05e.png",137.2944,375.1795 S,0,115893,,0.4 R,0,115893,,-0.1396263 F,0,115893,115993,0,1 F,0,116973,117073,1,0
Sprite,Foreground,TopLeft,"SB/lyrics/_07b.png",174.9246,369.8909 S,0,116062,,0.4 R,0,116062,,-0.1396263 F,0,116062,116162,0,1 F,0,116973,117073,1,0
Sprite,Foreground,TopLeft,"SB/lyrics/_07c.png",249.3928,359.4251 S,0,116399,,0.4 R,0,116399,,-0.1396263 F,0,116399,116499,0,1 F,0,116973,117073,1,0
Sprite,Foreground,TopLeft,"SB/lyrics/_06f.png",-55.67076,364.1694 S,0,116567,,0.44 R,0,116567,,-0.1396263 F,0,116567,116667,0,1 F,0,118995,119095,1,0
Sprite,Foreground,TopLeft,"SB/lyrics/_080.png",12.31923,354.1697 S,0,116736,,0.44 R,0,116736,,-0.1396263 F,0,116736,116836,0,1 F,0,118995,119095,1,0
Sprite,Foreground,TopLeft,"SB/lyrics/_02b.png",128.9188,339.1157 S,0,117073,,0.44 R,0,117073,,-0.1396263 F,0,117073,117173,0,1 F,0,118995,119095,1,0
Sprite,Foreground,TopLeft,"SB/lyrics/_05e.png",173.3188,331.987 S,0,117242,,0.44 R,0,117242,,-0.1396263 F,0,117242,117342,0,1 F,0,118995,119095,1,0
Sprite,Foreground,TopLeft,"SB/lyrics/_05f.png",213.8586,325.8452 S,0,117410,,0.44 R,0,117410,,-0.1396263 F,0,117410,117510,0,1 F,0,118995,119095,1,0
Sprite,Foreground,TopLeft,"SB/lyrics/_046.png",-53.98913,397.5888 S,0,117747,,0.44 R,0,117747,,-0.1396263 F,0,117747,117847,0,1 F,0,118995,119095,1,0
Sprite,Foreground,TopLeft,"SB/lyrics/_058.png",27.31735,387.4949 S,0,118084,,0.44 R,0,118084,,-0.1396263 F,0,118084,118184,0,1 F,0,118995,119095,1,0
Sprite,Foreground,TopLeft,"SB/lyrics/_081.png",91.08675,372.7564 S,0,118253,,0.44 R,0,118253,,-0.1396263 F,0,118253,118353,0,1 F,0,118995,119095,1,0
Sprite,Foreground,TopLeft,"SB/lyrics/_041.png",191.3057,364.4478 S,0,118590,,0.44 R,0,118590,,-0.1396263 F,0,118590,118690,0,1 F,0,118995,119095,1,0
Sprite,Foreground,TopLeft,"SB/lyrics/_082.png",233.9016,357.1284 S,0,118758,,0.44 R,0,118758,,-0.1396263 F,0,118758,118858,0,1 F,0,118995,119095,1,0
Sprite,Foreground,TopLeft,"SB/lyrics/_083.png",-54.71798,364.2924 S,0,119433,,0.384 R,0,119433,,-0.1396263 F,0,119433,119533,0,1 F,0,121692,121792,1,0
Sprite,Foreground,TopLeft,"SB/lyrics/_083.png",57.39621,348.5358 S,0,119685,,0.384 R,0,119685,,-0.1396263 F,0,119685,119785,0,1 F,0,121692,121792,1,0
Sprite,Foreground,TopLeft,"SB/lyrics/_03c.png",169.5104,332.7792 S,0,119938,,0.384 R,0,119938,,-0.1396263 F,0,119938,120038,0,1 F,0,121692,121792,1,0
Sprite,Foreground,TopLeft,"SB/lyrics/_058.png",274.0193,318.0914 S,0,120107,,0.384 R,0,120107,,-0.1396263 F,0,120107,120207,0,1 F,0,121692,121792,1,0
Sprite,Foreground,TopLeft,"SB/lyrics/_084.png",-55.44713,390.0147 S,0,120275,,0.416 R,0,120275,,-0.1396263 F,0,120275,120375,0,1 F,0,121692,121792,1,0
Sprite,Foreground,TopLeft,"SB/lyrics/_085.png",67.16454,376.9837 S,0,120612,,0.416 R,0,120612,,-0.1396263 F,0,120612,120712,0,1 F,0,121692,121792,1,0
Sprite,Foreground,TopLeft,"SB/lyrics/0041.png",157.477,364.2911 S,0,120949,,0.416 R,0,120949,,-0.1396263 F,0,120949,121049,0,1 F,0,121692,121792,1,0
Sprite,Foreground,TopLeft,"SB/lyrics/_086.png",184.5226,361.7503 S,0,121118,,0.416 R,0,121118,,-0.1396263 F,0,121118,121218,0,1 F,0,121692,121792,1,0
Sprite,Foreground,TopLeft,"SB/lyrics/_041.png",216.338,357.279 S,0,121286,,0.416 R,0,121286,,-0.1396263 F,0,121286,121386,0,1 F,0,121692,121792,1,0
Sprite,Foreground,TopLeft,"SB/lyrics/_087.png",257.0425,350.2981 S,0,121455,,0.416 R,0,121455,,-0.1396263 F,0,121455,121555,0,1 F,0,121692,121792,1,0
Sprite,Foreground,TopLeft,"SB/lyrics/_014.png",-55.71777,366.5989 S,0,122129,,0.576 R,0,122129,,-0.1396263 F,0,122129,122229,0,1 F,0,124389,124489,1,0
Sprite,Foreground,TopLeft,"SB/lyrics/_049.png",11.93548,355.9276 S,0,122298,,0.576 R,0,122298,,-0.1396263 F,0,122298,122398,0,1 F,0,124389,124489,1,0
Sprite,Foreground,TopLeft,"SB/lyrics/_008.png",77.46745,346.7177 S,0,122466,,0.576 R,0,122466,,-0.1396263 F,0,122466,122566,0,1 F,0,124389,124489,1,0
Sprite,Foreground,TopLeft,"SB/lyrics/_088.png",218.2114,326.3557 S,0,122803,,0.576 R,0,122803,,-0.1396263 F,0,122803,122903,0,1 F,0,124389,124489,1,0
Sprite,Foreground,TopLeft,"SB/lyrics/_014.png",-55.49845,412.8226 S,0,123140,,0.4 R,0,123140,,-0.1396263 F,0,123140,123240,0,1 F,0,124389,124489,1,0
Sprite,Foreground,TopLeft,"SB/lyrics/_01d.png",-6.096382,405.0717 S,0,123309,,0.4 R,0,123309,,-0.1396263 F,0,123309,123409,0,1 F,0,124389,124489,1,0
Sprite,Foreground,TopLeft,"SB/lyrics/_03c.png",38.77508,399.5733 S,0,123477,,0.4 R,0,123477,,-0.1396263 F,0,123477,123577,0,1 F,0,124389,124489,1,0
Sprite,Foreground,TopLeft,"SB/lyrics/_089.png",148.7259,382.9089 S,0,123815,,0.4 R,0,123815,,-0.1396263 F,0,123815,123915,0,1 F,0,124389,124489,1,0
Sprite,Foreground,TopLeft,"SB/lyrics/_012.png",209.4973,375.5799 S,0,123983,,0.4 R,0,123983,,-0.1396263 F,0,123983,124083,0,1 F,0,124389,124489,1,0
Sprite,Foreground,TopLeft,"SB/lyrics/_08a.png",244.5838,369.437 S,0,124152,,0.4 R,0,124152,,-0.1396263 F,0,124152,124252,0,1 F,0,124389,124489,1,0
Sprite,Foreground,TopLeft,"SB/lyrics/_08b.png",-53.6355,364.9948 S,0,124826,,0.56 R,0,124826,,-0.1396263 F,0,124826,124926,0,1 F,0,127085,127185,1,0
Sprite,Foreground,TopLeft,"SB/lyrics/_08c.png",176.1067,332.7066 S,0,125500,,0.56 R,0,125500,,-0.1396263 F,0,125500,125600,0,1 F,0,127085,127185,1,0
Sprite,Foreground,TopLeft,"SB/lyrics/_08d.png",-54.45658,405.0158 S,0,126006,,0.6 R,0,126006,,-0.1396263 F,0,126006,126106,0,1 F,0,127085,127185,1,0
Sprite,Foreground,TopLeft,"SB/lyrics/_08e.png",116.5065,387.0475 S,0,126511,,0.6 R,0,126511,,-0.1396263 F,0,126511,126611,0,1 F,0,127085,127185,1,0
Sprite,Foreground,TopLeft,"SB/lyrics/_08f.png",-53.71344,364.4402 S,0,127522,,0.56 R,0,127522,,-0.1396263 F,0,127522,127622,0,1 F,0,129782,129882,1,0
Sprite,Foreground,TopLeft,"SB/lyrics/0041.png",80.0916,345.6352 S,0,128028,,0.56 R,0,128028,,-0.1396263 F,0,128028,128128,0,1 F,0,129782,129882,1,0
Sprite,Foreground,TopLeft,"SB/lyrics/_08f.png",115.7412,340.6249 S,0,128197,,0.56 R,0,128197,,-0.1396263 F,0,128197,128297,0,1 F,0,129782,129882,1,0
Sprite,Foreground,TopLeft,"SB/lyrics/_090.png",-54.82254,406.5961 S,0,128871,,0.56 R,0,128871,,-0.1396263 F,0,128871,128971,0,1 F,0,129782,129882,1,0
Sprite,Foreground,TopLeft,"SB/lyrics/_091.png",70.66424,388.9601 S,0,129208,,0.56 R,0,129208,,-0.1396263 F,0,129208,129308,0,1 F,0,129782,129882,1,0
Sprite,Foreground,TopLeft,"SB/lyrics/_092.png",-53.73296,364.638 S,0,130219,,0.52 R,0,130219,,-0.1396263 F,0,130219,130319,0,1 F,0,132563,132663,1,0
Sprite,Foreground,TopLeft,"SB/lyrics/_093.png",24.14857,353.1674 S,0,130388,,0.52 R,0,130388,,-0.1396263 F,0,130388,130488,0,1 F,0,132563,132663,1,0
Sprite,Foreground,TopLeft,"SB/lyrics/_094.png",157.201,334.4681 S,0,130725,,0.52 R,0,130725,,-0.1396263 F,0,130725,130825,0,1 F,0,132563,132663,1,0
Sprite,Foreground,TopLeft,"SB/lyrics/_095.png",-53.47963,407.0539 S,0,131567,,0.56 R,0,131567,,-0.1396263 F,0,131567,131667,0,1 F,0,132563,132663,1,0
Sprite,Foreground,TopLeft,"SB/lyrics/0041.png",122.2374,380.662 S,0,132073,,0.56 R,0,132073,,-0.1396263 F,0,132073,132173,0,1 F,0,132563,132663,1,0
Sprite,Foreground,TopLeft,"SB/lyrics/_095.png",158.1208,377.3154 S,0,132242,,0.56 R,0,132242,,-0.1396263 F,0,132242,132342,0,1 F,0,132563,132663,1,0
Sprite,Foreground,TopLeft,"SB/lyrics/_096.png",-54.83522,364.2678 S,0,132916,,0.52 R,0,132916,,-0.1396263 F,0,132916,133016,0,1 F,0,135175,135275,1,0
Sprite,Foreground,TopLeft,"SB/lyrics/_017.png",98.09108,337.5243 S,0,133253,,0.52 R,0,133253,,-0.1396263 F,0,133253,133353,0,1 F,0,135175,135275,1,0
Sprite,Foreground,TopLeft,"SB/lyrics/_01d.png",152.6389,335.6343 S,0,133421,,0.52 R,0,133421,,-0.1396263 F,0,133421,133521,0,1 F,0,135175,135275,1,0
Sprite,Foreground,TopLeft,"SB/lyrics/_097.png",209.4079,327.1309 S,0,133590,,0.52 R,0,133590,,-0.1396263 F,0,133590,133690,0,1 F,0,135175,135275,1,0
Sprite,Foreground,TopLeft,"SB/lyrics/_022.png",-54.7446,410.6507 S,0,134264,,0.56 R,0,134264,,-0.1396263 F,0,134264,134364,0,1 F,0,135175,135275,1,0
Sprite,Foreground,TopLeft,"SB/lyrics/_07d.png",36.83668,397.2143 S,0,134432,,0.56 R,0,134432,,-0.1396263 F,0,134432,134532,0,1 F,0,135175,135275,1,0
Sprite,Foreground,TopLeft,"SB/lyrics/_098.png",111.3048,386.7484 S,0,134770,,0.56 R,0,134770,,-0.1396263 F,0,134770,134870,0,1 F,0,135175,135275,1,0
Sprite,Foreground,TopLeft,"SB/lyrics/_099.png",-55.54829,365.0409 S,0,135612,,0.44 R,0,135612,,-0.1396263 F,0,135612,135712,0,1 F,0,137703,137803,1,0
Sprite,Foreground,TopLeft,"SB/lyrics/_002.png",14.68152,355.1707 S,0,135781,,0.44 R,0,135781,,-0.1396263 F,0,135781,135881,0,1 F,0,137703,137803,1,0
Sprite,Foreground,TopLeft,"SB/lyrics/_018.png",84.4144,344.9261 S,0,135949,,0.44 R,0,135949,,-0.1396263 F,0,135949,136049,0,1 F,0,137703,137803,1,0
Sprite,Foreground,TopLeft,"SB/lyrics/_09a.png",159.7503,333.4496 S,0,136286,,0.44 R,0,136286,,-0.1396263 F,0,136286,136386,0,1 F,0,137703,137803,1,0
Sprite,Foreground,TopLeft,"SB/lyrics/_022.png",-54.67163,399.6223 S,0,136792,,0.72 R,0,136792,,-0.1396263 F,0,136792,136892,0,1 F,0,137703,137803,1,0
Sprite,Foreground,TopLeft,"SB/lyrics/_09b.png",60.81226,382.665 S,0,137129,,0.72 R,0,137129,,-0.1396263 F,0,137129,137229,0,1 F,0,137703,137803,1,0
Sprite,Foreground,TopLeft,"SB/lyrics/_08f.png",-53.71344,364.4402 S,0,138140,,0.56 R,0,138140,,-0.1396263 F,0,138140,138240,0,1 F,0,140569,140669,1,0
Sprite,Foreground,TopLeft,"SB/lyrics/0041.png",80.0916,345.6352 S,0,138646,,0.56 R,0,138646,,-0.1396263 F,0,138646,138746,0,1 F,0,140569,140669,1,0
Sprite,Foreground,TopLeft,"SB/lyrics/_08f.png",115.7412,340.6249 S,0,138815,,0.56 R,0,138815,,-0.1396263 F,0,138815,138915,0,1 F,0,140569,140669,1,0
Sprite,Foreground,TopLeft,"SB/lyrics/_090.png",-54.82254,406.5961 S,0,139657,,0.56 R,0,139657,,-0.1396263 F,0,139657,139757,0,1 F,0,140569,140669,1,0
Sprite,Foreground,TopLeft,"SB/lyrics/_091.png",70.66424,388.9601 S,0,139994,,0.56 R,0,139994,,-0.1396263 F,0,139994,140094,0,1 F,0,140569,140669,1,0
Sprite,Foreground,TopLeft,"SB/lyrics/_092.png",-53.73296,364.638 S,0,141006,,0.52 R,0,141006,,-0.1396263 F,0,141006,141106,0,1 F,0,143265,143365,1,0
Sprite,Foreground,TopLeft,"SB/lyrics/_093.png",24.14857,353.1674 S,0,141175,,0.52 R,0,141175,,-0.1396263 F,0,141175,141275,0,1 F,0,143265,143365,1,0
Sprite,Foreground,TopLeft,"SB/lyrics/_094.png",157.201,334.4681 S,0,141511,,0.52 R,0,141511,,-0.1396263 F,0,141511,141611,0,1 F,0,143265,143365,1,0
Sprite,Foreground,TopLeft,"SB/lyrics/_095.png",-53.47963,407.0539 S,0,142185,,0.56 R,0,142185,,-0.1396263 F,0,142185,142285,0,1 F,0,143265,143365,1,0
Sprite,Foreground,TopLeft,"SB/lyrics/0041.png",122.2374,380.662 S,0,142691,,0.56 R,0,142691,,-0.1396263 F,0,142691,142791,0,1 F,0,143265,143365,1,0
Sprite,Foreground,TopLeft,"SB/lyrics/_095.png",158.1208,377.3154 S,0,142860,,0.56 R,0,142860,,-0.1396263 F,0,142860,142960,0,1 F,0,143265,143365,1,0
Sprite,Foreground,TopLeft,"SB/lyrics/0059.png",-55.64798,365.9574 S,0,143618,,0.52 R,0,143618,,-0.1396263 F,0,143618,143718,0,1 F,0,145962,146062,1,0
Sprite,Foreground,TopLeft,"SB/lyrics/_076.png",-22.05124,360.7105 S,0,143702,,0.52 R,0,143702,,-0.1396263 F,0,143702,143802,0,1 F,0,145962,146062,1,0
Sprite,Foreground,TopLeft,"SB/lyrics/_002.png",23.01891,354.9015 S,0,143871,,0.52 R,0,143871,,-0.1396263 F,0,143871,143971,0,1 F,0,145962,146062,1,0
Sprite,Foreground,TopLeft,"SB/lyrics/_07d.png",103.8453,341.9667 S,0,144039,,0.52 R,0,144039,,-0.1396263 F,0,144039,144139,0,1 F,0,145962,146062,1,0
Sprite,Foreground,TopLeft,"SB/lyrics/_09c.png",173.5602,332.1689 S,0,144376,,0.52 R,0,144376,,-0.1396263 F,0,144376,144476,0,1 F,0,145962,146062,1,0
Sprite,Foreground,TopLeft,"SB/lyrics/_076.png",-53.55756,404.5493 S,0,144798,,0.56 R,0,144798,,-0.1396263 F,0,144798,144898,0,1 F,0,145962,146062,1,0
Sprite,Foreground,TopLeft,"SB/lyrics/_005.png",-5.231197,397.192 S,0,144882,,0.56 R,0,144882,,-0.1396263 F,0,144882,144982,0,1 F,0,145962,146062,1,0
Sprite,Foreground,TopLeft,"SB/lyrics/_09d.png",55.84982,388.0421 S,0,145219,,0.56 R,0,145219,,-0.1396263 F,0,145219,145319,0,1 F,0,145962,146062,1,0
Sprite,Foreground,TopLeft,"SB/lyrics/_09e.png",-53.47963,366.1039 S,0,146399,,0.56 R,0,146399,,-0.1396263 F,0,146399,146499,0,1 F,0,149164,149264,1,0
Sprite,Foreground,TopLeft,"SB/lyrics/_03a.png",50.70044,349.7658 S,0,146736,,0.56 R,0,146736,,-0.1396263 F,0,146736,146836,0,1 F,0,149164,149264,1,0
Sprite,Foreground,TopLeft,"SB/lyrics/_09f.png",104.6502,342.1837 S,0,146904,,0.56 R,0,146904,,-0.1396263 F,0,146904,147004,0,1 F,0,149164,149264,1,0
Sprite,Foreground,TopLeft,"SB/lyrics/_0a0.png",-56.71101,402.6065 S,0,147410,,0.56 R,0,147410,,-0.1396263 F,0,147410,147510,0,1 F,0,149164,149264,1,0
Sprite,Foreground,TopLeft,"SB/lyrics/_008.png",44.67831,394.5777 S,0,147916,,0.56 R,0,147916,,-0.1396263 F,0,147916,148016,0,1 F,0,149164,149264,1,0
Sprite,Foreground,TopLeft,"SB/lyrics/_0a1.png",181.7327,374.7504 S,0,148253,,0.56 R,0,148253,,-0.1396263 F,0,148253,148353,0,1 F,0,149164,149264,1,0
Sprite,Foreground,TopLeft,"SB/lyrics/_0a2.png",234.0189,367.4021 S,0,148421,,0.56 R,0,148421,,-0.1396263 F,0,148421,148521,0,1 F,0,149164,149264,1,0
Sprite,Foreground,TopLeft,"SB/lyrics/_039.png",-52.52725,369.5132 S,0,149770,,0.96 R,0,149770,,-0.1396263 F,0,149770,149870,0,1 F,0,151355,151455,1,0
Sprite,Foreground,TopLeft,"SB/lyrics/_03a.png",68.25591,350.5993 S,0,150444,,0.96 R,0,150444,,-0.1396263 F,0,150444,150544,0,1 F,0,151355,151455,1,0
Sprite,Foreground,TopLeft,"SB/lyrics/_03b.png",153.5821,341.5158 S,0,151118,,0.96 R,0,151118,,-0.1396263 F,0,151118,151218,0,1 F,0,151355,151455,1,0
Sprite,Foreground,TopLeft,"SB/lyrics/_03c.png",-54.52997,367.154 S,0,151792,,0.64 R,0,151792,,-0.1396263 F,0,151792,151892,0,1 F,0,154051,154151,1,0
Sprite,Foreground,TopLeft,"SB/lyrics/_03d.png",116.638,341.1591 S,0,152129,,0.64 R,0,152129,,-0.1396263 F,0,152129,152229,0,1 F,0,154051,154151,1,0
Sprite,Foreground,TopLeft,"SB/lyrics/_00d.png",-55.64798,413.9574 S,0,152634,,0.52 R,0,152634,,-0.1396263 F,0,152634,152734,0,1 F,0,154051,154151,1,0
Sprite,Foreground,TopLeft,"SB/lyrics/_03e.png",-2.926113,406.5478 S,0,152803,,0.52 R,0,152803,,-0.1396263 F,0,152803,152903,0,1 F,0,154051,154151,1,0
Sprite,Foreground,TopLeft,"SB/lyrics/_03f.png",136.0885,385.4352 S,0,153140,,0.52 R,0,153140,,-0.1396263 F,0,153140,153240,0,1 F,0,154051,154151,1,0
Sprite,Foreground,TopLeft,"SB/lyrics/_040.png",-53.73182,364.3768 S,0,154488,,0.552 R,0,154488,,-0.1396263 F,0,154488,154588,0,1 F,0,156748,156848,1,0
Sprite,Foreground,TopLeft,"SB/lyrics/_002.png",39.14814,352.9957 S,0,154825,,0.552 R,0,154825,,-0.1396263 F,0,154825,154925,0,1 F,0,156748,156848,1,0
Sprite,Foreground,TopLeft,"SB/lyrics/_041.png",122.5049,341.2806 S,0,154994,,0.552 R,0,154994,,-0.1396263 F,0,154994,155094,0,1 F,0,156748,156848,1,0
Sprite,Foreground,TopLeft,"SB/lyrics/_042.png",175.0201,332.2278 S,0,155162,,0.552 R,0,155162,,-0.1396263 F,0,155162,155262,0,1 F,0,156748,156848,1,0
Sprite,Foreground,TopLeft,"SB/lyrics/_043.png",-54.79719,406.6527 S,0,155500,,0.64 R,0,155500,,-0.1396263 F,0,155500,155600,0,1 F,0,156748,156848,1,0
Sprite,Foreground,TopLeft,"SB/lyrics/_044.png",89.38585,386.3891 S,0,155837,,0.64 R,0,155837,,-0.1396263 F,0,155837,155937,0,1 F,0,156748,156848,1,0
Sprite,Foreground,TopLeft,"SB/lyrics/_045.png",148.3866,371.6342 S,0,156174,,0.64 R,0,156174,,-0.1396263 F,0,156174,156274,0,1 F,0,156748,156848,1,0
Sprite,Foreground,TopLeft,"SB/lyrics/_046.png",-53.89723,363.8059 S,0,157185,,0.48 R,0,157185,,-0.1396263 F,0,157185,157285,0,1 F,0,159950,160050,1,0
Sprite,Foreground,TopLeft,"SB/lyrics/_002.png",35.03121,352.762 S,0,157522,,0.48 R,0,157522,,-0.1396263 F,0,157522,157622,0,1 F,0,159950,160050,1,0
Sprite,Foreground,TopLeft,"SB/lyrics/_041.png",108.5487,342.4298 S,0,157691,,0.48 R,0,157691,,-0.1396263 F,0,157691,157791,0,1 F,0,159950,160050,1,0
Sprite,Foreground,TopLeft,"SB/lyrics/_047.png",153.3461,334.6798 S,0,157859,,0.48 R,0,157859,,-0.1396263 F,0,157859,157959,0,1 F,0,159950,160050,1,0
Sprite,Foreground,TopLeft,"SB/lyrics/_048.png",-54.7,401.1347 S,0,158196,,0.504 R,0,158196,,-0.1396263 F,0,158196,158296,0,1 F,0,159950,160050,1,0
Sprite,Foreground,TopLeft,"SB/lyrics/_049.png",-18.89867,395.5942 S,0,158365,,0.504 R,0,158365,,-0.1396263 F,0,158365,158465,0,1 F,0,159950,160050,1,0
Sprite,Foreground,TopLeft,"SB/lyrics/_04a.png",40.65688,381.6257 S,0,158533,,0.504 R,0,158533,,-0.1396263 F,0,158533,158633,0,1 F,0,159950,160050,1,0
Sprite,Foreground,TopLeft,"SB/lyrics/_04b.png",145.1769,372.5349 S,0,158870,,0.504 R,0,158870,,-0.1396263 F,0,158870,158970,0,1 F,0,159950,160050,1,0
Sprite,Foreground,TopLeft,"SB/lyrics/_039.png",-52.52725,369.5132 S,0,160556,,0.96 R,0,160556,,-0.1396263 F,0,160556,160656,0,1 F,0,162141,162241,1,0
Sprite,Foreground,TopLeft,"SB/lyrics/_03a.png",68.25591,350.5993 S,0,161230,,0.96 R,0,161230,,-0.1396263 F,0,161230,161330,0,1 F,0,162141,162241,1,0
Sprite,Foreground,TopLeft,"SB/lyrics/_03b.png",153.5821,341.5158 S,0,161904,,0.96 R,0,161904,,-0.1396263 F,0,161904,162004,0,1 F,0,162141,162241,1,0
Sprite,Foreground,TopLeft,"SB/lyrics/_03c.png",-54.58873,366.2598 S,0,162578,,0.56 R,0,162578,,-0.1396263 F,0,162578,162678,0,1 F,0,164838,164938,1,0
Sprite,Foreground,TopLeft,"SB/lyrics/_04c.png",96.17355,343.375 S,0,162915,,0.56 R,0,162915,,-0.1396263 F,0,162915,163015,0,1 F,0,164838,164938,1,0
Sprite,Foreground,TopLeft,"SB/lyrics/0041.png",-55.93164,408.152 S,0,163421,,0.56 R,0,163421,,-0.1396263 F,0,163421,163521,0,1 F,0,164838,164938,1,0
Sprite,Foreground,TopLeft,"SB/lyrics/_04e.png",-20.12612,404.2509 S,0,163589,,0.56 R,0,163589,,-0.1396263 F,0,163589,163689,0,1 F,0,164838,164938,1,0
Sprite,Foreground,TopLeft,"SB/lyrics/_03f.png",100.7684,386.1292 S,0,163926,,0.56 R,0,163926,,-0.1396263 F,0,163926,164026,0,1 F,0,164838,164938,1,0
Sprite,Foreground,TopLeft,"SB/lyrics/_04f.png",-53.83043,364.2813 S,0,165275,,0.48 R,0,165275,,-0.1396263 F,0,165275,165375,0,1 F,0,167534,167634,1,0
Sprite,Foreground,TopLeft,"SB/lyrics/_050.png",54.38607,349.0724 S,0,165612,,0.48 R,0,165612,,-0.1396263 F,0,165612,165712,0,1 F,0,167534,167634,1,0
Sprite,Foreground,TopLeft,"SB/lyrics/_051.png",104.0703,341.605 S,0,165780,,0.48 R,0,165780,,-0.1396263 F,0,165780,165880,0,1 F,0,167534,167634,1,0
Sprite,Foreground,TopLeft,"SB/lyrics/_052.png",166.6553,332.8093 S,0,165949,,0.48 R,0,165949,,-0.1396263 F,0,165949,166049,0,1 F,0,167534,167634,1,0
Sprite,Foreground,TopLeft,"SB/lyrics/_02b.png",-53.19727,403.8375 S,0,166286,,0.664 R,0,166286,,-0.1396263 F,0,166286,166386,0,1 F,0,167534,167634,1,0
Sprite,Foreground,TopLeft,"SB/lyrics/_00d.png",7.327911,395.3312 S,0,166455,,0.664 R,0,166455,,-0.1396263 F,0,166455,166555,0,1 F,0,167534,167634,1,0
Sprite,Foreground,TopLeft,"SB/lyrics/_053.png",73.4937,384.0207 S,0,166623,,0.664 R,0,166623,,-0.1396263 F,0,166623,166723,0,1 F,0,167534,167634,1,0
Sprite,Foreground,TopLeft,"SB/lyrics/0059.png",-55.59813,365.4991 S,0,167887,,0.48 R,0,167887,,-0.1396263 F,0,167887,167987,0,1 F,0,170568,170668,1,0
Sprite,Foreground,TopLeft,"SB/lyrics/_054.png",-24.10996,359.6196 S,0,167971,,0.48 R,0,167971,,-0.1396263 F,0,167971,168071,0,1 F,0,170568,170668,1,0
Sprite,Foreground,TopLeft,"SB/lyrics/_02b.png",87.15892,345.4359 S,0,168140,,0.48 R,0,168140,,-0.1396263 F,0,168140,168240,0,1 F,0,170568,170668,1,0
Sprite,Foreground,TopLeft,"SB/lyrics/_00d.png",133.1074,338.9783 S,0,168309,,0.48 R,0,168309,,-0.1396263 F,0,168309,168409,0,1 F,0,170568,170668,1,0
Sprite,Foreground,TopLeft,"SB/lyrics/_055.png",182.3831,332.053 S,0,168477,,0.48 R,0,168477,,-0.1396263 F,0,168477,168577,0,1 F,0,170568,170668,1,0
Sprite,Foreground,TopLeft,"SB/lyrics/_056.png",-55.6081,401.5908 S,0,168814,,0.488 R,0,168814,,-0.1396263 F,0,168814,168914,0,1 F,0,170568,170668,1,0
Sprite,Foreground,TopLeft,"SB/lyrics/_005.png",47.86187,386.0634 S,0,169151,,0.488 R,0,169151,,-0.1396263 F,0,169151,169251,0,1 F,0,170568,170668,1,0
Sprite,Foreground,TopLeft,"SB/lyrics/_057.png",102.1082,377.9468 S,0,169320,,0.488 R,0,169320,,-0.1396263 F,0,169320,169420,0,1 F,0,170568,170668,1,0
Sprite,Foreground,TopLeft,"SB/lyrics/_03c.png",-54.70623,364.4713 S,0,172691,,0.4 R,0,172691,,-0.1396263 F,0,172691,172791,0,1 F,0,176551,176651,1,0
Sprite,Foreground,TopLeft,"SB/lyrics/_058.png",53.82715,349.2179 S,0,173028,,0.4 R,0,173028,,-0.1396263 F,0,173028,173128,0,1 F,0,176551,176651,1,0
Sprite,Foreground,TopLeft,"SB/lyrics/_009.png",113.8684,339.5678 S,0,173196,,0.4 R,0,173196,,-0.1396263 F,0,173196,173296,0,1 F,0,176551,176651,1,0
Sprite,Foreground,TopLeft,"SB/lyrics/_00d.png",209.8934,327.2842 S,0,173702,,0.4 R,0,173702,,-0.1396263 F,0,173702,173802,0,1 F,0,176551,176651,1,0
Sprite,Foreground,TopLeft,"SB/lyrics/_059.png",253.0691,321.2162 S,0,173870,,0.4 R,0,173870,,-0.1396263 F,0,173870,173970,0,1 F,0,176551,176651,1,0
Sprite,Foreground,TopLeft,"SB/lyrics/_03c.png",-54.64748,395.3655 S,0,174376,,0.48 R,0,174376,,-0.1396263 F,0,174376,174476,0,1 F,0,176551,176651,1,0
Sprite,Foreground,TopLeft,"SB/lyrics/_05a.png",74.89201,376.6752 S,0,174797,,0.48 R,0,174797,,-0.1396263 F,0,174797,174897,0,1 F,0,176551,176651,1,0
Sprite,Foreground,TopLeft,"SB/lyrics/_00d.png",137.0684,368.4216 S,0,175050,,0.48 R,0,175050,,-0.1396263 F,0,175050,175150,0,1 F,0,176551,176651,1,0
Sprite,Foreground,TopLeft,"SB/lyrics/_05b.png",187.1612,360.4121 S,0,175303,,0.48 R,0,175303,,-0.1396263 F,0,175303,175403,0,1 F,0,176551,176651,1,0
Sprite,Foreground,TopLeft,"SB/lyrics/_002.png",-54.47122,368.0482 S,0,176651,,0.72 R,0,176651,,-0.1396263 F,0,176651,176751,0,1 F,0,179332,179432,1,0
Sprite,Foreground,TopLeft,"SB/lyrics/_05c.png",54.69592,352.7058 S,0,176904,,0.72 R,0,176904,,-0.1396263 F,0,176904,177004,0,1 F,0,179332,179432,1,0
Sprite,Foreground,TopLeft,"SB/lyrics/_05d.png",113.5643,336.4346 S,0,177073,,0.72 R,0,177073,,-0.1396263 F,0,177073,177173,0,1 F,0,179332,179432,1,0
Sprite,Foreground,TopLeft,"SB/lyrics/0041.png",-56.66364,431.4857 R,0,177578,,-0.1396263 F,0,177578,177678,0,1 F,0,179332,179432,1,0
Sprite,Foreground,TopLeft,"SB/lyrics/_05e.png",0.911087,424.4039 R,0,177747,,-0.1396263 F,0,177747,177847,0,1 F,0,179332,179432,1,0
Sprite,Foreground,TopLeft,"SB/lyrics/_05f.png",82.96414,411.8623 R,0,177915,,-0.1396263 F,0,177915,178015,0,1 F,0,179332,179432,1,0
Sprite,Foreground,TopLeft,"SB/lyrics/_060.png",-56.10823,368.373 S,0,179432,,0.8 R,0,179432,,-0.1396263 F,0,179432,179532,0,1 F,0,181355,181455,1,0
Sprite,Foreground,TopLeft,"SB/lyrics/_061.png",49.82583,351.8692 S,0,179601,,0.8 R,0,179601,,-0.1396263 F,0,179601,179701,0,1 F,0,181355,181455,1,0
Sprite,Foreground,TopLeft,"SB/lyrics/_062.png",-52.97826,426.9775 S,0,180275,,0.8800001 R,0,180275,,-0.1396263 F,0,180275,180375,0,1 F,0,181355,181455,1,0
Sprite,Foreground,TopLeft,"SB/lyrics/_062.png",22.86056,107.3906 S,0,181455,,0.96 R,0,181455,,-0.2268928 F,0,181455,181555,0,1 F,0,183377,183477,1,0
Sprite,Foreground,TopLeft,"SB/lyrics/_062.png",-32.25459,299.9208 S,0,182129,,0.96 R,0,182129,,0.1745329 F,0,182129,182229,0,1 F,0,183377,183477,1,0
Sprite,Foreground,TopLeft,"SB/lyrics/_063.png",109.3122,209.1522 S,0,182803,,1.12 F,0,182803,182903,0,1 F,0,183377,183477,1,0
Sprite,Foreground,TopLeft,"SB/lyrics/_064.png",-54.56526,359.0526 S,0,183477,,0.48 R,0,183477,,-0.1396263 F,0,183477,183577,0,1 F,0,186748,186848,1,0
Sprite,Foreground,TopLeft,"SB/lyrics/_065.png",72.85708,345.9918 S,0,183983,,0.48 R,0,183983,,-0.1396263 F,0,183983,184083,0,1 F,0,186748,186848,1,0
Sprite,Foreground,TopLeft,"SB/lyrics/_060.png",-55.60953,406.6051 S,0,184994,,0.44 R,0,184994,,-0.1396263 F,0,184994,185094,0,1 F,0,186748,186848,1,0
Sprite,Foreground,TopLeft,"SB/lyrics/_066.png",5.347733,397.1495 S,0,185162,,0.44 R,0,185162,,-0.1396263 F,0,185162,185262,0,1 F,0,186748,186848,1,0
Sprite,Foreground,TopLeft,"SB/lyrics/_02b.png",115.4116,383.014 S,0,185584,,0.44 R,0,185584,,-0.1396263 F,0,185584,185684,0,1 F,0,186748,186848,1,0
Sprite,Foreground,TopLeft,"SB/lyrics/_067.png",159.934,376.7568 S,0,185837,,0.44 R,0,185837,,-0.1396263 F,0,185837,185937,0,1 F,0,186748,186848,1,0
Sprite,Foreground,TopLeft,"SB/lyrics/_068.png",-53.80534,364.1231 S,0,187522,,0.52 R,0,187522,,-0.1396263 F,0,187522,187622,0,1 F,0,189782,189882,1,0
Sprite,Foreground,TopLeft,"SB/lyrics/_069.png",62.76901,347.7396 S,0,187859,,0.52 R,0,187859,,-0.1396263 F,0,187859,187959,0,1 F,0,189782,189882,1,0
Sprite,Foreground,TopLeft,"SB/lyrics/_060.png",-56.19689,409.9928 S,0,188365,,0.864 R,0,188365,,-0.1396263 F,0,188365,188465,0,1 F,0,189782,189882,1,0
Sprite,Foreground,TopLeft,"SB/lyrics/_06a.png",56.10743,394.2095 S,0,188702,,0.864 R,0,188702,,-0.1396263 F,0,188702,188802,0,1 F,0,189782,189882,1,0
Sprite,Foreground,TopLeft,"SB/lyrics/0059.png",-55.79752,367.3322 S,0,190134,,0.64 R,0,190134,,-0.1396263 F,0,190134,190234,0,1 F,0,192141,192241,1,0
Sprite,Foreground,TopLeft,"SB/lyrics/_002.png",-17.45433,361.9434 S,0,190219,,0.64 R,0,190219,,-0.1396263 F,0,190219,190319,0,1 F,0,192141,192241,1,0
Sprite,Foreground,TopLeft,"SB/lyrics/_06b.png",79.10677,347.7263 S,0,190387,,0.64 R,0,190387,,-0.1396263 F,0,190387,190487,0,1 F,0,192141,192241,1,0
Sprite,Foreground,TopLeft,"SB/lyrics/_00d.png",-55.95702,417.5986 S,0,190724,,0.768 R,0,190724,,-0.1396263 F,0,190724,190824,0,1 F,0,192141,192241,1,0
Sprite,Foreground,TopLeft,"SB/lyrics/_06c.png",16.28917,405.1184 S,0,191061,,0.768 R,0,191061,,-0.1396263 F,0,191061,191161,0,1 F,0,192141,192241,1,0
Sprite,Foreground,TopLeft,"SB/lyrics/_039.png",-52.52725,369.5132 S,0,192916,,0.96 R,0,192916,,-0.1396263 F,0,192916,193016,0,1 F,0,194501,194601,1,0
Sprite,Foreground,TopLeft,"SB/lyrics/_03a.png",68.25591,350.5993 S,0,193590,,0.96 R,0,193590,,-0.1396263 F,0,193590,193690,0,1 F,0,194501,194601,1,0
Sprite,Foreground,TopLeft,"SB/lyrics/_03b.png",153.5821,341.5158 S,0,194264,,0.96 R,0,194264,,-0.1396263 F,0,194264,194364,0,1 F,0,194501,194601,1,0
Sprite,Foreground,TopLeft,"SB/lyrics/_093.png",-55.90502,364.6162 S,0,194938,,0.544 R,0,194938,,-0.1396263 F,0,194938,195038,0,1 F,0,197198,197298,1,0
Sprite,Foreground,TopLeft,"SB/lyrics/0041.png",80.76784,345.4081 S,0,195149,,0.544 R,0,195149,,-0.1396263 F,0,195149,195249,0,1 F,0,197198,197298,1,0
Sprite,Foreground,TopLeft,"SB/lyrics/_0a3.png",115.6252,340.5092 S,0,195275,,0.544 R,0,195275,,-0.1396263 F,0,195275,195375,0,1 F,0,197198,197298,1,0
Sprite,Foreground,TopLeft,"SB/lyrics/_050.png",288.4671,316.7672 S,0,195444,,0.544 R,0,195444,,-0.1396263 F,0,195444,195544,0,1 F,0,197198,197298,1,0
Sprite,Foreground,TopLeft,"SB/lyrics/_0a4.png",-54.42485,406.39 S,0,195612,,0.44 R,0,195612,,-0.1396263 F,0,195612,195712,0,1 F,0,197198,197298,1,0
Sprite,Foreground,TopLeft,"SB/lyrics/_0a5.png",14.93353,396.6423 S,0,195949,,0.44 R,0,195949,,-0.1396263 F,0,195949,196049,0,1 F,0,197198,197298,1,0
Sprite,Foreground,TopLeft,"SB/lyrics/_050.png",113.5462,383.2275 S,0,196244,,0.44 R,0,196244,,-0.1396263 F,0,196244,196344,0,1 F,0,197198,197298,1,0
Sprite,Foreground,TopLeft,"SB/lyrics/_0a6.png",159.934,377.5968 S,0,196286,,0.44 R,0,196286,,-0.1396263 F,0,196286,196386,0,1 F,0,197198,197298,1,0
Sprite,Foreground,TopLeft,"SB/lyrics/_0a7.png",280.2715,360.6845 S,0,196792,,0.44 R,0,196792,,-0.1396263 F,0,196792,196892,0,1 F,0,197198,197298,1,0
Sprite,Foreground,TopLeft,"SB/lyrics/_068.png",-53.71344,364.4402 S,0,197635,,0.56 R,0,197635,,-0.1396263 F,0,197635,197735,0,1 F,0,199979,200079,1,0
Sprite,Foreground,TopLeft,"SB/lyrics/_002.png",70.3435,348.7017 S,0,197972,,0.56 R,0,197972,,-0.1396263 F,0,197972,198072,0,1 F,0,199979,200079,1,0
Sprite,Foreground,TopLeft,"SB/lyrics/_051.png",156.7779,334.8576 S,0,198140,,0.56 R,0,198140,,-0.1396263 F,0,198140,198240,0,1 F,0,199979,200079,1,0
Sprite,Foreground,TopLeft,"SB/lyrics/_0a8.png",227.3643,324.9373 S,0,198309,,0.56 R,0,198309,,-0.1396263 F,0,198309,198409,0,1 F,0,199979,200079,1,0
Sprite,Foreground,TopLeft,"SB/lyrics/_0a9.png",-54.76284,406.7828 S,0,198646,,0.52 R,0,198646,,-0.1396263 F,0,198646,198746,0,1 F,0,199979,200079,1,0
Sprite,Foreground,TopLeft,"SB/lyrics/_0aa.png",74.09769,388.1475 S,0,199152,,0.52 R,0,199152,,-0.1396263 F,0,199152,199252,0,1 F,0,199979,200079,1,0
Sprite,Foreground,TopLeft,"SB/lyrics/_0ab.png",161.3205,375.8891 S,0,199320,,0.52 R,0,199320,,-0.1396263 F,0,199320,199420,0,1 F,0,199979,200079,1,0
Sprite,Foreground,TopLeft,"SB/lyrics/_046.png",-53.62154,364.7574 S,0,200331,,0.6 R,0,200331,,-0.1396263 F,0,200331,200431,0,1 F,0,203939,204039,1,0
Sprite,Foreground,TopLeft,"SB/lyrics/_002.png",55.55847,351.2308 S,0,200669,,0.6 R,0,200669,,-0.1396263 F,0,200669,200769,0,1 F,0,203939,204039,1,0
Sprite,Foreground,TopLeft,"SB/lyrics/_05e.png",147.6844,337.0716 S,0,200837,,0.6 R,0,200837,,-0.1396263 F,0,200837,200937,0,1 F,0,203939,204039,1,0
Sprite,Foreground,TopLeft,"SB/lyrics/_0ac.png",199.0638,330.4566 S,0,201006,,0.6 R,0,201006,,-0.1396263 F,0,201006,201106,0,1 F,0,203939,204039,1,0
Sprite,Foreground,TopLeft,"SB/lyrics/_024.png",-54.64285,411.1127 S,0,201343,,0.6 R,0,201343,,-0.1396263 F,0,201343,201443,0,1 F,0,203939,204039,1,0
Sprite,Foreground,TopLeft,"SB/lyrics/_0ad.png",-2.6693,404.4142 S,0,201511,,0.6 R,0,201511,,-0.1396263 F,0,201511,201611,0,1 F,0,203939,204039,1,0
Sprite,Foreground,TopLeft,"SB/lyrics/_00a.png",137.5837,383.4911 S,0,201848,,0.6 R,0,201848,,-0.1396263 F,0,201848,201948,0,1 F,0,203939,204039,1,0
//Storyboard Sound Samples

[TimingPoints]
6340,674.157303370787,4,1,0,40,1,0
19823,-133.333333333333,4,1,0,40,0,0
30609,-133.333333333333,4,1,0,45,0,0
41396,-117.647058823529,4,1,0,50,0,0
52182,-117.647058823529,4,1,0,55,0,0
61853,750,4,1,0,40,1,0
61853,-117.647058823529,4,1,0,40,0,0
62228,-153.846153846154,4,1,0,40,0,0
63478,674.157303370787,4,1,0,60,1,0
63815,-100,4,1,0,70,0,1
72916,-100,4,1,0,60,0,0
73421,-100,4,1,0,40,0,0
74264,-100,4,1,0,50,0,0
74601,-100,4,1,0,70,0,1
83702,-100,4,1,0,60,0,0
85051,-100,4,1,0,70,0,1
104938,-100,4,1,0,60,0,0
128534,-114.942528735632,4,1,0,50,0,0
138309,-123.456790123457,4,1,0,50,0,0
138983,-133.333333333333,4,1,0,40,0,0
149770,-133.333333333333,4,1,0,50,0,0
150107,-117.647058823529,4,1,0,60,0,0
150444,-133.333333333333,4,1,0,50,0,0
150781,-117.647058823529,4,1,0,60,0,0
151118,674.157303370787,4,1,0,60,1,0
151118,-100,4,1,0,60,0,0
151455,-100,4,1,0,70,0,1
160556,-100,4,1,0,60,0,0
161904,-100,4,1,0,70,0,1
171342,-100,4,1,0,60,0,0
172691,-100,4,1,0,70,0,1
192915,-100,4,1,0,60,0,0
193253,-133.333333333333,4,1,0,40,0,0
202860,-133.333333333333,4,1,0,50,0,0
203702,-114.942528735632,4,1,0,50,0,0
204208,-100,4,1,0,60,0,0
205050,-100,4,1,0,70,0,1
215837,-100,4,1,0,60,0,0
216006,-133.333333333333,4,1,0,40,0,0

[Colours]
Combo1 : 255,166,188
Combo2 : 157,255,255
Combo3 : 255,228,136
Combo4 : 255,179,102

[HitObjects]
360,332,19823,5,0,0:0:0:0:
360,332,20160,1,8,0:0:0:0:
308,288,20834,1,8,0:0:0:0:
228,216,21171,1,0,0:0:0:0:
288,268,21845,1,8,0:0:0:0:
140,116,22182,1,8,0:0:0:0:
316,304,22519,1,0,0:0:0:0:
316,304,22856,1,8,0:0:0:0:
316,304,23531,1,8,0:0:0:0:
244,256,24205,1,8,0:0:0:0:
244,256,24879,1,8,0:0:0:0:
388,256,25216,1,0,0:0:0:0:
388,256,25890,1,8,0:0:0:0:
388,256,26227,1,0,0:0:0:0:
388,256,26564,1,8,0:0:0:0:
288,288,27238,1,0,0:0:0:0:
288,288,27575,1,8,0:0:0:0:
288,288,28250,1,8,0:0:0:0:
288,288,28924,1,8,0:0:0:0:
288,288,29429,1,8,0:0:0:0:
288,288,29598,1,8,0:0:0:0:
288,288,30609,1,0,0:0:0:0:
288,288,30946,1,8,0:0:0:0:
288,288,31115,1,0,0:0:0:0:
272,296,31620,1,8,0:0:0:0:
320,220,31957,1,0,0:0:0:0:
272,296,32295,1,8,0:0:0:0:
348,284,32969,1,8,0:0:0:0:
348,284,33306,1,0,0:0:0:0:
348,284,33643,1,8,0:0:0:0:
348,284,33811,1,8,0:0:0:0:
248,312,34317,1,8,0:0:0:0:
280,308,34991,1,8,0:0:0:0:
280,308,35328,1,0,0:0:0:0:
240,328,35665,1,0,0:0:0:0:
240,328,36002,1,8,0:0:0:0:
332,180,36340,1,8,0:0:0:0:
332,180,36508,1,0,0:0:0:0:
244,256,37014,1,8,0:0:0:0:
244,280,37688,1,8,0:0:0:0:
312,276,38025,1,0,0:0:0:0:
312,276,38362,1,8,0:0:0:0:
312,276,38699,1,0,0:0:0:0:
232,288,39036,1,8,0:0:0:0:
232,288,39205,1,0,0:0:0:0:
260,264,39710,1,8,0:0:0:0:
260,264,40047,1,8,0:0:0:0:
120,324,41396,5,0,0:0:0:0:
144,304,42070,1,0,0:0:0:0:
144,304,42238,1,0,0:0:0:0:
144,304,42407,1,0,0:0:0:0:
120,300,42744,1,0,0:0:0:0:
384,264,43081,1,8,0:0:0:0:
160,280,43334,1,0,0:0:0:0:
384,288,43587,1,8,0:0:0:0:
164,292,43840,1,0,0:0:0:0:
384,272,44092,1,8,0:0:0:0:
480,336,44766,1,8,0:0:0:0:
480,336,44934,1,8,0:0:0:0:
480,336,45103,1,8,0:0:0:0:
456,332,45440,1,8,0:0:0:0:
160,280,45777,1,0,0:0:0:0:
384,264,46030,1,8,0:0:0:0:
164,292,46283,1,0,0:0:0:0:
384,288,46452,1,8,0:0:0:0:
95,279,46788,1,0,0:0:0:0:
146,281,47463,1,0,0:0:0:0:
146,281,47632,1,0,0:0:0:0:
146,281,47800,1,0,0:0:0:0:
150,294,47969,1,0,0:0:0:0:
340,266,48137,1,8,0:0:0:0:
327,290,48559,1,8,0:0:0:0:
163,279,48811,1,0,0:0:0:0:
315,267,48980,1,8,0:0:0:0:
315,267,49148,1,8,0:0:0:0:
165,285,49317,1,0,0:0:0:0:
380,253,49654,1,8,0:0:0:0:
87,276,50160,1,0,0:0:0:0:
118,291,50834,1,0,0:0:0:0:
424,302,51171,1,8,0:0:0:0:
424,302,51508,1,8,0:0:0:0:
157,107,52182,1,4,0:0:0:0:
92,307,52856,1,0,0:0:0:0:
349,269,53193,1,8,0:0:0:0:
349,269,53362,1,8,0:0:0:0:
126,304,53531,1,0,0:0:0:0:
373,284,53868,1,8,0:0:0:0:
149,292,54036,1,0,0:0:0:0:
88,268,54373,1,0,0:0:0:0:
88,268,54542,1,0,0:0:0:0:
350,281,54879,1,8,0:0:0:0:
446,260,55553,1,8,0:0:0:0:
144,292,55890,1,0,0:0:0:0:
95,295,56059,1,0,0:0:0:0:
381,273,56227,1,8,0:0:0:0:
348,266,56564,1,8,0:0:0:0:
166,292,56733,1,0,0:0:0:0:
319,267,56901,1,8,0:0:0:0:
321,267,57238,1,8,0:0:0:0:
129,302,57407,1,0,0:0:0:0:
119,295,57575,1,0,0:0:0:0:
141,304,58250,1,0,0:0:0:0:
158,295,58418,1,0,0:0:0:0:
166,297,58586,1,0,0:0:0:0:
166,297,58755,1,0,0:0:0:0:
350,253,58924,1,8,0:0:0:0:
155,280,59261,1,0,0:0:0:0:
155,280,59429,1,0,0:0:0:0:
365,278,59598,1,8,0:0:0:0:
363,278,59935,1,8,0:0:0:0:
363,278,60104,1,8,0:0:0:0:
90,273,60272,1,0,0:0:0:0:
99,203,60609,2,0,L|359:237,1,238.00000453949
368,328,61853,1,8,0:0:0:0:
356,320,62603,1,8,0:0:0:0:
352,316,63478,1,0,0:0:0:0:
296,260,64152,1,8,0:0:0:0:
296,260,64320,1,8,0:0:0:0:
272,208,64489,1,0,0:0:0:0:
124,332,64657,1,8,0:0:0:0:
124,332,64826,1,0,0:0:0:0:
124,332,64994,1,0,0:0:0:0:
124,332,65163,1,8,0:0:0:0:
176,284,65331,1,0,0:0:0:0:
176,284,65500,1,8,0:0:0:0:
176,284,65837,1,8,0:0:0:0:
176,284,66174,1,0,0:0:0:0:
264,304,66848,1,8,0:0:0:0:
264,304,67017,1,0,0:0:0:0:
264,304,67185,1,0,0:0:0:0:
280,208,67354,1,8,0:0:0:0:
256,264,67522,1,0,0:0:0:0:
156,312,67691,1,0,0:0:0:0:
256,264,67860,1,8,0:0:0:0:
296,268,68028,1,8,0:0:0:0:
208,280,68197,1,0,0:0:0:0:
208,280,68534,1,0,0:0:0:0:
208,280,68871,1,8,0:0:0:0:
160,300,69545,1,8,0:0:0:0:
232,276,69713,1,0,0:0:0:0:
296,120,69882,1,8,0:0:0:0:
296,120,70051,1,8,0:0:0:0:
300,256,70219,1,0,0:0:0:0:
240,304,70388,1,0,0:0:0:0:
240,304,70556,1,8,0:0:0:0:
240,304,70725,1,0,0:0:0:0:
176,284,70893,1,8,0:0:0:0:
240,252,71230,1,8,0:0:0:0:
264,236,71567,1,0,0:0:0:0:
400,296,72073,1,8,0:0:0:0:
400,296,72241,1,0,0:0:0:0:
280,264,72579,1,0,0:0:0:0:
280,264,72916,1,8,0:0:0:0:
280,264,73590,1,8,0:0:0:0:
232,300,74264,5,0,0:0:0:0:
344,288,74601,1,8,0:0:0:0:
144,300,74770,1,0,0:0:0:0:
156,312,74938,1,0,0:0:0:0:
188,296,75107,1,0,0:0:0:0:
304,292,75275,1,8,0:0:0:0:
376,272,75444,1,8,0:0:0:0:
136,296,75612,1,0,0:0:0:0:
376,272,75781,1,8,0:0:0:0:
152,296,75949,1,0,0:0:0:0:
180,328,76118,1,0,0:0:0:0:
316,264,76286,1,8,0:0:0:0:
154,282,76624,1,0,0:0:0:0:
378,256,76961,1,8,0:0:0:0:
388,272,77466,1,8,0:0:0:0:
164,296,77635,1,0,0:0:0:0:
224,320,77803,1,0,0:0:0:0:
368,296,77972,1,8,0:0:0:0:
208,296,78140,1,0,0:0:0:0:
336,308,78309,1,8,0:0:0:0:
332,316,78478,1,8,0:0:0:0:
220,296,78646,1,0,0:0:0:0:
352,280,78815,1,8,0:0:0:0:
348,280,78983,1,8,0:0:0:0:
220,308,79320,1,0,0:0:0:0:
344,320,79657,1,8,0:0:0:0:
120,300,79994,1,0,0:0:0:0:
176,296,80163,1,0,0:0:0:0:
384,288,80331,1,8,0:0:0:0:
347,277,80500,1,8,0:0:0:0:
163,324,80669,1,0,0:0:0:0:
125,314,80837,1,0,0:0:0:0:
367,262,81006,1,8,0:0:0:0:
148,301,81174,1,0,0:0:0:0:
328,233,81343,1,8,0:0:0:0:
328,233,81511,1,8,0:0:0:0:
160,312,81680,1,0,0:0:0:0:
322,254,82017,1,8,0:0:0:0:
131,304,82354,1,0,0:0:0:0:
37,229,82691,2,0,L|349:223,1,280
125,301,84039,1,0,0:0:0:0:
333,309,84208,1,8,0:0:0:0:
113,317,84376,1,0,0:0:0:0:
341,325,84545,1,8,0:0:0:0:
312,288,85051,1,0,0:0:0:0:
312,288,85219,1,0,0:0:0:0:
236,272,85388,1,8,0:0:0:0:
236,272,85556,1,0,0:0:0:0:
236,272,85725,1,8,0:0:0:0:
236,272,85978,1,0,0:0:0:0:
160,264,86230,1,8,0:0:0:0:
160,264,86567,1,0,0:0:0:0:
160,268,86736,1,8,0:0:0:0:
160,268,86904,1,8,0:0:0:0:
200,260,87073,1,0,0:0:0:0:
200,260,87410,1,8,0:0:0:0:
208,264,87579,1,0,0:0:0:0:
208,264,87663,1,0,0:0:0:0:
200,260,87747,1,0,0:0:0:0:
224,292,88084,1,0,0:0:0:0:
248,312,88253,1,8,0:0:0:0:
224,292,88421,1,8,0:0:0:0:
208,288,88758,1,0,0:0:0:0:
228,280,88927,1,0,0:0:0:0:
228,280,89095,1,8,0:0:0:0:
376,276,89264,1,0,0:0:0:0:
376,276,89433,1,8,0:0:0:0:
376,276,89601,1,8,0:0:0:0:
356,268,89938,1,0,0:0:0:0:
264,288,90107,1,8,0:0:0:0:
264,288,90275,1,0,0:0:0:0:
252,276,90444,1,0,0:0:0:0:
184,272,90781,1,8,0:0:0:0:
204,264,90949,1,8,0:0:0:0:
200,268,91118,1,0,0:0:0:0:
200,268,91286,1,0,0:0:0:0:
200,268,91455,1,8,0:0:0:0:
200,268,91792,1,0,0:0:0:0:
200,268,91961,1,0,0:0:0:0:
200,268,92129,1,8,0:0:0:0:
200,268,92298,1,0,0:0:0:0:
200,268,92635,1,8,0:0:0:0:
200,268,92803,1,8,0:0:0:0:
200,268,92972,1,0,0:0:0:0:
200,268,93140,1,0,0:0:0:0:
200,268,93478,1,8,0:0:0:0:
200,268,93815,1,0,0:0:0:0:
200,268,93983,1,0,0:0:0:0:
200,268,94152,1,8,0:0:0:0:
200,268,94320,1,0,0:0:0:0:
240,132,94489,1,8,0:0:0:0:
240,132,94657,1,8,0:0:0:0:
240,132,94826,1,0,0:0:0:0:
240,132,94994,1,8,0:0:0:0:
240,132,95163,1,0,0:0:0:0:
184,255,95837,5,0,0:0:0:0:
152,280,96174,1,0,0:0:0:0:
344,256,96343,1,8,0:0:0:0:
212,260,96511,1,0,0:0:0:0:
176,276,96680,1,0,0:0:0:0:
336,252,96848,1,8,0:0:0:0:
312,256,97185,1,8,0:0:0:0:
192,272,97522,1,0,0:0:0:0:
376,280,97691,1,8,0:0:0:0:
176,276,97860,1,0,0:0:0:0:
168,288,97944,1,0,0:0:0:0:
168,288,98028,1,0,0:0:0:0:
334,270,98197,1,8,0:0:0:0:
125,321,98534,1,0,0:0:0:0:
360,288,98870,1,8,0:0:0:0:
408,272,99039,1,8,0:0:0:0:
288,268,99208,1,8,0:0:0:0:
156,280,99376,1,0,0:0:0:0:
344,268,99545,1,8,0:0:0:0:
156,288,99882,1,0,0:0:0:0:
344,268,100219,1,8,0:0:0:0:
368,248,100388,1,8,0:0:0:0:
368,248,100472,1,8,0:0:0:0:
368,248,100556,1,8,0:0:0:0:
144,276,100725,1,0,0:0:0:0:
344,268,100893,1,8,0:0:0:0:
152,296,101230,1,0,0:0:0:0:
336,248,101567,1,8,0:0:0:0:
414,269,101736,1,8,0:0:0:0:
168,272,101904,1,0,0:0:0:0:
140,248,102073,1,0,0:0:0:0:
336,256,102242,1,8,0:0:0:0:
108,248,102410,1,0,0:0:0:0:
108,248,102579,1,0,0:0:0:0:
392,252,102747,1,8,0:0:0:0:
392,252,102916,1,8,0:0:0:0:
140,248,103084,1,0,0:0:0:0:
320,232,103253,1,8,0:0:0:0:
272,244,103590,1,8,0:0:0:0:
136,252,103927,1,0,0:0:0:0:
336,240,104095,1,8,0:0:0:0:
184,244,104264,1,0,0:0:0:0:
242,247,104433,1,8,0:0:0:0:
242,247,104517,1,8,0:0:0:0:
312,240,104601,1,8,0:0:0:0:
220,276,104770,1,0,0:0:0:0:
312,244,104938,1,8,0:0:0:0:
272,296,106624,1,0,0:0:0:0:
272,296,106792,1,0,0:0:0:0:
232,276,106876,1,0,0:0:0:0:
232,276,107298,1,8,0:0:0:0:
232,276,107635,1,0,0:0:0:0:
232,276,107972,1,8,0:0:0:0:
232,276,108140,1,8,0:0:0:0:
128,164,108225,1,8,0:0:0:0:
272,276,108646,1,0,0:0:0:0:
320,292,108983,1,8,0:0:0:0:
320,292,109320,1,0,0:0:0:0:
320,292,109489,1,0,0:0:0:0:
320,292,109573,1,0,0:0:0:0:
176,272,109994,1,8,0:0:0:0:
176,272,110331,1,0,0:0:0:0:
176,272,110669,1,8,0:0:0:0:
176,272,110837,1,8,0:0:0:0:
176,280,110921,1,8,0:0:0:0:
176,280,111343,1,0,0:0:0:0:
288,300,111680,1,8,0:0:0:0:
288,300,112017,1,0,0:0:0:0:
288,300,112185,1,0,0:0:0:0:
288,300,112354,1,8,0:0:0:0:
216,304,112522,1,0,0:0:0:0:
216,304,112691,1,8,0:0:0:0:
216,304,113028,1,0,0:0:0:0:
216,304,113197,1,8,0:0:0:0:
140,288,113365,1,4,0:0:0:0:
216,304,113702,1,4,0:0:0:0:
340,276,114376,1,8,0:0:0:0:
268,324,114713,1,0,0:0:0:0:
268,324,114882,1,8,0:0:0:0:
224,308,115051,1,8,0:0:0:0:
224,308,115219,1,0,0:0:0:0:
224,308,115388,1,8,0:0:0:0:
224,308,115725,1,0,0:0:0:0:
224,308,115893,1,0,0:0:0:0:
224,308,116062,1,12,0:0:0:0:
224,308,116399,1,12,0:0:0:0:
216,308,116736,1,0,0:0:0:0:
216,308,117410,1,8,0:0:0:0:
216,308,117579,1,0,0:0:0:0:
216,308,117747,1,0,0:0:0:0:
216,308,117916,1,8,0:0:0:0:
216,308,118084,1,0,0:0:0:0:
240,296,118253,1,8,0:0:0:0:
148,232,118421,1,8,0:0:0:0:
148,232,118590,1,0,0:0:0:0:
148,232,118758,1,8,0:0:0:0:
212,316,119095,1,0,0:0:0:0:
212,316,119433,1,8,0:0:0:0:
212,316,119517,1,8,0:0:0:0:
212,316,119685,1,8,0:0:0:0:
212,316,119770,1,8,0:0:0:0:
124,184,119938,1,8,0:0:0:0:
156,184,120022,1,8,0:0:0:0:
156,184,120107,1,8,0:0:0:0:
300,280,120444,1,0,0:0:0:0:
196,304,120612,1,0,0:0:0:0:
300,280,120781,1,8,0:0:0:0:
224,352,120949,1,8,0:0:0:0:
344,312,121118,1,0,0:0:0:0:
348,304,121286,1,8,0:0:0:0:
348,304,121455,1,0,0:0:0:0:
332,296,121792,1,8,0:0:0:0:
240,340,122129,1,0,0:0:0:0:
240,340,122298,1,0,0:0:0:0:
240,340,122466,1,8,0:0:0:0:
256,336,122803,1,0,0:0:0:0:
256,336,122972,1,8,0:0:0:0:
256,336,123140,1,8,0:0:0:0:
200,344,123309,1,0,0:0:0:0:
200,344,123478,1,8,0:0:0:0:
200,344,123646,1,0,0:0:0:0:
128,152,123815,1,0,0:0:0:0:
300,212,123983,1,8,0:0:0:0:
300,212,124152,1,0,0:0:0:0:
300,212,124489,1,0,0:0:0:0:
300,212,124826,1,8,0:0:0:0:
276,216,124994,1,8,0:0:0:0:
148,256,125163,1,0,0:0:0:0:
148,256,125331,1,0,0:0:0:0:
148,256,125500,1,8,0:0:0:0:
148,256,125837,1,0,0:0:0:0:
148,256,126006,1,8,0:0:0:0:
148,256,126343,1,8,0:0:0:0:
148,256,126511,1,0,0:0:0:0:
148,256,126680,1,0,0:0:0:0:
200,312,126848,1,8,0:0:0:0:
148,144,128197,5,0,0:0:0:0:
304,216,128702,1,8,0:0:0:0:
80,300,128871,1,0,0:0:0:0:
360,220,129208,1,8,0:0:0:0:
104,284,129544,1,0,0:0:0:0:
328,244,129881,1,8,0:0:0:0:
328,244,130219,1,8,0:0:0:0:
416,272,130556,1,8,0:0:0:0:
108,248,130893,1,0,0:0:0:0:
412,320,131399,1,8,0:0:0:0:
112,256,131567,1,0,0:0:0:0:
436,272,131904,1,8,0:0:0:0:
96,280,132242,1,0,0:0:0:0:
412,320,132579,1,8,0:0:0:0:
124,288,132747,1,0,0:0:0:0:
384,304,132916,1,8,0:0:0:0:
384,304,133253,1,8,0:0:0:0:
120,288,133590,1,0,0:0:0:0:
416,284,134095,1,8,0:0:0:0:
152,296,134264,1,0,0:0:0:0:
384,276,134601,1,8,0:0:0:0:
168,316,134938,1,0,0:0:0:0:
404,296,135275,1,8,0:0:0:0:
192,288,135612,1,0,0:0:0:0:
360,216,135949,1,8,0:0:0:0:
152,292,136286,1,0,0:0:0:0:
344,224,136792,1,8,0:0:0:0:
156,284,136961,1,0,0:0:0:0:
332,224,137298,1,8,0:0:0:0:
332,244,137466,1,8,0:0:0:0:
140,296,137635,1,0,0:0:0:0:
340,260,138309,1,8,0:0:0:0:
36,296,138983,1,0,0:0:0:0:
360,260,139657,1,8,0:0:0:0:
360,260,139994,1,8,0:0:0:0:
360,260,140331,1,8,0:0:0:0:
352,268,141006,1,8,0:0:0:0:
352,268,141343,1,8,0:0:0:0:
352,268,141680,1,8,0:0:0:0:
352,268,142354,1,8,0:0:0:0:
352,268,142691,1,8,0:0:0:0:
352,268,143028,1,8,0:0:0:0:
388,280,143702,1,8,0:0:0:0:
388,280,144039,1,8,0:0:0:0:
116,304,144208,1,0,0:0:0:0:
388,280,144376,1,8,0:0:0:0:
388,280,144882,1,8,0:0:0:0:
164,312,145388,1,0,0:0:0:0:
388,280,145556,1,8,0:0:0:0:
388,280,145725,1,8,0:0:0:0:
336,252,146399,1,8,0:0:0:0:
176,296,146736,1,0,0:0:0:0:
336,252,146904,1,8,0:0:0:0:
176,296,147073,1,0,0:0:0:0:
348,268,147579,1,8,0:0:0:0:
152,304,148084,1,0,0:0:0:0:
152,304,148252,1,0,0:0:0:0:
348,268,148421,1,8,0:0:0:0:
152,112,149770,1,4,0:0:0:0:
324,76,150444,1,12,0:0:0:0:
248,292,151118,1,0,0:0:0:0:
272,356,151455,1,8,0:0:0:0:
272,356,151624,1,8,0:0:0:0:
264,272,151792,1,0,0:0:0:0:
148,260,151961,1,0,0:0:0:0:
148,260,152129,1,8,0:0:0:0:
200,324,152298,1,0,0:0:0:0:
200,324,152466,1,8,0:0:0:0:
200,324,152635,1,8,0:0:0:0:
200,324,152803,1,0,0:0:0:0:
200,324,152972,1,0,0:0:0:0:
200,324,153140,1,8,0:0:0:0:
200,324,153478,1,8,0:0:0:0:
200,324,153815,1,0,0:0:0:0:
168,368,154320,1,0,0:0:0:0:
168,368,154489,1,8,0:0:0:0:
168,368,154657,1,8,0:0:0:0:
148,356,154826,1,0,0:0:0:0:
152,352,154994,1,8,0:0:0:0:
136,348,155163,1,0,0:0:0:0:
156,276,155331,1,0,0:0:0:0:
184,340,155500,1,8,0:0:0:0:
176,336,155669,1,8,0:0:0:0:
200,256,155837,1,0,0:0:0:0:
200,256,156174,1,0,0:0:0:0:
200,256,156511,1,8,0:0:0:0:
304,248,156848,1,0,0:0:0:0:
200,256,157017,1,0,0:0:0:0:
200,256,157185,1,8,0:0:0:0:
200,256,157354,1,0,0:0:0:0:
408,260,157522,1,8,0:0:0:0:
408,260,157691,1,8,0:0:0:0:
408,260,157860,1,0,0:0:0:0:
272,276,158028,1,8,0:0:0:0:
272,276,158197,1,8,0:0:0:0:
272,276,158365,1,0,0:0:0:0:
196,260,158534,1,8,0:0:0:0:
196,260,158871,1,8,0:0:0:0:
196,260,159208,1,0,0:0:0:0:
196,256,159713,1,8,0:0:0:0:
196,248,159882,1,0,0:0:0:0:
240,296,160219,1,0,0:0:0:0:
240,296,160556,1,8,0:0:0:0:
196,248,161230,1,8,0:0:0:0:
152,172,161904,5,0,0:0:0:0:
360,244,162241,1,8,0:0:0:0:
144,276,162410,1,0,0:0:0:0:
352,256,162578,1,8,0:0:0:0:
352,256,162662,1,8,0:0:0:0:
380,260,162747,1,8,0:0:0:0:
380,260,162915,1,8,0:0:0:0:
164,280,163084,1,0,0:0:0:0:
408,256,163252,1,8,0:0:0:0:
176,292,163589,1,0,0:0:0:0:
112,296,163758,1,0,0:0:0:0:
380,260,163927,1,8,0:0:0:0:
348,284,164264,1,8,0:0:0:0:
348,284,164433,1,8,0:0:0:0:
176,304,164601,1,0,0:0:0:0:
94,293,164770,1,0,0:0:0:0:
112,296,164854,1,0,0:0:0:0:
208,312,164938,1,0,0:0:0:0:
112,296,165107,1,0,0:0:0:0:
408,256,165275,1,8,0:0:0:0:
360,292,165612,1,8,0:0:0:0:
148,304,165781,1,0,0:0:0:0:
392,264,165949,1,8,0:0:0:0:
172,296,166286,1,0,0:0:0:0:
376,268,166455,1,8,0:0:0:0:
136,300,166624,1,0,0:0:0:0:
396,292,166961,1,8,0:0:0:0:
344,248,167129,1,8,0:0:0:0:
404,300,167213,1,8,0:0:0:0:
357,291,167298,1,8,0:0:0:0:
373,306,167466,1,8,0:0:0:0:
92,268,167635,1,0,0:0:0:0:
216,272,167803,1,0,0:0:0:0:
432,292,167972,1,8,0:0:0:0:
400,256,168309,1,8,0:0:0:0:
192,284,168478,1,0,0:0:0:0:
192,284,168646,1,0,0:0:0:0:
216,264,168983,1,0,0:0:0:0:
380,248,169152,1,8,0:0:0:0:
364,248,169320,1,8,0:0:0:0:
248,264,169489,1,0,0:0:0:0:
248,264,169573,1,0,0:0:0:0:
216,288,169657,1,0,0:0:0:0:
388,256,169826,1,8,0:0:0:0:
196,292,169994,1,0,0:0:0:0:
140,296,170331,1,0,0:0:0:0:
360,256,170500,1,8,0:0:0:0:
152,288,170668,1,0,0:0:0:0:
152,296,170837,1,0,0:0:0:0:
356,264,171005,1,8,0:0:0:0:
304,292,171174,1,8,0:0:0:0:
156,280,171343,1,0,0:0:0:0:
113,262,171679,1,0,0:0:0:0:
287,272,171848,1,8,0:0:0:0:
67,288,172016,1,0,0:0:0:0:
266,291,172185,1,8,0:0:0:0:
276,288,172691,1,8,0:0:0:0:
276,288,172860,1,0,0:0:0:0:
276,288,173028,1,0,0:0:0:0:
244,284,173197,1,8,0:0:0:0:
244,284,173281,1,8,0:0:0:0:
224,276,173365,1,8,0:0:0:0:
224,276,173618,1,0,0:0:0:0:
224,276,173871,1,8,0:0:0:0:
240,296,174208,1,0,0:0:0:0:
272,344,174376,1,8,0:0:0:0:
272,344,174545,1,8,0:0:0:0:
196,312,174713,1,0,0:0:0:0:
260,224,174882,1,0,0:0:0:0:
196,312,175051,1,8,0:0:0:0:
80,160,175219,1,0,0:0:0:0:
80,160,175303,1,0,0:0:0:0:
80,160,175388,1,0,0:0:0:0:
264,232,175725,1,0,0:0:0:0:
264,232,175893,1,8,0:0:0:0:
264,232,176062,1,8,0:0:0:0:
328,296,176399,1,0,0:0:0:0:
328,296,176567,1,8,0:0:0:0:
208,316,176736,1,0,0:0:0:0:
196,304,176820,1,0,0:0:0:0:
328,296,176904,1,0,0:0:0:0:
196,304,177073,1,8,0:0:0:0:
192,308,177242,1,0,0:0:0:0:
200,308,177579,1,8,0:0:0:0:
200,312,177747,1,8,0:0:0:0:
188,304,177916,1,0,0:0:0:0:
188,304,178084,1,8,0:0:0:0:
188,304,178421,1,0,0:0:0:0:
188,304,178590,1,8,0:0:0:0:
188,304,178758,1,8,0:0:0:0:
212,316,179095,1,0,0:0:0:0:
212,316,179433,1,8,0:0:0:0:
212,316,179601,1,0,0:0:0:0:
144,152,179770,1,0,0:0:0:0:
144,152,179938,1,8,0:0:0:0:
144,152,180022,1,8,0:0:0:0:
144,152,180107,1,8,0:0:0:0:
244,276,180444,1,0,0:0:0:0:
244,276,180612,1,8,0:0:0:0:
300,252,180781,1,0,0:0:0:0:
300,252,181118,1,8,0:0:0:0:
260,300,181286,1,8,0:0:0:0:
280,316,181455,1,0,0:0:0:0:
176,280,181539,1,0,0:0:0:0:
280,316,181624,1,0,0:0:0:0:
248,300,181792,1,8,0:0:0:0:
248,300,181961,1,0,0:0:0:0:
184,296,182129,1,8,0:0:0:0:
176,280,182213,1,8,0:0:0:0:
184,296,182298,1,8,0:0:0:0:
176,292,182466,1,0,0:0:0:0:
176,292,182635,1,8,0:0:0:0:
176,288,182803,1,0,0:0:0:0:
268,252,183478,5,12,0:0:0:0:
340,288,183815,1,8,0:0:0:0:
144,312,183983,1,0,0:0:0:0:
124,316,184067,1,0,0:0:0:0:
124,316,184152,1,0,0:0:0:0:
128,320,184320,1,0,0:0:0:0:
312,304,184488,1,8,0:0:0:0:
112,320,184657,1,0,0:0:0:0:
121,349,184826,1,0,0:0:0:0:
356,292,184994,1,8,0:0:0:0:
186,323,185162,1,0,0:0:0:0:
312,288,185331,1,8,0:0:0:0:
312,288,185415,1,8,0:0:0:0:
300,288,185499,1,8,0:0:0:0:
176,316,185668,1,0,0:0:0:0:
320,304,185837,1,8,0:0:0:0:
364,276,186174,1,8,0:0:0:0:
172,288,186343,1,0,0:0:0:0:
328,284,186511,1,8,0:0:0:0:
364,264,186595,1,8,0:0:0:0:
364,264,186680,1,8,0:0:0:0:
160,300,186848,1,0,0:0:0:0:
168,284,187017,1,0,0:0:0:0:
324,284,187185,1,8,0:0:0:0:
200,284,187354,1,0,0:0:0:0:
336,244,187522,1,8,0:0:0:0:
216,272,187691,1,0,0:0:0:0:
190,275,187775,1,0,0:0:0:0:
180,276,187860,1,0,0:0:0:0:
328,240,188028,1,8,0:0:0:0:
104,280,188197,1,0,0:0:0:0:
132,284,188365,1,0,0:0:0:0:
336,256,188534,1,8,0:0:0:0:
128,276,188871,1,0,0:0:0:0:
152,276,189039,1,0,0:0:0:0:
152,276,189124,1,0,0:0:0:0:
152,276,189208,1,0,0:0:0:0:
312,268,189376,1,8,0:0:0:0:
36,272,189545,1,0,0:0:0:0:
324,256,189713,1,8,0:0:0:0:
332,264,189882,1,8,0:0:0:0:
144,260,190051,1,0,0:0:0:0:
312,248,190219,1,8,0:0:0:0:
288,268,190303,1,8,0:0:0:0:
288,268,190388,1,8,0:0:0:0:
104,280,190556,1,0,0:0:0:0:
308,252,190725,1,8,0:0:0:0:
104,280,190893,1,0,0:0:0:0:
152,272,191062,1,0,0:0:0:0:
304,264,191230,1,8,0:0:0:0:
80,272,191567,1,0,0:0:0:0:
88,264,191736,1,0,0:0:0:0:
88,264,191820,1,0,0:0:0:0:
88,264,191904,1,0,0:0:0:0:
52,264,192073,1,0,0:0:0:0:
302,287,192242,1,8,0:0:0:0:
252,264,192410,1,8,0:0:0:0:
288,272,192494,1,8,0:0:0:0:
288,272,192578,1,8,0:0:0:0:
312,268,192747,1,8,0:0:0:0:
96,292,192915,1,0,0:0:0:0:
116,312,194264,1,0,0:0:0:0:
272,232,202860,5,8,0:0:0:0:
272,232,203028,1,0,0:0:0:0:
236,224,203365,1,8,0:0:0:0:
236,224,203702,1,0,0:0:0:0:
204,300,204208,1,0,0:0:0:0:
204,300,204376,1,8,0:0:0:0:
264,180,205051,5,4,0:0:0:0:
124,112,205725,1,4,0:0:0:0:
356,104,206062,1,12,0:0:0:0:
96,120,206399,1,4,0:0:0:0:
344,104,207073,1,12,0:0:0:0:
152,128,207410,1,4,0:0:0:0:
152,128,207747,1,4,0:0:0:0:
332,104,208421,1,12,0:0:0:0:
296,108,208758,1,12,0:0:0:0:
188,116,209095,1,4,0:0:0:0:
424,280,209770,1,8,0:0:0:0:
424,280,210107,1,8,0:0:0:0:
136,256,210443,1,0,0:0:0:0:
104,264,210780,1,0,0:0:0:0:
408,268,210949,1,8,0:0:0:0:
156,288,211286,1,0,0:0:0:0:
160,248,211455,1,0,0:0:0:0:
397,275,211792,1,8,0:0:0:0:
104,264,212129,1,0,0:0:0:0:
132,264,212298,1,0,0:0:0:0:
288,252,212467,1,8,0:0:0:0:
343,257,212803,1,8,0:0:0:0:
140,252,213140,1,0,0:0:0:0:
184,240,213646,1,0,0:0:0:0:
352,236,213815,1,8,0:0:0:0:
356,224,213983,1,8,0:0:0:0:
356,224,214152,1,8,0:0:0:0:
180,292,214320,1,0,0:0:0:0:
344,228,214489,1,8,0:0:0:0:
344,228,214657,1,8,0:0:0:0:
344,228,214826,1,8,0:0:0:0:
344,224,214994,1,8,0:0:0:0:
148,256,215163,1,0,0:0:0:0:
328,216,215500,5,8,0:0:0:0:
324,196,215837,5,4,0:0:0:0:
192,272,216511,1,8,0:0:0:0:
192,272,216848,1,8,0:0:0:0:
192,272,217185,1,0,0:0:0:0:
192,272,217860,1,8,0:0:0:0:
192,272,218197,1,0,0:0:0:0:
192,272,218534,1,8,0:0:0:0:
192,272,219208,1,0,0:0:0:0:
192,272,219882,1,8,0:0:0:0:
192,272,221230,1,0,0:0:0:0:
224,288,224095,1,0,0:0:0:0:
240,280,225275,1,8,0:0:0:0:
240,280,225949,1,8,0:0:0:0:
240,280,226624,1,0,0:0:0:0:
240,280,226961,1,0,0:0:0:0:
