osu file format v14

[General]
AudioFilename: audio.mp3
AudioLeadIn: 0
PreviewTime: -1
Countdown: 1
SampleSet: None
StackLeniency: 0.7
Mode: 0
LetterboxInBreaks: 0
WidescreenStoryboard: 0

[Editor]
DistanceSpacing: 0.8
BeatDivisor: 1
GridSize: 32
TimelineZoom: 1

[Metadata]
Title:Despacito )
TitleUnicode:Despacito
Artist:Luis Fonsi
ArtistUnicode:Luis Fonsi
Creator:danielyt135
Version:impossible
Source:no
Tags:despacito
BeatmapID:1279670
BeatmapSetID:605690

[Difficulty]
HPDrainRate:6
CircleSize:4
OverallDifficulty:10
ApproachRate:5
SliderMultiplier:1.9
SliderTickRate:4

[Events]
//Background and Video events
0,0,"apple logo.PNG",0,0
//Break Periods
2,91140,95384
//Storyboard Layer 0 (Background)
//Storyboard Layer 1 (Fail)
//Storyboard Layer 2 (Pass)
//Storyboard Layer 3 (Foreground)
//Storyboard Sound Samples

[TimingPoints]
-247.463480379451,297.029702970297,4,2,0,100,1,0

[HitObjects]
160,128,8960,5,0,0:0:0:0:
416,320,9554,1,0,0:0:0:0:
192,128,10148,1,0,0:0:0:0:
64,352,10742,1,0,0:0:0:0:
288,192,11336,1,0,0:0:0:0:
64,64,11930,1,0,0:0:0:0:
288,224,12524,1,0,0:0:0:0:
128,96,12821,1,0,0:0:0:0:
288,384,13415,1,0,0:0:0:0:
320,128,14009,1,0,0:0:0:0:
64,192,14604,1,0,0:0:0:0:
416,192,15198,2,0,B|224:192|160:96|224:320|192:288,13,190
192,96,19653,1,0,0:0:0:0:
160,192,20247,1,0,0:0:0:0:
416,192,20841,1,0,0:0:0:0:
288,160,21138,1,0,0:0:0:0:
96,160,21435,1,0,0:0:0:0:
256,288,21732,1,0,0:0:0:0:
320,96,22029,1,0,0:0:0:0:
128,128,22326,1,0,0:0:0:0:
288,352,22920,1,0,0:0:0:0:
320,224,23217,1,0,0:0:0:0:
320,96,23514,1,0,0:0:0:0:
32,224,24108,1,0,0:0:0:0:
320,224,24703,1,0,0:0:0:0:
320,128,25297,1,0,0:0:0:0:
64,160,25891,1,0,0:0:0:0:
256,224,26188,1,0,0:0:0:0:
448,0,26782,1,0,0:0:0:0:
288,96,27079,1,0,0:0:0:0:
96,192,27376,1,0,0:0:0:0:
288,320,27970,1,0,0:0:0:0:
256,128,28861,1,0,0:0:0:0:
224,256,29752,1,0,0:0:0:0:
416,160,30049,1,0,0:0:0:0:
192,128,30643,1,0,0:0:0:0:
352,224,31237,1,0,0:0:0:0:
96,224,31831,1,0,0:0:0:0:
224,192,32128,1,0,0:0:0:0:
320,64,32425,1,0,0:0:0:0:
256,160,32722,1,0,0:0:0:0:
320,160,33019,1,0,0:0:0:0:
288,256,33613,1,0,0:0:0:0:
96,128,33910,1,0,0:0:0:0:
352,192,35693,1,0,0:0:0:0:
128,288,36287,1,0,0:0:0:0:
224,160,36584,1,0,0:0:0:0:
416,160,36881,1,0,0:0:0:0:
224,288,37178,1,0,0:0:0:0:
96,96,37772,1,0,0:0:0:0:
128,224,38069,1,0,0:0:0:0:
352,160,38366,1,0,0:0:0:0:
224,192,39851,1,0,0:0:0:0:
320,128,40445,1,0,0:0:0:0:
352,224,41039,1,0,0:0:0:0:
224,224,41336,1,0,0:0:0:0:
256,160,42227,1,0,0:0:0:0:
288,352,42821,1,0,0:0:0:0:
192,192,43118,1,0,0:0:0:0:
320,96,43415,1,0,0:0:0:0:
320,224,43712,1,0,0:0:0:0:
160,224,44604,2,0,B|256:288|224:288|224:160|160:192,64,190
256,192,64505,1,0,0:0:0:0:
128,224,65396,1,0,0:0:0:0:
352,192,65693,1,0,0:0:0:0:
160,128,66584,1,0,0:0:0:0:
224,256,67178,1,0,0:0:0:0:
512,160,67772,1,0,0:0:0:0:
288,160,68069,1,0,0:0:0:0:
96,256,68366,1,0,0:0:0:0:
256,256,68663,1,0,0:0:0:0:
352,192,69257,1,0,0:0:0:0:
64,64,69851,1,0,0:0:0:0:
416,160,70445,1,0,0:0:0:0:
256,224,70742,1,0,0:0:0:0:
32,224,71039,1,0,0:0:0:0:
192,160,71336,1,0,0:0:0:0:
256,160,74009,1,0,0:0:0:0:
192,192,74604,1,0,0:0:0:0:
384,256,74901,1,0,0:0:0:0:
288,128,75198,1,0,0:0:0:0:
96,96,75495,1,0,0:0:0:0:
224,160,75792,1,0,0:0:0:0:
256,224,76089,1,0,0:0:0:0:
288,192,77277,1,0,0:0:0:0:
256,224,77871,1,0,0:0:0:0:
128,192,78168,1,0,0:0:0:0:
224,192,78465,1,0,0:0:0:0:
256,256,78762,1,0,0:0:0:0:
96,192,79059,1,0,0:0:0:0:
288,192,79356,1,0,0:0:0:0:
320,256,79950,1,0,0:0:0:0:
192,32,80544,1,0,0:0:0:0:
224,128,80841,1,0,0:0:0:0:
288,256,81138,1,0,0:0:0:0:
288,256,81435,1,0,0:0:0:0:
224,256,81732,1,0,0:0:0:0:
384,192,82029,1,0,0:0:0:0:
256,160,82326,1,0,0:0:0:0:
320,96,85000,1,0,0:0:0:0:
96,128,85297,1,0,0:0:0:0:
320,256,85891,1,0,0:0:0:0:
320,160,86188,1,0,0:0:0:0:
96,224,86782,1,0,0:0:0:0:
160,224,87079,1,0,0:0:0:0:
288,224,87376,1,0,0:0:0:0:
256,128,87673,1,0,0:0:0:0:
192,160,88267,1,0,0:0:0:0:
352,384,88861,1,0,0:0:0:0:
320,256,89158,1,0,0:0:0:0:
256,192,89455,1,0,0:0:0:0:
160,160,89752,1,0,0:0:0:0:
352,192,90049,1,0,0:0:0:0:
224,96,90346,1,0,0:0:0:0:
96,128,90940,1,0,0:0:0:0:
256,160,96584,5,0,0:0:0:0:
160,256,96881,1,0,0:0:0:0:
352,192,97475,1,0,0:0:0:0:
128,128,98069,1,0,0:0:0:0:
192,224,98366,1,0,0:0:0:0:
384,160,98663,1,0,0:0:0:0:
256,288,98960,1,0,0:0:0:0:
32,96,99554,1,0,0:0:0:0:
320,160,100148,1,0,0:0:0:0:
160,320,100742,1,0,0:0:0:0:
192,224,101039,1,0,0:0:0:0:
448,192,101633,1,0,0:0:0:0:
192,128,102227,1,0,0:0:0:0:
448,320,102821,1,0,0:0:0:0:
128,192,103415,1,0,0:0:0:0:
256,192,106683,12,0,107574,0:0:0:0:
192,224,108168,5,0,0:0:0:0:
128,160,108762,1,0,0:0:0:0:
320,192,109059,1,0,0:0:0:0:
128,288,109356,1,0,0:0:0:0:
224,32,109950,1,0,0:0:0:0:
256,160,110247,1,0,0:0:0:0:
96,224,110544,1,0,0:0:0:0:
192,64,110841,1,0,0:0:0:0:
320,288,111435,1,0,0:0:0:0:
192,288,111732,1,0,0:0:0:0:
192,160,112029,1,0,0:0:0:0:
352,160,112326,1,0,0:0:0:0:
160,160,112623,1,0,0:0:0:0:
160,160,112920,1,0,0:0:0:0:
160,160,113217,1,0,0:0:0:0:
384,256,113811,1,0,0:0:0:0:
192,192,114108,1,0,0:0:0:0:
512,192,114703,1,0,0:0:0:0:
320,192,115000,1,0,0:0:0:0:
224,192,115891,1,0,0:0:0:0:
224,192,116188,1,0,0:0:0:0:
288,224,117079,1,0,0:0:0:0:
32,192,117673,1,0,0:0:0:0:
192,192,117970,1,0,0:0:0:0:
288,32,118267,1,0,0:0:0:0:
320,256,118861,1,0,0:0:0:0:
288,160,119158,1,0,0:0:0:0:
128,224,119455,1,0,0:0:0:0:
288,160,119752,1,0,0:0:0:0:
480,256,120049,1,0,0:0:0:0:
320,256,120346,1,0,0:0:0:0:
128,224,120643,1,0,0:0:0:0:
320,128,120940,1,0,0:0:0:0:
416,320,121237,1,0,0:0:0:0:
192,192,121831,1,0,0:0:0:0:
64,192,122128,1,0,0:0:0:0:
192,160,122425,1,0,0:0:0:0:
96,256,122722,1,0,0:0:0:0:
192,160,123019,1,0,0:0:0:0:
256,160,123910,1,0,0:0:0:0:
64,32,124207,1,0,0:0:0:0:
256,256,124802,1,0,0:0:0:0:
416,192,125099,1,0,0:0:0:0:
256,128,125396,1,0,0:0:0:0:
64,192,125693,1,0,0:0:0:0:
288,288,126287,1,0,0:0:0:0:
288,160,126584,1,0,0:0:0:0:
288,160,126881,1,0,0:0:0:0:
192,192,128069,1,0,0:0:0:0:
256,160,128663,1,0,0:0:0:0:
256,160,128960,1,0,0:0:0:0:
256,160,129257,1,0,0:0:0:0:
128,160,129851,1,0,0:0:0:0:
480,192,130445,1,0,0:0:0:0:
160,192,131039,1,0,0:0:0:0:
384,32,131633,1,0,0:0:0:0:
256,160,131930,1,0,0:0:0:0:
224,160,132821,1,0,0:0:0:0:
224,160,133118,1,0,0:0:0:0:
288,224,134009,1,0,0:0:0:0:
128,160,134306,1,0,0:0:0:0:
192,192,134604,1,0,0:0:0:0:
96,160,134901,1,0,0:0:0:0:
320,224,135495,1,0,0:0:0:0:
192,160,135792,1,0,0:0:0:0:
384,192,136089,1,0,0:0:0:0:
128,288,136683,1,0,0:0:0:0:
352,192,137277,1,0,0:0:0:0:
96,192,137871,1,0,0:0:0:0:
288,160,139059,1,0,0:0:0:0:
128,256,139653,1,0,0:0:0:0:
288,192,139950,1,0,0:0:0:0:
384,96,140247,1,0,0:0:0:0:
128,320,140841,1,0,0:0:0:0:
320,64,141435,1,0,0:0:0:0:
288,320,142029,1,0,0:0:0:0:
160,192,142326,1,0,0:0:0:0:
384,160,142623,1,0,0:0:0:0:
160,160,143514,1,0,0:0:0:0:
288,128,143811,1,0,0:0:0:0:
256,288,144108,1,0,0:0:0:0:
160,256,144406,1,0,0:0:0:0:
288,192,144703,1,0,0:0:0:0:
64,192,145000,1,0,0:0:0:0:
224,128,145297,1,0,0:0:0:0:
224,128,145594,1,0,0:0:0:0:
288,160,145891,1,0,0:0:0:0:
320,256,146188,1,0,0:0:0:0:
160,192,146485,1,0,0:0:0:0:
224,320,146782,1,0,0:0:0:0:
192,160,147079,1,0,0:0:0:0:
352,160,147376,1,0,0:0:0:0:
160,224,147970,1,0,0:0:0:0:
256,64,148267,1,0,0:0:0:0:
128,160,149752,2,0,P|160:288|256:224,6,190
352,224,152128,1,0,0:0:0:0:
224,192,152425,1,0,0:0:0:0:
192,256,152722,1,0,0:0:0:0:
352,224,153019,1,0,0:0:0:0:
224,64,153613,1,0,0:0:0:0:
224,384,154207,1,0,0:0:0:0:
288,288,154505,1,0,0:0:0:0:
320,192,154802,1,0,0:0:0:0:
192,160,155099,1,0,0:0:0:0:
416,96,155693,1,0,0:0:0:0:
256,192,155990,1,0,0:0:0:0:
96,96,156287,1,0,0:0:0:0:
416,288,156881,1,0,0:0:0:0:
256,192,157178,1,0,0:0:0:0:
288,288,157475,1,0,0:0:0:0:
256,160,157772,1,0,0:0:0:0:
64,128,158069,1,0,0:0:0:0:
320,192,158663,1,0,0:0:0:0:
320,192,158960,1,0,0:0:0:0:
320,192,159257,1,0,0:0:0:0:
192,224,159554,1,0,0:0:0:0:
96,0,160148,1,0,0:0:0:0:
192,96,160445,1,0,0:0:0:0:
320,288,161039,1,0,0:0:0:0:
160,64,161633,1,0,0:0:0:0:
352,288,162227,1,0,0:0:0:0:
256,96,162821,1,0,0:0:0:0:
256,256,163118,1,0,0:0:0:0:
224,0,163712,1,0,0:0:0:0:
224,96,164009,1,0,0:0:0:0:
352,288,164604,1,0,0:0:0:0:
320,160,164901,1,0,0:0:0:0:
288,224,165495,1,0,0:0:0:0:
288,224,165792,1,0,0:0:0:0:
32,128,166386,1,0,0:0:0:0:
160,160,166683,1,0,0:0:0:0:
288,224,166980,1,0,0:0:0:0:
352,224,167277,1,0,0:0:0:0:
192,128,167574,1,0,0:0:0:0:
192,192,168168,1,0,0:0:0:0:
352,288,168465,1,0,0:0:0:0:
256,160,168762,1,0,0:0:0:0:
32,224,169356,1,0,0:0:0:0:
160,224,169653,1,0,0:0:0:0:
256,224,169950,1,0,0:0:0:0:
320,0,170544,1,0,0:0:0:0:
224,96,170841,1,0,0:0:0:0:
288,384,171435,1,0,0:0:0:0:
320,224,171732,1,0,0:0:0:0:
96,192,172326,1,0,0:0:0:0:
256,160,172623,1,0,0:0:0:0:
128,128,172920,1,0,0:0:0:0:
288,224,173217,1,0,0:0:0:0:
288,160,173811,1,0,0:0:0:0:
64,224,174108,1,0,0:0:0:0:
288,256,174406,1,0,0:0:0:0:
448,160,174703,1,0,0:0:0:0:
160,224,175297,2,0,B|384:160|192:128|352:288,9,190
32,160,178564,1,0,0:0:0:0:
256,192,178861,1,0,0:0:0:0:
320,192,179455,1,0,0:0:0:0:
64,288,180049,1,0,0:0:0:0:
288,256,180346,1,0,0:0:0:0:
288,160,180940,1,0,0:0:0:0:
224,192,181534,1,0,0:0:0:0:
288,224,182128,1,0,0:0:0:0:
64,256,182722,1,0,0:0:0:0:
384,192,183316,2,0,B|192:224|384:224|160:128|160:128,13,190
160,160,187772,1,0,0:0:0:0:
288,256,188069,1,0,0:0:0:0:
0,256,188663,1,0,0:0:0:0:
256,192,189257,1,0,0:0:0:0:
64,0,189851,1,0,0:0:0:0:
224,224,190445,1,0,0:0:0:0:
416,192,190742,1,0,0:0:0:0:
192,256,191336,1,0,0:0:0:0:
416,224,191930,1,0,0:0:0:0:
320,192,192227,1,0,0:0:0:0:
160,224,192524,1,0,0:0:0:0:
288,288,192821,1,0,0:0:0:0:
384,128,193118,1,0,0:0:0:0:
192,192,194009,1,0,0:0:0:0:
416,224,194901,1,0,0:0:0:0:
320,192,195198,1,0,0:0:0:0:
384,256,195495,1,0,0:0:0:0:
288,224,195792,1,0,0:0:0:0:
416,96,196089,1,0,0:0:0:0:
96,160,196683,1,0,0:0:0:0:
384,352,197277,1,0,0:0:0:0:
192,192,197871,1,0,0:0:0:0:
352,192,198168,1,0,0:0:0:0:
160,160,198465,1,0,0:0:0:0:
288,352,198762,1,0,0:0:0:0:
256,160,199356,1,0,0:0:0:0:
256,160,199653,1,0,0:0:0:0:
256,160,199950,1,0,0:0:0:0:
128,192,200247,1,0,0:0:0:0:
320,288,200544,1,0,0:0:0:0:
224,64,201138,1,0,0:0:0:0:
192,160,201435,1,0,0:0:0:0:
160,288,201732,1,0,0:0:0:0:
224,160,202029,1,0,0:0:0:0:
192,192,202326,1,0,0:0:0:0:
192,192,202623,1,0,0:0:0:0:
288,224,203217,1,0,0:0:0:0:
64,128,203811,1,0,0:0:0:0:
160,160,204108,1,0,0:0:0:0:
224,256,204406,1,0,0:0:0:0:
320,192,204703,1,0,0:0:0:0:
448,192,205000,1,0,0:0:0:0:
320,192,205594,1,0,0:0:0:0:
320,192,205891,1,0,0:0:0:0:
320,192,206188,1,0,0:0:0:0:
96,192,206485,1,0,0:0:0:0:
352,128,207079,1,0,0:0:0:0:
256,320,207673,1,0,0:0:0:0:
192,192,207970,1,0,0:0:0:0:
352,224,208564,1,0,0:0:0:0:
192,192,208861,1,0,0:0:0:0:
288,192,209158,1,0,0:0:0:0:
160,352,209455,1,0,0:0:0:0:
224,192,209752,1,0,0:0:0:0:
352,192,210049,1,0,0:0:0:0:
224,224,210346,1,0,0:0:0:0:
160,32,210643,1,0,0:0:0:0:
256,160,210940,1,0,0:0:0:0:
352,256,211237,1,0,0:0:0:0:
224,224,211534,1,0,0:0:0:0:
320,64,211831,1,0,0:0:0:0:
320,224,212128,1,0,0:0:0:0:
192,128,212425,1,0,0:0:0:0:
224,256,212722,1,0,0:0:0:0:
160,160,213019,1,0,0:0:0:0:
160,192,215693,1,0,0:0:0:0:
384,192,215990,1,0,0:0:0:0:
160,192,216584,1,0,0:0:0:0:
160,192,216881,1,0,0:0:0:0:
160,192,217178,1,0,0:0:0:0:
448,192,217772,1,0,0:0:0:0:
256,160,218069,1,0,0:0:0:0:
96,288,218366,1,0,0:0:0:0:
320,256,218960,1,0,0:0:0:0:
320,128,219257,1,0,0:0:0:0:
160,128,219554,1,0,0:0:0:0:
192,224,219851,1,0,0:0:0:0:
416,128,220445,1,0,0:0:0:0:
320,192,220742,1,0,0:0:0:0:
128,224,221039,1,0,0:0:0:0:
160,0,221633,1,0,0:0:0:0:
256,96,221930,1,0,0:0:0:0:
288,288,222227,1,0,0:0:0:0:
64,192,222821,1,0,0:0:0:0:
192,192,223118,1,0,0:0:0:0:
224,32,223415,1,0,0:0:0:0:
384,160,223712,1,0,0:0:0:0:
192,288,224306,1,0,0:0:0:0:
192,128,224604,1,0,0:0:0:0:
352,256,224901,1,0,0:0:0:0:
96,192,225495,1,0,0:0:0:0:
288,128,225792,1,0,0:0:0:0:
320,224,226386,1,0,0:0:0:0:
224,192,227574,1,0,0:0:0:0:
