osu file format v14

[General]
AudioFilename: audio.mp3
AudioLeadIn: 0
PreviewTime: 29345
Countdown: 1
SampleSet: Soft
StackLeniency: 0.2
Mode: 0
LetterboxInBreaks: 0
WidescreenStoryboard: 0

[Editor]
Bookmarks: 1611,9736,11611,19736,29111,31611,49111,51611,69111,71611,91611
DistanceSpacing: 1
BeatDivisor: 8
GridSize: 4
TimelineZoom: 1.8

[Metadata]
Title:Echame La Culpa
TitleUnicode:Échame La Culpa
Artist:Luis Fonsi & Demi Lovato
ArtistUnicode:Luis Fonsi & Demi Lovato
Creator:newton-
Version:Guilt
Source:
Tags:despacito cut edit ver version reggaeton universal music latino short
BeatmapID:1769973
BeatmapSetID:846269

[Difficulty]
HPDrainRate:6
CircleSize:4.8
OverallDifficulty:8
ApproachRate:9.3
SliderMultiplier:2.6
SliderTickRate:1

[Events]
//Background and Video events
0,0,"anime girl.jpg",0,0
//Break Periods
//Storyboard Layer 0 (Background)
//Storyboard Layer 1 (Fail)
//Storyboard Layer 2 (Pass)
//Storyboard Layer 3 (Foreground)
//Storyboard Sound Samples

[TimingPoints]
1611,625,4,2,0,100,1,0
9736,-200,4,2,0,100,0,0
11611,-100,4,2,0,100,0,0
21142,-200,4,2,0,100,0,0
21611,-100,4,2,0,100,0,0
30048,-83.3333333333333,4,2,0,100,0,0
31611,-83.3333333333333,4,2,0,100,0,1
39111,-83.3333333333333,4,2,0,100,0,1
40517,-200,4,2,0,100,0,0
40986,-83.3333333333333,4,2,0,100,0,0
41298,-125,4,2,0,100,0,0
41611,-83.3333333333333,4,2,0,100,0,1
48798,-166.666666666667,4,2,0,100,0,0
50361,-100,4,2,0,100,0,0
59736,-200,4,2,0,100,0,0
60986,-100,4,2,0,100,0,0
61298,-83.3333333333333,4,2,0,100,0,0
61611,-100,4,2,0,100,0,0
79267,-200,4,2,0,100,0,0
79736,-100,4,2,0,100,0,0
80048,-83.3333333333333,4,2,0,100,0,0
81298,-200,4,2,0,100,0,0
82236,-100,4,2,0,100,0,0
82548,-83.3333333333333,4,2,0,100,0,1
89111,-83.3333333333333,4,2,0,100,0,0
91298,-200,4,2,0,100,0,0
91611,-83.3333333333333,4,2,0,100,0,1
99579,-166.666666666667,4,2,0,100,0,0
100986,-83.3333333333333,4,2,0,100,0,0
101298,-200,4,2,0,100,0,0
101611,-83.3333333333333,4,2,0,100,0,1
108798,-200,4,2,0,100,0,0
109111,-200,4,2,0,5,0,0

[Colours]
Combo1 : 0,98,98
Combo2 : 149,149,149
Combo3 : 128,128,128
Combo4 : 185,92,0
Combo5 : 187,187,0
Combo6 : 0,64,128

[HitObjects]
118,160,1611,5,0,0:0:0:0:
183,197,1767,2,0,P|191:228|188:260,1,65,0|0,0:0|0:0,0:0:0:0:
271,123,2079,2,0,P|210:141|183:198,1,130,0|0,0:0|0:0,0:0:0:0:
260,199,2548,2,0,L|324:204,1,65,0|0,0:0|0:0,0:0:0:0:
410,295,2861,6,0,B|376:273|376:273|272:282,1,130,0|0,0:0|0:0,0:0:0:0:
358,352,3329,1,0,0:0:0:0:
462,238,3486,2,0,P|465:205|456:174,1,65,0|0,0:0|0:0,0:0:0:0:
417,106,3798,2,0,L|352:100,1,65,0|0,0:0|0:0,0:0:0:0:
301,161,4111,69,0,0:0:0:0:
346,35,4267,2,0,L|351:99,1,65,0|0,0:0|0:0,0:0:0:0:
238,115,4579,2,0,P|291:81|351:99,1,130,0|0,0:0|0:0,0:0:0:0:
295,226,5048,2,0,L|300:161,1,65,0|0,0:0|0:0,0:0:0:0:
182,62,5361,6,0,B|160:96|160:96|167:185,1,130,0|0,0:0|0:0,0:0:0:0:
174,262,5829,1,0,0:0:0:0:
238,218,5986,2,0,P|271:215|302:224,1,65,0|0,0:0|0:0,0:0:0:0:
364,266,6298,2,0,P|378:295|380:328,1,65,0|0,0:0|0:0,0:0:0:0:
406,203,6611,69,0,0:0:0:0:
445,333,6767,2,0,L|381:327,1,65,0|0,0:0|0:0,0:0:0:0:
295,226,7079,2,0,B|261:222|233:242|233:242|203:261|169:257,1,130,0|0,0:0|0:0,0:0:0:0:
275,365,7548,2,0,P|283:333|280:301,1,65,0|0,0:0|0:0,0:0:0:0:
184,181,7861,6,0,B|175:85|175:85|203:107,1,130,0|0,0:0|0:0,0:0:0:0:
295,226,8329,1,0,0:0:0:0:
172,258,8486,2,0,L|108:252,1,65,0|0,0:0|0:0,0:0:0:0:
308,150,8798,2,0,L|371:144,1,65,0|0,0:0|0:0,0:0:0:0:
125,24,9111,5,0,0:0:0:0:
125,24,9736,70,0,L|122:55,3,32.5,0|0|0|0,0:0|0:0|0:0|0:0,0:0:0:0:
195,84,10361,70,0,L|197:115,3,32.5,0|0|0|0,0:0|0:0|0:0|0:0,0:0:0:0:
52,116,10986,6,0,L|45:187,1,65,0|0,0:0|0:0,0:0:0:0:
87,246,11454,1,0,0:0:0:0:
153,206,11611,6,0,B|186:202|214:222|214:222|244:241|278:237,1,130,0|0,0:0|0:0,0:0:0:0:
335,186,12079,1,0,0:0:0:0:
256,96,12236,2,0,L|262:175,1,65,0|0,0:0|0:0,0:0:0:0:
270,302,12548,2,0,L|275:237,1,65,0|0,0:0|0:0,0:0:0:0:
394,135,12861,5,0,0:0:0:0:
385,244,13017,1,0,0:0:0:0:
334,185,13173,1,0,0:0:0:0:
444,194,13329,1,0,0:0:0:0:
455,84,13486,2,0,P|399:54|339:74,1,130,0|0,0:0|0:0,0:0:0:0:
394,135,13954,1,0,0:0:0:0:
455,84,14111,70,0,L|449:19,1,65,0|0,0:0|0:0,0:0:0:0:
273,36,14423,2,0,P|264:70|268:99,1,65,0|0,0:0|0:0,0:0:0:0:
339,73,14736,1,0,0:0:0:0:
145,45,14892,1,0,0:0:0:0:
273,36,15048,1,0,0:0:0:0:
82,85,15204,1,0,0:0:0:0:
208,5,15361,5,0,0:0:0:0:
211,80,15517,1,0,0:0:0:0:
147,120,15673,1,0,0:0:0:0:
82,85,15829,1,0,0:0:0:0:
137,222,15986,70,0,L|143:158,1,65,0|0,0:0|0:0,0:0:0:0:
147,120,16220,5,0,0:0:0:0:
76,271,16454,70,0,P|133:301|190:280,1,130,0|0,0:0|0:0,0:0:0:0:
248,225,16923,2,0,L|312:231,1,65,0|0,0:0|0:0,0:0:0:0:
396,304,17236,6,0,L|390:240,1,65,0|0,0:0|0:0,0:0:0:0:
386,202,17470,69,0,0:0:0:0:
327,107,17704,6,0,B|305:141|305:141|312:230,1,130,0|0,0:0|0:0,0:0:0:0:
364,41,18173,2,0,P|333:33|301:36,1,65,0|0,0:0|0:0,0:0:0:0:
230,63,18486,2,0,P|197:66|166:58,1,65,0|0,0:0|0:0,0:0:0:0:
101,15,18798,1,0,0:0:0:0:
145,233,18954,69,0,0:0:0:0:
145,233,19032,1,0,0:0:0:0:
145,233,19111,1,0,0:0:0:0:
101,15,19423,1,0,0:0:0:0:
145,233,19736,22,0,P|178:236|209:227,1,65,0|0,0:0|0:0,0:0:0:0:
271,185,20048,2,0,P|285:156|287:123,1,65,0|0,0:0|0:0,0:0:0:0:
268,49,20361,5,0,0:0:0:0:
287,123,20517,1,0,0:0:0:0:
352,161,20673,1,0,0:0:0:0:
424,141,20829,1,0,0:0:0:0:
460,75,20986,1,0,0:0:0:0:
405,213,21142,6,0,L|410:276,1,65,0|0,0:0|0:0,0:0:0:0:
287,308,21611,54,0,B|320:312|348:292|348:292|378:273|412:277,1,130,0|0,0:0|0:0,0:0:0:0:
394,353,22079,1,0,0:0:0:0:
304,232,22236,1,0,0:0:0:0:
229,255,22392,1,0,0:0:0:0:
211,331,22548,1,0,0:0:0:0:
267,384,22704,1,0,0:0:0:0:
164,249,22861,6,0,L|243:255,1,65,0|0,0:0|0:0,0:0:0:0:
304,232,23173,2,0,P|310:200|305:168,1,65,0|0,0:0|0:0,0:0:0:0:
194,87,23486,2,0,B|283:94|283:94|317:72,1,130,0|0,0:0|0:0,0:0:0:0:
379,25,23954,1,0,0:0:0:0:
379,25,24032,1,0,0:0:0:0:
379,25,24111,70,0,L|458:31,1,65,0|0,0:0|0:0,0:0:0:0:
370,163,24423,2,0,L|305:167,1,65,0|0,0:0|0:0,0:0:0:0:
423,106,24736,1,0,0:0:0:0:
444,181,24892,1,0,0:0:0:0:
406,248,25048,1,0,0:0:0:0:
331,269,25204,1,0,0:0:0:0:
264,231,25361,6,0,P|254:263|258:295,1,65,0|0,0:0|0:0,0:0:0:0:
400,310,25673,2,0,P|410:278|405:245,1,65,0|0,0:0|0:0,0:0:0:0:
258,293,25986,2,0,B|224:315|224:315|135:308,1,130,0|0,0:0|0:0,0:0:0:0:
39,224,26454,1,0,0:0:0:0:
39,224,26532,1,0,0:0:0:0:
39,224,26611,69,0,0:0:0:0:
57,301,26767,1,0,0:0:0:0:
135,308,26923,1,0,0:0:0:0:
165,235,27079,1,0,0:0:0:0:
105,183,27236,2,0,P|100:151|106:119,1,65,0|0,0:0|0:0,0:0:0:0:
241,99,27548,1,0,0:0:0:0:
168,70,27704,1,0,0:0:0:0:
95,41,27861,6,0,L|31:46,1,65,0|0,0:0|0:0,0:0:0:0:
106,119,28173,1,0,0:0:0:0:
168,70,28329,1,0,0:0:0:0:
134,307,28486,1,0,0:0:0:0:
168,70,28798,1,0,0:0:0:0:
168,70,29423,6,0,P|199:65|231:71,1,65,0|0,0:0|0:0,0:0:0:0:
275,116,29736,2,0,P|257:90|231:71,1,65,0|0,0:0|0:0,0:0:0:0:
351,115,30048,6,0,P|312:109|274:116,1,77.999997619629,0|0,0:0|0:0,0:0:0:0:
222,171,30361,2,0,P|243:138|275:115,1,77.999997619629,0|0,0:0|0:0,0:0:0:0:
351,115,30673,1,0,0:0:0:0:
146,170,30829,5,0,0:0:0:0:
146,170,30907,1,0,0:0:0:0:
146,170,30986,1,0,0:0:0:0:
222,171,31142,1,0,0:0:0:0:
275,226,31298,1,0,0:0:0:0:
273,302,31454,1,0,0:0:0:0:
217,354,31611,5,0,0:0:0:0:
275,226,31767,2,0,B|338:231|338:231|361:249|361:249|424:254,1,155.999995239258,0|0,0:0|0:0,0:0:0:0:
221,171,32236,2,0,P|201:203|200:242,1,77.999997619629,0|0,0:0|0:0,0:0:0:0:
396,161,32548,2,0,P|395:123|374:90,1,77.999997619629,0|0,0:0|0:0,0:0:0:0:
243,98,32861,69,0,0:0:0:0:
275,226,33017,1,0,0:0:0:0:
263,24,33173,1,0,0:0:0:0:
221,171,33329,1,0,0:0:0:0:
93,102,33486,2,0,B|132:98|132:98|167:114,1,77.999997619629,0|0,0:0|0:0,0:0:0:0:
243,98,33720,2,0,B|277:113|277:113|317:110,1,77.999997619629,0|0,0:0|0:0,0:0:0:0:
393,94,33954,1,0,0:0:0:0:
343,238,34111,5,0,0:0:0:0:
339,37,34267,2,0,P|319:70|317:109,1,77.999997619629,0|0,0:0|0:0,0:0:0:0:
444,153,34579,1,0,0:0:0:0:
292,179,34736,70,0,P|263:180|236:174,1,51.999998413086,0|0,0:0|0:0,0:0:0:0:
232,207,34944,2,0,P|206:194|186:174,1,51.999998413086,0|0,0:0|0:0,0:0:0:0:
166,201,35152,2,0,P|150:177|142:150,1,51.999998413086,0|0,0:0|0:0,0:0:0:0:
95,50,35361,6,0,P|91:77|92:105,1,51.999998413086,0|0,0:0|0:0,0:0:0:0:
42,159,35569,2,0,P|52:184|67:208,1,51.999998413086,0|0,0:0|0:0,0:0:0:0:
54,281,35777,2,0,P|76:297|100:310,1,51.999998413086,0|0,0:0|0:0,0:0:0:0:
214,176,35986,70,0,P|182:156|143:155,1,77.999997619629
47,358,36298,2,0,L|53:280,1,77.999997619629,0|0,0:0|0:0,0:0:0:0:
197,252,36611,2,0,B|252:264|276:227|264:230|296:198|344:211,1,155.999995239258,0|0,0:0|0:0,0:0:0:0:
324,286,37079,1,0,0:0:0:0:
214,176,37236,2,0,P|214:137|234:104,1,77.999997619629,0|0,0:0|0:0,0:0:0:0:
402,292,37548,2,0,L|310:283,1,77.999997619629,0|0,0:0|0:0,0:0:0:0:
197,252,37861,5,0,0:0:0:0:
180,328,38017,1,0,0:0:0:0:
214,176,38173,69,0,0:0:0:0:
122,275,38329,1,0,0:0:0:0:
98,46,38486,6,0,P|135:36|173:47,1,77.999997619629
291,169,38798,2,0,L|211:175,1,77.999997619629,0|0,0:0|0:0,0:0:0:0:
47,298,39111,69,0,0:0:0:0:
213,175,39423,1,0,0:0:0:0:
213,175,40048,6,0,L|291:169,1,77.999997619629,0|0,0:0|0:0,0:0:0:0:
399,159,40361,1,0,0:0:0:0:
343,282,40517,54,0,B|339:245|339:245|352:212,1,65
447,98,40907,1,0,0:0:0:0:
447,98,40986,6,0,L|441:30,1,38.9999988098145,0|0,0:0|0:0,0:0:0:0:
287,130,41142,2,0,L|290:168,1,38.9999988098145,0|0,0:0|0:0,0:0:0:0:
471,172,41298,70,0,P|433:175|398:158,1,77.999997619629,0|0,0:0|0:0,0:0:0:0:
370,85,41611,5,0,0:0:0:0:
349,219,41767,2,0,B|339:322|339:322|369:365,1,155.999995239258
487,320,42236,2,0,P|453:300|415:300,1,77.999997619629,0|0,0:0|0:0,0:0:0:0:
266,341,42548,1,0,0:0:0:0:
369,365,42704,1,0,0:0:0:0:
198,301,42861,6,0,P|186:337|197:375,1,77.999997619629,0|0,0:0|0:0,0:0:0:0:
349,219,43173,2,0,L|269:212,1,77.999997619629
121,308,43486,2,0,L|200:301,1,77.999997619629,0|0,0:0|0:0,0:0:0:0:
271,212,43798,2,0,P|282:175|272:138,1,77.999997619629,0|0,0:0|0:0,0:0:0:0:
239,70,44111,69,0,0:0:0:0:
55,144,44267,2,0,B|118:149|118:149|141:167|141:167|204:172,1,155.999995239258
350,131,44736,2,0,L|272:137,1,77.999997619629,0|0,0:0|0:0,0:0:0:0:
384,198,45048,1,0,0:0:0:0:
392,69,45204,1,0,0:0:0:0:
339,260,45361,6,0,P|374:274|412:267,1,77.999997619629
459,207,45673,1,0,0:0:0:0:
350,131,45829,1,0,0:0:0:0:
262,252,45986,2,0,L|268:329,1,77.999997619629
412,267,46298,2,0,P|376:252|338:259,1,77.999997619629,0|0,0:0|0:0,0:0:0:0:
192,322,46611,70,0,B|137:334|113:297|125:300|93:268|45:281,1,155.999995239258,0|0,0:0|0:0,0:0:0:0:
65,356,47079,1,0,0:0:0:0:
169,168,47236,2,0,L|176:251,1,77.999997619629,0|0,0:0|0:0,0:0:0:0:
38,126,47548,2,0,L|32:204,1,77.999997619629,0|0,0:0|0:0,0:0:0:0:
162,90,47861,5,0,0:0:0:0:
175,245,48017,1,0,0:0:0:0:
227,45,48173,69,0,0:0:0:0:
169,168,48329,1,0,0:0:0:0:
437,145,48486,5,0,0:0:0:0:
162,90,48798,38,0,B|107:78|83:115|95:112|63:144|15:131,1,155.999995239258,0|0,0:0|0:0,0:0:0:0:
18,131,50361,5,0,0:0:0:0:
86,166,50517,1,0,0:0:0:0:
160,142,50673,1,0,0:0:0:0:
195,75,50829,1,0,0:0:0:0:
173,4,50986,54,0,L|139:32,1,32.5,0|0,0:0|0:0,0:0:0:0:
160,142,51142,2,0,L|156:185,1,32.5,0|0,0:0|0:0,0:0:0:0:
247,250,51298,2,0,L|275:283,1,32.5,0|0,0:0|0:0,0:0:0:0:
384,264,51454,2,0,L|427:267,1,32.5,0|0,0:0|0:0,0:0:0:0:
490,177,51611,70,0,B|497:87|497:87|475:53,1,130,0|0,0:0|0:0,0:0:0:0:
414,5,52079,1,0,0:0:0:0:
300,60,52236,2,0,L|365:66,1,65,0|0,0:0|0:0,0:0:0:0:
490,177,52548,2,0,L|425:182,1,65,0|0,0:0|0:0,0:0:0:0:
397,304,52861,5,0,0:0:0:0:
455,252,53017,1,0,0:0:0:0:
425,181,53173,1,0,0:0:0:0:
347,187,53329,1,0,0:0:0:0:
330,263,53486,1,0,0:0:0:0:
425,181,53642,1,0,0:0:0:0:
376,65,53798,1,0,0:0:0:0:
250,75,53954,1,0,0:0:0:0:
220,197,54111,70,0,L|226:261,1,65,0|0,0:0|0:0,0:0:0:0:
230,299,54345,5,0,0:0:0:0:
109,152,54579,69,0,0:0:0:0:
220,197,54736,2,0,B|186:193|158:213|158:213|128:232|94:228,1,130,0|0,0:0|0:0,0:0:0:0:
96,228,55361,5,0,0:0:0:0:
20,215,55517,1,0,0:0:0:0:
33,139,55673,1,0,0:0:0:0:
109,152,55829,1,0,0:0:0:0:
276,191,55986,1,0,0:0:0:0:
266,83,56142,1,0,0:0:0:0:
158,93,56298,1,0,0:0:0:0:
168,201,56454,1,0,0:0:0:0:
266,83,56611,70,0,B|318:87|318:87|337:102|337:102|390:106,1,130,0|0,0:0|0:0,0:0:0:0:
468,110,57079,1,0,0:0:0:0:
376,230,57236,2,0,B|369:140|369:140|391:106,1,130,0|0,0:0|0:0,0:0:0:0:
432,40,57704,1,0,0:0:0:0:
468,110,57861,5,0,0:0:0:0:
432,40,58017,1,0,0:0:0:0:
354,37,58173,1,0,0:0:0:0:
276,34,58329,1,0,0:0:0:0:
192,166,58486,1,0,0:0:0:0:
35,159,58642,1,0,0:0:0:0:
119,27,58798,2,0,L|124:91,1,65,0|0,0:0|0:0,0:0:0:0:
259,240,59111,69,0,0:0:0:0:
124,91,59423,1,0,0:0:0:0:
259,240,59736,22,0,L|254:304,1,65,0|0,0:0|0:0,0:0:0:0:
259,240,60361,5,0,0:0:0:0:
328,205,60517,1,0,0:0:0:0:
401,229,60673,1,0,0:0:0:0:
436,296,60829,1,0,0:0:0:0:
414,367,60986,2,0,L|349:361,1,65,0|0,0:0|0:0,0:0:0:0:
401,229,61298,54,0,B|443:207|488:239,1,77.999997619629,0|0,0:0|0:0,0:0:0:0:
349,361,61611,70,0,B|297:366|297:366|275:354|275:354|222:359,1,130,0|0,0:0|0:0,0:0:0:0:
145,368,62079,1,0,0:0:0:0:
171,232,62236,2,0,L|176:296,1,65,0|0,0:0|0:0,0:0:0:0:
134,166,62548,2,0,P|168:157|197:161,1,65,0|0,0:0|0:0,0:0:0:0:
313,189,62861,5,0,0:0:0:0:
307,116,63017,1,0,0:0:0:0:
235,99,63173,1,0,0:0:0:0:
197,161,63329,1,0,0:0:0:0:
244,218,63485,1,0,0:0:0:0:
381,216,63642,1,0,0:0:0:0:
383,352,63798,1,0,0:0:0:0:
247,354,63954,1,0,0:0:0:0:
381,216,64111,70,0,L|445:222,1,65,0|0,0:0|0:0,0:0:0:0:
483,226,64345,5,0,0:0:0:0:
326,163,64579,69,0,0:0:0:0:
396,93,64736,2,0,B|403:182|403:182|381:216,1,130,0|0,0:0|0:0,0:0:0:0:
381,216,65361,5,0,0:0:0:0:
326,163,65517,1,0,0:0:0:0:
249,164,65673,1,0,0:0:0:0:
196,219,65829,1,0,0:0:0:0:
197,296,65985,1,0,0:0:0:0:
119,220,66142,1,0,0:0:0:0:
117,111,66298,1,0,0:0:0:0:
192,32,66454,1,0,0:0:0:0:
300,29,66611,70,0,B|334:25|362:45|362:45|392:64|426:60,1,130,0|0,0:0|0:0,0:0:0:0:
498,39,67079,1,0,0:0:0:0:
424,186,67236,2,0,B|429:134|429:134|417:112|417:112|422:59,1,130,0|0,0:0|0:0,0:0:0:0:
495,221,67704,1,0,0:0:0:0:
353,151,67861,6,0,P|319:142|290:146,1,65,0|0,0:0|0:0,0:0:0:0:
222,184,68173,1,0,0:0:0:0:
147,162,68329,1,0,0:0:0:0:
109,93,68486,1,0,0:0:0:0:
130,17,68642,1,0,0:0:0:0:
290,224,68798,1,0,0:0:0:0:
290,224,69423,6,0,P|321:229|353:223,1,65,0|0,0:0|0:0,0:0:0:0:
398,178,69736,2,0,P|379:204|353:223,1,65,0|0,0:0|0:0,0:0:0:0:
218,192,70048,6,0,P|213:222|218:255,1,65,0|0,0:0|0:0,0:0:0:0:
264,300,70361,2,0,P|237:281|218:255,1,65,0|0,0:0|0:0,0:0:0:0:
186,121,70595,1,0,0:0:0:0:
186,121,70673,2,0,P|218:115|250:120,1,65,0|0,0:0|0:0,0:0:0:0:
398,178,70907,1,0,0:0:0:0:
398,178,70986,2,0,P|379:204|353:223,1,65,0|0,0:0|0:0,0:0:0:0:
154,250,71298,2,0,L|233:256,1,65,0|0,0:0|0:0,0:0:0:0:
411,274,71611,69,0,0:0:0:0:
411,274,72236,1,2,0:0:0:0:
353,223,72548,1,0,0:0:0:0:
338,299,72861,2,0,L|343:363,1,65,0|0,0:0|0:0,0:0:0:0:
280,248,73173,2,0,L|274:183,1,65,0|0,0:0|0:0,0:0:0:0:
204,100,73486,2,0,B|264:105|264:105|298:88,2,97.5,0|0|0,0:0|0:0|0:0,0:0:0:0:
125,93,74111,5,0,0:0:0:0:
189,223,74267,2,0,B|211:189|211:189|204:100,1,130,0|0,0:0|0:0,0:0:0:0:
112,221,74736,2,0,P|120:252|171:298,2,86.6666666666667,0|0|0,0:0|0:0|0:0,0:0:0:0:
232,285,75361,2,0,P|222:326|194:358,2,86.6666666666667,0|0|0,0:0|0:0|0:0,0:0:0:0:
194,158,75986,2,0,L|187:233,1,65,0|0,0:0|0:0,0:0:0:0:
304,303,76298,2,0,P|306:271|294:241,1,65,0|0,0:0|0:0,0:0:0:0:
194,158,76611,70,0,B|228:162|256:142|256:142|286:123|320:127,1,130,0|0,0:0|0:0,0:0:0:0:
391,148,77079,1,0,0:0:0:0:
325,11,77236,2,0,P|295:68|316:125,1,130,0|0,0:0|0:0,0:0:0:0:
438,66,77704,1,0,0:0:0:0:
438,66,77861,2,0,L|374:72,2,65,0|0|0,0:0|0:0|0:0,0:0:0:0:
316,125,78329,1,0,0:0:0:0:
466,171,78486,5,0,0:0:0:0:
258,178,78798,1,0,0:0:0:0:
258,178,79267,70,0,P|227:173|195:179,1,65,0|0,0:0|0:0,0:0:0:0:
149,225,79736,22,0,P|167:199|193:180,1,65,0|0,0:0|0:0,0:0:0:0:
73,224,80048,6,0,P|112:218|150:225,1,77.999997619629,0|0,0:0|0:0,0:0:0:0:
202,280,80361,2,0,P|181:247|149:224,1,77.999997619629,0|0,0:0|0:0,0:0:0:0:
73,224,80673,1,0,0:0:0:0:
149,335,80829,1,0,0:0:0:0:
149,335,80907,1,0,0:0:0:0:
149,335,80986,1,0,0:0:0:0:
202,280,81142,1,0,0:0:0:0:
257,333,81298,38,0,L|321:327,1,65,0|0,0:0|0:0,0:0:0:0:
149,224,81767,2,0,L|84:218,1,65,0|0,0:0|0:0,0:0:0:0:
257,115,82236,22,0,L|321:109,1,65,0|0,0:0|0:0,0:0:0:0:
188,77,82548,6,0,P|176:113|186:151,1,77.999997619629,0|0,0:0|0:0,0:0:0:0:
255,36,82861,69,0,0:0:0:0:
257,115,83017,1,0,0:0:0:0:
119,39,83173,1,0,0:0:0:0:
188,77,83329,1,0,0:0:0:0:
93,182,83486,2,0,B|77:147|77:147|81:108,1,77.999997619629,0|0,0:0|0:0,0:0:0:0:
93,182,83720,2,0,B|109:217|109:217|105:256,1,77.999997619629,0|0,0:0|0:0,0:0:0:0:
89,332,83954,1,0,0:0:0:0:
31,231,84111,5,0,0:0:0:0:
185,205,84267,2,0,P|223:206|256:227,1,77.999997619629,0|0,0:0|0:0,0:0:0:0:
200,281,84579,1,0,0:0:0:0:
170,129,84736,70,0,P|183:103|202:83,1,51.999998413086,0|0,0:0|0:0,0:0:0:0:
175,62,84944,2,0,P|199:45|226:38,1,51.999998413086,0|0,0:0|0:0,0:0:0:0:
213,8,85152,2,0,P|241:6|269:12,1,51.999998413086,0|0,0:0|0:0,0:0:0:0:
350,60,85361,6,0,P|354:87|353:115,1,51.999998413086,0|0,0:0|0:0,0:0:0:0:
403,169,85569,2,0,P|393:194|378:218,1,51.999998413086,0|0,0:0|0:0,0:0:0:0:
391,291,85777,2,0,P|369:307|345:320,1,51.999998413086,0|0,0:0|0:0,0:0:0:0:
308,193,85986,70,0,P|346:195|379:215,1,77.999997619629,0|0,0:0|0:0,0:0:0:0:
347,318,86298,2,0,L|263:325,1,77.999997619629,0|0,0:0|0:0,0:0:0:0:
181,158,86611,2,0,B|236:170|260:133|248:136|280:104|328:117,1,155.999995239258,0|0,0:0|0:0,0:0:0:0:
308,193,87079,1,0,0:0:0:0:
197,81,87236,2,0,P|198:43|219:10,1,77.999997619629,0|0,0:0|0:0,0:0:0:0:
386,200,87548,2,0,L|294:191,1,77.999997619629,0|0,0:0|0:0,0:0:0:0:
123,106,87861,5,0,0:0:0:0:
197,81,88017,1,0,0:0:0:0:
49,131,88173,69,0,0:0:0:0:
181,158,88329,1,0,0:0:0:0:
64,54,88486,6,0,P|20:59|-15:87,1,77.999997619629,0|0,0:0|0:0,0:0:0:0:
93,260,88798,2,0,L|185:251,1,77.999997619629,0|0,0:0|0:0,0:0:0:0:
401,228,89111,69,0,0:0:0:0:
170,252,89423,1,0,0:0:0:0:
170,252,90048,2,0,L|93:260,2,77.999997619629,0|0|0,0:0|0:0|0:0,0:0:0:0:
401,228,90673,1,0,0:0:0:0:
332,190,90829,1,0,0:0:0:0:
332,190,90907,1,0,0:0:0:0:
332,190,90986,6,0,P|322:227|332:266,1,77.999997619629,0|0,0:0|0:0,0:0:0:0:
439,159,91298,38,0,L|434:110,1,48.75,0|0,0:0|0:0,0:0:0:0:
451,34,91611,21,0,0:0:0:0:
308,76,91767,2,0,B|363:88|387:51|375:54|407:22|455:35,1,155.999995239258
238,38,92236,2,0,P|228:75|238:112,1,77.999997619629
275,182,92548,1,0,0:0:0:0:
308,76,92704,1,0,0:0:0:0:
196,178,92861,6,0,L|116:171,1,77.999997619629
312,253,93173,2,0,L|391:246,1,77.999997619629
195,177,93486,2,0,P|185:214|196:252,1,77.999997619629
311,327,93798,2,0,P|321:289|311:252,1,77.999997619629
195,177,94111,69,0,0:0:0:0:
312,253,94267,2,0,B|375:248|375:248|398:230|398:230|461:225,1,155.999995239258
504,309,94736,2,0,L|427:303,1,77.999997619629
372,159,95048,1,0,0:0:0:0:
461,224,95204,1,0,0:0:0:0:
388,82,95361,6,0,B|333:70|309:107|321:104|289:136|241:123,1,155.999995239258
261,47,95829,1,0,0:0:0:0:
371,158,95986,2,0,P|382:194|372:232,1,77.999997619629
226,203,96298,2,0,L|303:196,1,77.999997619629
349,304,96611,70,0,B|306:274|306:274|203:284,1,155.999995239258
286,350,97079,1,0,0:0:0:0:
372,232,97236,2,0,P|382:194|371:158,1,77.999997619629
226,203,97548,2,0,L|303:196,1,77.999997619629
439,121,97861,5,0,0:0:0:0:
303,117,98017,1,0,0:0:0:0:
438,42,98173,69,0,0:0:0:0:
236,77,98329,1,0,0:0:0:0:
441,201,98486,6,0,P|479:190|505:164,1,77.999997619629
310,40,98798,2,0,L|301:135,1,77.999997619629
349,304,99111,69,0,0:0:0:0:
303,117,99423,1,0,0:0:0:0:
371,158,99579,54,0,P|382:194|372:232,1,77.999997619629
264,199,100048,2,0,L|303:196,1,38.9999988098145
371,79,100361,1,0,0:0:0:0:
303,117,100517,2,0,B|260:121|260:121|227:108,1,77.999997619629
161,71,100907,1,0,0:0:0:0:
161,71,100986,22,0,P|153:89|150:111,1,38.9999988098145
215,204,101142,2,0,P|203:188|186:174,1,38.9999988098145
62,183,101298,54,0,P|86:182|109:175,1,48.75
150,107,101611,21,0,0:0:0:0:
286,250,101767,2,0,B|292:187|292:187|278:161|278:161|284:98,1,155.999995239258
215,204,102236,2,0,L|208:281,1,77.999997619629
356,144,102548,1,0,0:0:0:0:
362,221,102704,1,0,0:0:0:0:
215,204,102861,6,0,P|178:192|140:202,1,77.999997619629
208,281,103173,2,0,L|215:204,1,77.999997619629
430,145,103486,2,0,P|392:155|356:144,1,77.999997619629
362,66,103798,2,0,L|355:143,1,77.999997619629
215,204,104111,69,0,0:0:0:0:
89,170,104267,2,0,B|144:182|168:145|156:148|188:116|236:129,1,155.999995239258
208,281,104736,2,0,L|215:204,1,77.999997619629
249,52,105048,1,0,0:0:0:0:
290,180,105204,1,0,0:0:0:0:
105,93,105361,6,0,L|112:16,1,77.999997619629
232,128,105673,1,0,0:0:0:0:
89,170,105829,1,0,0:0:0:0:
214,203,105986,2,0,P|253:202|288:181,1,77.999997619629
225,50,106298,2,0,L|231:127,1,77.999997619629
352,263,106611,70,0,B|362:160|362:160|332:117,1,155.999995239258
286,182,107079,1,0,0:0:0:0:
438,139,107236,2,0,P|476:136|510:153,1,77.999997619629
467,289,107548,2,0,L|460:211,1,77.999997619629
352,263,107861,5,0,0:0:0:0:
438,139,108017,1,0,0:0:0:0:
286,182,108173,69,0,0:0:0:0:
415,66,108329,1,0,0:0:0:0:
182,171,108486,5,0,0:0:0:0:
460,211,108798,38,0,L|465:276,1,65
