osu file format v14

[General]
AudioFilename: audio.mp3
AudioLeadIn: 0
PreviewTime: 79267
Countdown: 0
SampleSet: Soft
StackLeniency: 0.2
Mode: 0
LetterboxInBreaks: 0
WidescreenStoryboard: 1

[Editor]
DistanceSpacing: 1.2
BeatDivisor: 8
GridSize: 8
TimelineZoom: 2.2

[Metadata]
Title:Echame La Culpa
TitleUnicode:Échame La Culpa
Artist:Luis Fonsi & Demi Lovato
ArtistUnicode:Luis Fonsi & Demi Lovato
Creator:Sotarks
Version:NiNo's Insane
Source:
Tags:akitoshi -laura- corinn gero kalibe haruto haruto_aizawa mir snownino_ cut edit ver version reggaeton universal music latino short despacito
BeatmapID:1686417
BeatmapSetID:802056

[Difficulty]
HPDrainRate:5
CircleSize:4
OverallDifficulty:8
ApproachRate:9
SliderMultiplier:3.59999990463257
SliderTickRate:1

[Events]
//Background and Video events
0,0,"BG.jpg",0,0
//Break Periods
2,28998,30229
2,78998,80229
//Storyboard Layer 0 (Background)
//Storyboard Layer 1 (Fail)
//Storyboard Layer 2 (Pass)
//Storyboard Layer 3 (Foreground)
//Storyboard Sound Samples

[TimingPoints]
1611,625,4,2,2,50,1,0
1611,-133.333333333333,4,2,2,50,0,0
20986,-400,4,2,2,50,0,0
21611,-100,4,2,2,50,0,0
31611,-100,4,2,2,70,0,0
50986,-100,4,2,2,50,0,0
59111,-100,4,2,2,70,0,0
70361,-100,4,2,2,50,0,0
70986,-100,4,2,2,70,0,0
71611,-133.333333333333,4,2,2,50,0,0
82236,-133.333333333333,4,2,2,70,0,0
82548,-100,4,2,2,70,0,0

[Colours]
Combo1 : 159,136,255
Combo2 : 255,191,251
Combo3 : 238,34,255
Combo4 : 172,79,227
Combo5 : 235,202,255

[HitObjects]
143,10,1611,6,0,L|285:-1,1,135.000005149842,0|0,0:0|0:0,0:0:0:0:
353,26,2079,1,2,0:0:0:0:
292,80,2236,2,0,L|157:90,1,135.000005149842,0|2,0:0|0:0,0:0:0:0:
96,144,2704,1,0,0:0:0:0:
171,170,2861,2,0,L|305:159,1,135.000005149842,0|0,0:0|0:0,0:0:0:0:
381,186,3329,1,2,0:0:0:0:
320,240,3486,2,0,L|185:250,1,135.000005149842,0|2,0:0|0:0,0:0:0:0:
124,304,3954,1,0,0:0:0:0:
108,224,4111,6,0,L|114:73,1,135.000001573563,0|0,0:0|0:0,0:0:0:0:
174,35,4579,1,2,0:0:0:0:
191,115,4736,2,0,L|185:249,1,135.000001573563,0|2,0:0|0:0,0:0:0:0:
203,330,5204,1,0,0:0:0:0:
263,275,5361,2,0,L|269:124,1,135.000001573563,0|2,0:0|0:0,0:0:0:0:
329,86,5830,1,2,0:0:0:0:
346,166,5987,2,0,L|340:300,1,135.000001573563,0|0,0:0|0:0,0:0:0:0:
358,381,6455,1,0,0:0:0:0:
280,358,6611,6,0,L|140:344,1,135.000001573563,0|0,0:0|0:0,0:0:0:0:
65,331,7079,1,2,0:0:0:0:
117,268,7236,2,0,L|251:281,1,135.000001573563,0|2,0:0|0:0,0:0:0:0:
332,284,7704,1,0,0:0:0:0:
293,212,7861,2,0,L|158:198,1,135.000001573563,0|2,0:0|0:0,0:0:0:0:
78,185,8329,1,2,0:0:0:0:
130,122,8486,2,0,L|264:135,1,135.000001573563,0|0,0:0|1:0,0:0:0:0:
345,138,8954,1,0,0:0:0:0:
251,281,9111,5,0,1:0:0:0:
251,281,9736,6,0,L|176:275,1,67.5000007867814,2|0,3:0|0:0,0:0:0:0:
143,205,10048,2,0,L|68:211,1,67.5000007867814,2|0,0:0|0:0,0:0:0:0:
16,154,10361,1,2,0:0:0:0:
94,132,10517,1,0,0:0:0:0:
35,76,10673,2,0,P|32:40|35:7,1,67.5000007867814,2|0,0:0|0:0,0:0:0:0:
116,11,10986,2,0,L|271:18,1,135.000001573563,2|0,0:0|0:0,0:0:0:0:
331,20,11454,1,2,0:0:0:0:
331,20,11611,6,0,P|289:41|279:140,1,135.000001573563,0|0,0:0|0:0,0:0:0:0:
337,164,12079,1,0,0:0:0:0:
337,164,12236,2,0,P|348:132|347:99,1,67.5000007867814,2|0,0:0|0:0,0:0:0:0:
266,200,12548,2,0,P|288:225|317:241,1,67.5000007867814,2|0,0:0|0:0,0:0:0:0:
270,121,12861,1,2,0:0:0:0:
199,157,13017,1,2,0:0:0:0:
203,78,13174,1,2,0:0:0:0:
132,114,13330,1,2,0:0:0:0:
136,35,13486,2,0,P|94:45|54:128,1,135.000001573563,2|2,0:0|0:0,0:0:0:0:
128,193,13954,1,2,0:0:0:0:
128,193,14111,6,0,P|72:200|30:280,1,135.000001573563,2|0,0:0|0:0,0:0:0:0:
110,272,14579,1,0,0:0:0:0:
110,272,14736,2,0,P|149:273|183:252,1,67.5000007867814,2|0,0:0|0:0,0:0:0:0:
192,181,15048,2,0,P|153:180|119:201,1,67.5000007867814,2|0,0:0|0:0,0:0:0:0:
251,236,15361,1,2,0:0:0:0:
269,157,15517,1,2,0:0:0:0:
328,211,15673,1,2,0:0:0:0:
346,132,15829,1,2,0:0:0:0:
405,186,15986,2,0,L|399:329,1,135.000001573563,2|0,0:0|0:0,0:0:0:0:
333,367,16454,1,2,0:0:0:0:
333,367,16611,6,0,B|285:358|285:358|255:371|255:371|180:355,1,135.000001573563,2|2,0:0|0:0,0:0:0:0:
122,343,17079,1,0,0:0:0:0:
138,263,17236,2,0,P|147:226|140:195,1,67.5000007867814,2|0,0:0|0:0,0:0:0:0:
78,146,17548,1,0,0:0:0:0:
130,83,17704,2,0,P|168:74|205:82,1,67.5000007867814,2|0,0:0|0:0,0:0:0:0:
246,141,18017,1,2,0:0:0:0:
276,66,18173,1,2,0:0:0:0:
326,129,18329,1,2,0:0:0:0:
355,54,18486,1,2,0:0:0:0:
406,117,18642,2,0,L|400:212,1,67.5000007867814,2|0,0:0|0:0,0:0:0:0:
395,264,18954,1,2,0:0:0:0:
326,129,19111,5,0,1:0:0:0:
452,356,19423,1,0,1:0:0:0:
452,356,21142,6,0,L|397:352,1,44.9999988079071,2|2,3:0|3:0,0:0:0:0:
318,368,21611,6,0,B|337:306|337:306|324:259|324:259|349:181,1,179.999995231629,0|0,1:0|0:0,0:0:0:0:
335,106,22079,1,0,3:0:0:0:
261,159,22236,2,0,P|198:161|156:144,1,89.9999976158143,2|0,0:0|0:0,0:0:0:0:
97,104,22548,2,0,L|88:211,1,89.9999976158143,2|0,3:0|0:0,0:0:0:0:
88,284,22861,1,2,3:0:0:0:
166,240,23017,1,0,0:0:0:0:
165,331,23173,1,2,0:0:0:0:
243,287,23329,1,2,3:0:0:0:
242,378,23486,2,0,L|437:368,1,179.999995231629,2|2,0:0|3:0,0:0:0:0:
511,375,23954,1,0,3:0:0:0:
511,375,24032,1,2,3:0:0:0:
511,375,24111,6,0,B|458:342|458:342|482:203,1,179.999995231629,0|0,1:0|0:0,0:0:0:0:
501,139,24579,1,0,3:0:0:0:
501,139,24736,2,0,P|454:143|406:122,1,89.9999976158143,2|0,0:0|0:0,0:0:0:0:
363,54,25048,2,0,P|404:38|449:43,1,89.9999976158143,2|0,3:0|0:0,0:0:0:0:
324,137,25361,2,0,B|256:120|256:120|216:140|216:140|132:119,1,179.999995231629,2|2,3:0|0:0,0:0:0:0:
79,176,25829,1,2,3:0:0:0:
159,216,25986,2,0,B|227:233|227:233|267:213|267:213|351:234,1,179.999995231629,2|2,0:0|3:0,0:0:0:0:
395,290,26454,1,2,3:0:0:0:
395,290,26532,1,0,3:0:0:0:
395,290,26611,6,0,B|354:238|354:238|398:113,1,179.999995231629,0|2,1:0|0:0,0:0:0:0:
419,45,27079,1,2,3:0:0:0:
330,64,27236,2,0,B|246:28|246:111|144:56,1,179.999995231629,2|2,0:0|3:0,0:0:0:0:
77,19,27704,1,2,0:0:0:0:
34,98,27861,2,0,L|39:210,1,89.9999976158143,2|0,3:0|0:0,0:0:0:0:
88,262,28173,1,2,0:0:0:0:
128,181,28329,1,2,3:0:0:0:
48,343,28486,5,2,1:0:0:0:
168,100,28798,1,2,1:0:0:0:
128,181,30829,5,10,0:0:0:0:
128,181,30907,1,8,0:0:0:0:
128,181,30985,1,10,0:0:0:0:
168,261,31142,1,8,0:0:0:0:
208,141,31298,2,0,L|202:44,1,89.9999976158143,2|0,1:2|0:0,0:0:0:0:
248,221,31611,6,0,B|300:186|300:186|442:209,1,179.999995231629,6|0,1:2|0:0,0:0:0:0:
493,250,32079,1,0,3:0:0:0:
410,284,32236,2,0,L|322:271,1,89.9999976158143,0|0,1:0|0:0,0:0:0:0:
242,311,32548,2,0,L|153:297,1,89.9999976158143,8|0,0:0|0:0,0:0:0:0:
248,221,32861,5,2,1:2:0:0:
316,361,33017,1,2,0:2:0:0:
328,181,33173,1,2,0:2:0:0:
242,311,33329,1,2,3:2:0:0:
254,131,33486,2,0,L|261:29,1,89.9999976158143,2|0,1:2|0:0,0:0:0:0:
322,271,33798,2,0,L|315:360,1,89.9999976158143,10|0,0:2|0:0,0:0:0:0:
174,171,34111,6,0,L|181:69,1,89.9999976158143,0|2,1:0|0:2,0:0:0:0:
248,221,34423,1,0,0:0:0:0:
168,261,34579,1,2,3:2:0:0:
328,181,34736,2,0,L|443:173,1,89.9999976158143,2|0,1:2|0:0,0:0:0:0:
180,81,35048,2,0,L|65:73,1,89.9999976158143,10|2,0:2|0:2,0:0:0:0:
248,221,35361,5,2,1:2:0:0:
260,41,35517,2,0,L|253:140,1,89.9999976158143,0|2,0:0|0:0,0:0:0:0:
328,181,35829,1,0,0:0:0:0:
180,81,35986,1,2,1:2:0:0:
334,91,36142,1,2,3:2:0:0:
174,171,36298,2,0,L|59:163,1,89.9999976158143,10|0,0:2|0:0,0:0:0:0:
254,131,36611,6,0,L|472:146,1,179.999995231629,2|0,1:2|0:0,0:0:0:0:
248,221,37079,1,8,0:0:0:0:
180,81,37236,2,0,P|216:49|256:41,1,89.9999976158143,2|0,1:2|0:0,0:0:0:0:
322,271,37548,2,0,P|286:303|246:311,1,89.9999976158143,8|0,0:0|0:0,0:0:0:0:
254,131,37861,5,2,1:2:0:0:
402,231,38017,1,2,0:2:0:0:
248,221,38173,1,2,0:2:0:0:
334,91,38329,1,10,0:2:0:0:
322,271,38486,2,0,L|316:370,1,89.9999976158143,2|0,1:2|3:0,0:0:0:0:
175,171,38798,2,0,L|180:81,1,89.9999976158143,2|0,3:2|3:0,0:0:0:0:
328,181,39111,5,0,1:0:0:0:
20,161,39423,1,0,1:0:0:0:
20,161,40048,2,0,L|25:71,1,89.9999976158143,8|0,0:0|0:0,0:0:0:0:
94,211,40361,1,2,1:2:0:0:
101,218,40829,5,8,0:0:0:0:
101,218,40907,1,8,0:0:0:0:
101,218,40986,1,10,0:2:0:0:
100,121,41142,1,8,0:0:0:0:
169,260,41298,2,0,L|163:349,1,89.9999976158143,2|0,1:2|0:0,0:0:0:0:
175,171,41611,5,0,1:0:0:0:
254,131,41767,2,0,L|259:41,1,89.9999976158143,2|0,0:0|0:0,0:0:0:0:
248,221,42079,1,2,3:0:0:0:
181,81,42236,2,0,L|186:-14,1,89.9999976158143,2|0,1:0|0:0,0:0:0:0:
333,91,42548,1,10,0:0:0:0:
175,171,42704,1,2,0:0:0:0:
327,181,42861,6,0,L|435:188,1,89.9999976158143,2|0,1:0|3:0,0:0:0:0:
181,81,43173,2,0,L|91:75,1,89.9999976158143,2|0,0:0|3:0,0:0:0:0:
321,271,43486,2,0,L|429:278,1,89.9999976158143,2|0,1:0|0:0,0:0:0:0:
175,171,43798,2,0,L|67:164,1,89.9999976158143,10|0,0:0|0:0,0:0:0:0:
254,131,44111,5,0,1:0:0:0:
169,261,44267,2,0,L|61:254,1,89.9999976158143,2|0,0:0|0:0,0:0:0:0:
254,131,44579,1,2,3:0:0:0:
321,271,44736,2,0,L|429:278,1,89.9999976158143,2|0,1:0|0:0,0:0:0:0:
254,131,45048,1,10,0:0:0:0:
243,310,45204,1,2,0:0:0:0:
175,171,45361,6,0,P|166:123|185:74,1,89.9999976158143,2|0,1:0|3:0,0:0:0:0:
327,181,45673,1,2,0:0:0:0:
169,261,45829,1,2,3:0:0:0:
254,131,45986,2,0,P|291:99|343:91,1,89.9999976158143,2|0,1:0|0:0,0:0:0:0:
244,310,46298,2,0,P|206:341|154:349,1,89.9999976158143,10|0,0:0|0:0,0:0:0:0:
327,181,46611,6,0,B|418:147|419:221|516:173,1,179.999995231629,2|0,1:0|0:0,0:0:0:0:
321,271,47079,1,8,0:0:0:0:
254,131,47236,2,0,P|291:99|343:91,1,89.9999976158143,0|0,1:0|0:0,0:0:0:0:
169,261,47548,2,0,P|122:244|89:203,1,89.9999976158143,8|0,0:0|0:0,0:0:0:0:
181,81,47861,5,2,1:0:0:0:
327,181,48017,1,2,0:0:0:0:
175,171,48173,1,2,3:0:0:0:
333,91,48329,1,10,0:0:0:0:
248,221,48486,6,0,L|244:313,1,89.9999976158143,2|0,1:0|0:0,0:0:0:0:
254,131,48798,1,2,1:0:0:0:
242,310,50361,5,2,1:0:0:0:
242,310,50829,1,0,0:0:0:0:
164,263,50986,2,0,L|111:268,7,44.9999988079071,0|0|0|0|0|0|0|0,1:0|1:0|1:0|1:0|1:0|1:0|1:0|1:0,0:0:0:0:
191,218,51611,6,0,B|204:99|204:99|296:69,1,179.999995231629,6|2,1:0|0:0,0:0:0:0:
348,100,52079,1,2,1:0:0:0:
286,166,52236,2,0,B|273:285,1,89.9999976158143,2|0,0:0|0:0,0:0:0:0:
365,275,52548,2,0,B|374:185,1,89.9999976158143,0|0,3:0|0:0,0:0:0:0:
348,100,52861,5,2,0:0:0:0:
286,166,53017,1,0,3:0:0:0:
261,80,53173,2,0,L|173:60,1,89.9999976158143,2|0,0:0|1:0,0:0:0:0:
98,9,53486,2,0,L|10:28,1,89.9999976158143,2|2,0:0|3:0,0:0:0:0:
9,138,53798,1,2,1:0:0:0:
91,99,53955,1,2,0:0:0:0:
86,191,54111,6,0,L|75:292,1,89.9999976158143,2|0,1:0|0:0,0:0:0:0:
68,324,54345,2,0,P|116:351|167:342,1,89.9999976158143,2|0,0:0|0:0,0:0:0:0:
188,327,54579,1,2,1:0:0:0:
251,262,54736,2,0,P|295:262|332:287,1,89.9999976158143,2|0,0:0|0:0,0:0:0:0:
415,321,55048,2,0,L|424:211,1,89.9999976158143,0|0,3:0|0:0,0:0:0:0:
408,141,55361,5,2,1:0:0:0:
339,199,55517,1,0,3:0:0:0:
324,109,55673,2,0,L|239:76,1,89.9999976158143,2|0,0:0|1:0,0:0:0:0:
155,44,55986,2,0,P|130:90|137:143,1,89.9999976158143,2|2,0:0|3:0,0:0:0:0:
144,215,56298,1,2,1:0:0:0:
214,159,56454,1,0,1:0:0:0:
131,127,56611,6,0,L|10:128,1,89.9999976158143,2|0,1:0|0:0,0:0:0:0:
144,215,56923,1,2,0:0:0:0:
214,159,57079,1,2,1:0:0:0:
227,247,57236,2,0,L|226:352,1,89.9999976158143,2|0,0:0|0:0,0:0:0:0:
297,191,57548,2,0,L|297:101,1,89.9999976158143,0|0,3:0|0:0,0:0:0:0:
214,159,57861,5,2,1:0:0:0:
227,247,58017,1,0,3:0:0:0:
131,127,58173,1,2,0:0:0:0:
144,215,58329,1,0,1:0:0:0:
201,71,58486,1,2,0:0:0:0:
131,127,58642,2,0,L|41:131,1,89.9999976158143,2|0,3:0|1:0,0:0:0:0:
144,215,58954,1,2,0:0:0:0:
118,39,59111,5,0,1:0:0:0:
227,247,59423,1,0,1:0:0:0:
226,18,60829,5,0,3:0:0:0:
150,67,60986,2,0,L|163:163,1,89.9999976158143,2|2,1:0|0:0,0:0:0:0:
238,203,61298,2,0,L|225:299,1,89.9999976158143,2|0,0:0|1:0,0:0:0:0:
306,333,61611,6,0,L|318:243,1,89.9999976158143,2|0,1:0|0:0,0:0:0:0:
313,154,61923,1,2,0:0:0:0:
238,203,62079,1,2,3:0:0:0:
393,194,62236,2,0,P|402:150|384:99,1,89.9999976158143,2|0,1:0|0:0,0:0:0:0:
158,162,62548,2,0,P|149:206|167:257,1,89.9999976158143,0|0,3:0|0:0,0:0:0:0:
233,114,62861,5,2,1:0:0:0:
153,73,63017,1,0,3:0:0:0:
238,203,63173,1,2,0:0:0:0:
158,162,63329,1,0,3:0:0:0:
313,154,63486,5,2,1:0:0:0:
228,25,63642,1,2,0:0:0:0:
158,162,63798,1,2,3:0:0:0:
308,66,63954,1,2,0:0:0:0:
153,73,64111,6,0,L|58:76,1,89.9999976158143,2|0,1:0|0:0,0:0:0:0:
26,101,64345,2,0,P|15:163|32:203,1,89.9999976158143,2|0,0:0|0:0,0:0:0:0:
45,226,64579,1,2,3:0:0:0:
158,162,64736,2,0,L|152:59,1,89.9999976158143,2|0,1:0|0:0,0:0:0:0:
238,203,65048,2,0,L|243:292,1,89.9999976158143,0|0,3:0|0:0,0:0:0:0:
233,114,65361,5,2,1:0:0:0:
158,162,65517,1,0,3:0:0:0:
313,155,65673,1,2,0:0:0:0:
238,203,65829,1,0,3:0:0:0:
393,196,65986,5,2,1:0:0:0:
233,114,66142,1,2,0:0:0:0:
318,244,66298,1,2,3:0:0:0:
388,107,66454,1,2,1:0:0:0:
238,203,66611,6,0,L|132:206,1,89.9999976158143,2|0,1:0|0:0,0:0:0:0:
233,114,66923,1,2,0:0:0:0:
313,155,67079,1,2,3:0:0:0:
308,66,67236,2,0,P|275:34|209:30,1,89.9999976158143,2|0,1:0|0:0,0:0:0:0:
318,244,67548,2,0,P|362:231|396:174,1,89.9999976158143,0|0,3:0|0:0,0:0:0:0:
238,203,67861,5,2,1:0:0:0:
243,292,68017,1,0,0:0:0:0:
163,251,68173,1,2,0:0:0:0:
168,340,68329,1,0,3:0:0:0:
318,244,68486,5,2,1:0:0:0:
158,162,68798,1,0,1:0:0:0:
158,162,70361,6,0,L|91:156,7,44.9999988079071,2|0|0|0|0|0|0|0,1:0|1:0|1:0|1:0|1:0|1:0|1:0|1:0,0:0:0:0:
187,121,70986,2,0,L|293:111,1,89.9999976158143,0|0,1:0|0:0,0:0:0:0:
335,45,71298,2,0,L|441:54,1,89.9999976158143,0|0,1:0|0:0,0:0:0:0:
472,118,71611,6,0,B|412:171|412:171|439:312,1,202.500002360344,6|0,1:0|3:0,0:0:0:0:
407,367,72236,2,0,L|332:360,1,67.5000007867814,8|0,0:0|3:0,0:0:0:0:
294,293,72548,2,0,L|219:286,1,67.5000007867814,0|0,1:0|3:0,0:0:0:0:
167,230,72861,6,0,L|92:223,2,67.5000007867814,10|2|2,0:0|3:0|0:0,0:0:0:0:
233,183,73329,1,2,3:0:0:0:
233,183,73486,2,0,L|357:194,2,101.250001180172,10|2|2,0:0|0:0|3:0,0:0:0:0:
173,126,74111,6,0,L|106:120,1,67.5000007867814,8|2,0:0|3:0,0:0:0:0:
36,161,74423,1,0,0:0:0:0:
36,161,74579,1,2,3:0:0:0:
86,225,74736,2,0,P|93:262|85:335,2,101.250001180172,10|0|2,0:0|0:0|3:0,0:0:0:0:
167,230,75361,2,0,P|201:247|275:256,2,101.250001180172,10|0|2,0:0|0:0|3:0,0:0:0:0:
130,157,75986,2,0,P|170:137|191:120,1,67.5000007867814,10|0,0:0|3:0,0:0:0:0:
223,50,76298,2,0,P|250:69|280:84,1,67.5000007867814,2|0,1:0|3:0,0:0:0:0:
362,80,76611,6,0,P|354:127|383:221,1,135.000001573563,10|0,0:0|0:0,0:0:0:0:
421,277,77079,1,0,3:0:0:0:
421,277,77236,2,0,P|433:314|428:352,1,67.5000007867814,0|0,1:0|1:0,0:0:0:0:
353,365,77548,2,0,L|269:358,1,67.5000007867814,0|0,1:0|1:0,0:0:0:0:
232,298,77861,6,0,L|148:291,2,67.5000007867814,10|0|2,0:0|3:0|0:0,0:0:0:0:
297,250,78329,1,0,3:0:0:0:
243,189,78486,5,2,1:0:0:0:
286,359,78798,1,2,1:0:0:0:
153,193,80829,5,8,0:0:0:0:
153,193,80907,1,8,0:0:0:0:
153,193,80986,1,8,0:0:0:0:
222,151,81142,1,8,0:0:0:0:
260,221,81298,6,0,L|346:233,2,67.5000007867814,2|0|0,0:0|0:0|0:0,0:0:0:0:
266,329,81819,2,0,L|145:311,1,90.0000010490418,0|0,3:0|1:0,0:0:0:0:
69,335,82236,1,0,1:0:0:0:
69,335,82548,6,0,B|113:292|113:292|99:158,1,179.999995231629,12|2,0:0|1:2,0:0:0:0:
141,93,83017,1,2,0:2:0:0:
190,168,83173,1,2,0:2:0:0:
231,87,83329,1,2,3:2:0:0:
280,162,83486,2,0,L|272:264,1,89.9999976158143,2|0,1:2|0:0,0:0:0:0:
228,260,83720,2,0,L|236:362,1,89.9999976158143,0|0,0:0|0:0,0:0:0:0:
276,367,83954,6,0,P|333:370|370:351,1,89.9999976158143,0|0,0:0|1:0,0:0:0:0:
400,274,84267,2,0,L|392:184,1,89.9999976158143,2|0,0:2|0:0,0:0:0:0:
385,94,84579,1,2,3:2:0:0:
311,145,84736,2,0,B|271:165|271:165|214:161,1,89.9999976158143,2|0,1:2|0:0,0:0:0:0:
169,91,85048,2,0,B|209:71|209:71|266:75,1,89.9999976158143,10|2,0:2|0:2,0:0:0:0:
138,176,85361,5,2,1:2:0:0:
81,105,85517,1,0,0:0:0:0:
50,189,85673,1,2,0:2:0:0:
0,118,85829,1,2,3:2:0:0:
107,260,85986,1,2,1:2:0:0:
138,176,86142,1,0,0:0:0:0:
19,273,86298,2,0,L|15:366,1,89.9999976158143,10|0,0:2|0:0,0:0:0:0:
105,355,86611,6,0,B|170:343|170:343|210:368|210:368|285:357,1,179.999995231629,2|0,1:2|0:0,0:0:0:0:
364,341,87079,1,8,0:0:0:0:
322,262,87236,2,0,L|233:276,1,89.9999976158143,2|0,1:2|0:0,0:0:0:0:
144,290,87548,2,0,P|158:240|134:183,1,89.9999976158143,8|0,0:0|0:0,0:0:0:0:
74,153,87861,5,2,1:2:0:0:
67,244,88017,1,2,0:2:0:0:
156,114,88173,1,2,0:2:0:0:
149,205,88329,1,10,0:2:0:0:
238,75,88486,2,0,L|349:83,1,89.9999976158143,2|0,1:2|3:0,0:0:0:0:
81,62,88798,2,0,L|-9:55,1,89.9999976158143,2|0,3:2|3:0,0:0:0:0:
149,205,89111,5,0,1:0:0:0:
163,23,89423,1,0,1:0:0:0:
163,23,90829,5,8,0:0:0:0:
163,23,90907,1,8,0:0:0:0:
163,23,90986,1,8,0:0:0:0:
238,75,91142,1,8,0:0:0:0:
156,114,91298,2,0,L|65:107,1,89.9999976158143,0|0,1:0|0:0,0:0:0:0:
231,166,91611,5,0,1:0:0:0:
149,205,91767,2,0,P|133:250|146:304,1,89.9999976158143,2|0,0:0|0:0,0:0:0:0:
224,257,92079,1,2,3:0:0:0:
156,114,92236,2,0,P|109:122|68:160,1,89.9999976158143,2|0,1:0|0:0,0:0:0:0:
231,166,92548,1,10,0:0:0:0:
238,75,92704,1,2,0:0:0:0:
313,127,92861,6,0,P|357:143|390:188,1,89.9999976158143,2|0,1:0|3:0,0:0:0:0:
224,257,93173,2,0,P|179:240|146:195,1,89.9999976158143,2|0,0:0|3:0,0:0:0:0:
306,218,93486,2,0,P|316:267|297:317,1,89.9999976158143,2|0,1:0|0:0,0:0:0:0:
156,114,93798,2,0,P|146:65|165:15,1,89.9999976158143,10|0,0:0|0:0,0:0:0:0:
238,75,94111,5,0,1:0:0:0:
149,205,94267,2,0,P|101:189|67:147,1,89.9999976158143,2|0,0:0|0:0,0:0:0:0:
156,114,94579,1,2,3:0:0:0:
225,257,94736,2,0,P|187:290|134:298,1,89.9999976158143,2|0,1:0|0:0,0:0:0:0:
231,166,95048,1,10,0:0:0:0:
306,218,95204,1,2,0:0:0:0:
149,205,95361,6,0,L|157:100,1,89.9999976158143,2|0,1:0|3:0,0:0:0:0:
313,128,95673,2,0,L|306:217,1,89.9999976158143,2|2,0:0|3:0,0:0:0:0:
237,75,95986,2,0,P|274:41|327:33,1,89.9999976158143,2|0,1:0|0:0,0:0:0:0:
225,257,96298,2,0,P|187:290|134:298,1,89.9999976158143,10|0,0:0|0:0,0:0:0:0:
231,166,96611,6,0,P|281:186|288:321,1,179.999995231629,2|0,1:0|0:0,0:0:0:0:
225,257,97079,1,8,0:0:0:0:
156,115,97236,2,0,P|190:84|239:75,1,89.9999976158143,0|0,1:0|0:0,0:0:0:0:
149,205,97548,2,0,P|105:191|72:153,1,89.9999976158143,8|0,0:0|0:0,0:0:0:0:
231,166,97861,5,2,1:0:0:0:
225,257,98017,1,2,0:0:0:0:
307,218,98173,1,2,3:0:0:0:
301,309,98329,1,10,0:0:0:0:
314,128,98486,2,0,L|320:38,1,89.9999976158143,2|0,1:0|3:0,0:0:0:0:
383,270,98798,2,0,L|376:359,1,89.9999976158143,2|0,1:0|3:0,0:0:0:0:
389,179,99111,5,0,1:0:0:0:
225,257,99423,1,0,1:0:0:0:
301,309,99579,1,8,0:0:0:0:
301,308,100048,2,0,L|307:218,1,89.9999976158143,8|0,0:0|0:0,0:0:0:0:
314,128,100361,1,0,1:0:0:0:
321,135,100829,5,8,0:0:0:0:
321,135,100907,1,8,0:0:0:0:
321,135,100986,1,8,0:0:0:0:
231,166,101142,1,8,0:0:0:0:
239,75,101298,2,0,P|197:52|152:57,1,89.9999976158143,0|0,1:0|0:0,0:0:0:0:
88,115,101611,5,0,1:0:0:0:
231,166,101767,2,0,P|314:129|311:26,1,179.999995231629,2|2,0:0|3:0,0:0:0:0:
239,75,102236,2,0,P|197:52|152:57,1,89.9999976158143,2|0,1:0|0:0,0:0:0:0:
88,115,102548,1,10,0:0:0:0:
143,185,102704,1,2,0:0:0:0:
75,245,102861,6,0,L|68:342,1,89.9999976158143,2|0,1:0|3:0,0:0:0:0:
159,341,103173,2,0,L|248:347,1,89.9999976158143,2|0,0:0|3:0,0:0:0:0:
282,263,103486,2,0,L|371:256,1,89.9999976158143,2|0,1:0|0:0,0:0:0:0:
461,250,103798,2,0,L|454:160,1,89.9999976158143,10|0,0:0|0:0,0:0:0:0:
365,167,104111,5,0,1:0:0:0:
371,256,104267,2,0,L|173:270,1,179.999995231629,2|2,0:0|3:0,0:0:0:0:
186,179,104736,2,0,L|275:172,1,89.9999976158143,2|0,1:0|0:0,0:0:0:0:
365,167,105048,1,10,0:0:0:0:
371,256,105204,1,2,0:0:0:0:
276,173,105361,6,0,L|269:83,1,89.9999976158143,2|0,1:0|3:0,0:0:0:0:
461,250,105673,2,0,L|467:339,1,89.9999976158143,2|2,0:0|3:0,0:0:0:0:
187,179,105986,2,0,L|180:89,1,89.9999976158143,2|0,1:0|0:0,0:0:0:0:
371,256,106298,2,0,L|377:345,1,89.9999976158143,10|0,0:0|0:0,0:0:0:0:
97,185,106611,6,0,L|83:-1,1,179.999995231629,2|0,1:0|0:0,0:0:0:0:
174,0,107079,1,8,0:0:0:0:
180,89,107236,2,0,L|187:179,1,89.9999976158143,0|0,1:0|0:0,0:0:0:0:
104,275,107548,2,0,L|97:185,1,89.9999976158143,8|0,0:0|0:0,0:0:0:0:
193,268,107861,5,2,1:0:0:0:
187,179,108017,1,2,0:0:0:0:
283,261,108173,1,2,3:0:0:0:
277,172,108329,1,10,0:0:0:0:
373,256,108485,5,2,1:0:0:0:
271,83,108798,1,2,1:0:0:0:
